<?xml version="1.0" standalone="no"?>
<!DOCTYPE svg PUBLIC "-//W3C//DTD SVG 1.1//EN" "http://www.w3.org/Graphics/SVG/1.1/DTD/svg11.dtd" >
<svg xmlns="http://www.w3.org/2000/svg">
<metadata>
<json>
{
	"fontFamily": "ZenIcon",
	"majorVersion": 2,
	"minorVersion": 1,
	"designerURL": "",
	"fontURL": "https://zui.sexy/#control-icons",
	"designer": "",
	"license": "",
	"licenseURL": "",
	"version": "Version 2.1",
	"fontId": "ZenIcon",
	"psName": "ZenIcon",
	"subFamily": "Regular",
	"fullName": "ZenIcon",
	"description": "Font generated by IcoMoon."
}
</json>
</metadata>
<defs>
<font id="ZenIcon" horiz-adv-x="512">
<font-face units-per-em="512" ascent="435.2" descent="-76.8" />
<missing-glyph horiz-adv-x="512" />
<glyph unicode="&#x20;" d="" horiz-adv-x="256" />
<glyph unicode="&#xd7;" d="M370.857 61.143q0-11.428-8-19.428l-38.857-38.857q-8-8-19.428-8t-19.428 8l-84 84-84-84q-8-8-19.428-8t-19.428 8l-38.857 38.857q-8 8-8 19.428t8 19.428l84 84-84 84q-8 8-8 19.428t8 19.428l38.857 38.857q8 8 19.428 8t19.428-8l84-84 84 84q8 8 19.428 8t19.428-8l38.857-38.857q8-8 8-19.428t-8-19.428l-84-84 84-84q8-8 8-19.428z" horiz-adv-x="403" data-tags="remove, cancel, close, delete, mutiply" />
<glyph unicode="&#xe602;" d="M438.857 374.857v-320q0-14.286-9.714-25.428t-24.572-17.286-29.572-9.143-27.572-3-27.572 3-29.572 9.143-24.572 17.286-9.714 25.428 9.714 25.428 24.572 17.286 29.572 9.143 27.572 3q30 0 54.857-11.143v153.429l-219.429-67.715v-202.571q0-14.286-9.714-25.428t-24.571-17.286-29.572-9.143-27.572-3-27.572 3-29.572 9.143-24.572 17.286-9.714 25.428 9.714 25.428 24.572 17.286 29.572 9.143 27.572 3q30 0 54.857-11.143v276.286q0 8.857 5.428 16.143t14 10.143l237.714 73.143q3.428 1.143 8 1.143 11.428 0 19.428-8t8-19.428z" horiz-adv-x="439" data-tags="music, song, sound" />
<glyph unicode="&#xe603;" d="M329.143 201.143q0 52.857-37.572 90.428t-90.428 37.572-90.428-37.572-37.572-90.428 37.572-90.428 90.428-37.572 90.428 37.572 37.572 90.428zM475.428-36.571q0-14.857-10.857-25.714t-25.714-10.857q-15.428 0-25.714 10.857l-98 97.714q-51.143-35.428-114-35.428-40.857 0-78.143 15.857t-64.285 42.857-42.857 64.286-15.857 78.143 15.857 78.143 42.857 64.286 64.285 42.857 78.143 15.857 78.143-15.857 64.286-42.857 42.857-64.286 15.857-78.143q0-62.857-35.428-114l98-98q10.572-10.572 10.572-25.714z" horiz-adv-x="476" data-tags="search, magnifier, lookup, find" />
<glyph unicode="&#xe604;" d="M475.428 9.143v219.429q-9.143-10.286-19.714-18.857-76.572-58.857-121.714-96.572-14.572-12.286-23.714-19.143t-24.714-13.857-29.286-7h-0.571q-13.714 0-29.285 7t-24.714 13.857-23.714 19.143q-45.143 37.714-121.715 96.572-10.572 8.572-19.715 18.857v-219.429q0-3.714 2.715-6.428t6.428-2.714h420.572q3.714 0 6.428 2.714t2.714 6.428zM475.428 309.429v7t-0.143 3.714-0.857 3.572-1.572 2.572-2.572 2.143-4 0.714h-420.572q-3.715 0-6.428-2.714t-2.715-6.428q0-48 42-81.143 55.143-43.428 114.571-90.572 1.714-1.428 10-8.428t13.143-10.714 12.714-9 14.429-7.857 12.286-2.572h0.571q5.714 0 12.286 2.572t14.428 7.857 12.714 9 13.143 10.714 10 8.428q59.428 47.143 114.572 90.572 15.428 12.286 28.714 33t13.286 37.572zM512 320v-310.857q0-18.857-13.428-32.286t-32.286-13.428h-420.572q-18.857 0-32.285 13.428t-13.428 32.286v310.857q0 18.857 13.428 32.286t32.285 13.428h420.572q18.857 0 32.286-13.428t13.428-32.286z" data-tags="envelope, letter, email, mail, contact" />
<glyph unicode="&#xe605;" d="M256-36.571q-7.428 0-12.572 5.143l-178.286 172q-2.857 2.286-7.857 7.428t-15.857 18.714-19.428 27.857-15.286 34.571-6.715 39.428q0 62.857 36.285 98.286t100.285 35.428q17.714 0 36.143-6.143t34.285-16.572 27.286-19.572 21.714-19.428q10.286 10.286 21.714 19.428t27.286 19.572 34.286 16.572 36.143 6.143q64 0 100.286-35.428t36.286-98.286q0-63.143-65.428-128.572l-178-171.428q-5.143-5.143-12.572-5.143z" data-tags="heart, love, like" />
<glyph unicode="&#xe606;" d="M475.428 254q0-6.286-7.428-13.714l-103.714-101.143 24.572-142.857q0.286-2 0.286-5.714 0-6-3-10.143t-8.714-4.143q-5.428 0-11.428 3.428l-128.286 67.428-128.286-67.428q-6.285-3.428-11.428-3.428-6 0-9 4.143t-3 10.143q0 1.714 0.572 5.714l24.572 142.857-104 101.143q-7.143 7.714-7.143 13.714 0 10.571 16 13.143l143.428 20.857 64.286 130q5.428 11.714 14 11.714t14-11.714l64.286-130 143.429-20.857q16-2.571 16-13.143z" horiz-adv-x="476" data-tags="star, favorite, rate" />
<glyph unicode="&#xe607;" d="M324.857 152l87.428 84.857-120.572 17.714-54 109.143-54-109.143-120.572-17.714 87.428-84.857-20.857-120.286 108 56.857 107.714-56.857zM475.428 254q0-6.286-7.428-13.714l-103.714-101.143 24.572-142.857q0.286-2 0.286-5.714 0-14.286-11.714-14.286-5.428 0-11.428 3.428l-128.286 67.428-128.286-67.428q-6.285-3.428-11.428-3.428-6 0-9 4.143t-3 10.143q0 1.714 0.572 5.714l24.572 142.857-104 101.143q-7.143 7.714-7.143 13.714 0 10.571 16 13.143l143.428 20.857 64.286 130q5.428 11.714 14 11.714t14-11.714l64.286-130 143.429-20.857q16-2.571 16-13.143z" horiz-adv-x="476" data-tags="star-empty, favorite, rate" />
<glyph unicode="&#xe608;" d="M402.286 37.429q0-34.286-20.857-54.143t-55.428-19.857h-249.714q-34.572 0-55.428 19.857t-20.857 54.143q0 15.143 1 29.572t4 31.143 7.572 31 12.285 27.857 17.715 23.143 24.428 15.286 31.857 5.714q2.572 0 12-6.143t21.285-13.715 30.857-13.714 38.143-6.143 38.143 6.143 30.857 13.714 21.286 13.714 12 6.143q17.428 0 31.857-5.714t24.428-15.286 17.714-23.143 12.286-27.857 7.572-31 4-31.143 1-29.572zM310.857 292.572q0-45.428-32.143-77.572t-77.572-32.143-77.572 32.143-32.143 77.571 32.143 77.572 77.572 32.143 77.572-32.143 32.143-77.572z" horiz-adv-x="403" data-tags="user, profile, member" />
<glyph unicode="&#xe609;" d="M109.715-18.286v36.572q0 7.428-5.428 12.857t-12.857 5.428h-36.572q-7.428 0-12.857-5.428t-5.428-12.857v-36.572q0-7.428 5.428-12.857t12.857-5.428h36.572q7.428 0 12.857 5.428t5.428 12.857zM109.715 91.429v36.572q0 7.428-5.428 12.857t-12.857 5.428h-36.572q-7.428 0-12.857-5.428t-5.428-12.857v-36.572q0-7.428 5.428-12.857t12.857-5.428h36.572q7.428 0 12.857 5.428t5.428 12.857zM109.715 201.143v36.572q0 7.428-5.428 12.857t-12.857 5.428h-36.572q-7.428 0-12.857-5.428t-5.428-12.857v-36.572q0-7.428 5.428-12.857t12.857-5.429h36.572q7.428 0 12.857 5.428t5.428 12.857zM402.286-18.286v146.286q0 7.428-5.428 12.857t-12.857 5.428h-219.429q-7.429 0-12.857-5.428t-5.428-12.857v-146.286q0-7.428 5.428-12.857t12.857-5.428h219.429q7.428 0 12.857 5.428t5.428 12.857zM109.715 310.857v36.572q0 7.428-5.428 12.857t-12.857 5.428h-36.572q-7.428 0-12.857-5.428t-5.428-12.857v-36.572q0-7.428 5.428-12.857t12.857-5.429h36.572q7.428 0 12.857 5.428t5.428 12.857zM512-18.286v36.572q0 7.428-5.428 12.857t-12.857 5.428h-36.572q-7.428 0-12.857-5.428t-5.428-12.857v-36.572q0-7.428 5.428-12.857t12.857-5.428h36.572q7.428 0 12.857 5.428t5.428 12.857zM402.286 201.143v146.286q0 7.429-5.428 12.857t-12.857 5.428h-219.429q-7.429 0-12.857-5.428t-5.428-12.857v-146.286q0-7.428 5.428-12.857t12.857-5.429h219.429q7.428 0 12.857 5.428t5.428 12.857zM512 91.429v36.572q0 7.428-5.428 12.857t-12.857 5.428h-36.572q-7.428 0-12.857-5.428t-5.428-12.857v-36.572q0-7.428 5.428-12.857t12.857-5.428h36.572q7.428 0 12.857 5.428t5.428 12.857zM512 201.143v36.572q0 7.428-5.428 12.857t-12.857 5.428h-36.572q-7.428 0-12.857-5.428t-5.428-12.857v-36.572q0-7.428 5.428-12.857t12.857-5.429h36.572q7.428 0 12.857 5.428t5.428 12.857zM512 310.857v36.572q0 7.428-5.428 12.857t-12.857 5.428h-36.572q-7.428 0-12.857-5.428t-5.428-12.857v-36.572q0-7.428 5.428-12.857t12.857-5.429h36.572q7.428 0 12.857 5.428t5.428 12.857zM548.572 356.572v-384q0-18.857-13.428-32.286t-32.286-13.428h-457.143q-18.857 0-32.285 13.428t-13.428 32.286v384q0 18.857 13.428 32.286t32.285 13.428h457.143q18.857 0 32.286-13.428t13.428-32.286z" horiz-adv-x="549" data-tags="film, movie, video" />
<glyph unicode="&#xe60a;" d="M219.429 146.286v-109.714q0-14.857-10.857-25.714t-25.714-10.857h-146.286q-14.857 0-25.715 10.857t-10.857 25.714v109.714q0 14.857 10.857 25.714t25.715 10.857h146.286q14.857 0 25.714-10.857t10.857-25.714zM219.429 365.714v-109.715q0-14.857-10.857-25.714t-25.714-10.857h-146.286q-14.857 0-25.715 10.857t-10.857 25.714v109.715q0 14.857 10.857 25.714t25.715 10.857h146.286q14.857 0 25.714-10.857t10.857-25.714zM475.428 146.286v-109.714q0-14.857-10.857-25.714t-25.714-10.857h-146.286q-14.857 0-25.714 10.857t-10.857 25.714v109.714q0 14.857 10.857 25.714t25.714 10.857h146.286q14.857 0 25.714-10.857t10.857-25.714zM475.428 365.714v-109.715q0-14.857-10.857-25.714t-25.714-10.857h-146.286q-14.857 0-25.714 10.857t-10.857 25.714v109.715q0 14.857 10.857 25.714t25.714 10.857h146.286q14.857 0 25.714-10.857t10.857-25.714z" horiz-adv-x="476" data-tags="th-large, grid, icons" />
<glyph unicode="&#xe60b;" d="M146.286 82.286v-54.857q0-11.428-8-19.428t-19.428-8h-91.428q-11.428 0-19.428 8t-8 19.428v54.857q0 11.428 8 19.428t19.428 8h91.428q11.428 0 19.428-8t8-19.428zM146.286 228.572v-54.857q0-11.428-8-19.428t-19.428-8h-91.428q-11.428 0-19.428 8t-8 19.428v54.857q0 11.428 8 19.428t19.428 8h91.428q11.428 0 19.428-8t8-19.428zM329.143 82.286v-54.857q0-11.428-8-19.428t-19.428-8h-91.428q-11.428 0-19.428 8t-8 19.428v54.857q0 11.428 8 19.428t19.428 8h91.428q11.428 0 19.428-8t8-19.428zM146.286 374.857v-54.857q0-11.429-8-19.429t-19.428-8h-91.428q-11.428 0-19.428 8t-8 19.428v54.857q0 11.428 8 19.428t19.428 8h91.428q11.428 0 19.428-8t8-19.428zM329.143 228.572v-54.857q0-11.428-8-19.428t-19.428-8h-91.428q-11.428 0-19.428 8t-8 19.428v54.857q0 11.428 8 19.428t19.428 8h91.428q11.428 0 19.428-8t8-19.428zM512 82.286v-54.857q0-11.428-8-19.428t-19.428-8h-91.428q-11.428 0-19.428 8t-8 19.428v54.857q0 11.428 8 19.428t19.428 8h91.428q11.428 0 19.428-8t8-19.428zM329.143 374.857v-54.857q0-11.429-8-19.429t-19.428-8h-91.428q-11.428 0-19.428 8t-8 19.428v54.857q0 11.428 8 19.428t19.428 8h91.428q11.428 0 19.428-8t8-19.428zM512 228.572v-54.857q0-11.428-8-19.428t-19.428-8h-91.428q-11.428 0-19.428 8t-8 19.428v54.857q0 11.428 8 19.428t19.428 8h91.428q11.428 0 19.428-8t8-19.428zM512 374.857v-54.857q0-11.429-8-19.429t-19.428-8h-91.428q-11.428 0-19.428 8t-8 19.428v54.857q0 11.428 8 19.428t19.428 8h91.428q11.428 0 19.428-8t8-19.428z" data-tags="th, grid" />
<glyph unicode="&#xe60c;" d="M146.286 82.286v-54.857q0-11.428-8-19.428t-19.428-8h-91.428q-11.428 0-19.428 8t-8 19.428v54.857q0 11.428 8 19.428t19.428 8h91.428q11.428 0 19.428-8t8-19.428zM146.286 228.572v-54.857q0-11.428-8-19.428t-19.428-8h-91.428q-11.428 0-19.428 8t-8 19.428v54.857q0 11.428 8 19.428t19.428 8h91.428q11.428 0 19.428-8t8-19.428zM512 82.286v-54.857q0-11.428-8-19.428t-19.428-8h-274.286q-11.428 0-19.428 8t-8 19.428v54.857q0 11.428 8 19.428t19.428 8h274.286q11.428 0 19.428-8t8-19.428zM146.286 374.857v-54.857q0-11.429-8-19.429t-19.428-8h-91.428q-11.428 0-19.428 8t-8 19.428v54.857q0 11.428 8 19.428t19.428 8h91.428q11.428 0 19.428-8t8-19.428zM512 228.572v-54.857q0-11.428-8-19.428t-19.428-8h-274.286q-11.428 0-19.428 8t-8 19.428v54.857q0 11.428 8 19.428t19.428 8h274.286q11.428 0 19.428-8t8-19.428zM512 374.857v-54.857q0-11.429-8-19.429t-19.428-8h-274.286q-11.428 0-19.428 8t-8 19.428v54.857q0 11.428 8 19.428t19.428 8h274.286q11.428 0 19.428-8t8-19.428z" data-tags="th-list, list, ul" />
<glyph unicode="&#xe60d;" d="M477.428 277.143q0-11.428-8-19.428l-245.714-245.714q-8-8-19.428-8t-19.428 8l-142.286 142.286q-8 8-8 19.428t8 19.428l38.857 38.857q8 8 19.428 8t19.428-8l84-84.286 187.429 187.714q8 8 19.428 8t19.428-8l38.857-38.857q8-8 8-19.429z" data-tags="ok, checkmark, tick, correct" />
<glyph unicode="&#xe60f;" d="M292.572 210.286v-18.286q0-3.714-2.714-6.428t-6.428-2.714h-64v-64q0-3.714-2.714-6.428t-6.428-2.714h-18.286q-3.714 0-6.428 2.714t-2.714 6.428v64h-64q-3.715 0-6.428 2.714t-2.715 6.428v18.286q0 3.714 2.715 6.428t6.428 2.714h64v64q0 3.714 2.714 6.428t6.428 2.714h18.286q3.714 0 6.428-2.714t2.714-6.428v-64h64q3.714 0 6.428-2.714t2.714-6.428zM329.143 201.143q0 52.857-37.572 90.428t-90.428 37.572-90.428-37.572-37.572-90.428 37.572-90.428 90.428-37.572 90.428 37.572 37.572 90.428zM475.428-36.571q0-15.143-10.714-25.857t-25.857-10.714q-15.428 0-25.714 10.857l-98 97.714q-51.143-35.428-114-35.428-40.857 0-78.143 15.857t-64.285 42.857-42.857 64.286-15.857 78.143 15.857 78.143 42.857 64.286 64.285 42.857 78.143 15.857 78.143-15.857 64.286-42.857 42.857-64.286 15.857-78.143q0-62.857-35.428-114l98-98q10.572-10.572 10.572-25.714z" horiz-adv-x="476" data-tags="zoom-in, magnifier, enlarge" />
<glyph unicode="&#xe610;" d="M292.572 210.286v-18.286q0-3.714-2.714-6.428t-6.428-2.714h-164.571q-3.715 0-6.428 2.714t-2.715 6.428v18.286q0 3.714 2.715 6.428t6.428 2.714h164.571q3.714 0 6.428-2.714t2.714-6.428zM329.143 201.143q0 52.857-37.572 90.428t-90.428 37.572-90.428-37.572-37.572-90.428 37.572-90.428 90.428-37.572 90.428 37.572 37.572 90.428zM475.428-36.571q0-15.143-10.714-25.857t-25.857-10.714q-15.428 0-25.714 10.857l-98 97.714q-51.143-35.428-114-35.428-40.857 0-78.143 15.857t-64.285 42.857-42.857 64.286-15.857 78.143 15.857 78.143 42.857 64.286 64.285 42.857 78.143 15.857 78.143-15.857 64.286-42.857 42.857-64.286 15.857-78.143q0-62.857-35.428-114l98-98q10.572-10.572 10.572-25.714z" horiz-adv-x="476" data-tags="zoom-out, magnifier" />
<glyph unicode="&#xe611;" d="M438.857 182.857q0-44.572-17.428-85.143t-46.857-70-70-46.857-85.143-17.428-85.143 17.428-70 46.857-46.857 70-17.428 85.143q0 52 23 98t64.715 77.143q12.285 9.143 27.285 7.143t23.857-14.285q9.143-12 7-27t-14.143-24.143q-28-21.143-43.285-51.714t-15.285-65.143q0-29.715 11.572-56.715t31.285-46.714 46.715-31.286 56.714-11.572 56.714 11.572 46.714 31.286 31.286 46.714 11.572 56.714q0 34.572-15.286 65.143t-43.286 51.714q-12 9.143-14.143 24.143t7 27q8.857 12.285 24 14.285t27.143-7.143q41.714-31.143 64.714-77.143t23-98zM256 402.286v-182.857q0-14.857-10.857-25.714t-25.715-10.857-25.714 10.857-10.857 25.714v182.857q0 14.857 10.857 25.714t25.714 10.857 25.714-10.857 10.857-25.714z" horiz-adv-x="439" data-tags="off, switch, power" />
<glyph unicode="&#xe613;" d="M292.572 182.857q0 30.286-21.428 51.714t-51.714 21.428-51.714-21.428-21.428-51.714 21.428-51.714 51.714-21.428 51.714 21.428 21.428 51.714zM438.857 214v-63.429q0-3.428-2.286-6.572t-5.714-3.714l-52.857-8q-5.428-15.428-11.143-26 10-14.286 30.572-39.428 2.857-3.428 2.857-7.143t-2.572-6.572q-7.714-10.572-28.286-30.857t-26.857-20.286q-3.428 0-7.428 2.572l-39.428 30.857q-12.572-6.572-26-10.857-4.572-38.857-8.286-53.143-2-8-10.286-8h-63.428q-4 0-7 2.428t-3.286 6.143l-8 52.572q-14 4.572-25.714 10.572l-40.285-30.572q-2.857-2.572-7.143-2.572-4 0-7.143 3.143-36 32.572-47.143 48-2 2.857-2 6.572 0 3.428 2.285 6.572 4.285 6 14.572 19t15.428 20.143q-7.715 14.286-11.715 28.286l-52.285 7.714q-3.715 0.572-6 3.572t-2.285 6.714v63.428q0 3.429 2.285 6.572t5.428 3.714l53.143 8q4 13.143 11.143 26.286-11.428 16.286-30.572 39.428-2.857 3.429-2.857 6.857 0 2.857 2.572 6.571 7.428 10.286 28.143 30.715t27 20.428q3.715 0 7.428-2.857l39.428-30.572q12.572 6.572 26 10.857 4.572 38.857 8.286 53.143 2 8 10.286 8h63.428q4 0 7-2.428t3.286-6.143l8-52.572q14-4.572 25.714-10.572l40.572 30.572q2.572 2.572 6.857 2.572 3.714 0 7.143-2.857 36.857-34 47.143-48.572 2-2.286 2-6.286 0-3.429-2.286-6.572-4.286-6-14.572-19t-15.428-20.143q7.428-14.286 11.714-28l52.286-8q3.714-0.572 6-3.572t2.286-6.714z" horiz-adv-x="439" data-tags="cog, settings, options, gear, preferences" />
<glyph unicode="&#xe614;" d="M146.286 228.572v-164.571q0-4-2.571-6.572t-6.571-2.572h-18.285q-4 0-6.572 2.572t-2.572 6.572v164.572q0 4 2.572 6.571t6.572 2.572h18.285q4 0 6.572-2.572t2.571-6.572zM219.429 228.572v-164.571q0-4-2.571-6.572t-6.572-2.572h-18.286q-4 0-6.572 2.572t-2.571 6.572v164.572q0 4 2.571 6.571t6.572 2.572h18.286q4 0 6.572-2.572t2.571-6.572zM292.572 228.572v-164.571q0-4-2.572-6.572t-6.572-2.572h-18.286q-4 0-6.572 2.572t-2.571 6.572v164.572q0 4 2.571 6.571t6.572 2.572h18.286q4 0 6.572-2.572t2.572-6.572zM329.143 21.714v270.857h-256v-270.857q0-6.286 2-11.572t4.143-7.714 3-2.428h237.715q0.857 0 3 2.428t4.143 7.714 2 11.572zM137.143 329.143h128l-13.714 33.428q-2 2.572-4.857 3.143h-90.571q-2.857-0.572-4.857-3.143zM402.286 320v-18.286q0-4-2.572-6.572t-6.572-2.571h-27.428v-270.857q0-23.714-13.428-41t-32.286-17.286h-237.714q-18.857 0-32.285 16.714t-13.428 40.428v272h-27.428q-4 0-6.572 2.572t-2.571 6.571v18.286q0 4 2.571 6.572t6.572 2.571h88.285l20 47.715q4.285 10.572 15.429 18t22.572 7.428h91.428q11.428 0 22.572-7.428t15.428-18l20-47.715h88.286q4 0 6.572-2.571t2.572-6.572z" horiz-adv-x="403" data-tags="trash, remove, delete, bin" />
<glyph unicode="&#xe615;" d="M402.286 155.429v-137.143q0-7.428-5.428-12.857t-12.857-5.428h-109.714v109.714h-73.143v-109.714h-109.715q-7.428 0-12.857 5.428t-5.428 12.857v137.143q0 0.286 0.143 0.857t0.143 0.857l164.286 135.429 164.285-135.429q0.286-0.572 0.286-1.714zM466 175.143l-17.714-21.143q-2.286-2.572-6-3.143h-0.857q-3.714 0-6 2l-197.714 164.857-197.714-164.857q-3.428-2.286-6.857-2-3.715 0.572-6 3.143l-17.715 21.143q-2.285 2.857-2 6.714t3.143 6.143l205.428 171.143q9.143 7.429 21.714 7.429t21.714-7.429l69.714-58.286v55.715q0 4 2.572 6.571t6.572 2.572h54.857q4 0 6.572-2.572t2.572-6.571v-116.572l62.572-52q2.857-2.286 3.143-6.143t-2-6.714z" horiz-adv-x="476" data-tags="home, house, building" />
<glyph unicode="&#xe616;" d="M36.572 0h292.572v219.429h-118.857q-11.429 0-19.429 8t-8 19.428v118.857h-146.286v-365.714zM219.429 256h107.429q-2.857 8.286-6.286 11.714l-89.428 89.428q-3.429 3.428-11.714 6.286v-107.429zM365.714 246.857v-256q0-11.428-8-19.428t-19.428-8h-310.857q-11.428 0-19.428 8t-8 19.428v384q0 11.429 8 19.429t19.428 8h182.857q11.429 0 25.143-5.715t21.714-13.714l89.143-89.143q8-8 13.714-21.714t5.714-25.143z" horiz-adv-x="366" data-tags="file, paper, new, empty" />
<glyph unicode="&#xe617;" d="M256 283.429v-128q0-4-2.571-6.572t-6.571-2.572h-91.428q-4 0-6.572 2.572t-2.571 6.572v18.286q0 4 2.571 6.572t6.572 2.572h64v100.571q0 4 2.571 6.572t6.571 2.572h18.286q4 0 6.572-2.572t2.572-6.572zM374.857 182.857q0 42.286-20.857 78t-56.572 56.572-78 20.857-78-20.857-56.572-56.572-20.857-78 20.857-78 56.572-56.572 78-20.857 78 20.857 56.572 56.572 20.857 78zM438.857 182.857q0-59.714-29.428-110.143t-79.857-79.857-110.143-29.428-110.143 29.428-79.857 79.857-29.428 110.143 29.428 110.143 79.857 79.857 110.143 29.429 110.143-29.429 79.857-79.857 29.428-110.143z" horiz-adv-x="439" data-tags="time, clock" />
<glyph unicode="&#xe618;" d="M365.714 54.857q0 7.428-5.428 12.857t-12.857 5.428-12.857-5.428-5.428-12.857 5.428-12.857 12.857-5.428 12.857 5.428 5.428 12.857zM438.857 54.857q0 7.428-5.428 12.857t-12.857 5.428-12.857-5.428-5.428-12.857 5.428-12.857 12.857-5.428 12.857 5.428 5.428 12.857zM475.428 118.857v-91.428q0-11.428-8-19.428t-19.428-8h-420.572q-11.428 0-19.428 8t-8 19.428v91.428q0 11.428 8 19.428t19.428 8h132.857l38.571-38.857q16.572-16 38.857-16t38.857 16l38.857 38.857h132.572q11.428 0 19.428-8t8-19.428zM382.572 281.429q4.857-11.714-4-20l-128-128q-5.143-5.428-12.857-5.428t-12.857 5.428l-128 128q-8.857 8.286-4 20 4.857 11.143 16.857 11.143h73.143v128q0 7.428 5.428 12.857t12.857 5.429h73.143q7.428 0 12.857-5.429t5.428-12.857v-128h73.143q12 0 16.857-11.143z" horiz-adv-x="476" data-tags="download-alt, arrow, store, save" />
<glyph unicode="&#xe619;" d="M320 173.714q0-3.428-2.857-6.857l-91.143-91.143q-3.143-2.572-6.571-2.572t-6.572 2.572l-91.428 91.428q-4.285 4.572-2 10 2.285 5.714 8.572 5.714h54.857v100.572q0 4 2.571 6.572t6.571 2.572h54.857q4 0 6.571-2.572t2.571-6.572v-100.572h54.857q4 0 6.572-2.572t2.572-6.572zM219.429 338.286q-42.285 0-78-20.857t-56.572-56.572-20.857-78 20.857-78 56.572-56.572 78-20.857 78 20.857 56.572 56.572 20.857 78-20.857 78-56.572 56.572-78 20.857zM438.857 182.857q0-59.714-29.428-110.143t-79.857-79.857-110.143-29.428-110.143 29.428-79.857 79.857-29.428 110.143 29.428 110.143 79.857 79.857 110.143 29.429 110.143-29.429 79.857-79.857 29.428-110.143z" horiz-adv-x="439" data-tags="download, arrow, store, save" />
<glyph unicode="&#xe61a;" d="M319.428 188.572q-2.286-5.714-8.572-5.714h-54.857v-100.572q0-4-2.571-6.572t-6.572-2.572h-54.857q-4 0-6.571 2.572t-2.571 6.572v100.572h-54.857q-4 0-6.572 2.572t-2.572 6.571q0 3.429 2.857 6.857l91.143 91.143q3.143 2.572 6.571 2.572t6.572-2.572l91.428-91.428q4.286-4.572 2-10zM219.429 338.286q-42.285 0-78-20.857t-56.572-56.572-20.857-78 20.857-78 56.572-56.572 78-20.857 78 20.857 56.572 56.572 20.857 78-20.857 78-56.572 56.572-78 20.857zM438.857 182.857q0-59.714-29.428-110.143t-79.857-79.857-110.143-29.428-110.143 29.428-79.857 79.857-29.428 110.143 29.428 110.143 79.857 79.857 110.143 29.429 110.143-29.429 79.857-79.857 29.428-110.143z" horiz-adv-x="439" data-tags="upload, load, open" />
<glyph unicode="&#xe61b;" d="M292.286 164.572h90.286q-0.286 0.857-0.714 2.286t-0.714 2.286l-60.572 141.714h-202.286l-60.572-141.714q-0.285-0.572-0.715-2.286t-0.715-2.286h90.285l27.143-54.857h91.428zM438.857 156v-137.714q0-7.428-5.428-12.857t-12.857-5.428h-402.286q-7.428 0-12.857 5.428t-5.428 12.857v137.714q0 17.714 7.143 35.143l68 157.714q2.857 7.143 10.428 12t15 4.857h237.714q7.428 0 15-4.857t10.428-12l68-157.714q7.143-17.429 7.143-35.143z" horiz-adv-x="439" data-tags="inbox, drawer, storage, archive" />
<glyph unicode="&#xe61c;" d="M338.286 182.857q0-10.572-9.143-15.714l-155.429-91.428q-4.286-2.572-9.143-2.572-4.572 0-9.143 2.286-9.143 5.428-9.143 16v182.857q0 10.571 9.143 16 9.429 5.143 18.285-0.286l155.429-91.429q9.143-5.143 9.143-15.714zM374.857 182.857q0 42.286-20.857 78t-56.572 56.572-78 20.857-78-20.857-56.572-56.572-20.857-78 20.857-78 56.572-56.572 78-20.857 78 20.857 56.572 56.572 20.857 78zM438.857 182.857q0-59.714-29.428-110.143t-79.857-79.857-110.143-29.428-110.143 29.428-79.857 79.857-29.428 110.143 29.428 110.143 79.857 79.857 110.143 29.429 110.143-29.429 79.857-79.857 29.428-110.143z" horiz-adv-x="439" data-tags="play-circle, media, control" />
<glyph unicode="&#xe61d;" d="M438.857 365.714v-128q0-7.429-5.428-12.857t-12.857-5.428h-128q-12 0-16.857 11.428-4.857 11.143 4 19.714l39.428 39.428q-42.286 39.143-99.714 39.143-29.714 0-56.714-11.572t-46.715-31.286-31.285-46.714-11.572-56.714 11.572-56.714 31.285-46.714 46.715-31.286 56.714-11.572q34 0 64.286 14.857t51.143 42q2 2.857 6.572 3.428 4 0 7.143-2.572l39.143-39.428q2.572-2.286 2.714-5.857t-2.143-6.428q-31.143-37.714-75.428-58.428t-93.428-20.714q-44.572 0-85.143 17.428t-70 46.857-46.857 70-17.428 85.143 17.428 85.143 46.857 70 70 46.857 85.143 17.429q42 0 81.286-15.857t69.857-44.714l37.143 36.857q8.286 8.857 20 4 11.143-4.857 11.143-16.857z" horiz-adv-x="439" data-tags="repeat, loop, reload, refresh, synchronize" />
<glyph unicode="&#xe61e;" d="M431.714 137.143q0-1.428-0.286-2-18.286-76.572-76.572-124.143t-136.571-47.572q-41.715 0-80.715 15.714t-69.572 44.857l-36.857-36.857q-5.428-5.428-12.857-5.428t-12.857 5.428-5.428 12.857v128q0 7.428 5.428 12.857t12.857 5.428h128q7.428 0 12.857-5.428t5.429-12.857-5.428-12.857l-39.143-39.143q20.285-18.857 46-29.143t53.429-10.286q38.286 0 71.428 18.572t53.143 51.143q3.143 4.857 15.143 33.428 2.286 6.572 8.572 6.572h54.857q3.714 0 6.428-2.714t2.714-6.428zM438.857 365.714v-128q0-7.429-5.428-12.857t-12.857-5.428h-128q-7.428 0-12.857 5.428t-5.428 12.857 5.428 12.857l39.428 39.428q-42.286 39.143-99.714 39.143-38.286 0-71.428-18.572t-53.143-51.143q-3.143-4.857-15.143-33.429-2.285-6.572-8.572-6.572h-56.857q-3.715 0-6.428 2.714t-2.715 6.428v2q18.572 76.572 77.143 124.143t137.143 47.571q41.714 0 81.143-15.857t70-44.714l37.143 36.857q5.428 5.429 12.857 5.429t12.857-5.429 5.428-12.857z" horiz-adv-x="439" data-tags="refresh, synchronize" />
<glyph unicode="&#xe61f;" d="M109.715 100.572v-18.286q0-3.714-2.715-6.428t-6.428-2.714h-18.285q-3.715 0-6.428 2.714t-2.715 6.428v18.286q0 3.714 2.715 6.428t6.428 2.714h18.285q3.715 0 6.428-2.714t2.715-6.428zM109.715 173.714v-18.286q0-3.714-2.715-6.428t-6.428-2.714h-18.285q-3.715 0-6.428 2.714t-2.715 6.428v18.286q0 3.714 2.715 6.428t6.428 2.714h18.285q3.715 0 6.428-2.714t2.715-6.428zM109.715 246.857v-18.286q0-3.714-2.715-6.428t-6.428-2.714h-18.285q-3.715 0-6.428 2.714t-2.715 6.428v18.286q0 3.714 2.715 6.428t6.428 2.714h18.285q3.715 0 6.428-2.714t2.715-6.428zM438.857 100.572v-18.286q0-3.714-2.714-6.428t-6.428-2.714h-274.286q-3.714 0-6.428 2.714t-2.714 6.428v18.286q0 3.714 2.714 6.428t6.428 2.714h274.286q3.714 0 6.428-2.714t2.714-6.428zM438.857 173.714v-18.286q0-3.714-2.714-6.428t-6.428-2.714h-274.286q-3.714 0-6.428 2.714t-2.714 6.428v18.286q0 3.714 2.714 6.428t6.428 2.714h274.286q3.714 0 6.428-2.714t2.714-6.428zM438.857 246.857v-18.286q0-3.714-2.714-6.428t-6.428-2.714h-274.286q-3.714 0-6.428 2.714t-2.714 6.428v18.286q0 3.714 2.714 6.428t6.428 2.714h274.286q3.714 0 6.428-2.714t2.714-6.428zM475.428 45.714v237.714q0 3.714-2.714 6.428t-6.428 2.714h-420.572q-3.715 0-6.428-2.714t-2.715-6.428v-237.714q0-3.714 2.715-6.428t6.428-2.714h420.572q3.714 0 6.428 2.714t2.714 6.428zM512 356.572v-310.857q0-18.857-13.428-32.286t-32.286-13.428h-420.572q-18.857 0-32.285 13.428t-13.428 32.286v310.857q0 18.857 13.428 32.286t32.285 13.428h420.572q18.857 0 32.286-13.428t13.428-32.286z" data-tags="list-alt" />
<glyph unicode="&#xe620;" d="M91.428 219.429h146.286v54.857q0 30.286-21.428 51.714t-51.714 21.429-51.715-21.429-21.428-51.714v-54.857zM329.143 192v-164.572q0-11.428-8-19.428t-19.428-8h-274.286q-11.428 0-19.428 8t-8 19.428v164.572q0 11.428 8 19.428t19.428 8h9.143v54.857q0 52.572 37.715 90.285t90.285 37.715 90.285-37.715 37.714-90.285v-54.857h9.143q11.428 0 19.428-8t8-19.428z" horiz-adv-x="329" data-tags="lock, password, secure, private, protected, encrypted" />
<glyph unicode="&#xe621;" d="M91.428 365.714q0-20.572-18.285-31.428v-361.715q0-3.714-2.715-6.428t-6.428-2.714h-18.285q-3.715 0-6.428 2.714t-2.715 6.428v361.714q-18.285 10.857-18.285 31.429 0 15.143 10.715 25.857t25.857 10.714 25.857-10.714 10.715-25.857zM512 347.429v-218q0-7.143-3.572-11t-11.286-7.857q-61.428-33.143-105.428-33.143-17.428 0-35.286 6.286t-31 13.714-33 13.714-40.714 6.286q-54.857 0-132.571-41.714-4.857-2.572-9.428-2.572-7.428 0-12.857 5.428t-5.428 12.857v212q0 9.143 8.857 15.714 6 4 22.572 12.286 67.428 34.286 120.285 34.286 30.571 0 57.143-8.286t62.572-25.143q10.857-5.428 25.143-5.428 15.428 0 33.572 6t31.428 13.428 25.143 13.428 15.572 6q7.428 0 12.857-5.428t5.428-12.857z" data-tags="flag, report" />
<glyph unicode="&#xe622;" d="M475.428 185.714q0-47.429-17.143-89.715l-5.714-14-52.857-9.428q-6.286-23.714-25.857-39t-44.714-15.286v-9.143q0-4-2.572-6.572t-6.572-2.572h-18.286q-4 0-6.572 2.572t-2.572 6.572v164.572q0 4 2.572 6.572t6.572 2.572h18.286q4 0 6.572-2.572t2.572-6.572v-9.143q20.286 0 37.143-10.143t26.572-27.286l19.428 3.428q8.286 27.143 8.286 55.143 0 42.285-25.143 79.714t-67.572 59.714-90.143 22.286-90.143-22.286-67.572-59.714-25.143-79.714q0-28 8.285-55.143l19.428-3.428q9.715 17.143 26.572 27.286t37.143 10.143v9.143q0 4 2.571 6.572t6.571 2.572h18.286q4 0 6.572-2.572t2.571-6.572v-164.572q0-4-2.571-6.572t-6.572-2.572h-18.286q-4 0-6.572 2.572t-2.571 6.572v9.143q-25.143 0-44.715 15.286t-25.857 39l-52.857 9.428-5.715 14q-17.143 42.286-17.143 89.714 0 43.143 19.143 83.143t51.143 69.286 76 46.714 91.429 17.428 91.428-17.428 76-46.714 51.143-69.286 19.143-83.143z" horiz-adv-x="476" data-tags="headphones, listen, music" />
<glyph unicode="&#xe623;" d="M219.429 338.286v-310.857q0-7.428-5.429-12.857t-12.857-5.428-12.857 5.428l-95.143 95.143h-74.857q-7.428 0-12.857 5.428t-5.428 12.857v109.714q0 7.428 5.428 12.857t12.857 5.428h74.857l95.143 95.143q5.428 5.428 12.857 5.428t12.857-5.428 5.428-12.857z" horiz-adv-x="220" data-tags="volume-off, speaker, mute" />
<glyph unicode="&#xe625;" d="M219.429 338.286v-310.857q0-7.428-5.429-12.857t-12.857-5.428-12.857 5.428l-95.143 95.143h-74.857q-7.428 0-12.857 5.428t-5.428 12.857v109.714q0 7.428 5.428 12.857t12.857 5.428h74.857l95.143 95.143q5.428 5.428 12.857 5.428t12.857-5.428 5.428-12.857zM329.143 182.857q0-21.714-12.143-40.428t-32.143-26.714q-2.857-1.428-7.143-1.428-7.428 0-12.857 5.286t-5.428 13q0 6 3.428 10.143t8.286 7.143 9.714 6.572 8.286 10.143 3.428 16.286-3.428 16.286-8.286 10.143-9.714 6.571-8.286 7.143-3.428 10.143q0 7.714 5.428 13t12.857 5.286q4.286 0 7.143-1.428 20-7.714 32.143-26.572t12.143-40.572zM402.286 182.857q0-43.714-24.286-80.714t-64.286-53.857q-3.714-1.428-7.143-1.428-7.714 0-13.143 5.428t-5.428 12.857q0 11.143 11.143 16.857 16 8.286 21.714 12.572 21.143 15.428 33 38.714t11.857 49.572-11.857 49.572-33 38.714q-5.714 4.286-21.714 12.572-11.143 5.714-11.143 16.857 0 7.428 5.428 12.857t12.857 5.428q3.714 0 7.428-1.428 40-16.857 64.286-53.857t24.286-80.715zM475.428 182.857q0-65.714-36.286-120.714t-96.572-81q-3.714-1.428-7.428-1.428-7.428 0-12.857 5.428t-5.428 12.857q0 10.286 11.143 16.857 2 1.143 6.428 3t6.428 3q13.143 7.143 23.428 14.572 35.143 26 54.857 64.857t19.714 82.572-19.714 82.572-54.857 64.857q-10.286 7.428-23.428 14.572-2 1.143-6.428 3t-6.428 3q-11.143 6.571-11.143 16.857 0 7.428 5.428 12.857t12.857 5.429q3.714 0 7.428-1.429 60.286-26 96.572-81t36.286-120.714z" horiz-adv-x="476" data-tags="volume-up, speaker" />
<glyph unicode="&#xe626;" d="M109.715 109.714v-36.572h-36.572v36.572h36.572zM109.715 329.143v-36.572h-36.572v36.572h36.572zM329.143 329.143v-36.572h-36.572v36.572h36.572zM36.572 36.857h109.715v109.428h-109.715v-109.428zM36.572 256h109.715v109.714h-109.715v-109.714zM256 256h109.714v109.714h-109.714v-109.714zM182.857 182.857v-182.857h-182.857v182.857h182.857zM329.143 36.572v-36.572h-36.572v36.572h36.572zM402.286 36.572v-36.572h-36.572v36.572h36.572zM402.286 182.857v-109.714h-109.714v36.572h-36.572v-109.714h-36.572v182.857h109.714v-36.572h36.572v36.572h36.572zM182.857 402.286v-182.857h-182.857v182.857h182.857zM402.286 402.286v-182.857h-182.857v182.857h182.857z" horiz-adv-x="403" data-tags="qrcode" />
<glyph unicode="&#xe627;" d="M18 0h-18v402.286h18v-402.286zM36 0.286h-9.143v402h9.143v-402zM62.857 0.286h-8.857v402h8.857v-402zM107.715 0.286h-8.857v402h8.857v-402zM152.571 0.286h-17.715v402h17.714v-402zM188.571 0.286h-8.857v402h8.857v-402zM206.571 0.286h-8.857v402h8.857v-402zM224.571 0.286h-8.857v402h8.857v-402zM269.428 0.286h-18v402h18v-402zM314.286 0.286h-18v402h18v-402zM350.286 0.286h-18v402h18v-402zM386.286 0.286h-18v402h18v-402zM413.143 0.286h-18v402h18v-402zM467.143 0.286h-26.857v402h26.857v-402zM485.143 0.286h-9.143v402h9.143v-402zM512 0h-18v402.286h18v-402.286z" data-tags="barcode" />
<glyph unicode="&#xe628;" d="M128 310.857q0 15.143-10.715 25.857t-25.857 10.714-25.857-10.714-10.715-25.857 10.715-25.857 25.857-10.714 25.857 10.714 10.715 25.857zM432.857 146.286q0-15.143-10.572-25.714l-140.286-140.571q-11.143-10.572-26-10.572-15.143 0-25.714 10.572l-204.286 204.572q-10.857 10.571-18.428 28.857t-7.572 33.428v118.857q0 14.857 10.857 25.714t25.715 10.857h118.857q15.143 0 33.428-7.572t29.143-18.428l204.285-204q10.572-11.143 10.572-26z" horiz-adv-x="439" data-tags="tag, price, ecommerce" />
<glyph unicode="&#xe629;" d="M128 310.857q0 15.143-10.715 25.857t-25.857 10.714-25.857-10.714-10.715-25.857 10.715-25.857 25.857-10.714 25.857 10.714 10.715 25.857zM432.857 146.286q0-15.143-10.572-25.714l-140.286-140.571q-11.143-10.572-26-10.572-15.143 0-25.714 10.572l-204.286 204.572q-10.857 10.571-18.428 28.857t-7.572 33.428v118.857q0 14.857 10.857 25.714t25.715 10.857h118.857q15.143 0 33.428-7.572t29.143-18.428l204.285-204q10.572-11.143 10.572-26zM542.572 146.286q0-15.143-10.572-25.714l-140.286-140.571q-11.143-10.572-26-10.572-10.286 0-16.857 4t-15.143 12.857l134.286 134.286q10.572 10.572 10.572 25.714 0 14.857-10.572 26l-204.286 204q-10.857 10.857-29.143 18.429t-33.429 7.571h64q15.143 0 33.428-7.571t29.143-18.429l204.286-204q10.572-11.143 10.572-26z" horiz-adv-x="549" data-tags="tags, price, ecommerce" />
<glyph unicode="&#xe62a;" d="M468.286 302.286q11.428-16.286 5.143-36.857l-78.572-258.857q-5.428-18.286-21.857-30.714t-35-12.428h-263.714q-22 0-42.428 15.286t-28.428 37.572q-6.857 19.143-0.571 36.286 0 1.143 0.857 7.714t1.143 10.572q0.285 2.286-0.857 6.143t-0.857 5.572q0.571 3.143 2.285 6t4.715 6.714 4.714 6.714q6.572 10.857 12.857 26.143t8.572 26.143q0.857 2.857 0.143 8.572t-0.143 8q0.857 3.143 4.857 8t4.857 6.572q6 10.286 12 26.286t7.143 25.714q0.285 2.572-0.715 9.143t0.143 8q1.143 3.714 6.285 8.714t6.285 6.428q5.428 7.428 12.143 24.143t7.857 27.572q0.285 2.285-0.857 7.285t-0.572 7.572q0.572 2.286 2.572 5.143t5.143 6.571 4.857 6q2.285 3.429 4.715 8.714t4.285 10 4.572 10.286 5.572 9.143 7.571 6.714 10.286 3.286 13.572-1.572l-0.286-0.857q10.857 2.572 14.572 2.572h217.428q21.143 0 32.572-16t5.143-37.143l-78.286-258.857q-10.286-34-20.428-43.857t-36.714-9.857h-248.286q-7.715 0-10.857-4.286-3.143-4.572-0.285-12.286 6.857-20 41.143-20h263.714q8.286 0 16 4.428t10 11.857l85.714 282q2 6.286 1.428 16.286 10.857-4.286 16.857-12.286zM164.286 301.714q-1.143-3.714 0.571-6.429t5.714-2.714h173.714q3.714 0 7.286 2.714t4.714 6.428l6 18.286q1.143 3.714-0.572 6.428t-5.714 2.715h-173.714q-3.714 0-7.286-2.715t-4.714-6.428zM140.571 228.572q-1.143-3.714 0.571-6.428t5.714-2.714h173.714q3.714 0 7.286 2.714t4.714 6.428l6 18.286q1.143 3.714-0.572 6.428t-5.714 2.714h-173.714q-3.714 0-7.286-2.714t-4.714-6.428z" horiz-adv-x="476" data-tags="book, read, study, learn, education" />
<glyph unicode="&#xe62b;" d="M332.572 402.286q6.572 0 12.572-2.572 9.428-3.715 15-11.715t5.572-17.714v-368.286q0-9.714-5.572-17.714t-15-11.714q-5.428-2.286-12.572-2.286-13.714 0-23.714 9.143l-126 121.143-126-121.143q-10.285-9.428-23.715-9.428-6.572 0-12.572 2.572-9.428 3.714-15 11.714t-5.572 17.714v368.286q0 9.715 5.572 17.715t15 11.714q6 2.571 12.572 2.571h299.428z" horiz-adv-x="366" data-tags="bookmark, favorite, ribbon" />
<glyph unicode="&#xe62c;" d="M109.715 0h256v73.143h-256v-73.143zM109.715 182.857h256v109.714h-45.714q-11.428 0-19.428 8t-8 19.428v45.715h-182.857v-182.857zM438.857 164.572q0 7.428-5.428 12.857t-12.857 5.428-12.857-5.428-5.428-12.857 5.428-12.857 12.857-5.428 12.857 5.428 5.428 12.857zM475.428 164.572v-118.857q0-3.714-2.714-6.428t-6.428-2.714h-64v-45.714q0-11.428-8-19.428t-19.428-8h-274.286q-11.428 0-19.428 8t-8 19.428v45.714h-64q-3.715 0-6.428 2.714t-2.715 6.428v118.857q0 22.572 16.143 38.714t38.715 16.143h18.285v155.428q0 11.428 8 19.428t19.428 8h192q11.428 0 25.143-5.714t21.714-13.714l43.428-43.428q8-8 13.714-21.715t5.714-25.143v-73.143h18.286q22.572 0 38.714-16.143t16.143-38.714z" horiz-adv-x="476" data-tags="print" />
<glyph unicode="&#xe62d;" d="M274.286 246.857q34 0 58.143-24.143t24.143-58.143-24.143-58.143-58.143-24.143-58.143 24.143-24.143 58.143 24.143 58.143 58.143 24.143zM475.428 365.714q30.286 0 51.715-21.428t21.428-51.715v-256q0-30.286-21.428-51.714t-51.714-21.428h-402.286q-30.285 0-51.715 21.428t-21.428 51.714v256q0 30.286 21.428 51.715t51.715 21.428h64l14.572 38.857q5.428 14 19.857 24.143t29.571 10.143h146.286q15.143 0 29.572-10.143t19.857-24.143l14.572-38.857h64zM274.286 36.572q52.857 0 90.428 37.572t37.572 90.428-37.572 90.428-90.428 37.572-90.428-37.572-37.572-90.428 37.572-90.428 90.428-37.572z" horiz-adv-x="549" data-tags="camera, photo, picture, image" />
<glyph unicode="&#xe62e;" d="M207.143 279.143l-48.571-128.571q20.857-0.286 43.857-0.572t34-0.428 15-0.143l8.285 0.572q-9.143 27.143-26.286 68.857-15.143 37.714-26.286 60.285zM6-36.571h-6l0.572 22.572q6.285 2 22.857 5.143 25.428 4.572 31.428 8.857 5.715 4.572 13.715 19.428l67.715 176 80 206.857h36.572l3.143-6 58.572-137.143q29.428-69.143 35.428-84.857 11.143-29.143 27.428-67.143 7.428-16.572 18.572-46.857 6.857-19.143 18.572-42.572 6.286-14 10-16.286 6.286-5.428 19.714-6.572 13.428-1.714 29.428-7.714 1.714-11.143 1.714-16.286 0-4-0.286-7.428-22.857 0-54.857 2.286-26.572 2.286-54 2.286-22.572 0-38.572-0.572l-57.143-3.143-16.572-0.572q0 12.857 1.143 22.286l37.429 8q16 3.714 19.428 6.572 3.428 3.428 3.428 7.714t-1.714 9.143l-13.428 32.572-26.286 65.143-128.571 0.572q-8.286-18.572-29.715-78.286-6.572-18.286-6.572-24 0-8.857 4.857-12.286 7.428-6 29.428-9.143 0.857 0 3.857-0.572t8.571-1.428 11.572-1.714q0.286-8 0.286-16.572 0-4.857-0.571-7.714-18.857 0-99.715 5.714l-13.715-2.286q-23.143-4-47.715-4z" horiz-adv-x="476" data-tags="font, letter, glyph, editor" />
<glyph unicode="&#xe62f;" d="M158.571 4.286q21.715-9.143 40-9.143 37.429 0 61.715 11.714t34.857 32.286q10.857 20 10.857 51.714 0 32.572-11.714 51.428-16.572 26.857-40.286 36-22.857 9.143-70.572 9.143-21.143 0-28.857-2.857v-41.143l-0.286-49.428 0.857-77.143q0-4.286 3.429-12.572zM154.571 217.429q12.286-2 31.143-2 50 0 75.428 18.571t25.428 64q0 32-24.286 53.428-24 21.429-72.857 21.429-14.857 0-37.143-3.714 0-12.572 0.571-22 2-34.857 1.714-79.715l-0.286-28q0-12.286 0.286-22zM0-36.571l0.572 26.857q12.857 2.572 19.428 3.428 22 3.428 35.143 8.857 4.857 7.714 6 14.572 2.572 18.857 2.572 55.428l-0.572 142q-1.428 73.143-2.572 115.429-0.285 24.857-3.143 31.143-0.285 1.143-3.428 3.428-5.143 3.429-19.715 4.286-8.572 0.572-32.572 3.714l-1.143 23.714 74.285 1.715 108.572 3.714 12.857 0.286q1.429 0 4 0.143t4 0.143q0.286 0 6.143-0.143t11.572-0.143h21.143q25.143 0 54.571-7.715 12.286-3.714 27.428-11.143 16.286-8.286 29.143-21.714 12.572-13.428 18.572-29.715t6-34.857q0-20-9.143-36.572t-27.143-30q-7.428-5.714-42.857-22 50.572-11.714 76.286-41.714 26.286-30.286 26.286-67.428 0-21.714-8.286-46-6-17.714-20.286-33.428-18.857-20.572-40-30.857-20.857-10.286-58-17.143-23.428-4.286-56.572-3.143l-56.286 1.143q-24 0.572-85.143-3.143-9.428-0.857-77.715-3.143z" horiz-adv-x="403" data-tags="bold, editor, format" />
<glyph unicode="&#xe633;" d="M512 54.857v-36.572q0-7.428-5.428-12.857t-12.857-5.428h-475.428q-7.428 0-12.857 5.428t-5.428 12.857v36.572q0 7.428 5.428 12.857t12.857 5.428h475.428q7.428 0 12.857-5.428t5.428-12.857zM402.286 164.572v-36.572q0-7.428-5.428-12.857t-12.857-5.428h-365.714q-7.428 0-12.857 5.428t-5.428 12.857v36.572q0 7.428 5.428 12.857t12.857 5.428h365.714q7.428 0 12.857-5.428t5.428-12.857zM475.428 274.286v-36.572q0-7.428-5.428-12.857t-12.857-5.429h-438.857q-7.428 0-12.857 5.428t-5.428 12.857v36.571q0 7.428 5.428 12.857t12.857 5.428h438.857q7.428 0 12.857-5.428t5.428-12.857zM365.714 384v-36.572q0-7.428-5.428-12.857t-12.857-5.428h-329.143q-7.428 0-12.857 5.428t-5.428 12.857v36.572q0 7.428 5.428 12.857t12.857 5.429h329.143q7.428 0 12.857-5.429t5.428-12.857z" data-tags="align-left, paragraph, editor, format" />
<glyph unicode="&#xe636;" d="M512 54.857v-36.572q0-7.428-5.428-12.857t-12.857-5.428h-475.428q-7.428 0-12.857 5.428t-5.428 12.857v36.572q0 7.428 5.428 12.857t12.857 5.428h475.428q7.428 0 12.857-5.428t5.428-12.857zM512 164.572v-36.572q0-7.428-5.428-12.857t-12.857-5.428h-475.428q-7.428 0-12.857 5.428t-5.428 12.857v36.572q0 7.428 5.428 12.857t12.857 5.428h475.428q7.428 0 12.857-5.428t5.428-12.857zM512 274.286v-36.572q0-7.428-5.428-12.857t-12.857-5.429h-475.428q-7.428 0-12.857 5.428t-5.428 12.857v36.571q0 7.428 5.428 12.857t12.857 5.428h475.428q7.428 0 12.857-5.428t5.428-12.857zM512 384v-36.572q0-7.428-5.428-12.857t-12.857-5.428h-475.428q-7.428 0-12.857 5.428t-5.428 12.857v36.572q0 7.428 5.428 12.857t12.857 5.429h475.428q7.428 0 12.857-5.429t5.428-12.857z" data-tags="align-justify, justify, paragraph, editor, format" />
<glyph unicode="&#xe637;" d="M73.143 64v-54.857q0-3.714-2.715-6.428t-6.428-2.714h-54.857q-3.715 0-6.428 2.714t-2.715 6.428v54.857q0 3.714 2.715 6.428t6.428 2.714h54.857q3.715 0 6.428-2.714t2.715-6.428zM73.143 173.714v-54.857q0-3.714-2.715-6.428t-6.428-2.714h-54.857q-3.715 0-6.428 2.714t-2.715 6.428v54.857q0 3.714 2.715 6.428t6.428 2.714h54.857q3.715 0 6.428-2.714t2.715-6.428zM73.143 283.429v-54.857q0-3.714-2.715-6.428t-6.428-2.714h-54.857q-3.715 0-6.428 2.714t-2.715 6.428v54.857q0 3.714 2.715 6.428t6.428 2.714h54.857q3.715 0 6.428-2.714t2.715-6.428zM512 64v-54.857q0-3.714-2.714-6.428t-6.428-2.714h-384q-3.715 0-6.428 2.714t-2.715 6.428v54.857q0 3.714 2.715 6.428t6.428 2.714h384q3.714 0 6.428-2.714t2.714-6.428zM73.143 393.143v-54.857q0-3.715-2.715-6.429t-6.428-2.714h-54.857q-3.715 0-6.428 2.714t-2.715 6.429v54.857q0 3.714 2.715 6.428t6.428 2.715h54.857q3.715 0 6.428-2.715t2.715-6.428zM512 173.714v-54.857q0-3.714-2.714-6.428t-6.428-2.714h-384q-3.715 0-6.428 2.714t-2.715 6.428v54.857q0 3.714 2.715 6.428t6.428 2.714h384q3.714 0 6.428-2.714t2.714-6.428zM512 283.429v-54.857q0-3.714-2.714-6.428t-6.428-2.714h-384q-3.715 0-6.428 2.714t-2.715 6.428v54.857q0 3.714 2.715 6.428t6.428 2.714h384q3.714 0 6.428-2.714t2.714-6.428zM512 393.143v-54.857q0-3.715-2.714-6.429t-6.428-2.714h-384q-3.715 0-6.428 2.714t-2.715 6.429v54.857q0 3.714 2.715 6.428t6.428 2.715h384q3.714 0 6.428-2.715t2.714-6.428z" data-tags="list, menu" />
<glyph unicode="&#xe63b;" d="M182.857 274.286q0-22.857-16-38.857t-38.857-16-38.857 16-16 38.857 16 38.857 38.857 16 38.857-16 16-38.857zM475.428 164.572v-128h-402.286v54.857l91.428 91.428 45.714-45.714 146.286 146.286zM502.857 365.714h-457.143q-3.715 0-6.428-2.715t-2.715-6.428v-347.428q0-3.714 2.715-6.428t6.428-2.714h457.143q3.714 0 6.428 2.714t2.714 6.428v347.428q0 3.715-2.714 6.428t-6.428 2.715zM548.572 356.572v-347.428q0-18.857-13.428-32.286t-32.286-13.428h-457.143q-18.857 0-32.285 13.428t-13.428 32.286v347.428q0 18.857 13.428 32.286t32.285 13.428h457.143q18.857 0 32.286-13.428t13.428-32.286z" horiz-adv-x="549" data-tags="picture, image, photo" />
<glyph unicode="&#xe63c;" d="M103.715 0l26 26-67.143 67.143-26-26v-30.572h36.572v-36.572h30.572zM253.143 265.143q0 6.286-6.286 6.286-2.857 0-4.857-2l-154.857-154.857q-2-2-2-4.857 0-6.286 6.285-6.286 2.857 0 4.857 2l154.857 154.857q2 2 2 4.857zM237.714 320l118.857-118.857-237.714-237.714h-118.857v118.857zM432.857 292.572q0-15.143-10.572-25.714l-47.428-47.428-118.857 118.857 47.428 47.143q10.286 10.857 25.714 10.857 15.143 0 26-10.857l67.143-66.857q10.572-11.143 10.572-26z" horiz-adv-x="439" data-tags="pencil, write, edit, blog" />
<glyph unicode="&#xe63d;" d="M219.429 256q0 30.285-21.429 51.714t-51.714 21.428-51.715-21.428-21.428-51.714 21.428-51.714 51.715-21.428 51.714 21.428 21.428 51.714zM292.572 256q0-31.143-9.428-51.143l-104-221.143q-4.572-9.428-13.572-14.857t-19.286-5.428-19.285 5.428-13.285 14.857l-104.285 221.143q-9.428 20-9.428 51.143 0 60.572 42.857 103.428t103.428 42.857 103.428-42.857 42.857-103.428z" horiz-adv-x="293" data-tags="map-marker, location, marker" />
<glyph unicode="&#xe63e;" d="M219.429 27.429v310.857q-42.285 0-78-20.857t-56.572-56.572-20.857-78 20.857-78 56.572-56.572 78-20.857zM438.857 182.857q0-59.714-29.428-110.143t-79.857-79.857-110.143-29.428-110.143 29.428-79.857 79.857-29.428 110.143 29.428 110.143 79.857 79.857 110.143 29.429 110.143-29.429 79.857-79.857 29.428-110.143z" horiz-adv-x="439" data-tags="adjust, contrast" />
<glyph unicode="&#xe63f;" d="M146.286 109.714q0 10.286-5.714 19.714-0.286 0.286-4.428 6.428t-7.286 10.857-7.143 12.572-6 14.428q-1.143 4.572-6 4.572t-6-4.572q-2-6.572-6-14.428t-7.143-12.572-7.285-10.857-4.428-6.428q-5.715-9.428-5.715-19.714 0-15.143 10.715-25.857t25.857-10.714 25.857 10.714 10.714 25.857zM292.572 146.286q0-60.572-42.857-103.428t-103.429-42.857-103.428 42.857-42.857 103.428q0 41.428 23.143 78.572 1.715 2.572 17.857 25.857t28.857 43.143 28.428 50.857 23.715 57.572q2.572 8.571 9.715 13.428t14.571 4.857 14.714-4.857 9.572-13.428q8-26.572 23.714-57.572t28.428-50.857 28.857-43.143 17.857-25.857q23.143-36.286 23.143-78.572z" horiz-adv-x="293" data-tags="tint, droplet, water, color" />
<glyph unicode="&#xe640;" d="M253.714 100.572l33.143 33.143-43.428 43.428-33.143-33.143v-16h27.429v-27.428h16zM379.428 306.286q-4.572 4.572-9.428-0.286l-100-100q-4.857-4.857-0.286-9.429t9.428 0.286l100 100q4.857 4.857 0.286 9.428zM402.286 136.572v-54.286q0-34-24.143-58.143t-58.143-24.143h-237.714q-34 0-58.143 24.143t-24.143 58.143v237.714q0 34 24.143 58.143t58.143 24.143h237.714q18 0 33.428-7.143 4.286-2 5.143-6.572 0.857-4.857-2.572-8.286l-14-14q-4-4-9.143-2.286-6.572 1.715-12.857 1.715h-237.714q-18.857 0-32.285-13.428t-13.428-32.286v-237.715q0-18.857 13.428-32.286t32.285-13.428h237.714q18.857 0 32.286 13.428t13.428 32.286v36q0 3.714 2.572 6.286l18.286 18.286q4.286 4.286 10 2t5.714-8.286zM374.857 347.429l82.286-82.286-192-192h-82.286v82.286zM501.714 309.714l-26.286-26.286-82.286 82.286 26.286 26.286q8 8 19.428 8t19.428-8l43.428-43.429q8-8 8-19.428t-8-19.428z" data-tags="edit, write, blog" />
<glyph unicode="&#xe641;" d="M402.286 156.286v-74q0-34-24.143-58.143t-58.143-24.143h-237.714q-34 0-58.143 24.143t-24.143 58.143v237.714q0 34 24.143 58.143t58.143 24.143h72.857q3.714 0 6.429-2.714t2.714-6.428q0-7.715-7.428-9.143-22-7.428-38-17.143-2.857-1.143-4.572-1.143h-32q-18.857 0-32.285-13.428t-13.428-32.286v-237.714q0-18.857 13.428-32.286t32.285-13.428h237.714q18.857 0 32.286 13.428t13.428 32.286v61.143q0 5.428 5.143 8.286 8 3.714 15.428 10.572 4.572 4.572 10 2.286 6-2.572 6-8.286zM470 298l-109.714-109.715q-5.143-5.428-12.857-5.428-3.428 0-7.143 1.429-11.143 4.857-11.143 16.857v54.857h-45.714q-92.286 0-125.143-37.429-34-39.143-21.143-135.143 0.857-6.572-5.714-9.714-2.286-0.572-3.428-0.572-4.572 0-7.428 3.714-2.857 4-6 8.857t-11.285 19.572-14.143 28.428-11 32.572-5 34.857q0 14 1 26t4 25.714 8 25.143 13.428 23.285 19.572 21.143 27 17.571 35.572 13.857 45.572 8.714 56.143 3.143h45.714v54.857q0 12 11.143 16.857 3.714 1.428 7.143 1.428 7.428 0 12.857-5.428l109.714-109.714q5.428-5.429 5.428-12.857t-5.428-12.857z" horiz-adv-x="476" data-tags="share" />
<glyph unicode="&#xe642;" d="M402.286 173.143v-90.857q0-34-24.143-58.143t-58.143-24.143h-237.714q-34 0-58.143 24.143t-24.143 58.143v237.714q0 34 24.143 58.143t58.143 24.143h237.714q18 0 33.428-7.143 4.286-2 5.143-6.572 0.857-4.857-2.572-8.286l-14-14q-2.857-2.857-6.572-2.857-0.857 0-2.572 0.571-6.572 1.715-12.857 1.715h-237.714q-18.857 0-32.285-13.428t-13.428-32.286v-237.715q0-18.857 13.428-32.286t32.285-13.428h237.714q18.857 0 32.286 13.428t13.428 32.286v72.572q0 3.714 2.572 6.286l18.286 18.286q2.857 2.857 6.572 2.857 1.714 0 3.428-0.857 5.714-2.286 5.714-8.286zM468.286 312.857l-232.571-232.572q-6.857-6.857-16.285-6.857t-16.286 6.857l-122.857 122.857q-6.857 6.857-6.857 16.285t6.857 16.286l31.428 31.428q6.857 6.857 16.285 6.857t16.285-6.857l75.143-75.143 184.857 184.857q6.857 6.857 16.286 6.857t16.286-6.857l31.428-31.428q6.857-6.857 6.857-16.286t-6.857-16.286z" horiz-adv-x="476" data-tags="check, checkbox, correct, tick" />
<glyph unicode="&#xe643;" d="M512 182.857q0-7.428-5.428-12.857l-73.143-73.143q-5.428-5.428-12.857-5.428t-12.857 5.428-5.428 12.857v36.572h-109.714v-109.714h36.572q7.428 0 12.857-5.428t5.428-12.857-5.428-12.857l-73.143-73.143q-5.428-5.428-12.857-5.428t-12.857 5.428l-73.143 73.143q-5.428 5.428-5.428 12.857t5.428 12.857 12.857 5.428h36.571v109.714h-109.715v-36.572q0-7.428-5.428-12.857t-12.857-5.428-12.857 5.428l-73.143 73.143q-5.428 5.428-5.428 12.857t5.428 12.857l73.143 73.143q5.428 5.428 12.857 5.428t12.857-5.428 5.428-12.857v-36.572h109.715v109.714h-36.572q-7.428 0-12.857 5.429t-5.429 12.857 5.428 12.857l73.143 73.143q5.429 5.429 12.857 5.429t12.857-5.429l73.143-73.143q5.428-5.428 5.428-12.857t-5.428-12.857-12.857-5.429h-36.572v-109.714h109.714v36.572q0 7.428 5.428 12.857t12.857 5.428 12.857-5.428l73.143-73.143q5.428-5.429 5.428-12.857z" data-tags="move, arrows" />
<glyph unicode="&#xe644;" d="M279.714 398.572q5.428 5.429 9.143 3.715t3.714-9.143v-420.572q0-7.428-3.714-9.143t-9.143 3.714l-202.857 202.857q-2.572 2.572-3.715 5.428v-193.714q0-7.428-5.428-12.857t-12.857-5.428h-36.572q-7.428 0-12.857 5.428t-5.428 12.857v402.286q0 7.428 5.428 12.857t12.857 5.428h36.572q7.428 0 12.857-5.428t5.428-12.857v-193.714q1.143 3.143 3.715 5.428z" horiz-adv-x="293" data-tags="step-backward, previous, control" />
<glyph unicode="&#xe645;" d="M499.143 398.572q5.428 5.429 9.143 3.715t3.715-9.143v-420.572q0-7.428-3.714-9.143t-9.143 3.714l-202.857 202.857q-2.572 2.572-3.714 5.428v-202.857q0-7.428-3.714-9.143t-9.143 3.714l-202.857 202.857q-2.572 2.572-3.715 5.428v-193.714q0-7.428-5.428-12.857t-12.857-5.428h-36.572q-7.428 0-12.857 5.428t-5.428 12.857v402.286q0 7.428 5.428 12.857t12.857 5.428h36.572q7.428 0 12.857-5.428t5.428-12.857v-193.714q1.143 3.143 3.715 5.428l202.857 202.857q5.428 5.428 9.143 3.714t3.714-9.143v-202.857q1.143 3.143 3.714 5.428z" data-tags="fast-backward, first, previous, control" />
<glyph unicode="&#xe646;" d="M462.572 398.572q5.428 5.429 9.143 3.715t3.714-9.143v-420.572q0-7.428-3.714-9.143t-9.143 3.714l-202.857 202.857q-2.286 2.572-3.714 5.428v-202.857q0-7.428-3.714-9.143t-9.143 3.714l-202.857 202.857q-5.428 5.428-5.428 12.857t5.428 12.857l202.857 202.857q5.429 5.428 9.143 3.714t3.714-9.143v-202.857q1.428 3.143 3.714 5.428z" horiz-adv-x="476" data-tags="backward, previous, back, control" />
<glyph unicode="&#xe647;" d="M395.428 174l-379.428-210.857q-6.572-3.714-11.286-0.857t-4.715 10.286v420.572q0 7.429 4.715 10.286t11.286-0.857l379.428-210.857q6.572-3.714 6.572-8.857t-6.572-8.857z" horiz-adv-x="403" data-tags="play, media, control" />
<glyph unicode="&#xe648;" d="M438.857 384v-402.286q0-7.428-5.428-12.857t-12.857-5.428h-146.286q-7.428 0-12.857 5.428t-5.428 12.857v402.286q0 7.428 5.428 12.857t12.857 5.428h146.286q7.428 0 12.857-5.428t5.428-12.857zM182.857 384v-402.286q0-7.428-5.429-12.857t-12.857-5.428h-146.286q-7.428 0-12.857 5.428t-5.428 12.857v402.286q0 7.428 5.428 12.857t12.857 5.428h146.286q7.429 0 12.857-5.428t5.428-12.857z" horiz-adv-x="439" data-tags="pause, media, control" />
<glyph unicode="&#xe649;" d="M438.857 384v-402.286q0-7.428-5.428-12.857t-12.857-5.428h-402.286q-7.428 0-12.857 5.428t-5.428 12.857v402.286q0 7.428 5.428 12.857t12.857 5.428h402.286q7.428 0 12.857-5.428t5.428-12.857z" horiz-adv-x="439" data-tags="stop, media, control" />
<glyph unicode="&#xe64a;" d="M12.857-32.857q-5.428-5.428-9.143-3.714t-3.715 9.143v420.572q0 7.429 3.715 9.143t9.143-3.714l202.857-202.857q2.286-2.286 3.714-5.428v202.857q0 7.428 3.714 9.143t9.143-3.714l202.857-202.857q5.428-5.428 5.428-12.857t-5.428-12.857l-202.857-202.857q-5.429-5.428-9.143-3.714t-3.714 9.143v202.857q-1.429-2.857-3.714-5.428z" horiz-adv-x="476" data-tags="forward, next, media, control" />
<glyph unicode="&#xe64b;" d="M12.857-32.857q-5.428-5.428-9.143-3.714t-3.715 9.143v420.572q0 7.429 3.715 9.143t9.143-3.714l202.857-202.857q2.286-2.286 3.714-5.428v202.857q0 7.428 3.714 9.143t9.143-3.714l202.857-202.857q2.286-2.286 3.714-5.428v193.714q0 7.428 5.428 12.857t12.857 5.428h36.572q7.428 0 12.857-5.428t5.428-12.857v-402.286q0-7.428-5.428-12.857t-12.857-5.428h-36.572q-7.428 0-12.857 5.428t-5.428 12.857v193.714q-1.428-2.857-3.714-5.428l-202.857-202.857q-5.429-5.428-9.143-3.714t-3.714 9.143v202.857q-1.429-2.857-3.714-5.428z" data-tags="fast-forward, forward, next, media, control" />
<glyph unicode="&#xe64c;" d="M12.857-32.857q-5.428-5.428-9.143-3.714t-3.715 9.143v420.572q0 7.429 3.715 9.143t9.143-3.714l202.857-202.857q2.286-2.286 3.714-5.428v193.714q0 7.428 5.428 12.857t12.857 5.428h36.571q7.428 0 12.857-5.428t5.428-12.857v-402.286q0-7.428-5.428-12.857t-12.857-5.428h-36.572q-7.428 0-12.857 5.428t-5.429 12.857v193.714q-1.429-2.857-3.714-5.428z" horiz-adv-x="293" data-tags="step-forward, forward, next, media, control" />
<glyph unicode="&#xe64d;" d="M4 159.143l202.857 202.857q5.429 5.428 12.857 5.428t12.857-5.428l202.857-202.857q5.428-5.428 3.714-9.143t-9.143-3.714h-420.572q-7.428 0-9.143 3.714t3.715 9.143zM420.857 0h-402.286q-7.428 0-12.857 5.428t-5.428 12.857v73.143q0 7.428 5.428 12.857t12.857 5.428h402.286q7.428 0 12.857-5.428t5.428-12.857v-73.143q0-7.428-5.428-12.857t-12.857-5.428z" horiz-adv-x="440" data-tags="eject, media, control" />
<glyph unicode="&#xe64e;" d="M212-10.571l-186.286 186q-10.572 10.572-10.572 25.857t10.572 25.857l186.286 186q10.572 10.572 25.857 10.572t25.857-10.572l21.428-21.428q10.572-10.572 10.572-25.857t-10.572-25.857l-138.857-138.857 138.857-138.571q10.572-10.857 10.572-26t-10.572-25.714l-21.428-21.428q-10.572-10.572-25.857-10.572t-25.857 10.572z" horiz-adv-x="329" data-tags="chevron-left, arrow-left, left, previous" />
<glyph unicode="&#xe64f;" d="M314 201.143q0-14.857-10.572-26l-186.286-186q-10.572-10.572-25.715-10.572t-25.715 10.572l-21.715 21.428q-10.572 11.143-10.572 26 0 15.143 10.572 25.714l138.857 138.857-138.857 138.571q-10.572 11.143-10.572 26 0 15.143 10.572 25.714l21.715 21.429q10.285 10.857 25.715 10.857t25.715-10.857l186.286-186q10.572-10.572 10.572-25.715z" horiz-adv-x="329" data-tags="chevron-right, right, arrow-right, next" />
<glyph unicode="&#xe650;" d="M347.428 164.572v36.572q0 7.428-5.428 12.857t-12.857 5.428h-73.143v73.143q0 7.428-5.428 12.857t-12.857 5.429h-36.571q-7.428 0-12.857-5.429t-5.429-12.857v-73.143h-73.143q-7.428 0-12.857-5.428t-5.428-12.857v-36.572q0-7.428 5.428-12.857t12.857-5.428h73.143v-73.143q0-7.428 5.428-12.857t12.857-5.428h36.571q7.428 0 12.857 5.428t5.429 12.857v73.143h73.143q7.428 0 12.857 5.428t5.428 12.857zM438.857 182.857q0-59.714-29.428-110.143t-79.857-79.857-110.143-29.428-110.143 29.428-79.857 79.857-29.428 110.143 29.428 110.143 79.857 79.857 110.143 29.429 110.143-29.429 79.857-79.857 29.428-110.143z" horiz-adv-x="439" data-tags="plus-sign, add, sum, sign" />
<glyph unicode="&#xe651;" d="M347.428 164.572v36.572q0 7.428-5.428 12.857t-12.857 5.428h-219.429q-7.428 0-12.857-5.428t-5.428-12.857v-36.572q0-7.428 5.428-12.857t12.857-5.428h219.429q7.428 0 12.857 5.428t5.428 12.857zM438.857 182.857q0-59.714-29.428-110.143t-79.857-79.857-110.143-29.428-110.143 29.428-79.857 79.857-29.428 110.143 29.428 110.143 79.857 79.857 110.143 29.429 110.143-29.429 79.857-79.857 29.428-110.143z" horiz-adv-x="439" data-tags="minus-sign, remove, delete, subtract, sign" />
<glyph unicode="&#xe652;" d="M328.286 118.286q0 7.428-5.428 12.857l-51.714 51.714 51.714 51.714q5.428 5.428 5.428 12.857 0 7.714-5.428 13.143l-25.714 25.714q-5.428 5.428-13.143 5.428-7.428 0-12.857-5.428l-51.714-51.714-51.714 51.714q-5.428 5.428-12.857 5.428-7.714 0-13.143-5.428l-25.715-25.714q-5.428-5.428-5.428-13.143 0-7.429 5.428-12.857l51.715-51.714-51.715-51.714q-5.428-5.428-5.428-12.857 0-7.714 5.428-13.143l25.715-25.714q5.428-5.428 13.143-5.428 7.429 0 12.857 5.428l51.714 51.714 51.714-51.714q5.428-5.428 12.857-5.428 7.714 0 13.143 5.428l25.714 25.714q5.428 5.428 5.428 13.143zM438.857 182.857q0-59.714-29.428-110.143t-79.857-79.857-110.143-29.428-110.143 29.428-79.857 79.857-29.428 110.143 29.428 110.143 79.857 79.857 110.143 29.429 110.143-29.429 79.857-79.857 29.428-110.143z" horiz-adv-x="439" data-tags="remove-sign, cancel, remove, delete, close, sign" />
<glyph unicode="&#xe653;" d="M366.857 229.143q0 8-5.143 13.143l-26 25.714q-5.428 5.428-12.857 5.428t-12.857-5.428l-116.572-116.286-64.572 64.572q-5.428 5.428-12.857 5.428t-12.857-5.428l-26-25.714q-5.143-5.143-5.143-13.143 0-7.714 5.143-12.857l103.428-103.428q5.428-5.428 12.857-5.428 7.714 0 13.143 5.428l155.143 155.143q5.143 5.143 5.143 12.857zM438.857 182.857q0-59.714-29.428-110.143t-79.857-79.857-110.143-29.428-110.143 29.428-79.857 79.857-29.428 110.143 29.428 110.143 79.857 79.857 110.143 29.429 110.143-29.429 79.857-79.857 29.428-110.143z" horiz-adv-x="439" data-tags="ok-sign, checkmark, tick, correct, sign" />
<glyph unicode="&#xe654;" d="M256 45.714v54.857q0 4-2.571 6.572t-6.571 2.572h-54.857q-4 0-6.571-2.572t-2.571-6.572v-54.857q0-4 2.571-6.572t6.572-2.572h54.857q4 0 6.571 2.572t2.572 6.572zM329.143 237.714q0 25.143-15.857 46.571t-39.572 33.143-48.572 11.714q-69.428 0-106-60.857-4.285-6.857 2.285-12l37.715-28.572q2-1.714 5.428-1.714 4.572 0 7.143 3.429 15.143 19.428 24.571 26.285 9.714 6.857 24.572 6.857 13.714 0 24.428-7.429t10.714-16.857q0-10.857-5.714-17.429t-19.428-12.857q-18-8-33-24.715t-15-35.857v-10.286q0-4 2.571-6.572t6.571-2.572h54.857q4 0 6.571 2.572t2.572 6.572q0 5.428 6.143 14.143t15.572 14.143q9.143 5.143 14 8.143t13.143 10 12.714 13.714 8 17.286 3.572 23.143zM438.857 182.857q0-59.714-29.428-110.143t-79.857-79.857-110.143-29.428-110.143 29.428-79.857 79.857-29.428 110.143 29.428 110.143 79.857 79.857 110.143 29.429 110.143-29.429 79.857-79.857 29.428-110.143z" horiz-adv-x="439" data-tags="question-sign, help, support, sign" />
<glyph unicode="&#xe655;" d="M292.572 45.714v45.714q0 4-2.572 6.572t-6.572 2.572h-27.428v146.286q0 4-2.571 6.572t-6.571 2.572h-91.428q-4 0-6.572-2.572t-2.571-6.572v-45.714q0-4 2.571-6.572t6.572-2.571h27.428v-91.429h-27.428q-4 0-6.572-2.572t-2.571-6.572v-45.714q0-4 2.571-6.572t6.572-2.572h128q4 0 6.572 2.572t2.572 6.572zM256 301.714v45.714q0 4-2.571 6.572t-6.571 2.571h-54.857q-4 0-6.571-2.571t-2.571-6.572v-45.714q0-4 2.571-6.572t6.572-2.571h54.857q4 0 6.571 2.571t2.572 6.572zM438.857 182.857q0-59.714-29.428-110.143t-79.857-79.857-110.143-29.428-110.143 29.428-79.857 79.857-29.428 110.143 29.428 110.143 79.857 79.857 110.143 29.429 110.143-29.429 79.857-79.857 29.428-110.143z" horiz-adv-x="439" data-tags="info-sign, information, sign" />
<glyph unicode="&#xe657;" d="M313.428 130.572l-41.714-41.714q-2.857-2.857-6.572-2.857t-6.572 2.857l-39.143 39.143-39.143-39.143q-2.857-2.857-6.572-2.857t-6.572 2.857l-41.715 41.714q-2.857 2.857-2.857 6.572t2.857 6.572l39.143 39.143-39.143 39.143q-2.857 2.857-2.857 6.572t2.857 6.572l41.715 41.714q2.857 2.857 6.572 2.857t6.572-2.857l39.143-39.143 39.143 39.143q2.857 2.857 6.572 2.857t6.572-2.857l41.714-41.714q2.857-2.857 2.857-6.572t-2.857-6.572l-39.143-39.143 39.143-39.143q2.857-2.857 2.857-6.572t-2.857-6.572zM374.857 182.857q0 42.286-20.857 78t-56.572 56.572-78 20.857-78-20.857-56.572-56.572-20.857-78 20.857-78 56.572-56.572 78-20.857 78 20.857 56.572 56.572 20.857 78zM438.857 182.857q0-59.714-29.428-110.143t-79.857-79.857-110.143-29.428-110.143 29.428-79.857 79.857-29.428 110.143 29.428 110.143 79.857 79.857 110.143 29.429 110.143-29.429 79.857-79.857 29.428-110.143z" horiz-adv-x="439" data-tags="remove-circle, cancel, close, remove, delete" />
<glyph unicode="&#xe658;" d="M334.572 206.572l-120.572-120.572q-5.428-5.428-12.857-5.428t-12.857 5.428l-84 84q-5.428 5.428-5.428 12.857t5.428 12.857l29.143 29.143q5.429 5.428 12.857 5.428t12.857-5.428l42-42 78.571 78.572q5.428 5.428 12.857 5.428t12.857-5.428l29.143-29.143q5.428-5.429 5.428-12.857t-5.428-12.857zM374.857 182.857q0 42.286-20.857 78t-56.572 56.572-78 20.857-78-20.857-56.572-56.572-20.857-78 20.857-78 56.572-56.572 78-20.857 78 20.857 56.572 56.572 20.857 78zM438.857 182.857q0-59.714-29.428-110.143t-79.857-79.857-110.143-29.428-110.143 29.428-79.857 79.857-29.428 110.143 29.428 110.143 79.857 79.857 110.143 29.429 110.143-29.429 79.857-79.857 29.428-110.143z" horiz-adv-x="439" data-tags="ok-circle, correct, tick, checkmark" />
<glyph unicode="&#xe659;" d="M374.857 183.714q0 46-24.857 84.285l-215.429-215.143q39.143-25.428 84.857-25.428 31.714 0 60.428 12.428t49.572 33.286 33.143 49.857 12.286 60.714zM89.428 98.286l215.714 215.429q-38.572 26-85.714 26-42.286 0-78-20.857t-56.572-56.857-20.857-78.286q0-46.286 25.428-85.428zM438.857 183.714q0-44.857-17.428-85.715t-46.714-70.286-70-46.857-85.286-17.428-85.286 17.428-70 46.857-46.715 70.286-17.428 85.714 17.428 85.572 46.715 70.143 70 46.857 85.286 17.429 85.286-17.429 70-46.857 46.714-70.143 17.428-85.572z" horiz-adv-x="439" data-tags="ban-circle, block, forbidden" />
<glyph unicode="&#xe65a;" d="M438.857 182.857v-36.572q0-15.143-9.286-25.857t-24.143-10.714h-201.143l83.715-84q10.857-10.286 10.857-25.714t-10.857-25.714l-21.428-21.714q-10.572-10.572-25.714-10.572-14.857 0-26 10.572l-186 186.286q-10.572 10.572-10.572 25.714 0 14.857 10.572 26l186 185.714q10.857 10.857 26 10.857 14.857 0 25.714-10.857l21.428-21.143q10.857-10.857 10.857-26t-10.857-26l-83.714-83.715h201.143q14.857 0 24.143-10.714t9.286-25.857z" horiz-adv-x="439" data-tags="arrow-left, previous, left" />
<glyph unicode="&#xe65b;" d="M420.572 164.572q0-15.428-10.572-26l-186-186q-11.143-10.572-26-10.572-14.572 0-25.714 10.572l-21.428 21.428q-10.857 10.857-10.857 26t10.857 26l83.714 83.714h-201.143q-14.857 0-24.143 10.714t-9.286 25.857v36.572q0 15.143 9.286 25.857t24.143 10.714h201.143l-83.714 84q-10.857 10.286-10.857 25.714t10.857 25.714l21.428 21.429q10.857 10.857 25.714 10.857 15.143 0 26-10.857l186-186q10.572-10 10.572-25.714z" horiz-adv-x="439" data-tags="arrow-right, next, right" />
<glyph unicode="&#xe65c;" d="M460.286 161.429q0-14.572-10.572-25.714l-21.428-21.428q-10.857-10.857-26-10.857-15.428 0-25.714 10.857l-84 83.714v-201.143q0-14.857-10.714-24.143t-25.857-9.286h-36.571q-15.143 0-25.857 9.286t-10.714 24.143v201.143l-84-83.715q-10.285-10.857-25.715-10.857t-25.715 10.857l-21.428 21.428q-10.857 10.857-10.857 25.714 0 15.143 10.857 26l186 186q10 10.572 25.714 10.572 15.428 0 26-10.572l186-186q10.572-11.143 10.572-26z" horiz-adv-x="476" data-tags="arrow-up, upload, top" />
<glyph unicode="&#xe65d;" d="M460.286 201.143q0-15.143-10.572-25.714l-186-186.286q-11.143-10.572-26-10.572-15.143 0-25.714 10.572l-186 186.286q-10.857 10.286-10.857 25.714 0 15.143 10.857 26l21.143 21.428q11.143 10.572 26 10.572 15.143 0 25.715-10.572l84-84v201.143q0 14.857 10.857 25.714t25.715 10.857h36.572q14.857 0 25.714-10.857t10.857-25.714v-201.143l84 84q10.572 10.572 25.714 10.572 14.857 0 26-10.572l21.428-21.428q10.572-11.143 10.572-26z" horiz-adv-x="476" data-tags="arrow-down, download, bottom" />
<glyph unicode="&#xe65e;" d="M512 256q0-7.429-5.428-12.857l-146.286-146.286q-5.428-5.428-12.857-5.428t-12.857 5.428-5.428 12.857v73.143h-64q-28 0-50.143-1.715t-44-6.143-38-12.143-30.143-19.857-22.857-28.857-13.857-39.572-5-51.714q0-15.714 1.428-35.143 0-1.714 0.715-6.714t0.715-7.572q0-4.286-2.428-7.143t-6.715-2.857q-4.572 0-8 4.857-2 2.572-3.715 6.286t-3.857 8.572-3 6.857q-36.285 81.428-36.285 128.857 0 56.857 15.143 95.143 46.285 115.143 250 115.143h64v73.143q0 7.428 5.428 12.857t12.857 5.428 12.857-5.428l146.286-146.286q5.429-5.428 5.429-12.857z" data-tags="share-alt, arrow, forward" />
<glyph unicode="&#xe65f;" d="M215.714 137.143q0-3.714-2.857-6.572l-94.857-94.857 41.143-41.143q5.429-5.428 5.429-12.857t-5.428-12.857-12.857-5.428h-128q-7.428 0-12.857 5.428t-5.428 12.857v128q0 7.428 5.428 12.857t12.857 5.428 12.857-5.428l41.143-41.143 94.857 94.857q2.857 2.857 6.572 2.857t6.572-2.857l32.572-32.572q2.857-2.857 2.857-6.572zM438.857 384v-128q0-7.429-5.428-12.857t-12.857-5.428-12.857 5.428l-41.143 41.143-94.857-94.857q-2.857-2.857-6.572-2.857t-6.572 2.857l-32.572 32.572q-2.857 2.857-2.857 6.572t2.857 6.572l94.857 94.857-41.143 41.143q-5.428 5.429-5.428 12.857t5.428 12.857 12.857 5.428h128q7.428 0 12.857-5.428t5.428-12.857z" horiz-adv-x="439" data-tags="resize-full, expand, enlarge" />
<glyph unicode="&#xe660;" d="M219.429 164.572v-128q0-7.428-5.429-12.857t-12.857-5.428-12.857 5.428l-41.143 41.143-94.857-94.857q-2.857-2.857-6.572-2.857t-6.572 2.857l-32.572 32.572q-2.857 2.857-2.857 6.572t2.857 6.572l94.857 94.857-41.143 41.143q-5.428 5.428-5.428 12.857t5.428 12.857 12.857 5.428h128q7.428 0 12.857-5.428t5.429-12.857zM435.143 356.572q0-3.714-2.857-6.571l-94.857-94.857 41.143-41.143q5.428-5.429 5.428-12.857t-5.428-12.857-12.857-5.429h-128q-7.428 0-12.857 5.428t-5.429 12.857v128q0 7.428 5.428 12.857t12.857 5.428 12.857-5.428l41.143-41.143 94.857 94.857q2.857 2.857 6.572 2.857t6.572-2.857l32.572-32.571q2.857-2.857 2.857-6.572z" horiz-adv-x="439" data-tags="resize-small, contract, collapse" />
<glyph unicode="&#xe661;" d="M402.286 228.572v-54.857q0-11.428-8-19.428t-19.428-8h-118.857v-118.857q0-11.428-8-19.428t-19.428-8h-54.857q-11.429 0-19.429 8t-8 19.428v118.857h-118.857q-11.428 0-19.428 8t-8 19.428v54.857q0 11.428 8 19.428t19.428 8h118.857v118.857q0 11.428 8 19.428t19.428 8h54.857q11.429 0 19.429-8t8-19.428v-118.857h118.857q11.428 0 19.428-8t8-19.428z" horiz-adv-x="403" data-tags="plus, add, sum" />
<glyph unicode="&#xe662;" d="M402.286 228.572v-54.857q0-11.428-8-19.428t-19.428-8h-347.428q-11.428 0-19.428 8t-8 19.428v54.857q0 11.428 8 19.428t19.428 8h347.428q11.428 0 19.428-8t8-19.428z" horiz-adv-x="403" data-tags="minus, remove, delete, subtract" />
<glyph unicode="&#xe663;" d="M423.428 138.857q13.143-7.428 17-22.143t-3.572-27.857l-18.286-31.428q-7.428-13.143-22.143-17t-27.857 3.572l-76 43.714v-87.714q0-14.857-10.857-25.714t-25.714-10.857h-36.572q-14.857 0-25.714 10.857t-10.857 25.714v87.714l-76-43.714q-13.143-7.428-27.857-3.572t-22.143 17l-18.285 31.428q-7.428 13.143-3.572 27.857t17 22.143l76 44-76 44q-13.143 7.428-17 22.143t3.572 27.857l18.285 31.428q7.428 13.143 22.143 17t27.857-3.571l76-43.715v87.715q0 14.857 10.857 25.714t25.714 10.857h36.572q14.857 0 25.714-10.857t10.857-25.714v-87.715l76 43.715q13.143 7.428 27.857 3.571t22.143-17l18.286-31.428q7.428-13.143 3.572-27.857t-17-22.143l-76-44z" horiz-adv-x="476" data-tags="asterisk, star" />
<glyph unicode="&#xe664;" d="M219.429 402.286q59.715 0 110.143-29.429t79.857-79.857 29.428-110.143-29.428-110.143-79.857-79.857-110.143-29.428-110.143 29.428-79.857 79.857-29.428 110.143 29.428 110.143 79.857 79.857 110.143 29.429zM256 46v54.286q0 4-2.571 6.714t-6.286 2.714h-54.857q-3.714 0-6.572-2.857t-2.857-6.572v-54.286q0-3.714 2.857-6.572t6.572-2.857h54.857q3.714 0 6.286 2.714t2.571 6.714zM255.429 144.286l5.143 177.429q0 3.428-2.857 5.143-2.857 2.286-6.857 2.286h-62.857q-4 0-6.857-2.286-2.857-1.714-2.857-5.143l4.857-177.429q0-2.857 2.857-5t6.857-2.143h52.857q4 0 6.714 2.143t3 5z" horiz-adv-x="439" data-tags="exclamation-sign, sign, notification, attention, warning" />
<glyph unicode="&#xe665;" d="M265.143 51.429v204.572h-91.428v-204.572q0-7.143 5.143-11t13.143-3.857h54.857q8 0 13.143 3.857t5.143 11zM134.857 292.572h55.715l-36 46q-7.428 8.857-19.714 8.857-11.428 0-19.428-8t-8-19.429 8-19.428 19.428-8zM331.428 320q0 11.428-8 19.428t-19.428 8q-12.286 0-19.714-8.857l-35.714-46h55.428q11.428 0 19.428 8t8 19.428zM438.857 246.857v-91.428q0-4-2.572-6.572t-6.572-2.572h-27.428v-118.857q0-11.428-8-19.428t-19.428-8h-310.857q-11.428 0-19.428 8t-8 19.428v118.857h-27.428q-4 0-6.572 2.572t-2.571 6.572v91.428q0 4 2.571 6.572t6.572 2.572h125.715q-26.572 0-45.285 18.714t-18.715 45.286 18.715 45.286 45.285 18.714q30.572 0 48-22l36.572-47.143 36.572 47.143q17.428 22 48 22 26.572 0 45.286-18.714t18.714-45.286-18.714-45.286-45.286-18.714h125.714q4 0 6.572-2.571t2.572-6.572z" horiz-adv-x="439" data-tags="gift, present, birthday, holiday" />
<glyph unicode="&#xe666;" d="M365.714 237.714q0 7.428-5.428 12.857t-12.857 5.428q-49.143 0-90.857-14.143t-74.143-38.286-67.285-62.714q-5.428-6-5.428-12.857 0-7.428 5.428-12.857t12.857-5.428q6.857 0 12.857 5.428 7.714 6.857 21.143 20.286t19.143 18.857q39.143 35.428 76.715 50.286t89.572 14.857q7.428 0 12.857 5.428t5.428 12.857zM512 294.286q0-27.143-5.714-55.143-13.143-64-52.714-109.428t-102.143-76.572q-61.143-30.857-125.143-30.857-42.285 0-81.715 13.428-4.286 1.428-25.143 12t-27.428 10.572q-4.572 0-11.285-9.143t-12.857-20-15-20-17.143-9.143q-8.572 0-14.572 3.143t-8.857 6.857-7.715 12q-0.571 1.143-1.715 3.143t-1.571 2.857-0.857 2.714-0.428 3.857q0 10 8.857 21t19.428 18.714 19.428 16 8.857 13.714q0 1.143-4 10.857t-4.572 12.572q-2.572 14.572-2.572 29.714 0 32.857 12.428 62.857t34 52.714 48.715 39.715 58.286 27.285q15.714 5.143 41.428 7.286t51.286 2.572 51 1.714 46.714 6.857 32.428 16.143l8.428 8.428t8.428 8 7.714 5.715 10.428 4.571 12.428 1.286q11.143 0 20.143-13.143t13.572-32 6.857-35.428 2.286-27.428z" data-tags="leaf, nature, green" />
<glyph unicode="&#xe667;" d="M393.45-40.54v33.29h68.716v68.716h35.444v-102.006h-104.16zM462.166 355.734h-68.716v33.29h104.16v-102.006h-35.443v68.716zM32.603 287.017h-35.426v102.006h104.16v-33.29h-68.734v-68.716zM65.893 320.307h362.983v-292.113h-362.983v292.113zM101.32 61.466h292.113v225.551h-292.113v-225.551zM135.695 251.574h224.465v-154.68h-224.465v154.68zM32.603-7.25h68.716v-33.29h-104.143v102.006h35.444v-68.716z" data-tags="resize, maximize, enlarge" />
<glyph unicode="&#xe668;" d="M475.428 164.572q-43.428 67.428-108.857 100.857 17.428-29.715 17.428-64.286 0-52.857-37.572-90.428t-90.428-37.572-90.428 37.572-37.572 90.428q0 34.572 17.428 64.286-65.428-33.428-108.857-100.857 38-58.572 95.285-93.286t124.143-34.714 124.143 34.714 95.286 93.286zM269.714 274.286q0 5.714-4 9.714t-9.714 4q-35.714 0-61.286-25.572t-25.572-61.286q0-5.714 4-9.714t9.714-4 9.714 4 4 9.714q0 24.572 17.428 42t42 17.428q5.714 0 9.714 4t4 9.714zM512 164.572q0-9.714-5.714-19.714-40-65.714-107.572-105.286t-142.714-39.572-142.714 39.714-107.572 105.143q-5.715 10-5.715 19.714t5.715 19.714q40 65.428 107.572 105.143t142.714 39.714 142.714-39.714 107.572-105.143q5.714-10 5.714-19.714z" data-tags="eye-open, view, visit" />
<glyph unicode="&#xe669;" d="M158.571 57.429l22.285 40.286q-24.857 18-38.857 45.428t-14 58q0 34.572 17.429 64.286-65.428-33.428-108.857-100.857 47.715-73.714 122-107.143zM269.714 274.286q0 5.714-4 9.714t-9.714 4q-35.714 0-61.286-25.572t-25.572-61.286q0-5.714 4-9.714t9.714-4 9.714 4 4 9.714q0 24.572 17.428 42t42 17.428q5.714 0 9.714 4t4 9.714zM373.428 328.857q0-2-0.286-2.571-30-53.715-90-161.715t-90.286-162l-14-25.428q-2.857-4.572-8-4.572-3.429 0-38.286 20-4.572 2.857-4.572 8 0 3.428 12.572 24.857-40.857 18.572-75.285 49.428t-59.572 70q-5.715 8.857-5.715 19.714t5.715 19.714q43.715 67.143 108.572 106t141.714 38.857q25.428 0 51.428-4.857l15.428 27.714q2.857 4.572 8 4.572 1.428 0 5.143-1.714t8.857-4.428 9.428-5.286 9-5.286 5.572-3.286q4.572-2.857 4.572-7.714zM384 201.143q0-39.714-22.572-72.428t-59.714-47l80 143.429q2.286-12.857 2.286-24zM512 164.572q0-10-5.714-19.714-11.143-18.286-31.143-41.428-42.857-49.143-99.286-76.286t-119.857-27.143l21.143 37.714q60.572 5.143 112.143 39.143t86.143 87.714q-32.857 51.143-80.572 84l18 32q27.143-18.286 52.143-43.714t41.286-52.572q5.714-9.714 5.714-19.714z" data-tags="eye-close, blocked, private" />
<glyph unicode="&#xe66a;" d="M292.572 46v54.286q0 4-2.714 6.714t-6.428 2.714h-54.857q-3.714 0-6.429-2.714t-2.714-6.714v-54.286q0-4 2.714-6.714t6.428-2.714h54.857q3.714 0 6.428 2.714t2.714 6.714zM292 152.857l5.143 131.143q0 3.428-2.857 5.428-3.714 3.143-6.857 3.143h-62.857q-3.143 0-6.857-3.143-2.857-2-2.857-6l4.857-130.572q0-2.857 2.857-4.714t6.857-1.857h52.857q4 0 6.714 1.857t3 4.714zM288 419.714l219.428-402.286q10-18-0.572-36-4.857-8.286-13.286-13.143t-18.143-4.857h-438.857q-9.715 0-18.143 4.857t-13.286 13.143q-10.572 18-0.572 36l219.429 402.286q4.857 8.857 13.429 14t18.572 5.143 18.572-5.143 13.428-14z" data-tags="warning-sign, sign" />
<glyph unicode="&#xe66b;" d="M393.143 393.143q12.572-14.857 3.428-42.286t-30.857-49.143l-46-46 45.714-198.857q1.428-5.428-3.428-9.428l-36.572-27.428q-2-1.714-5.428-1.714-1.143 0-2 0.286-4.286 0.857-6 4.572l-79.714 145.143-74-74 15.143-55.428q1.429-4.857-2.286-8.857l-27.429-27.428q-2.571-2.572-6.572-2.572h-0.571q-4.286 0.572-6.857 3.714l-54 72-72 54q-3.143 2-3.715 6.572-0.285 3.714 2.571 7.143l27.428 27.714q2.572 2.572 6.572 2.572 1.715 0 2.285-0.286l55.428-15.143 74 74-145.143 79.714q-4 2.286-4.857 6.857-0.572 4.572 2.572 7.714l36.572 36.572q4 3.714 8.572 2.286l190-45.429 45.714 45.715q21.714 21.714 49.143 30.857t42.286-3.428z" horiz-adv-x="403" data-tags="plane, airplane, aircraft, flight, vacation, travel" />
<glyph unicode="&#xe66c;" d="M36.572-36.571h82.285v82.286h-82.285v-82.286zM137.143-36.571h91.429v82.286h-91.428v-82.286zM36.572 64h82.285v91.428h-82.285v-91.428zM137.143 64h91.429v91.428h-91.428v-91.428zM36.572 173.714h82.285v82.286h-82.285v-82.286zM246.857-36.571h91.429v82.286h-91.428v-82.286zM137.143 173.714h91.429v82.286h-91.428v-82.286zM356.572-36.571h82.286v82.286h-82.286v-82.286zM246.857 64h91.429v91.428h-91.428v-91.428zM146.286 310.857v82.286q0 3.714-2.714 6.428t-6.428 2.715h-18.285q-3.715 0-6.428-2.715t-2.715-6.428v-82.286q0-3.714 2.715-6.428t6.428-2.714h18.285q3.714 0 6.428 2.714t2.714 6.429zM356.572 64h82.286v91.428h-82.286v-91.428zM246.857 173.714h91.429v82.286h-91.428v-82.286zM356.572 173.714h82.286v82.286h-82.286v-82.286zM365.714 310.857v82.286q0 3.714-2.714 6.428t-6.428 2.715h-18.286q-3.714 0-6.428-2.715t-2.714-6.428v-82.286q0-3.714 2.714-6.428t6.428-2.714h18.286q3.714 0 6.428 2.714t2.714 6.429zM475.428 329.143v-365.714q0-14.857-10.857-25.714t-25.714-10.857h-402.286q-14.857 0-25.715 10.857t-10.857 25.714v365.714q0 14.857 10.857 25.714t25.715 10.857h36.572v27.428q0 18.857 13.428 32.286t32.285 13.428h18.285q18.857 0 32.285-13.428t13.428-32.286v-27.428h109.714v27.428q0 18.857 13.428 32.286t32.286 13.428h18.286q18.857 0 32.286-13.428t13.428-32.286v-27.428h36.572q14.857 0 25.714-10.857t10.857-25.714z" horiz-adv-x="476" data-tags="calendar, date, schedule" />
<glyph unicode="&#xe66d;" d="M190.286 301.429q-17.143-26.286-39.143-78-6.286 12.857-10.571 20.714t-11.572 18.143-14.572 16.143-18 10-23.285 4.143h-64q-4 0-6.572 2.571t-2.571 6.572v54.857q0 4 2.571 6.571t6.572 2.572h64q71.429 0 117.143-64.286zM512 73.143q0-4-2.572-6.572l-91.428-91.428q-2.572-2.572-6.572-2.572-3.714 0-6.428 2.714t-2.714 6.428v54.857q-9.143 0-24.286-0.143t-23.143-0.286-20.857 0.286-20.286 1.428-18.286 3-18 5.286-16.572 8.143-16.857 11.428-15.714 15.286-16 19.857q16.857 26.572 38.857 78 6.286-12.857 10.572-20.714t11.572-18.143 14.572-16.143 18-10 23.286-4.143h73.143v54.857q0 4 2.572 6.572t6.572 2.572q3.428 0 6.857-2.857l91.143-91.143q2.572-2.572 2.572-6.572zM512 329.143q0-4-2.572-6.572l-91.428-91.428q-2.572-2.571-6.572-2.571-3.714 0-6.428 2.714t-2.714 6.428v54.857h-73.143q-13.714 0-24.857-4.286t-19.714-12.857-14.572-17.572-12.857-22.143q-9.143-17.715-22.286-48.857-8.286-18.857-14.143-31.714t-15.429-30-18.286-28.572-21.143-23.714-25.715-19.572-30.428-12-36.572-4.714h-64q-4 0-6.572 2.572t-2.571 6.572v54.857q0 4 2.571 6.572t6.572 2.572h64q13.715 0 24.857 4.286t19.715 12.857 14.572 17.572 12.857 22.143q9.143 17.714 22.286 48.857 8.286 18.857 14.143 31.714t15.429 30 18.286 28.572 21.143 23.714 25.715 19.572 30.428 12 36.572 4.715h73.143v54.857q0 4 2.572 6.572t6.572 2.572q3.428 0 6.857-2.857l91.143-91.143q2.572-2.572 2.572-6.572z" data-tags="random, shuffle, order, media, control" />
<glyph unicode="&#xe66e;" d="M512 182.857q0-49.714-34.286-91.857t-93.143-66.572-128.572-24.428q-20 0-41.428 2.286-56.572-50-131.429-69.143-14-4-32.572-6.286-4.857-0.571-8.715 2.572t-5 8.286v0.286q-0.857 1.143-0.143 3.428t0.572 2.857 1.285 2.714l1.715 2.572t2 2.428 2.285 2.572q2 2.286 8.857 9.857t9.857 10.857 8.857 11.286 9.285 14.572 7.715 16.857 7.428 21.714q-44.857 25.428-70.715 62.857t-25.857 80.286q0 37.143 20.285 71t54.572 58.428 81.714 39 99.428 14.429q69.714 0 128.571-24.429t93.143-66.571 34.286-91.857z" data-tags="comment, bubble, chat, talk" />
<glyph unicode="&#xe670;" d="M460.286 91.429q0-15.143-10.572-25.714l-21.428-21.428q-10.857-10.857-26-10.857-15.428 0-25.714 10.857l-138.857 138.572-138.857-138.572q-10.285-10.857-25.715-10.857t-25.715 10.857l-21.428 21.428q-10.857 10.286-10.857 25.714 0 15.143 10.857 26l186 186q10.572 10.572 25.714 10.572 14.857 0 26-10.572l185.714-186q10.857-10.857 10.857-26z" horiz-adv-x="476" data-tags="chevron-up, upload, top" />
<glyph unicode="&#xe671;" d="M460.286 237.714q0-15.143-10.572-25.715l-186-186q-10.857-10.857-26-10.857-15.428 0-25.714 10.857l-186 186q-10.857 10.286-10.857 25.714 0 15.143 10.857 26l21.143 21.428q11.143 10.572 26 10.572 15.143 0 25.715-10.572l138.857-138.857 138.857 138.857q10.572 10.571 25.714 10.571 14.857 0 26-10.572l21.428-21.428q10.572-11.143 10.572-26z" horiz-adv-x="476" data-tags="chevron-down, download, bottom" />
<glyph unicode="&#xe673;" d="M182.857 0q0-15.143-10.714-25.857t-25.857-10.714-25.857 10.714-10.715 25.857 10.715 25.857 25.857 10.714 25.857-10.714 10.714-25.857zM438.857 0q0-15.143-10.714-25.857t-25.857-10.714-25.857 10.714-10.714 25.857 10.714 25.857 25.857 10.714 25.857-10.714 10.714-25.857zM475.428 310.857v-146.286q0-6.857-4.572-12.143t-11.714-6.143l-298.286-34.857q0.286-2 1.286-6.143t1.714-7.572 0.714-6.286q0-4.572-6.857-18.286h262.857q7.428 0 12.857-5.428t5.428-12.857-5.428-12.857-12.857-5.428h-292.572q-7.428 0-12.857 5.428t-5.428 12.857q0 4 3.143 11.286t8.428 17 5.857 10.857l-50.572 235.143h-58.285q-7.428 0-12.857 5.428t-5.428 12.857 5.428 12.857 12.857 5.428h73.143q4.572 0 8.143-1.857t5.715-4.428 3.715-7 2.143-7.572 1.572-8.428 1.285-7.286h343.143q7.428 0 12.857-5.429t5.428-12.857z" horiz-adv-x="476" data-tags="shopping-cart, cart, ecommerce, store" />
<glyph unicode="&#xe674;" d="M475.428 265.143v-201.143q0-26.286-18.857-45.143t-45.143-18.857h-347.428q-26.285 0-45.143 18.857t-18.857 45.143v274.286q0 26.286 18.857 45.143t45.143 18.857h91.428q26.286 0 45.143-18.857t18.857-45.143v-9.143h192q26.286 0 45.143-18.857t18.857-45.143z" horiz-adv-x="476" data-tags="folder-close, category, directory" />
<glyph unicode="&#xe675;" d="M536.857 166.857q0-8.857-8.857-18.857l-96-113.143q-12.286-14.572-34.428-24.714t-41-10.143h-310.857q-9.715 0-17.285 3.714t-7.572 12.286q0 8.857 8.857 18.857l96 113.143q12.286 14.572 34.428 24.714t41 10.143h310.857q9.715 0 17.285-3.715t7.572-12.286zM438.857 265.143v-45.714h-237.714q-26.857 0-56.286-13.572t-46.857-34.143l-97.714-114.858q0 1.143-0.143 3.572t-0.143 3.572v274.286q0 26.286 18.857 45.143t45.143 18.857h91.429q26.286 0 45.143-18.857t18.857-45.143v-9.143h155.429q26.286 0 45.143-18.857t18.857-45.143z" horiz-adv-x="549" data-tags="folder-open, category, directory" />
<glyph unicode="&#xe676;" d="M201.143 347.429q0-7.428-5.429-12.857t-12.857-5.428h-36.571v-292.572h36.572q7.428 0 12.857-5.428t5.429-12.857-5.428-12.857l-73.143-73.143q-5.428-5.428-12.857-5.428t-12.857 5.428l-73.143 73.143q-5.428 5.428-5.428 12.857t5.428 12.857 12.857 5.428h36.572v292.572h-36.572q-7.428 0-12.857 5.429t-5.428 12.857 5.428 12.857l73.143 73.143q5.428 5.428 12.857 5.428t12.857-5.428l73.143-73.143q5.428-5.428 5.428-12.857z" horiz-adv-x="220" data-tags="resize-vertical, arrow" />
<glyph unicode="&#xe677;" d="M512 182.857q0-7.428-5.428-12.857l-73.143-73.143q-5.428-5.428-12.857-5.428t-12.857 5.428-5.428 12.857v36.572h-292.572v-36.572q0-7.428-5.428-12.857t-12.857-5.428-12.857 5.428l-73.143 73.143q-5.428 5.428-5.428 12.857t5.428 12.857l73.143 73.143q5.428 5.428 12.857 5.428t12.857-5.428 5.428-12.857v-36.572h292.572v36.572q0 7.428 5.428 12.857t12.857 5.428 12.857-5.428l73.143-73.143q5.428-5.429 5.428-12.857z" data-tags="resize-horizontal, arrow" />
<glyph unicode="&#xe678;" d="M146.286 146.286v-109.714h-73.143v109.714h73.143zM256 292.572v-256h-73.143v256h73.143zM365.714 219.429v-182.857h-73.143v182.857h73.143zM475.428 329.143v-292.572h-73.143v292.572h73.143zM512 9.143v347.428q0 3.715-2.714 6.428t-6.428 2.715h-457.143q-3.715 0-6.428-2.715t-2.715-6.428v-347.428q0-3.714 2.715-6.428t6.428-2.714h457.143q3.714 0 6.428 2.714t2.714 6.428zM548.572 356.572v-347.428q0-18.857-13.428-32.286t-32.286-13.428h-457.143q-18.857 0-32.285 13.428t-13.428 32.286v347.428q0 18.857 13.428 32.286t32.285 13.428h457.143q18.857 0 32.286-13.428t13.428-32.286z" horiz-adv-x="549" data-tags="bar-chart, chart, graph, plot" />
<glyph unicode="&#xe679;" d="M265.143 201.143q0 4-2.572 6.572t-6.572 2.572q-18.857 0-32.286-13.429t-13.428-32.286q0-4 2.571-6.572t6.571-2.572 6.572 2.572 2.571 6.572q0 11.428 8 19.428t19.429 8q4 0 6.572 2.572t2.572 6.571zM329.143 164q0-30.286-21.428-51.714t-51.714-21.428-51.714 21.428-21.428 51.714 21.428 51.714 51.714 21.428 51.714-21.428 21.428-51.714zM36.572 0h438.857v36.572h-438.857v-36.572zM365.714 164q0 45.428-32.143 77.572t-77.572 32.143-77.572-32.143-32.143-77.572 32.143-77.572 77.572-32.143 77.572 32.143 32.143 77.572zM73.143 347.429h109.715v36.572h-109.715v-36.572zM36.572 292.572h438.857v73.143h-236.571l-18.285-36.572h-184v-36.572zM512 365.714v-365.714q0-15.143-10.714-25.857t-25.857-10.714h-438.857q-15.143 0-25.857 10.714t-10.714 25.857v365.714q0 15.143 10.714 25.857t25.857 10.714h438.857q15.143 0 25.857-10.714t10.714-25.857z" data-tags="camera-retro, image, picture, photo" />
<glyph unicode="&#xe67a;" d="M237.714 292.572q0 22.857-16 38.857t-38.857 16-38.857-16-16-38.857q0-12 5.428-23.714-11.715 5.428-23.715 5.428-22.857 0-38.857-16t-16-38.857 16-38.857 38.857-16 38.857 16 16 38.857q0 12-5.428 23.714 11.714-5.428 23.714-5.428t38.857 16 16 38.857zM480.857 91.429q0-4.857-14-18.857t-18.857-14q-2.572 0-8.143 4.572t-10.428 9.428-11 11.428-7 7.428l-27.428-27.428 62.857-62.857q8-8 8-19.428 0-12-11.143-23.143t-23.143-11.143q-11.428 0-19.428 8l-191.714 191.714q-50.286-37.428-104.285-37.428-46.572 0-75.857 29.286t-29.285 75.857q0 45.714 27.143 89.428t70.857 70.857 89.428 27.143q46.572 0 75.857-29.285t29.286-75.857q0-54-37.428-104.286l101.428-101.428 27.428 27.428q-0.857 0.857-7.428 7t-11.428 11-9.428 10.428-4.572 8.143q0 4.857 14 18.857t18.857 14q3.714 0 6.572-2.857 1.714-1.714 13.143-12.715t23.428-22.714 24.714-24.572 20.857-22.286 8.143-11.714z" data-tags="key, unlock, password" />
<glyph unicode="&#xe67b;" d="M256 182.857q0 30.286-21.428 51.714t-51.714 21.428-51.714-21.428-21.428-51.714 21.428-51.714 51.714-21.428 51.714 21.428 21.428 51.714zM475.428 36.572q0 14.857-10.857 25.714t-25.714 10.857-25.714-10.857-10.857-25.714q0-15.143 10.714-25.857t25.857-10.714 25.857 10.714 10.714 25.857zM475.428 329.143q0 14.857-10.857 25.714t-25.714 10.857-25.714-10.857-10.857-25.714q0-15.143 10.714-25.857t25.857-10.714 25.857 10.714 10.714 25.857zM365.714 208.857v-52.857q0-2.857-2-5.572t-4.572-3l-44.286-6.857q-3.143-10-9.143-21.714 9.714-13.714 25.714-32.857 2-2.857 2-5.714 0-3.428-2-5.428-6.572-8.572-23.572-25.572t-22.428-17q-3.143 0-6 2l-32.857 25.714q-10.571-5.428-22-8.857-3.143-30.857-6.571-44.286-2-6.857-8.572-6.857h-53.143q-3.143 0-5.714 2.143t-2.857 5l-6.572 43.714q-9.714 2.857-21.428 8.857l-33.715-25.428q-2-2-5.715-2-3.143 0-6 2.286-41.143 38-41.143 45.714 0 2.572 2 5.428 2.857 4 11.715 15.143t13.428 17.428q-6.572 12.572-10 23.428l-43.428 6.857q-2.857 0.286-4.857 2.714t-2 5.572v52.857q0 2.857 2 5.571t4.572 3l44.285 6.857q3.143 10 9.143 21.714-9.715 13.714-25.715 32.857-2 3.143-2 5.714 0 3.428 2 5.714 6.285 8.571 23.428 25.428t22.572 16.857q3.143 0 6-2l32.857-25.714q9.715 5.143 22 9.143 3.143 30.857 6.572 44 2 6.857 8.572 6.857h53.143q3.143 0 5.714-2.143t2.857-5l6.572-43.715q9.714-2.857 21.428-8.857l33.714 25.428q2.286 2 5.714 2 3.143 0 6-2.285 41.143-38 41.143-45.715 0-2.571-2-5.428-3.428-4.572-12-15.428t-12.857-17.143q6.572-13.714 9.714-23.429l43.428-6.572q2.857-0.571 4.857-3t2-5.572zM548.572 56.572v-40q0-4.572-42.572-8.857-3.428-7.714-8.572-14.857 14.572-32.286 14.572-39.428 0-1.143-1.143-2-34.857-20.286-35.428-20.286-2.286 0-13.143 13.428t-14.857 19.428q-5.714-0.572-8.572-0.572t-8.572 0.572q-4-6-14.857-19.428t-13.143-13.428q-0.572 0-35.428 20.286-1.143 0.857-1.143 2 0 7.143 14.572 39.428-5.143 7.143-8.572 14.857-42.572 4.286-42.572 8.857v40q0 4.572 42.572 8.857 3.714 8.286 8.572 14.857-14.572 32.286-14.572 39.428 0 1.143 1.143 2 1.143 0.572 10 5.714t16.857 9.714 8.572 4.572q2.286 0 13.143-13.286t14.857-19.286q5.714 0.572 8.572 0.572t8.572-0.572q14.572 20.286 26.286 32l1.714 0.572q1.143 0 35.428-20 1.143-0.857 1.143-2 0-7.143-14.572-39.428 4.857-6.572 8.572-14.857 42.572-4.286 42.572-8.857zM548.572 349.143v-40q0-4.572-42.572-8.857-3.428-7.714-8.572-14.857 14.572-32.286 14.572-39.428 0-1.143-1.143-2-34.857-20.286-35.428-20.286-2.286 0-13.143 13.428t-14.857 19.428q-5.714-0.571-8.572-0.571t-8.572 0.571q-4-6-14.857-19.428t-13.143-13.428q-0.572 0-35.428 20.286-1.143 0.857-1.143 2 0 7.143 14.572 39.428-5.143 7.143-8.572 14.857-42.572 4.286-42.572 8.857v40q0 4.572 42.572 8.857 3.714 8.286 8.572 14.857-14.572 32.286-14.572 39.429 0 1.143 1.143 2 1.143 0.571 10 5.714t16.857 9.714 8.572 4.572q2.286 0 13.143-13.286t14.857-19.286q5.714 0.572 8.572 0.572t8.572-0.572q14.572 20.286 26.286 32l1.714 0.572q1.143 0 35.428-20 1.143-0.857 1.143-2 0-7.143-14.572-39.428 4.857-6.572 8.572-14.857 42.572-4.286 42.572-8.857z" horiz-adv-x="549" data-tags="cogs, settings, options, preferences, gears" />
<glyph unicode="&#xe67c;" d="M402.286 219.429q0-39.715-26.857-73.429t-73.286-53.286-101-19.572q-24.572 0-50.286 4.572-35.428-25.143-79.428-36.572-10.285-2.572-24.572-4.572h-0.857q-3.143 0-5.857 2.286t-3.285 6q-0.285 0.857-0.285 1.857t0.143 1.857 0.572 1.714l0.715 1.428t1 1.572 1.143 1.428 1.285 1.428 1.143 1.286q1.428 1.714 6.572 7.143t7.428 8.428 6.428 8.286 7.143 11 5.857 12.572q-35.428 20.572-55.715 50.572t-20.285 64q0 39.714 26.857 73.428t73.285 53.286 101 19.572 101-19.572 73.286-53.286 26.857-73.428zM512 146.286q0-34.286-20.286-64.143t-55.714-50.428q2.857-6.857 5.857-12.572t7.143-11 6.428-8.286 7.428-8.428 6.572-7.143q0.286-0.286 1.143-1.286t1.286-1.428 1.143-1.428 1-1.572l0.714-1.428t0.572-1.714 0.143-1.857-0.286-1.857q-0.857-4-3.714-6.286t-6.286-2q-14.286 2-24.572 4.572-44 11.428-79.428 36.572-25.714-4.572-50.286-4.572-77.428 0-134.857 37.714 16.571-1.143 25.143-1.143 46 0 88.286 12.857t75.428 36.857q35.714 26.286 54.857 60.572t19.143 72.572q0 22-6.572 43.428 36.857-20.286 58.286-50.857t21.429-65.715z" data-tags="comments, chat, talk, bubbles" />
<glyph unicode="&#xe67d;" d="M73.143 54.857q0 7.428-5.428 12.857t-12.857 5.428-12.857-5.428-5.428-12.857 5.428-12.857 12.857-5.428 12.857 5.428 5.428 12.857zM402.286 219.429q0 14.571-11.143 25.571t-25.428 11h-100.572q0 16.572 13.714 45.572t13.714 45.857q0 28-9.143 41.428t-36.572 13.428q-7.428-7.428-10.857-24.286t-8.714-35.857-17-31.286q-6.286-6.572-22-26-1.143-1.428-6.571-8.572t-9-11.714-9.857-12.143-11.429-12.572-11-10.143-11.428-7.714-10.143-2.572h-9.143v-182.857h9.143q3.715 0 9-0.857t9.429-1.857 10.857-3.143 10-3.286 10.143-3.572 8.286-3q60.286-20.857 97.714-20.857h34.572q54.857 0 54.857 47.714 0 7.428-1.428 16 8.572 4.572 13.572 15t5 21-5.143 19.714q15.143 14.286 15.143 34 0 7.143-2.857 15.857t-7.143 13.572q9.143 0.286 15.286 13.428t6.143 23.143zM438.857 219.714q0-25.429-14-46.572 2.572-9.428 2.572-19.714 0-22-10.857-41.143 0.857-6 0.857-12.286 0-28.857-17.143-50.857 0.286-39.714-24.286-62.714t-64.857-23h-36.857q-27.428 0-54.143 6.428t-61.857 18.714q-33.143 11.428-39.428 11.428h-82.285q-15.143 0-25.857 10.714t-10.714 25.857v182.857q0 15.143 10.714 25.857t25.857 10.714h78.285q10.285 6.857 39.143 44.286 16.572 21.428 30.572 36.572 6.857 7.143 10.143 24.428t8.714 36.143 17.715 30.857q11.143 10.572 25.714 10.572 24 0 43.143-9.286t29.143-29 10-53.143q0-26.572-13.714-54.857h50.286q29.714 0 51.428-21.714t21.714-51.143z" horiz-adv-x="439" data-tags="thumbs-up, like" />
<glyph unicode="&#xe67e;" d="M73.143 310.857q0 7.429-5.428 12.857t-12.857 5.428-12.857-5.428-5.428-12.857 5.428-12.857 12.857-5.429 12.857 5.428 5.428 12.857zM402.286 146.286q0 10-6.143 23.143t-15.286 13.428q4.286 4.857 7.143 13.572t2.857 15.857q0 19.714-15.143 34 5.143 9.143 5.143 19.714t-5 21-13.572 15q1.428 8.572 1.428 16 0 24.286-14 36t-38.857 11.714h-36.572q-37.428 0-97.714-20.857-1.429-0.572-8.286-3t-10.143-3.572-10-3.285-10.857-3.143-9.428-1.857-9-0.857h-9.143v-182.857h9.143q4.572 0 10.143-2.572t11.428-7.714 11-10.143 11.428-12.572 9.857-12.143 9-11.714 6.571-8.572q15.714-19.428 22-26 11.714-12.286 17-31.286t8.714-35.857 10.857-24.286q27.429 0 36.571 13.428t9.143 41.428q0 16.857-13.714 45.857t-13.714 45.572h100.572q14.286 0 25.428 11t11.143 25.572zM438.857 146q0-29.428-21.714-51.143t-51.428-21.714h-50.286q13.714-28.286 13.714-54.857 0-33.714-10-53.143-10-19.714-29.143-29t-43.143-9.285q-14.571 0-25.715 10.572-9.714 9.428-15.428 23.428t-7.286 25.857-5 24.143-8.857 18.286q-13.714 14.286-30.571 36.286-28.857 37.428-39.143 44.286h-78.285q-15.143 0-25.857 10.714t-10.714 25.857v182.857q0 15.143 10.714 25.857t25.857 10.715h82.285q6.285 0 39.429 11.428 36.572 12.572 63.714 18.857t57.143 6.286h32q40 0 64.714-22.572t24.428-61.714v-1.428q17.143-22 17.143-50.857 0-6.286-0.857-12.286 10.857-19.143 10.857-41.143 0-10.286-2.572-19.715 14-21.143 14-46.572z" horiz-adv-x="439" data-tags="thumbs-down, dislike" />
<glyph unicode="&#xe67f;" d="M237.714 429.714v-382.572l-128.286-67.428q-6.285-3.428-11.428-3.428-6 0-9 4.143t-3 10.143q0 1.714 0.572 5.714l24.572 142.857-104 101.143q-7.143 7.714-7.143 13.714 0 10.571 16 13.143l143.428 20.857 64.286 130q5.428 11.714 14 11.714z" horiz-adv-x="256" data-tags="star-half, rating" />
<glyph unicode="&#xe680;" d="M475.428 268.572q0 23.143-6.143 40.857t-15.714 28.143-23.286 17-26.857 8.857-28 2.286-32-7.286-31.572-18.286-24.714-20.572-17.143-17.572q-5.143-6.286-14-6.286t-14 6.286q-6.857 8-17.143 17.572t-24.715 20.572-31.572 18.285-32 7.286-28-2.286-26.857-8.857-23.285-17-15.715-28.143-6.143-40.857q0-48 53.428-101.429l166-160 165.714 159.714q53.714 53.714 53.714 101.714zM512 268.572q0-63.143-65.428-128.571l-178-171.428q-5.143-5.143-12.572-5.143t-12.572 5.143l-178.286 172q-2.857 2.286-7.857 7.428t-15.857 18.714-19.428 27.857-15.286 34.571-6.715 39.428q0 62.857 36.285 98.286t100.285 35.428q17.714 0 36.143-6.143t34.285-16.572 27.286-19.572 21.714-19.428q10.286 10.286 21.714 19.428t27.286 19.572 34.286 16.572 36.143 6.143q64 0 100.286-35.428t36.286-98.286z" data-tags="heart-empty, love, like" />
<glyph unicode="&#xe681;" d="M182.857 27.429q0-1.143 0.286-5.714t0.143-7.572-0.857-6.714-2.857-5.572-5.857-1.857h-91.428q-34 0-58.143 24.143t-24.143 58.143v201.143q0 34 24.143 58.143t58.143 24.143h91.428q3.714 0 6.429-2.715t2.714-6.428q0-1.143 0.286-5.714t0.143-7.572-0.857-6.714-2.857-5.572-5.857-1.857h-91.428q-18.857 0-32.285-13.428t-13.428-32.286v-201.143q0-18.857 13.428-32.286t32.285-13.428h89.142t3.286-0.286 3.286-0.857 2.286-1.572 2-2.572 0.571-3.857zM448 182.857q0-7.428-5.428-12.857l-155.428-155.428q-5.428-5.428-12.857-5.428t-12.857 5.428-5.428 12.857v82.286h-128q-7.428 0-12.857 5.428t-5.428 12.857v109.714q0 7.428 5.428 12.857t12.857 5.428h128v82.286q0 7.428 5.428 12.857t12.857 5.429 12.857-5.429l155.428-155.428q5.428-5.428 5.428-12.857z" horiz-adv-x="476" data-tags="signout, exit, quit, logout, log out, leave" />
<glyph unicode="&#xe682;" d="M151.544 350.723l-80.050 80.029-61.765-61.765 80.050-80.029-60.026-60.026 180.706-0.092-0.394 180.404-58.519-58.519zM422.221 288.958l80.050 80.029-61.765 61.765-80.050-80.028-58.519 58.519-0.394-180.405 180.706 0.093-60.026 60.026zM89.779 76.756l-80.050-80.029 61.765-61.765 80.050 80.029 58.543-58.519 0.394 180.404-180.706-0.092 60.004-60.026zM482.247 136.783l-180.705 0.092 0.394-180.405 58.519 58.519 80.050-80.029 61.765 61.765-80.050 80.029 60.026 60.026z" data-tags="collapse, shrink, minimize" />
<glyph unicode="&#xe683;" d="M137.143 192v128q0 4-2.571 6.571t-6.572 2.572-6.572-2.572-2.572-6.571v-128q0-4 2.572-6.572t6.572-2.571 6.572 2.571 2.571 6.572zM329.143 91.429q0-7.428-5.428-12.857t-12.857-5.428h-122.572l-14.572-138q-0.571-3.428-3-5.857t-5.857-2.428h-0.286q-7.714 0-9.143 7.714l-21.714 138.572h-115.428q-7.428 0-12.857 5.428t-5.428 12.857q0 35.143 22.428 63.286t50.715 28.143v146.286q-14.857 0-25.715 10.857t-10.857 25.714 10.857 25.715 25.715 10.857h182.857q14.857 0 25.714-10.857t10.857-25.715-10.857-25.714-25.714-10.857v-146.286q28.286 0 50.714-28.143t22.428-63.286z" horiz-adv-x="329" data-tags="pushpin, pin, needle" />
<glyph unicode="&#xe684;" d="M402.286 173.714v-91.428q0-34-24.143-58.143t-58.143-24.143h-237.714q-34 0-58.143 24.143t-24.143 58.143v237.714q0 34 24.143 58.143t58.143 24.143h201.143q4 0 6.572-2.571t2.572-6.572v-18.286q0-4-2.572-6.572t-6.572-2.571h-201.143q-18.857 0-32.285-13.429t-13.428-32.286v-237.714q0-18.857 13.428-32.286t32.285-13.428h237.715q18.857 0 32.286 13.428t13.428 32.286v91.428q0 4 2.572 6.572t6.572 2.572h18.286q4 0 6.572-2.572t2.572-6.572zM512 420.572v-146.286q0-7.428-5.428-12.857t-12.857-5.429-12.857 5.428l-50.286 50.286-186.286-186.286q-2.857-2.857-6.572-2.857t-6.572 2.857l-32.572 32.572q-2.857 2.857-2.857 6.572t2.857 6.572l186.286 186.286-50.286 50.286q-5.428 5.428-5.428 12.857t5.428 12.857 12.857 5.428h146.286q7.428 0 12.857-5.428t5.428-12.857z" data-tags="external-link, blank, out, popout" />
<glyph unicode="&#xe685;" d="M338.286 182.857q0-7.428-5.428-12.857l-155.429-155.428q-5.429-5.428-12.857-5.428t-12.857 5.428-5.429 12.857v82.286h-128q-7.428 0-12.857 5.428t-5.428 12.857v109.714q0 7.428 5.428 12.857t12.857 5.428h128v82.286q0 7.428 5.428 12.857t12.857 5.429 12.857-5.429l155.428-155.428q5.428-5.428 5.428-12.857zM438.857 283.429v-201.143q0-34-24.143-58.143t-58.143-24.143h-91.428q-3.714 0-6.428 2.714t-2.714 6.428q0 1.143-0.286 5.714t-0.143 7.572 0.857 6.714 2.857 5.572 5.857 1.857h91.428q18.857 0 32.286 13.428t13.428 32.286v201.143q0 18.857-13.428 32.285t-32.286 13.429h-89.142t-3.286 0.286-3.286 0.857-2.286 1.572-2 2.572-0.572 3.857q0 1.143-0.286 5.714t-0.143 7.572 0.857 6.714 2.857 5.572 5.857 1.857h91.428q34 0 58.143-24.143t24.143-58.143z" horiz-adv-x="439" data-tags="signin, login, enter" />
<glyph unicode="&#xe686;" d="M130.857 186.572q-21.143 46.286-21.143 106h-73.143v-27.428q0-22.286 27-46.286t67.285-32.286zM438.857 265.143v27.428h-73.143q0-59.714-21.143-106 40.286 8.286 67.286 32.286t27 46.286zM475.428 301.714v-36.572q0-20.286-11.857-40.857t-32-37.143-49.428-27.857-61.572-12.714q-12-15.428-27.143-27.143-10.857-9.714-15-20.714t-4.143-25.572q0-15.428 8.714-26t27.857-10.572q21.428 0 38.143-13t16.714-32.714v-18.286q0-4-2.572-6.572t-6.572-2.572h-237.714q-4 0-6.572 2.572t-2.572 6.572v18.286q0 19.714 16.715 32.714t38.143 13q19.143 0 27.857 10.572t8.714 26q0 14.572-4.143 25.572t-15 20.714q-15.143 11.714-27.143 27.143-32.285 1.428-61.572 12.714t-49.428 27.857-32 37.143-11.857 40.857v36.571q0 11.428 8 19.428t19.428 8h82.285v27.429q0 18.857 13.428 32.286t32.285 13.428h164.571q18.857 0 32.286-13.428t13.428-32.286v-27.429h82.286q11.428 0 19.428-8t8-19.428z" horiz-adv-x="476" data-tags="trophy, cup, prize, present, win, tournament" />
<glyph unicode="&#xe687;" d="M256 424.385c-133.624 0-241.509-107.905-241.509-241.528 0-133.587 107.885-241.528 241.509-241.528 133.605 0 241.528 107.923 241.528 241.528 0 133.624-107.942 241.528-241.528 241.528zM255.147 327.8c17.276 0 31.305-14.010 31.305-31.323 0-17.295-14.029-31.323-31.304-31.323-17.313 0-31.323 14.029-31.323 31.323-0.018 17.313 14.010 31.323 31.323 31.323zM259.377-42.434c-65.707 0-116.162 49.063-116.162 112.543 0 61.328 46.428 112.58 108.684 112.525 0 0 116.867 5.752 116.867 112.877 0 64.391-38.968 103.302-112.915 112.877 133.104-7.385 225.421-99.702 225.421-225.402 0.019-122.656-100.927-225.421-221.895-225.421zM256.279 102.806c-17.294 0-31.323-14.010-31.323-31.323 0-17.295 14.029-31.323 31.323-31.323s31.323 14.029 31.323 31.323c0 17.313-14.029 31.323-31.323 31.323z" data-tags="ying yang" />
<glyph unicode="&#xe688;" d="M365.714 18.286q0 7.428-5.428 12.857t-12.857 5.428-12.857-5.428-5.428-12.857 5.428-12.857 12.857-5.428 12.857 5.428 5.428 12.857zM438.857 18.286q0 7.428-5.428 12.857t-12.857 5.428-12.857-5.428-5.428-12.857 5.428-12.857 12.857-5.428 12.857 5.428 5.428 12.857zM475.428 82.286v-91.428q0-11.428-8-19.428t-19.428-8h-420.572q-11.428 0-19.428 8t-8 19.428v91.428q0 11.428 8 19.428t19.428 8h122q6-16 20.143-26.286t31.571-10.286h73.143q17.428 0 31.572 10.286t20.143 26.286h122q11.428 0 19.428-8t8-19.428zM382.572 267.429q-4.857-11.429-16.857-11.429h-73.143v-128q0-7.428-5.428-12.857t-12.857-5.428h-73.143q-7.429 0-12.857 5.428t-5.428 12.857v128h-73.143q-12 0-16.857 11.428-4.857 11.143 4 19.714l128 128q5.143 5.428 12.857 5.428t12.857-5.428l128-128q8.857-8.572 4-19.714z" horiz-adv-x="476" data-tags="upload-alt, load, open" />
<glyph unicode="&#xe689;" d="M402 202.857q0 12.572-2 32.428t-5.143 27.572q-3.428 8.572-4.857 12.572t-2.572 10.428-1.143 13.857q0 6.571 1.428 19.572t1.428 19.285q0 10.572-2.857 15.715-1.143 0.285-3.714 0.285-5.428 0-16.572-1.285t-16.857-1.286q-17.143 0-50.286 6.857t-50 6.857q-12.286 0-27-3.286t-24.286-6.714-25.572-9.715q-39.143-15.428-57.715-29.428-27.428-20.857-45.572-54.143t-25.143-67.429-7-71q0-11.428 3.572-34.286t3.572-34.572q0-6.572-3.143-19t-3.143-18.714 3.428-10.428 9.715-4.143q6.857 0 20.715 3.143t21 3.143q16.285 0 48.428-4.428t48.428-4.428q51.714 0 81.143 10.286 36.857 12.857 67.286 43.572t47.428 70.143 17 78.572zM438.572 203.429q0-47.143-20-93.572t-56-82.286-80.286-51.572q-35.428-12.572-93.143-12.572-16.285 0-48.571 4.143t-48.285 4.143q-6.857 0-20.715-4.143t-21-4.143q-20.857 0-35.285 15.857t-14.428 36.714q0 6.857 3.143 19.428t3.143 19.143q0 11.428-3.571 34.428t-3.571 34.714q0 31.714 5.143 62.143t15.572 59.857 28.715 55.428 42.857 44.572q22.285 16.857 66.285 34.286 55.428 22.286 90.286 22.286 17.143 0 50.143-6.857t49.572-6.857q5.428 0 16.286 1.429t16.572 1.428q23.143 0 33.714-14.428t10.572-38.429q0-6.571-1.428-19.428t-1.428-19.428q0-2.857 0.286-5.286t0.857-4.857 1.143-3.857 1.857-4.572 1.857-4.857q4.572-11.429 7.143-33.857t2.572-39z" horiz-adv-x="439" data-tags="lemon, fruit, food" />
<glyph unicode="&#xe68a;" d="M402.286 84.572q0-7.714-2.857-20.143t-6-19.572q-6-14.286-34.857-30.286-26.857-14.572-53.143-14.572-7.714 0-15 1t-16.428 3.572-13.572 4.143-15.857 5.857-14 5.143q-28 10-50 23.714-36.571 22.572-75.572 61.572t-61.572 75.572q-13.715 22-23.715 50-0.857 2.572-5.143 14t-5.857 15.857-4.143 13.571-3.571 16.428-1 15q0 26.286 14.572 53.143 16 28.857 30.285 34.857 7.143 3.143 19.572 6t20.143 2.857q4 0 6-0.857 5.143-1.714 15.143-21.714 3.143-5.428 8.572-15.428t10-18.143 8.857-15.286q0.857-1.143 5-7.143t6.143-10.143 2-8.143q0-5.714-8.143-14.286t-17.715-15.714-17.715-15.143-8.143-13.143q0-2.571 1.428-6.428t2.428-5.857 4-6.857 3.285-5.428q21.715-39.143 49.715-67.143t67.143-49.714q0.571-0.286 5.428-3.286t6.857-4 5.857-2.428 6.428-1.428q5.143 0 13.143 8.143t15.143 17.714 15.714 17.714 14.286 8.143q4 0 8.143-2t10.143-6.143 7.143-5q7.143-4.286 15.286-8.857t18.143-10 15.428-8.572q20-10 21.714-15.143 0.857-2 0.857-6z" horiz-adv-x="403" data-tags="phone, contact, talk, voice" />
<glyph unicode="&#xe68b;" d="M320 365.714h-237.714q-18.857 0-32.285-13.428t-13.428-32.286v-237.715q0-18.857 13.428-32.286t32.285-13.428h237.714q18.857 0 32.286 13.428t13.428 32.286v237.714q0 18.857-13.428 32.286t-32.286 13.428zM402.286 320v-237.715q0-34-24.143-58.143t-58.143-24.143h-237.714q-34 0-58.143 24.143t-24.143 58.143v237.714q0 34 24.143 58.143t58.143 24.143h237.714q34 0 58.143-24.143t24.143-58.143z" horiz-adv-x="403" data-tags="check-empty, checkbox, square" />
<glyph unicode="&#xe68c;" d="M329.143 365.714h-292.572v-354.857l146.286 140.286 25.428-24.286 120.857-116v354.857zM332.572 402.286q6.572 0 12.572-2.572 9.428-3.715 15-11.715t5.572-17.714v-368.286q0-9.714-5.572-17.714t-15-11.714q-5.428-2.286-12.572-2.286-13.714 0-23.714 9.143l-126 121.143-126-121.143q-10.285-9.428-23.715-9.428-6.572 0-12.572 2.572-9.428 3.714-15 11.714t-5.572 17.714v368.286q0 9.715 5.572 17.715t15 11.714q6 2.571 12.572 2.571h299.428z" horiz-adv-x="366" data-tags="bookmark-empty" />
<glyph unicode="&#xe68d;" d="M365.714 98q0 3.143-0.572 4.572-0.857 2.286-11 8.428t-25.286 14.143l-15.143 8.286q-1.428 0.857-5.428 3.714t-7.143 4.286-6 1.428q-5.143 0-13.428-9.286t-16.286-18.714-12.572-9.428q-2 0-4.714 1t-4.428 1.857-4.857 2.714-4 2.428q-28.285 15.714-48.715 36.143t-36.143 48.714q-0.571 0.857-2.429 4t-2.714 4.857-1.857 4.428-1 4.714q0 3.714 5.857 9.572t12.857 11 12.857 11.286 5.857 10.428q0 2.857-1.429 6t-4.286 7.143-3.714 5.428q-0.857 1.714-4.286 8.143t-7.143 13-7.571 13.571-7.143 11.572-4.714 5.143-4.571 0.572q-13.715 0-28.857-6.286-13.143-6-22.857-27t-9.715-37.286q0-4.572 0.715-9.714t1.428-8.714 2.572-9.428 2.857-8.428 3.572-9.428 3.143-8.572q17.143-46.857 61.857-91.572t91.572-61.857q1.714-0.572 8.572-3.143t9.428-3.572 8.428-2.857 9.428-2.572 8.714-1.428 9.714-0.714q16.286 0 37.286 9.714t27 22.857q6.286 15.143 6.286 28.857zM438.857 320v-274.286q0-34-24.143-58.143t-58.143-24.143h-274.286q-34 0-58.143 24.143t-24.143 58.143v274.286q0 34 24.143 58.143t58.143 24.143h274.286q34 0 58.143-24.143t24.143-58.143z" horiz-adv-x="439" data-tags="phone-sign, contact, talk, voice" />
<glyph unicode="&#xe68e;" d="M0 417.524v-469.334h512v469.334h-512zM469.334-9.143h-426.666v277.334h426.666v-277.334zM469.334 289.524h-426.666v85.334h426.666v-85.334zM234.667 353.524h-42.667v-42.666h42.666v42.666zM170.667 353.524h-42.667v-42.666h42.666v42.666zM106.666 353.524h-42.666v-42.666h42.666v42.666z" data-tags="browser, window" />
<glyph unicode="&#xe68f;" d="M64 417.524v-64h-64v-405.334h448v64h64v405.334h-448zM405.334-9.143h-362.666v320h21.334v-298.666h341.334v-21.334zM469.334 54.857h-362.666v213.334h362.666v-213.334zM469.334 289.524h-362.666v85.334h362.666v-85.334zM298.666 353.524h-42.666v-42.666h42.666v42.666zM234.667 353.524h-42.667v-42.666h42.666v42.666zM170.667 353.524h-42.667v-42.666h42.666v42.666z" data-tags="windows" />
<glyph unicode="&#xe690;" d="M502.857 402.286q18.857 0 32.286-13.429t13.428-32.286v-347.428q0-18.857-13.428-32.286t-32.286-13.428h-457.143q-18.857 0-32.285 13.428t-13.428 32.286v347.428q0 18.857 13.428 32.286t32.285 13.428h457.143zM45.715 365.714q-3.715 0-6.428-2.715t-2.715-6.428v-64h475.428v64q0 3.715-2.714 6.428t-6.428 2.715h-457.143zM502.857 0q3.714 0 6.428 2.714t2.714 6.428v173.714h-475.428v-173.714q0-3.714 2.715-6.428t6.428-2.714h457.143zM73.143 36.572v36.572h73.143v-36.572h-73.143zM182.857 36.572v36.572h109.715v-36.572h-109.714z" horiz-adv-x="549" data-tags="credit, payment, card" />
</font>
</defs>
</svg>
