<?xml version="1.0" standalone="no"?> 
<!DOCTYPE svg PUBLIC "-//W3C//DTD SVG 1.1//EN" "http://www.w3.org/Graphics/SVG/1.1/DTD/svg11.dtd" >
<svg xmlns="http://www.w3.org/2000/svg">
<defs>
  <font id="VideoJS" horiz-adv-x="512">
    <font-face font-family="VideoJS"
      units-per-em="512" ascent="512"
      descent="0" />
    <missing-glyph horiz-adv-x="0" />
    <glyph glyph-name="play"
      unicode="&#xF101;"
      horiz-adv-x="512" d=" M170.6666666666667 405.3333333333334V106.6666666666667L405.3333333333333 256z" />
    <glyph glyph-name="play-circle"
      unicode="&#xF102;"
      horiz-adv-x="512" d=" M213.3333333333333 160L341.3333333333333 256L213.3333333333333 352V160zM256 469.3333333333333C138.1333333333333 469.3333333333333 42.6666666666667 373.8666666666667 42.6666666666667 256S138.1333333333333 42.6666666666667 256 42.6666666666667S469.3333333333333 138.1333333333334 469.3333333333333 256S373.8666666666666 469.3333333333333 256 469.3333333333333zM256 85.3333333333334C161.92 85.3333333333334 85.3333333333333 161.92 85.3333333333333 256S161.92 426.6666666666667 256 426.6666666666667S426.6666666666667 350.0800000000001 426.6666666666667 256S350.08 85.3333333333334 256 85.3333333333334z" />
    <glyph glyph-name="pause"
      unicode="&#xF103;"
      horiz-adv-x="512" d=" M128 106.6666666666667H213.3333333333333V405.3333333333334H128V106.6666666666667zM298.6666666666667 405.3333333333334V106.6666666666667H384V405.3333333333334H298.6666666666667z" />
    <glyph glyph-name="volume-mute"
      unicode="&#xF104;"
      horiz-adv-x="512" d=" M352 256C352 293.6533333333334 330.24 326.1866666666667 298.6666666666667 341.8666666666667V294.7200000000001L351.04 242.3466666666667C351.68 246.8266666666667 352 251.4133333333334 352 256.0000000000001zM405.3333333333333 256C405.3333333333333 235.9466666666667 400.9600000000001 217.0666666666667 393.8133333333334 199.68L426.1333333333334 167.36C440 193.92 448 224 448 256C448 347.3066666666667 384.1066666666667 423.68 298.6666666666667 443.0933333333334V399.04C360.32 380.6933333333334 405.3333333333333 323.6266666666667 405.3333333333333 256zM91.2 448L64 420.8L164.8 320H64V192H149.3333333333333L256 85.3333333333334V228.8L346.7733333333333 138.0266666666667C332.48 127.04 316.3733333333333 118.1866666666667 298.6666666666667 112.8533333333334V68.8C328 75.52 354.7733333333333 88.96 377.28 107.4133333333333L420.8 64L448 91.2L256 283.2L91.2 448zM256 426.6666666666667L211.4133333333333 382.0800000000001L256 337.4933333333334V426.6666666666667z" />
    <glyph glyph-name="volume-low"
      unicode="&#xF105;"
      horiz-adv-x="512" d=" M149.3333333333333 320V192H234.6666666666667L341.3333333333333 85.3333333333334V426.6666666666667L234.6666666666667 320H149.3333333333333z" />
    <glyph glyph-name="volume-mid"
      unicode="&#xF106;"
      horiz-adv-x="512" d=" M394.6666666666667 256C394.6666666666667 293.6533333333334 372.9066666666667 326.1866666666667 341.3333333333333 341.8666666666667V170.0266666666667C372.9066666666667 185.8133333333333 394.6666666666667 218.3466666666667 394.6666666666667 256zM106.6666666666667 320V192H192L298.6666666666667 85.3333333333334V426.6666666666667L192 320H106.6666666666667z" />
    <glyph glyph-name="volume-high"
      unicode="&#xF107;"
      horiz-adv-x="512" d=" M64 320V192H149.3333333333333L256 85.3333333333334V426.6666666666667L149.3333333333333 320H64zM352 256C352 293.6533333333334 330.24 326.1866666666667 298.6666666666667 341.8666666666667V170.0266666666667C330.24 185.8133333333333 352 218.3466666666667 352 256zM298.6666666666667 443.0933333333334V399.04C360.32 380.6933333333334 405.3333333333333 323.6266666666667 405.3333333333333 256S360.32 131.3066666666667 298.6666666666667 112.96V68.9066666666667C384.1066666666667 88.3200000000001 448 164.5866666666667 448 256S384.1066666666667 423.68 298.6666666666667 443.0933333333334z" />
    <glyph glyph-name="fullscreen-enter"
      unicode="&#xF108;"
      horiz-adv-x="512" d=" M149.3333333333333 213.3333333333334H106.6666666666667V106.6666666666667H213.3333333333333V149.3333333333334H149.3333333333333V213.3333333333334zM106.6666666666667 298.6666666666667H149.3333333333333V362.6666666666667H213.3333333333333V405.3333333333334H106.6666666666667V298.6666666666667zM362.6666666666667 149.3333333333334H298.6666666666667V106.6666666666667H405.3333333333333V213.3333333333334H362.6666666666667V149.3333333333334zM298.6666666666667 405.3333333333334V362.6666666666667H362.6666666666667V298.6666666666667H405.3333333333333V405.3333333333334H298.6666666666667z" />
    <glyph glyph-name="fullscreen-exit"
      unicode="&#xF109;"
      horiz-adv-x="512" d=" M106.6666666666667 170.6666666666667H170.6666666666667V106.6666666666667H213.3333333333333V213.3333333333334H106.6666666666667V170.6666666666667zM170.6666666666667 341.3333333333334H106.6666666666667V298.6666666666667H213.3333333333333V405.3333333333334H170.6666666666667V341.3333333333334zM298.6666666666667 106.6666666666667H341.3333333333333V170.6666666666667H405.3333333333333V213.3333333333334H298.6666666666667V106.6666666666667zM341.3333333333333 341.3333333333334V405.3333333333334H298.6666666666667V298.6666666666667H405.3333333333333V341.3333333333334H341.3333333333333z" />
    <glyph glyph-name="square"
      unicode="&#xF10A;"
      horiz-adv-x="512" d=" M384 426.6666666666667H128C104.4266666666667 426.6666666666667 85.3333333333333 407.5733333333334 85.3333333333333 384V128C85.3333333333333 104.4266666666667 104.4266666666667 85.3333333333334 128 85.3333333333334H384C407.5733333333333 85.3333333333334 426.6666666666667 104.4266666666667 426.6666666666667 128V384C426.6666666666667 407.5733333333334 407.5733333333333 426.6666666666667 384 426.6666666666667zM384 128H128V384H384V128z" />
    <glyph glyph-name="spinner"
      unicode="&#xF10B;"
      horiz-adv-x="512" d=" M200.5333333333333 288L302.1866666666666 464.1066666666667C287.36 467.4133333333334 271.8933333333333 469.3333333333333 256 469.3333333333333C204.8 469.3333333333333 157.9733333333333 451.3066666666667 121.1733333333333 421.2266666666667L199.36 285.8666666666667L200.5333333333333 288zM459.52 320C439.8933333333333 382.4 392.32 432.2133333333334 331.6266666666666 455.2533333333333L253.5466666666667 320H459.52zM465.0666666666667 298.6666666666667H305.28L311.4666666666667 288L413.12 112C447.8933333333333 149.9733333333334 469.3333333333333 200.4266666666667 469.3333333333333 256C469.3333333333333 270.6133333333334 467.84 284.9066666666667 465.0666666666667 298.6666666666667zM182.08 256L98.88 400C64.1066666666667 362.0266666666667 42.6666666666667 311.5733333333334 42.6666666666667 256C42.6666666666667 241.3866666666667 44.16 227.0933333333334 46.9333333333333 213.3333333333334H206.72L182.0800000000001 256zM52.48 192C72.1066666666667 129.6 119.68 79.7866666666668 180.3733333333333 56.7466666666667L258.4533333333333 192H52.48zM292.9066666666667 192L209.7066666666667 47.8933333333334C224.64 44.5866666666667 240.1066666666667 42.6666666666667 256 42.6666666666667C307.2 42.6666666666667 354.0266666666667 60.6933333333333 390.8266666666667 90.7733333333333L312.64 226.1333333333334L292.9066666666667 192z" />
    <glyph glyph-name="subtitles"
      unicode="&#xF10C;"
      horiz-adv-x="512" d=" M426.6666666666667 426.6666666666667H85.3333333333333C61.76 426.6666666666667 42.6666666666667 407.5733333333334 42.6666666666667 384V128C42.6666666666667 104.4266666666667 61.76 85.3333333333334 85.3333333333333 85.3333333333334H426.6666666666667C450.24 85.3333333333334 469.3333333333333 104.4266666666667 469.3333333333333 128V384C469.3333333333333 407.5733333333334 450.24 426.6666666666667 426.6666666666667 426.6666666666667zM85.3333333333333 256H170.6666666666667V213.3333333333334H85.3333333333333V256zM298.6666666666667 128H85.3333333333333V170.6666666666667H298.6666666666667V128zM426.6666666666667 128H341.3333333333333V170.6666666666667H426.6666666666667V128zM426.6666666666667 213.3333333333334H213.3333333333333V256H426.6666666666667V213.3333333333334z" />
    <glyph glyph-name="captions"
      unicode="&#xF10D;"
      horiz-adv-x="512" d=" M405.3333333333333 426.6666666666667H106.6666666666667C83.0933333333333 426.6666666666667 64 407.5733333333334 64 384V128C64 104.4266666666667 83.0933333333333 85.3333333333334 106.6666666666667 85.3333333333334H405.3333333333333C428.9066666666667 85.3333333333334 448 104.4266666666667 448 128V384C448 407.5733333333334 428.9066666666667 426.6666666666667 405.3333333333333 426.6666666666667zM234.6666666666667 277.3333333333334H202.6666666666667V288H160V224H202.6666666666667V234.6666666666667H234.6666666666667V213.3333333333334C234.6666666666667 201.6 225.1733333333333 192 213.3333333333333 192H149.3333333333333C137.4933333333334 192 128 201.6 128 213.3333333333334V298.6666666666667C128 310.4000000000001 137.4933333333334 320 149.3333333333333 320H213.3333333333333C225.1733333333333 320 234.6666666666667 310.4000000000001 234.6666666666667 298.6666666666667V277.3333333333334zM384 277.3333333333334H352V288H309.3333333333333V224H352V234.6666666666667H384V213.3333333333334C384 201.6 374.5066666666667 192 362.6666666666667 192H298.6666666666667C286.8266666666667 192 277.3333333333333 201.6 277.3333333333333 213.3333333333334V298.6666666666667C277.3333333333333 310.4000000000001 286.8266666666667 320 298.6666666666667 320H362.6666666666667C374.5066666666667 320 384 310.4000000000001 384 298.6666666666667V277.3333333333334z" />
    <glyph glyph-name="chapters"
      unicode="&#xF10E;"
      horiz-adv-x="512" d=" M64 234.6666666666667H106.6666666666667V277.3333333333334H64V234.6666666666667zM64 149.3333333333334H106.6666666666667V192H64V149.3333333333334zM64 320H106.6666666666667V362.6666666666667H64V320zM149.3333333333333 234.6666666666667H448V277.3333333333334H149.3333333333333V234.6666666666667zM149.3333333333333 149.3333333333334H448V192H149.3333333333333V149.3333333333334zM149.3333333333333 362.6666666666667V320H448V362.6666666666667H149.3333333333333z" />
    <glyph glyph-name="share"
      unicode="&#xF10F;"
      horiz-adv-x="512" d=" M384 168.8533333333334C367.7866666666667 168.8533333333334 353.1733333333333 162.56 342.08 152.4266666666667L190.08 241.0666666666667C191.2533333333333 245.8666666666667 192 250.8800000000001 192 256S191.2533333333333 266.1333333333334 190.08 270.9333333333334L340.48 358.7200000000001C351.8933333333333 348.0533333333334 367.1466666666667 341.44 384 341.44C419.3066666666667 341.44 448 370.1333333333334 448 405.44S419.3066666666667 469.44 384 469.44S320 440.7466666666667 320 405.44C320 400.32 320.7466666666667 395.3066666666667 321.92 390.5066666666667L171.52 302.72C160.1066666666666 313.3866666666667 144.8533333333333 320 128 320C92.6933333333333 320 64 291.3066666666666 64 256S92.6933333333333 192 128 192C144.8533333333333 192 160.1066666666666 198.6133333333334 171.52 209.28L323.52 120.64C322.4533333333333 116.16 321.8133333333333 111.4666666666666 321.8133333333333 106.6666666666666C321.8133333333333 72.3199999999999 349.6533333333333 44.48 384 44.48S446.1866666666666 72.3199999999999 446.1866666666666 106.6666666666666S418.3466666666667 168.8533333333333 384 168.8533333333333z" />
    <glyph glyph-name="cog"
      unicode="&#xF110;"
      horiz-adv-x="512" d=" M414.5066666666667 235.2000000000001C415.36 242.0266666666667 416 248.9600000000001 416 256S415.36 269.9733333333334 414.5066666666667 276.8L459.6266666666667 312.1066666666667C463.6800000000001 315.3066666666667 464.8533333333334 321.0666666666667 462.1866666666667 325.76L419.5200000000001 399.68C416.8533333333334 404.2666666666667 411.3066666666667 406.1866666666667 406.5066666666667 404.2666666666667L353.3866666666668 382.8266666666667C342.4000000000001 391.2533333333334 330.3466666666668 398.4 317.3333333333335 403.8400000000001L309.3333333333333 460.3733333333333C308.3733333333334 465.3866666666667 304 469.3333333333333 298.6666666666667 469.3333333333333H213.3333333333333C208 469.3333333333333 203.6266666666667 465.3866666666667 202.7733333333334 460.3733333333333L194.7733333333334 403.8400000000001C181.76 398.4 169.7066666666667 391.36 158.72 382.8266666666667L105.6 404.2666666666667C100.8 406.0800000000001 95.2533333333333 404.2666666666667 92.5866666666667 399.68L49.92 325.76C47.2533333333333 321.1733333333334 48.4266666666667 315.4133333333334 52.48 312.1066666666667L97.4933333333333 276.8C96.64 269.9733333333334 96 263.04 96 256S96.64 242.0266666666667 97.4933333333333 235.2000000000001L52.48 199.8933333333334C48.4266666666667 196.6933333333334 47.2533333333333 190.9333333333334 49.92 186.24L92.5866666666667 112.3200000000001C95.2533333333333 107.7333333333334 100.8 105.8133333333334 105.6 107.7333333333334L158.72 129.1733333333334C169.7066666666667 120.7466666666667 181.76 113.6 194.7733333333334 108.16L202.7733333333334 51.6266666666667C203.6266666666667 46.6133333333334 208 42.6666666666667 213.3333333333333 42.6666666666667H298.6666666666667C304 42.6666666666667 308.3733333333334 46.6133333333333 309.2266666666667 51.6266666666667L317.2266666666667 108.16C330.24 113.6 342.2933333333333 120.6400000000001 353.28 129.1733333333334L406.3999999999999 107.7333333333334C411.2 105.92 416.7466666666666 107.7333333333334 419.4133333333333 112.3200000000001L462.0799999999999 186.24C464.7466666666666 190.8266666666667 463.5733333333333 196.5866666666667 459.5199999999999 199.8933333333334L414.5066666666666 235.2000000000001zM256 181.3333333333334C214.72 181.3333333333334 181.3333333333333 214.72 181.3333333333333 256S214.72 330.6666666666667 256 330.6666666666667S330.6666666666667 297.2800000000001 330.6666666666667 256S297.28 181.3333333333334 256 181.3333333333334z" />
    <glyph glyph-name="circle"
      unicode="&#xF111;"
      horiz-adv-x="512" d=" M42.6666666666667 256C42.6666666666667 138.1792533694308 138.1792533694307 42.6666666666667 256 42.6666666666667C373.8207466305693 42.6666666666667 469.3333333333333 138.1792533694308 469.3333333333333 256C469.3333333333333 373.8207466305693 373.8207466305693 469.3333333333333 256 469.3333333333333C138.1792533694307 469.3333333333333 42.6666666666667 373.8207466305693 42.6666666666667 256z" />
    <glyph glyph-name="circle-outline"
      unicode="&#xF112;"
      horiz-adv-x="512" d=" M256 469.3333333333333C138.1333333333333 469.3333333333333 42.6666666666667 373.8666666666667 42.6666666666667 256S138.1333333333333 42.6666666666667 256 42.6666666666667S469.3333333333333 138.1333333333334 469.3333333333333 256S373.8666666666666 469.3333333333333 256 469.3333333333333zM256 85.3333333333334C161.92 85.3333333333334 85.3333333333333 161.92 85.3333333333333 256S161.92 426.6666666666667 256 426.6666666666667S426.6666666666667 350.0800000000001 426.6666666666667 256S350.08 85.3333333333334 256 85.3333333333334z" />
    <glyph glyph-name="circle-inner-circle"
      unicode="&#xF113;"
      horiz-adv-x="512" d=" M256 469.3333333333333C138.3466666666667 469.3333333333333 42.6666666666667 373.6533333333333 42.6666666666667 256S138.3466666666667 42.6666666666667 256 42.6666666666667S469.3333333333333 138.3466666666667 469.3333333333333 256S373.6533333333333 469.3333333333333 256 469.3333333333333zM256 85.3333333333334C161.92 85.3333333333334 85.3333333333333 161.92 85.3333333333333 256S161.92 426.6666666666667 256 426.6666666666667S426.6666666666667 350.0800000000001 426.6666666666667 256S350.08 85.3333333333334 256 85.3333333333334zM320 256C320 220.6933333333334 291.3066666666666 192 256 192S192 220.6933333333334 192 256S220.6933333333333 320 256 320S320 291.3066666666667 320 256z" />
    <glyph glyph-name="audio-description"
      unicode="&#xF114;"
      horiz-adv-x="512" d=" M227.289682989 130.648838L227.289682989 349.0070938950001C277.6702185 350.0243205440001 316.3980869 352.03531578 344.921102 331.8810063C372.295426 312.5387722000001 393.654923 274.9158875 389.810661 226.556463C385.743598 175.400839 348.475879 132.417149 300.0353987 128.081247C275.9502648 125.925665 228.0625443 128.081247 228.0625443 128.081247C228.0625443 128.081247 227.222611733 129.433284 227.289682989 130.648838M276.0447042 185.453256C307.4745261 184.193345 329.253026 202.086298 332.540288 230.838625C336.942707 269.3482243000001 311.3515531 294.3911928 274.4985961 291.6350844L274.4985961 188.02298C274.4627477 186.556638 275.0744838 185.803848 276.0447042 185.453256 M383.779991 130.671935C397.1159924 126.962576 401.166865 141.7313420000001 406.9951259 152.079757C419.716693 174.6511000000001 429.2886092 203.673834 429.4404832 236.853763C429.6613558 284.4480278 411.0972656 319.3706768 393.839523 343.0355910887L385.32918283 343.0355910887C384.74288754 339.1624526400001 387.55564016 335.7213689500001 389.19541674 332.7596826C402.3614272 308.9983771000001 414.5618429 276.2065726 414.7356885 238.566201C414.9345895 195.3901550000001 400.5732459 159.287779 383.779991 130.671935 M425.153705 130.671935C438.4897064 126.962576 442.5378808 141.733475 448.3688399 152.079757C461.090407 174.6511000000001 470.6603959 203.673834 470.8141972 236.853763C471.0350698 284.4480278 452.4709796 319.3706768 435.213237 343.0355910887L426.70289683 343.0355910887C426.11660154 339.1624526400001 428.92858323 335.7205159300001 430.56913074 332.7596826C443.7351412 308.9983771000001 455.9359424 276.2065726 456.1094025 238.566201C456.3083035 195.3901550000001 441.9469599 159.287779 425.153705 130.671935 M466.260868 130.671935C479.5968694 126.962576 483.6450438 141.733475 489.4760029 152.079757C502.19757 174.6511000000001 511.7675589 203.673834 511.9213602 236.853763C512.1422328 284.4480278 493.5781426 319.3706768 476.3204 343.0355910887L467.81005983 343.0355910887C467.22376454 339.1624526400001 470.03574623 335.7209424400001 471.67629374 332.7596826C484.8423042 308.9983771000001 497.0427199 276.2065726 497.2165655 238.566201C497.4154665 195.3901550000001 483.0541229 159.287779 466.260868 130.671935 M4.4765625 128.994842L72.5800993 128.994842L91.1530552 157.478514L155.321745 157.613942C155.321745 157.613942 155.386889 138.200917 155.386889 128.994842L204.142681 128.994842L204.142681 351.691737L145.326586 351.691737C139.673713 342.1546170000001 4.4765625 128.994842 4.4765625 128.994842L4.4765625 128.994842zM157.144233 274.277389L157.144233 203.118942L116.6914 203.389797L157.144233 274.277389L157.144233 274.277389z" />
  </font>
</defs>
</svg>
