<?xml version="1.0" standalone="no"?>
<!DOCTYPE svg PUBLIC "-//W3C//DTD SVG 1.1//EN" "http://www.w3.org/Graphics/SVG/1.1/DTD/svg11.dtd" >
<svg>
<metadata>
Created by FontForge 20090622 at Mon Jul 13 02:11:17 2015
 By deploy user
Copyright  2015 Spoqa (http://bi.spoqa.com/)
</metadata>
<defs>
<font id="SpoqaHanSans-Regular" horiz-adv-x="920" >
  <font-face 
    font-family="SpoqaHanSans"
    font-weight="400"
    font-stretch="normal"
    units-per-em="1000"
    panose-1="2 11 5 0 0 0 0 0 0 0"
    ascent="880"
    descent="-120"
    x-height="543"
    cap-height="733"
    bbox="-44 -279 1000 959"
    underline-thickness="50"
    underline-position="-100"
    unicode-range="U+000D-U+FFE6"
  />
<missing-glyph horiz-adv-x="1000" 
 />
    <glyph glyph-name=".notdef" horiz-adv-x="1000" 
 />
    <glyph glyph-name="NULL" horiz-adv-x="0" 
 />
    <glyph glyph-name="NULL" horiz-adv-x="0" 
 />
    <glyph glyph-name="nonmarkingreturn" unicode="&#xd;" horiz-adv-x="224" 
 />
    <glyph glyph-name="cid1" unicode=" " horiz-adv-x="224" 
 />
    <glyph glyph-name="cid4.001" horiz-adv-x="555" 
d="M128 228h-88v64h96l21 166h-95v63h102l26 205h59l-25 -205h148l27 205h58l-25 -205h89v-63h-96l-21 -166h95v-64h-103l-27 -228h-60l27 228h-148l-28 -228h-59zM344 292l21 166h-149l-20 -166h148z" />
    <glyph glyph-name="cid5.001" horiz-adv-x="555" 
d="M424 587q-31 30 -60.5 46.5t-75.5 16.5q-52 0 -82.5 -29.5t-30.5 -78.5q0 -41 23 -66.5t58 -45.5t75.5 -38.5t75.5 -44.5t58 -64.5t23 -98.5q0 -80 -46.5 -131.5t-126.5 -62.5v-113h-66v111q-54 5 -104.5 29t-86.5 57l43 62q35 -30 78 -51.5t94 -21.5q63 0 94.5 31
t31.5 84q0 45 -23 74.5t-58 51.5t-75.5 40.5t-75.5 43.5t-58 60t-23 90q0 37 12 69t33.5 56t51.5 39.5t66 20.5v113h66v-111q54 -6 91 -29t67 -55z" />
    <glyph glyph-name="cid6.001" horiz-adv-x="921" 
d="M205 284q-75 0 -120.5 60.5t-45.5 172.5q0 111 45.5 170.5t120.5 59.5q76 0 121.5 -59.5t45.5 -170.5q0 -112 -45.5 -172.5t-121.5 -60.5zM205 341q44 0 71 44t27 132t-27 131t-71 43q-43 0 -70 -43t-27 -131t27 -132t70 -44zM631 747h62l-405 -760h-61zM716 -13
q-75 0 -121 60t-46 172q0 111 46 170.5t121 59.5t120.5 -59.5t45.5 -170.5q0 -112 -45.5 -172t-120.5 -60zM716 43q43 0 70 44t27 132t-27 131t-70 43q-44 0 -71 -43t-27 -131t27 -132t71 -44z" />
    <glyph glyph-name="cid7.001" horiz-adv-x="680" 
d="M125 195q0 -30 11 -55t30.5 -43t46 -27.5t57.5 -9.5q38 0 73 16t67 43q-54 48 -104 103.5t-89 115.5q-39 -32 -65.5 -66t-26.5 -77zM211 575q0 -30 9 -63t26 -67q25 17 47.5 34t40 36t27.5 40t10 45q0 32 -16 56.5t-54 24.5q-42 0 -66 -30t-24 -76zM638 -13
q-38 11 -80 31.5t-87 52.5q-42 -38 -94 -61t-118 -23q-50 0 -91 15t-70.5 42t-45.5 64.5t-16 81.5q0 37 12 67.5t32 56t46 47t54 41.5q-23 45 -35.5 88t-12.5 83q0 37 12 68.5t34.5 55t53.5 37t69 13.5q69 0 106.5 -40.5t37.5 -104.5q0 -36 -14.5 -66t-37.5 -56.5t-53 -49.5
l-60 -45q36 -57 84.5 -110.5t101.5 -96.5q69 90 104 217h84q-21 -73 -52.5 -139t-75.5 -123q75 -53 137 -70z" />
    <glyph glyph-name="cid8.001" horiz-adv-x="278" 
d="M92 668l-2 103h96l-2 -103l-18 -185h-56z" />
    <glyph glyph-name="cid9.001" horiz-adv-x="338" 
d="M239 -197q-69 112 -108 236t-39 272q0 147 39 271t108 236l57 -26q-66 -108 -97 -230.5t-31 -250.5t31 -251t97 -230l-57 -27v0z" />
    <glyph glyph-name="cid10.001" horiz-adv-x="338" 
d="M43 -170q65 107 96.5 230t31.5 251t-31.5 250.5t-96.5 230.5l56 26q70 -112 109 -236t39 -271q0 -148 -39 -272t-109 -236z" />
    <glyph glyph-name="cid11.001" horiz-adv-x="467" 
d="M110 503l63 104l-109 45l18 51l114 -28l10 121h54l10 -120l114 27l17 -51l-109 -45l64 -104l-44 -32l-79 95l-79 -95z" />
    <glyph glyph-name="cid12.001" horiz-adv-x="555" 
d="M241 335h-203v68h203v218h73v-218h203v-68h-203v-219h-73v219z" />
    <glyph glyph-name="cid13.001" horiz-adv-x="278" 
d="M53 -136q47 20 73 55t27 81q-4 -1 -11 -1q-26 0 -46.5 16t-20.5 48q0 29 20.5 46.5t48.5 17.5q36 0 56.5 -28.5t20.5 -79.5q0 -72 -39 -126t-107 -83z" />
    <glyph glyph-name="cid14.001" horiz-adv-x="347" 
d="M46 315h256v-70h-256v70z" />
    <glyph glyph-name="cid15.001" horiz-adv-x="278" 
d="M139 -13q-27 0 -46.5 19t-19.5 50t19.5 51t46.5 20t46.5 -20t19.5 -51t-19.5 -50t-46.5 -19z" />
    <glyph glyph-name="cid16.001" horiz-adv-x="392" 
d="M311 793h66l-299 -972h-67z" />
    <glyph glyph-name="cid17.001" horiz-adv-x="555" 
d="M278 -13q-105 0 -167 95.5t-62 286.5t62 284.5t167 93.5q52 0 94 -23.5t72 -70.5t46 -118t16 -166q0 -191 -62 -286.5t-166 -95.5zM278 60q31 0 56.5 18t44 55.5t28.5 96t10 139.5q0 80 -10 137.5t-28.5 94.5t-44 54.5t-56.5 17.5q-32 0 -57.5 -17.5t-44 -54.5
t-28.5 -94.5t-10 -137.5q0 -162 38.5 -235.5t101.5 -73.5z" />
    <glyph glyph-name="cid18.001" horiz-adv-x="555" 
d="M88 76h163v547h-130v58q49 9 85.5 22t66.5 30h70v-657h147v-76h-402v76z" />
    <glyph glyph-name="cid19.001" horiz-adv-x="555" 
d="M44 54q86 75 149.5 141t105 124t61.5 109.5t20 98.5q0 63 -33 104t-102 41q-45 0 -83.5 -24.5t-68.5 -60.5l-53 52q45 49 95.5 78.5t120.5 29.5q49 0 88.5 -15.5t67 -44t42.5 -68.5t15 -89q0 -55 -20.5 -110.5t-58.5 -112.5t-91 -115.5t-117 -119.5q29 2 60.5 4.5
t59.5 2.5h203v-79h-461v54z" />
    <glyph glyph-name="cid20.001" horiz-adv-x="555" 
d="M264 -13q-43 0 -78.5 8.5t-64 22t-51.5 31.5t-41 38l46 60q32 -34 76 -59t106 -25q33 0 60 9.5t47 27t31 42.5t11 57q0 33 -12 60t-39 46.5t-70.5 30t-106.5 10.5v70q57 0 95.5 11t62.5 29.5t34.5 44t10.5 55.5q0 54 -33.5 85t-90.5 33q-45 -2 -83 -22t-69 -51l-49 58
q42 38 91.5 63t113.5 25q46 0 85 -12t67.5 -35.5t44.5 -58t16 -78.5q0 -67 -36 -111t-95 -66v-4q33 -8 61.5 -23.5t49.5 -39.5t33 -55t12 -68q0 -49 -18.5 -88t-50.5 -66t-74.5 -41t-91.5 -14z" />
    <glyph glyph-name="cid21.001" horiz-adv-x="555" 
d="M339 275v225q0 13 0.5 30.5t1.5 35.5l2 35.5t2 31.5h-4l-28.5 -54t-30.5 -54l-167 -250h224zM523 202h-97v-202h-87v202h-319v60l305 471h101v-458h97v-73z" />
    <glyph glyph-name="cid22.001" horiz-adv-x="555" 
d="M261 -13q-43 0 -77.5 8.5t-63 22t-51.5 31t-41 35.5l45 60q16 -16 34 -30.5t40 -26t48 -18t58 -6.5t60.5 12t49.5 34.5t33.5 54.5t12.5 72q0 79 -41.5 123t-110.5 44q-37 0 -63.5 -11t-58.5 -32l-49 30l23 343h357v-78h-277l-18 -212q24 14 50 21.5t59 7.5q46 0 86 -14
t70 -42.5t47.5 -72.5t17.5 -104t-20 -107t-53.5 -79.5t-77 -49t-89.5 -16.5z" />
    <glyph glyph-name="cid23.001" horiz-adv-x="555" 
d="M301 58q26 0 49 12t39.5 34t26 52.5t9.5 68.5q0 75 -32.5 118.5t-99.5 43.5q-35 0 -74.5 -21.5t-75.5 -72.5q8 -115 48.5 -175t109.5 -60zM448 615q-22 26 -53 41t-65 15q-38 0 -71.5 -15.5t-59 -51.5t-41.5 -94.5t-17 -143.5q34 42 78.5 65.5t88.5 23.5
q94 0 148.5 -57.5t54.5 -172.5q0 -53 -17 -97t-45.5 -75.5t-66.5 -48.5t-81 -17q-53 0 -98 22.5t-77.5 68t-51 113.5t-18.5 159q0 108 22.5 183.5t60 123t86.5 69t102 21.5q57 0 99 -21.5t72 -53.5z" />
    <glyph glyph-name="cid24.001" horiz-adv-x="555" 
d="M198 0q4 104 17 191.5t37 165.5t61 150.5t91 147.5h-355v78h459v-55q-65 -83 -105 -159t-63 -155.5t-33 -167.5t-14 -196h-95v0z" />
    <glyph glyph-name="cid25.001" horiz-adv-x="555" 
d="M279 -13q-51 0 -93.5 14.5t-74 40.5t-49 62t-17.5 78q0 37 11.5 68t30.5 56.5t43.5 44.5t49.5 33v5q-41 28 -70 69.5t-29 99.5q0 42 15 76.5t42 58.5t64 37.5t80 13.5q47 0 84 -14.5t63 -40t40 -61t14 -77.5q0 -29 -9 -55.5t-23.5 -49t-32 -41t-33.5 -31.5v-5
q24 -14 46.5 -31.5t39.5 -41t27.5 -53t10.5 -66.5q0 -40 -16.5 -75t-46.5 -60.5t-72.5 -40t-94.5 -14.5zM329 398q76 67 76 148q0 27 -8.5 51t-24.5 41.5t-39 28t-53 10.5q-51 0 -83.5 -32.5t-32.5 -86.5q0 -33 13.5 -57.5t36.5 -43t53 -32.5t62 -27zM281 55q63 0 102 34.5
t39 89.5q0 37 -15.5 63t-42.5 46.5t-62 36l-74 31.5q-45 -29 -72.5 -71t-27.5 -95q0 -29 11.5 -54t32 -43t48.5 -28t61 -10z" />
    <glyph glyph-name="cid26.001" horiz-adv-x="555" 
d="M261 346q37 0 76.5 22.5t76.5 75.5q-8 114 -48.5 172.5t-111.5 58.5q-26 0 -49 -12t-39.5 -33.5t-26 -52.5t-9.5 -68q0 -75 32.5 -119t98.5 -44zM108 119q23 -26 55.5 -41t67.5 -15q36 0 68 15.5t57 51.5t40.5 94.5t18.5 144.5q-33 -42 -77.5 -66.5t-91.5 -24.5
q-92 0 -147 58.5t-55 172.5q0 53 17 97t45.5 75.5t66.5 48.5t81 17q53 0 98 -22t78 -65.5t51.5 -109t18.5 -152.5q0 -111 -22 -189.5t-59 -127.5t-85 -71.5t-100 -22.5q-60 0 -102.5 21.5t-73.5 53.5z" />
    <glyph glyph-name="cid27.001" horiz-adv-x="278" 
d="M139 390q-27 0 -46.5 19.5t-19.5 49.5q0 32 19.5 51.5t46.5 19.5t46.5 -19.5t19.5 -51.5q0 -30 -19.5 -49.5t-46.5 -19.5zM139 -13q-27 0 -46.5 19t-19.5 50t19.5 51t46.5 20t46.5 -20t19.5 -51t-19.5 -50t-46.5 -19z" />
    <glyph glyph-name="cid28.001" horiz-adv-x="278" 
d="M139 390q-27 0 -46.5 19.5t-19.5 49.5q0 32 19.5 51.5t46.5 19.5t46.5 -19.5t19.5 -51.5q0 -30 -19.5 -49.5t-46.5 -19.5zM53 -136q47 20 73 55t27 81q-4 -1 -11 -1q-26 0 -46.5 16t-20.5 48q0 29 20.5 46.5t48.5 17.5q36 0 56.5 -28.5t20.5 -79.5q0 -72 -39 -126
t-107 -83z" />
    <glyph glyph-name="cid29.001" horiz-adv-x="555" 
d="M38 334v73l479 188v-79l-236 -87l-150 -56v-4l150 -56l236 -87v-80z" />
    <glyph glyph-name="cid30.001" horiz-adv-x="555" 
d="M38 522h479v-68h-479v68zM38 283h479v-68h-479v68z" />
    <glyph glyph-name="cid31.001" horiz-adv-x="555" 
d="M38 226l236 87l150 56v4l-150 56l-236 87v79l479 -188v-73l-479 -188v80z" />
    <glyph glyph-name="cid32.001" horiz-adv-x="474" 
d="M178 221q-6 44 3.5 79t26.5 64.5t38.5 55.5l40.5 51t32 51t13 56q0 45 -27 76.5t-81 31.5q-38 0 -70.5 -17t-58.5 -47l-52 48q35 40 82.5 66t108.5 26q85 0 136 -48t51 -130q0 -37 -13.5 -67t-33 -57.5t-41.5 -53.5t-40 -54t-28.5 -60t-5.5 -71h-81zM221 -13
q-27 0 -46.5 19t-19.5 50t19.5 51t46.5 20q28 0 47.5 -20t19.5 -51t-19.5 -50t-47.5 -19z" />
    <glyph glyph-name="cid33.001" horiz-adv-x="946" 
d="M450 -173q-82 0 -154 26t-125 76.5t-84 125t-31 172.5q0 112 38 203.5t102 156t148.5 100t177.5 35.5q84 0 152 -27t116 -75.5t73.5 -117t25.5 -150.5q0 -73 -20.5 -128.5t-53 -93t-72 -56.5t-77.5 -19q-46 0 -78 21t-37 64h-3q-27 -32 -63 -54.5t-73 -22.5
q-57 0 -95.5 41t-38.5 118q0 44 15 90t43 83.5t68 61.5t89 24q59 0 89 -55h2l13 46h60l-44 -223q-16 -68 -0.5 -99.5t61.5 -31.5q27 0 53.5 15.5t48.5 45t35.5 72.5t13.5 97q0 68 -20 125.5t-59 99t-97 65t-134 23.5q-75 0 -145 -30.5t-125 -87t-88 -136t-33 -177.5
q0 -82 25 -145.5t69.5 -107t105.5 -66.5t132 -23q51 0 97.5 14t84.5 36l24 -54q-49 -29 -101.5 -43t-110.5 -14zM430 126q23 0 48.5 15.5t54.5 50.5l32 178q-16 26 -32.5 36.5t-39.5 10.5q-33 0 -59.5 -18t-44.5 -45.5t-28 -61.5t-10 -65q0 -54 22.5 -77.5t56.5 -23.5z" />
    <glyph glyph-name="cid34.001" horiz-adv-x="607" 
d="M413 298l-35 112l-38 123.5l-36 124.5h-4q-17 -65 -35 -125l-38 -123l-36 -112h222zM436 224h-268l-71 -224h-94l249 733h103l249 -733h-98z" />
    <glyph glyph-name="cid35.001" horiz-adv-x="657" 
d="M100 733h218q56 0 102.5 -10t79.5 -31.5t51.5 -55.5t18.5 -82q0 -55 -28 -98.5t-80 -60.5v-5q66 -13 108 -56.5t42 -118.5q0 -54 -20.5 -94.5t-57 -67t-88 -40t-112.5 -13.5h-234v733zM302 421q95 0 136 32.5t41 88.5q0 65 -43.5 91.5t-129.5 26.5h-113v-239h109zM321 74
q95 0 147.5 34.5t52.5 109.5q0 69 -51.5 100.5t-148.5 31.5h-128v-276h128z" />
    <glyph glyph-name="cid36.001" horiz-adv-x="638" 
d="M377 -13q-68 0 -126.5 25.5t-101.5 74.5t-67 119.5t-24 159.5t24.5 159.5t68 120t103 75.5t129.5 26q33 0 63 -7.5t55.5 -20.5t46 -29t36.5 -34l-50 -60q-29 31 -65.5 50.5t-84.5 19.5q-52 0 -94.5 -20.5t-73 -59t-47 -93.5t-16.5 -124t16 -125t45.5 -95t71.5 -60t95 -21
t94 22t76 60l51 -58q-44 -51 -98.5 -78t-126.5 -27z" />
    <glyph glyph-name="cid37.001" horiz-adv-x="687" 
d="M100 733h184q170 0 258 -94t88 -270q0 -87 -22.5 -155.5t-66 -116t-107 -72.5t-146.5 -25h-188v733zM276 76q130 0 194 77t64 216q0 140 -63.5 214.5t-194.5 74.5h-83v-582h83z" />
    <glyph glyph-name="cid38.001" horiz-adv-x="588" 
d="M100 733h423v-78h-330v-230h278v-79h-278v-267h341v-79h-434v733z" />
    <glyph glyph-name="cid39.001" horiz-adv-x="552" 
d="M100 733h423v-78h-330v-248h280v-78h-280v-329h-93v733z" />
    <glyph glyph-name="cid40.001" horiz-adv-x="689" 
d="M388 -13q-72 0 -133 25.5t-104.5 74.5t-68 119.5t-24.5 159.5t25 159.5t70 120t106.5 75.5t134.5 26q38 0 70 -8t58 -20.5t46.5 -29t36.5 -33.5l-50 -60q-28 29 -65 49.5t-94 20.5q-55 0 -100 -20.5t-76.5 -59t-49 -93.5t-17.5 -124t16 -125t47 -95t76.5 -60t104.5 -21
q40 0 75.5 11.5t57.5 31.5v192h-155v77h240v-308q-35 -37 -93.5 -61t-133.5 -24z" />
    <glyph glyph-name="cid41.001" horiz-adv-x="728" 
d="M100 733h93v-307h342v307h92v-733h-92v346h-342v-346h-93v733z" />
    <glyph glyph-name="cid42.001" horiz-adv-x="293" 
d="M100 733h93v-733h-93v733z" />
    <glyph glyph-name="cid43.001" horiz-adv-x="536" 
d="M237 -13q-70 0 -120 29.5t-82 86.5l66 47q25 -44 56 -63t71 -19q60 0 89 36t29 120v509h92v-518q0 -47 -11.5 -88.5t-35.5 -72.5t-62 -49t-92 -18z" />
    <glyph glyph-name="cid44.001" horiz-adv-x="646" 
d="M100 733h93v-368h3l306 368h104l-229 -279l265 -454h-104l-219 382l-126 -150v-232h-93v733z" />
    <glyph glyph-name="cid45.001" horiz-adv-x="542" 
d="M100 733h93v-654h320v-79h-413v733z" />
    <glyph glyph-name="cid46.001" horiz-adv-x="812" 
d="M100 733h112l141 -392l25.5 -76.5t26.5 -76.5h5l25 76.5l25 76.5l140 392h112v-733h-87v406q0 24 1 51.5t3 56l4 56.5t4 52h-4l-58 -167l-139 -381h-62l-139 381l-58 167h-4q1 -24 3 -52l4 -56.5t3 -56t1 -51.5v-406h-84v733z" />
    <glyph glyph-name="cid47.001" horiz-adv-x="722" 
d="M100 733h96l267 -462l78 -151h5l-8 115.5t-4 116.5v381h88v-733h-95l-267 463l-79 151h-4q3 -56 7 -113.5t4 -115.5v-385h-88v733z" />
    <glyph glyph-name="cid48.001" horiz-adv-x="742" 
d="M371 -13q-69 0 -126.5 26.5t-99 76t-64.5 120.5t-23 159t23 158t64.5 119t99 75t126.5 26t126.5 -26t99 -75t64.5 -119t23 -158t-23 -159t-64.5 -120.5t-99 -76t-126.5 -26.5zM371 68q49 0 89.5 21.5t69 60.5t44 94.5t15.5 124.5t-15.5 124t-44 93.5t-69 59t-89.5 20.5
q-50 0 -90 -20.5t-68.5 -59t-44 -93.5t-15.5 -124t15.5 -124.5t44 -94.5t68.5 -60.5t90 -21.5z" />
    <glyph glyph-name="cid49.001" horiz-adv-x="632" 
d="M100 733h209q62 0 112.5 -11t86.5 -36.5t56 -66.5t20 -101q0 -58 -19.5 -101t-55.5 -71t-85.5 -41.5t-109.5 -13.5h-121v-291h-93v733zM302 366q97 0 143.5 36.5t46.5 115.5t-48.5 109.5t-145.5 30.5h-105v-292h109z" />
    <glyph glyph-name="cid50.001" horiz-adv-x="742" 
d="M153 369q0 -70 15.5 -126.5t44 -96.5t68.5 -61.5t90 -21.5q49 0 89.5 21.5t69 61.5t44 96.5t15.5 126.5q0 69 -15.5 124t-44 93.5t-69 59t-89.5 20.5q-50 0 -90 -20.5t-68.5 -59t-44 -93.5t-15.5 -124zM700 -168q-17 -6 -44.5 -11t-60.5 -5q-51 0 -93.5 13t-76.5 36
t-59 55t-40 70q-60 8 -109.5 38t-84.5 79t-54.5 115t-19.5 147q0 88 23 158t64.5 119t99 75t126.5 26t126.5 -26t99 -75t64.5 -119t23 -158q0 -79 -18.5 -144t-52.5 -114t-82 -79.5t-106 -40.5q25 -49 72.5 -73.5t107.5 -24.5q25 0 44 3t33 8z" />
    <glyph glyph-name="cid51.001" horiz-adv-x="635" 
d="M193 386h123q87 0 132.5 34.5t45.5 106.5q0 73 -45.5 102t-132.5 29h-123v-272zM503 0l-178 311h-132v-311h-93v733h230q56 0 103 -10.5t81 -35t53 -64t19 -96.5q0 -86 -45.5 -137t-120.5 -69l188 -321h-105z" />
    <glyph glyph-name="cid52.001" horiz-adv-x="597" 
d="M304 -13q-78 0 -143.5 29t-113.5 80l55 63q40 -42 93 -66.5t110 -24.5q72 0 113 33t41 87q0 28 -9.5 47.5t-26 34t-38.5 25.5l-48 23l-106 46q-26 11 -52 26.5t-48 38t-35.5 53t-13.5 70.5q0 42 17.5 78t48 62t73 40.5t92.5 14.5q66 0 121.5 -25t94.5 -66l-49 -59
q-34 32 -75 50.5t-92 18.5q-63 0 -100 -29t-37 -79q0 -27 11 -46t28 -33t39 -24l43 -19l105 -45q32 -14 59.5 -31t48 -40t32 -53.5t11.5 -71.5q0 -44 -17.5 -81.5t-49.5 -66t-78.5 -44.5t-103.5 -16z" />
    <glyph glyph-name="cid53.001" horiz-adv-x="599" 
d="M253 655h-222v78h537v-78h-222v-655h-93v655z" />
    <glyph glyph-name="cid54.001" horiz-adv-x="721" 
d="M360 -13q-56 0 -104 16t-83.5 53.5t-55.5 97.5t-20 149v430h93v-433q0 -66 13 -110.5t36 -71.5t54 -38.5t67 -11.5q37 0 69 11.5t55.5 38.5t37 71.5t13.5 110.5v433h89v-430q0 -89 -20 -149t-55.5 -97.5t-84 -53.5t-104.5 -16z" />
    <glyph glyph-name="cid55.001" horiz-adv-x="575" 
d="M1 733h97l119 -397q10 -32 18 -62l16.5 -59l17 -59t19.5 -62h4l19 62l17 59l16.5 59t18.5 62l118 397h94l-233 -733h-107z" />
    <glyph glyph-name="cid56.001" horiz-adv-x="878" 
d="M25 733h96l77 -399l21.5 -118.5l21.5 -118.5h4l26 118.5l27 118.5l101 399h84l103 -399q14 -59 26.5 -118l25.5 -119h5l42 237l77 399h89l-152 -733h-111l-111 442l-18.5 84.5l-17.5 82.5h-4l-18.5 -82.5t-18.5 -84.5l-109 -442h-110z" />
    <glyph glyph-name="cid57.001" horiz-adv-x="573" 
d="M231 379l-200 354h102l100 -187l27 -50.5l31 -56.5h4l26.5 56.5t25.5 50.5l98 187h97l-200 -359l214 -374h-102l-108 198l-29.5 56l-33.5 62h-4q-31 -65 -59 -118l-106 -198h-97z" />
    <glyph glyph-name="cid58.001" horiz-adv-x="531" 
d="M219 285l-220 448h99l94 -207l35 -79.5l37 -80.5h4l38 80.5t35 79.5l95 207h96l-220 -448v-285h-93v285z" />
    <glyph glyph-name="cid59.001" horiz-adv-x="603" 
d="M50 55l387 600h-352v78h466v-54l-387 -600h391v-79h-505v55z" />
    <glyph glyph-name="cid60.001" horiz-adv-x="338" 
d="M105 791h199v-51h-130v-858h130v-52h-199v961z" />
    <glyph glyph-name="cid61.001" horiz-adv-x="392" 
d="M15 793h66l299 -972h-66z" />
    <glyph glyph-name="cid62.001" horiz-adv-x="338" 
d="M34 -118h130v858h-130v51h199v-961h-199v52z" />
    <glyph glyph-name="cid63.001" horiz-adv-x="555" 
d="M237 749h81l170 -432h-80l-74 198l-54 149h-5l-55 -149l-73 -198h-80z" />
    <glyph glyph-name="cid64.001" horiz-adv-x="559" 
d="M13 -79h532v-61h-532v61z" />
    <glyph glyph-name="cid65.001" horiz-adv-x="606" 
d="M144 811l64 61l158 -186l-47 -45z" />
    <glyph glyph-name="cid66.001" horiz-adv-x="564" 
d="M217 -13q-34 0 -63 10.5t-50.5 30t-33.5 48t-12 65.5q0 44 19.5 77.5t60.5 58.5t104 41t150 26q0 26 -5 51t-17.5 44t-34.5 30.5t-55 11.5q-48 0 -89.5 -18t-73.5 -40l-36 63q19 12 42.5 24.5t50.5 23t57.5 17t63.5 6.5q49 0 85 -16t58.5 -45.5t33.5 -70.5t11 -91v-334
h-75l-8 65h-3q-39 -32 -84 -55t-96 -23zM243 60q40 0 74.5 18.5t74.5 53.5v152q-69 -8 -115.5 -20.5t-75.5 -30t-41.5 -39t-12.5 -47.5q0 -47 27.5 -67t68.5 -20z" />
    <glyph glyph-name="cid67.001" horiz-adv-x="618" 
d="M331 -13q-38 0 -78.5 18t-76.5 51h-3l-8 -56h-73v796h91v-218l-3 -98q37 32 81 54.5t89 22.5q53 0 93.5 -20t68 -56t41.5 -87t14 -113q0 -70 -19.5 -125t-52 -92.5t-75 -57t-89.5 -19.5zM316 63q34 0 62.5 15t49.5 42.5t32.5 67.5t11.5 91q0 45 -8 82t-25 63.5t-44 41
t-66 14.5q-35 0 -71 -19t-75 -56v-285q36 -32 71 -44.5t62 -12.5z" />
    <glyph glyph-name="cid68.001" horiz-adv-x="509" 
d="M306 -13q-54 0 -100.5 19t-81 55.5t-54 89t-19.5 120.5t21.5 121t57.5 90t83.5 56t99.5 19q54 0 92 -19t67 -45l-47 -61q-24 22 -50 35.5t-59 13.5q-37 0 -68 -15t-53.5 -43t-35.5 -66.5t-13 -85.5t12 -85.5t34.5 -65.5t53 -42t68.5 -15t70 15.5t58 38.5l39 -61
q-36 -33 -81 -51t-94 -18z" />
    <glyph glyph-name="cid69.001" horiz-adv-x="620" 
d="M277 -13q-51 0 -92.5 19t-70.5 55t-45 89t-16 121q0 66 19.5 119t51.5 90t74.5 57t89.5 20q48 0 82.5 -17t70.5 -47l-5 94v209h91v-796h-74l-9 64h-2q-32 -32 -74 -54.5t-91 -22.5zM297 63q38 0 71.5 18.5t67.5 56.5v285q-35 31 -66.5 44t-65.5 13q-33 0 -61.5 -15
t-50 -42.5t-33.5 -66t-12 -84.5q0 -99 39 -154t111 -55z" />
    <glyph glyph-name="cid70.001" horiz-adv-x="554" 
d="M311 -13q-54 0 -101.5 19t-82.5 55.5t-55.5 89.5t-20.5 120q0 66 20.5 119t54.5 90t78.5 57t91.5 20q52 0 92 -18t67.5 -51.5t42 -80.5t14.5 -105q0 -15 -1 -28.5t-3 -23.5h-366q5 -88 53.5 -139t126.5 -51q40 0 73 11.5t63 31.5l33 -60q-36 -23 -80 -39.5t-100 -16.5z
M432 315q0 83 -35.5 126t-99.5 43q-29 0 -55.5 -11.5t-47.5 -33t-35 -53t-18 -71.5h291z" />
    <glyph glyph-name="cid71.001" horiz-adv-x="325" 
d="M336 722q-31 14 -61 14q-77 0 -77 -107v-86h115v-74h-115v-469h-91v469h-74v69l74 5v87q0 83 38.5 131t119.5 48q25 0 48 -5t43 -13z" />
    <glyph glyph-name="cid72.001" horiz-adv-x="563" 
d="M275 -250q-50 0 -91.5 9.5t-71 28t-46 46t-16.5 62.5t21.5 66.5t59.5 56.5v4q-22 13 -36 35t-14 54q0 34 20 60t41 41v4q-27 22 -49 59.5t-22 86.5q0 45 16.5 80.5t44.5 61t65 39t78 13.5q23 0 42.5 -4.5t33.5 -9.5h189v-70h-111q20 -19 32 -48t12 -64q0 -44 -15.5 -78.5
t-42.5 -59.5t-63 -38t-77 -13q-43 0 -81 19q-15 -13 -25 -27.5t-10 -37.5q0 -26 20 -42.5t75 -16.5h106q95 0 142 -31t47 -98q0 -38 -19 -72t-55 -60t-86.5 -41t-113.5 -15zM275 234q23 0 44 9t36.5 26t25 40.5t9.5 53.5q0 60 -33.5 93.5t-81.5 33.5t-82 -33.5t-34 -93.5
q0 -30 9.5 -53.5t25 -40.5t36.5 -26t45 -9zM288 -188q39 0 71 9.5t54.5 25t35 36t12.5 41.5q0 38 -28.5 52.5t-82.5 14.5h-94q-15 0 -33.5 2t-36.5 7q-29 -21 -42.5 -44.5t-13.5 -47.5q0 -44 41.5 -70t116.5 -26z" />
    <glyph glyph-name="cid73.001" horiz-adv-x="607" 
d="M92 796h91v-218l-3 -112q38 38 81 64.5t99 26.5q86 0 126 -54t40 -159v-344h-91v332q0 77 -24.5 111t-78.5 34q-42 0 -75 -21t-74 -62v-394h-91v796z" />
    <glyph glyph-name="cid74.001" horiz-adv-x="275" 
d="M92 543h91v-543h-91v543zM138 655q-27 0 -45 16.5t-18 42.5q0 28 18 43.5t45 15.5t45 -15.5t18 -43.5q0 -26 -18 -42.5t-45 -16.5z" />
    <glyph glyph-name="cid75.001" horiz-adv-x="275" 
d="M36 -243q-25 0 -45.5 4.5t-34.5 9.5l18 70q11 -4 24 -7t27 -3q41 0 54.5 28.5t13.5 78.5v605h91v-605q0 -83 -34 -132t-114 -49zM139 655q-27 0 -45 16.5t-18 42.5q0 28 18 43.5t45 15.5q26 0 44.5 -15.5t18.5 -43.5q0 -26 -18.5 -42.5t-44.5 -16.5z" />
    <glyph glyph-name="cid76.001" horiz-adv-x="552" 
d="M92 796h90v-540h2l233 287h101l-182 -218l206 -325h-99l-159 262l-102 -119v-143h-90v796z" />
    <glyph glyph-name="cid77.001" horiz-adv-x="285" 
d="M188 -13q-51 0 -73.5 31.5t-22.5 89.5v688h91v-694q0 -21 7.5 -30t18.5 -9h7.5t11.5 2l13 -70q-10 -4 -22.5 -6t-30.5 -2z" />
    <glyph glyph-name="cid78.001" horiz-adv-x="926" 
d="M92 543h75l8 -79h3q35 39 77.5 66t91.5 27q63 0 98 -28t52 -76q42 46 85.5 75t93.5 29q85 0 125 -54t40 -159v-344h-91v332q0 77 -24.5 111t-76.5 34q-61 0 -137 -83v-394h-91v332q0 77 -24.5 111t-76.5 34q-63 0 -137 -83v-394h-91v543z" />
    <glyph glyph-name="cid79.001" horiz-adv-x="611" 
d="M92 543h75l8 -78h3q39 38 82.5 65t99.5 27q86 0 126 -54t40 -159v-344h-91v332q0 77 -24.5 111t-78.5 34q-42 0 -75 -21t-74 -62v-394h-91v543z" />
    <glyph glyph-name="cid80.001" horiz-adv-x="606" 
d="M303 -13q-50 0 -95.5 19t-80.5 55.5t-55.5 89t-20.5 120.5t20.5 121t55.5 90t80.5 56t95.5 19t95.5 -19t80.5 -56t55.5 -90t20.5 -121t-20.5 -120.5t-55.5 -89t-80.5 -55.5t-95.5 -19zM303 63q35 0 64 15t50 42t32.5 65.5t11.5 85.5t-11.5 85.5t-32.5 66.5t-50 43t-64 15
t-64 -15t-49.5 -43t-32 -66.5t-11.5 -85.5t11.5 -85.5t32 -65.5t49.5 -42t64 -15z" />
    <glyph glyph-name="cid81.001" horiz-adv-x="620" 
d="M92 543h75l8 -62h3q37 30 81 53t92 23q52 0 92.5 -20t68 -56t41.5 -87t14 -114q0 -70 -19.5 -124.5t-52 -92t-75 -57t-89.5 -19.5q-37 0 -75 16.5t-75 46.5l2 -95v-184h-91v772zM316 63q34 0 62.5 15t49.5 42.5t32.5 67.5t11.5 91q0 45 -8 82t-25 63.5t-44 41t-66 14.5
q-35 0 -70.5 -19t-75.5 -56v-285q37 -32 71.5 -44.5t61.5 -12.5z" />
    <glyph glyph-name="cid82.001" horiz-adv-x="620" 
d="M436 -36l5 99q-33 -32 -74.5 -54t-89.5 -22q-51 0 -92.5 19t-70.5 55t-45 89t-16 121q0 66 19.5 119t51.5 90t74.5 57t89.5 20q48 0 84 -17t71 -49h3l9 52h72v-772h-91v193zM297 63q38 0 71.5 18.5t67.5 56.5v285q-35 31 -66.5 44t-65.5 13q-33 0 -61.5 -15t-50 -42.5
t-33.5 -66t-12 -84.5q0 -99 39 -154t111 -55z" />
    <glyph glyph-name="cid83.001" horiz-adv-x="388" 
d="M92 543h75l8 -99h3q29 52 68.5 82.5t85.5 30.5q18 0 31.5 -2.5t26.5 -9.5l-17 -80q-14 5 -25 7t-28 2t-35.5 -6.5t-36.5 -21t-35 -38.5t-30 -59v-349h-91v543z" />
    <glyph glyph-name="cid84.001" horiz-adv-x="468" 
d="M234 -13q-58 0 -111 21.5t-92 53.5l45 60q35 -29 73.5 -46.5t87.5 -17.5q54 0 80.5 25t26.5 60q0 21 -11 36t-28.5 27t-40 21.5l-44.5 18.5q-29 10 -57.5 23t-52 31.5t-38 43t-14.5 59.5q0 32 12.5 60t36.5 49t59 33t79 12q51 0 94 -18t75 -43l-44 -59q-29 21 -58.5 34.5
t-66.5 13.5q-51 0 -75 -23t-24 -55q0 -20 10 -33.5t27 -24t38.5 -19l44.5 -17.5q30 -11 59.5 -24t53 -31.5t38.5 -44.5t15 -65q0 -33 -13 -62.5t-38 -51t-62 -34.5t-85 -13z" />
    <glyph glyph-name="cid85.001" horiz-adv-x="377" 
d="M263 -13q-44 0 -73.5 13t-47.5 36.5t-26 57t-8 74.5v301h-81v69l85 5l11 152h76v-152h147v-74h-147v-303q0 -51 18 -78t66 -27q14 0 31 4.5t31 9.5l18 -68q-23 -8 -49 -14t-51 -6z" />
    <glyph glyph-name="cid86.001" horiz-adv-x="607" 
d="M250 -13q-86 0 -125.5 54t-39.5 158v344h91v-333q0 -76 24 -110t78 -34q42 0 75 21.5t72 70.5v385h91v-543h-76l-7 85h-3q-38 -44 -81 -71t-99 -27z" />
    <glyph glyph-name="cid87.001" horiz-adv-x="521" 
d="M13 543h95l102 -309l25.5 -81t25.5 -79h4l25 79l25 81l103 309h90l-193 -543h-106z" />
    <glyph glyph-name="cid88.001" horiz-adv-x="802" 
d="M27 543h93l81 -314l16 -76.5l16 -75.5h5l17.5 76t19.5 76l84 314h89l85 -314l19 -76.5l19 -75.5h4q9 38 17 75.5l17 76.5l80 314h86l-146 -543h-110l-79 293q-11 38 -19 76t-18 80h-5l-17.5 -80.5t-19.5 -77.5l-76 -291h-107z" />
    <glyph glyph-name="cid89.001" horiz-adv-x="498" 
d="M194 283l-165 260h98l73 -120l26.5 -45l27.5 -45h4l25 45l24 45l67 120h95l-165 -269l179 -274h-100l-80 127l-28.5 49.5l-29.5 47.5h-5l-28 -47.5l-28 -49.5l-73 -127h-96z" />
    <glyph glyph-name="cid90.001" horiz-adv-x="521" 
d="M101 -234q-37 0 -64 11l18 73q8 -3 19 -6t22 -3q47 0 76.5 33t46.5 84l12 41l-218 544h95l111 -302l25.5 -75l26.5 -77h5l23 76.5l23 75.5l97 302h89l-205 -588q-14 -40 -32.5 -74.5t-42.5 -60t-55.5 -40t-71.5 -14.5z" />
    <glyph glyph-name="cid91.001" horiz-adv-x="474" 
d="M35 49l286 420h-255v74h370v-49l-286 -420h296v-74h-411v49z" />
    <glyph glyph-name="cid92.001" horiz-adv-x="338" 
d="M255 -170q-33 0 -58 7t-41 24t-24 45.5t-8 72.5q0 30 1.5 57t3.5 52.5t3.5 51.5t1.5 54q0 16 -4.5 32t-15 28t-29.5 20t-47 8v57q28 0 47 8t29.5 20t15 27.5t4.5 31.5q0 28 -1.5 54t-3.5 52t-3.5 53t-1.5 57q0 43 8 72t24 46t41 24t58 7h49v-51h-29q-45 0 -60.5 -24.5
t-15.5 -78.5q0 -51 3 -98t3 -105q0 -54 -15 -82.5t-52 -38.5v-4q37 -11 52 -39.5t15 -82.5q0 -57 -3 -104.5t-3 -98.5q0 -54 15.5 -78t60.5 -24h29v-52h-49v0z" />
    <glyph glyph-name="cid93.001" horiz-adv-x="269" 
d="M103 838h64v-1117h-64v1117z" />
    <glyph glyph-name="cid94.001" horiz-adv-x="338" 
d="M34 -118h29q46 0 61 24t15 78q0 51 -2.5 98.5t-2.5 104.5q0 54 15 82.5t51 39.5v4q-36 10 -51 38.5t-15 82.5q0 58 2.5 105t2.5 98q0 54 -15 78.5t-61 24.5h-29v51h50q33 0 57.5 -7t40.5 -24t24 -46t8 -72q0 -30 -1.5 -57l-3 -53l-3 -52t-1.5 -54q0 -16 4 -31.5t15 -27.5
t29 -20t47 -8v-57q-29 0 -47 -8t-29 -20t-15 -28t-4 -32q0 -28 1.5 -54l3 -51.5l3 -52.5t1.5 -57q0 -44 -8 -72.5t-24 -45.5t-40.5 -24t-57.5 -7h-50v52z" />
    <glyph glyph-name="cid95.001" horiz-adv-x="555" 
d="M376 287q-33 0 -59.5 15t-49.5 32.5l-44.5 32.5t-45.5 15t-45 -16t-41 -52l-51 36q31 53 67 76.5t73 23.5q33 0 59 -14.5t49 -32.5t44.5 -32.5t45.5 -14.5t45 16t40 52l52 -37q-31 -53 -67 -76.5t-72 -23.5z" />
    <glyph glyph-name="cid96" unicode="&#xa1;" horiz-adv-x="323" 
d="M118 -101l12 423h63l12 -423l3 -104h-93zM161 417q-27 0 -46.5 19t-19.5 51q0 31 19.5 50.5t46.5 19.5q28 0 47 -19.5t19 -50.5q0 -32 -19 -51t-47 -19z" />
    <glyph glyph-name="cid97" unicode="&#xa4;" horiz-adv-x="555" 
d="M30 165l71 73q-40 54 -40 129q0 79 40 131l-71 74l48 50l76 -78q53 42 124 42q33 0 65 -11t58 -31l76 78l48 -50l-72 -74q20 -26 30.5 -58.5t10.5 -72.5q0 -38 -10.5 -70.5t-30.5 -58.5l72 -73l-48 -50l-76 77q-26 -20 -58 -31t-65 -11q-70 0 -124 42l-76 -77zM278 218
q27 0 51 11t42 30.5t28.5 47t10.5 60.5t-10.5 61t-28.5 48t-42 31t-51 11t-51.5 -11t-42.5 -31t-28.5 -48t-10.5 -61t10.5 -60.5t28.5 -47t42.5 -30.5t51.5 -11z" />
    <glyph glyph-name="cid98.001" horiz-adv-x="555" 
d="M231 177h-180v53h180v73h-180v52h157l-182 358h96l87 -192l33 -74l34 -77h5l34.5 77l33.5 74l88 192h92l-184 -358h159v-52h-182v-73h182v-53h-182v-177h-91v177z" />
    <glyph glyph-name="cid99" unicode="&#xa7;" horiz-adv-x="1000" 
d="M669 669q-21 14 -63 29t-98 15q-29 0 -51.5 -7.5t-39 -20t-25 -28t-8.5 -31.5q0 -23 11.5 -39t32.5 -28t49.5 -21.5t61.5 -18.5q90 -24 141.5 -63t51.5 -107q0 -43 -18.5 -80t-47.5 -61q15 -12 28.5 -38.5t13.5 -60.5q0 -39 -17.5 -71t-48 -54.5t-71.5 -35t-87 -12.5
q-60 0 -107.5 12.5t-79.5 37.5l28 61q21 -17 61 -33t100 -16q66 0 103 29.5t37 72.5q0 19 -7 35t-25 29.5t-48.5 26.5t-76.5 27q-50 15 -87.5 31t-63 36t-38.5 46t-13 61q0 29 18 65t59 66q-19 14 -30 40.5t-10 50.5q0 34 15 63.5t43 51.5t67.5 34.5t88.5 12.5
q58 0 102.5 -14t73.5 -31zM391 492q-26 -21 -37.5 -43.5t-11.5 -44.5q0 -15 4.5 -28t19 -26.5t41 -26.5t71.5 -28q61 -20 93 -32.5t47 -21.5q19 17 29 41t10 49q0 26 -14 45t-36.5 33t-51 24.5t-58 19.5l-57.5 18t-49 21z" />
    <glyph glyph-name="cid100" unicode="&#xa8;" horiz-adv-x="606" 
d="M196 656q-24 0 -40 16t-16 39q0 24 16 40t40 16t39.5 -16t15.5 -40q0 -23 -15.5 -39t-39.5 -16zM410 656q-24 0 -39.5 16t-15.5 39q0 24 15.5 40t39.5 16t39.5 -16t15.5 -40q0 -23 -15.5 -39t-39.5 -16z" />
    <glyph glyph-name="cid101" unicode="&#xb0;" horiz-adv-x="370" 
d="M185 480q-28 0 -53 10t-44.5 28.5t-31 45t-11.5 58.5q0 33 11.5 59t31 45t44.5 29t53 10t53.5 -10t44.5 -29t30.5 -45t11.5 -59q0 -32 -11.5 -58.5t-30.5 -45t-44.5 -28.5t-53.5 -10zM185 531q38 0 61 25.5t23 65.5q0 41 -23 66.5t-61 25.5t-61 -25.5t-23 -66.5
q0 -40 23 -65.5t61 -25.5z" />
    <glyph glyph-name="cid102" unicode="&#xb1;" horiz-adv-x="1000" 
d="M863 461h-329v-275h-68v275h-329v69h329v274h68v-274h329v-69zM867 87v-69h-730v69h730z" />
    <glyph glyph-name="cid103" unicode="&#xb2;" horiz-adv-x="410" 
d="M58 482l89.5 82.5t65 67t39.5 56.5t13 51q0 43 -23 67.5t-61 24.5q-28 0 -51.5 -18.5t-42.5 -45.5l-43 39q26 38 64 61t83 23q65 0 104.5 -35.5t39.5 -105.5q0 -31 -12 -60t-34 -59t-51.5 -61l-64.5 -67h184v-61h-299v41z" />
    <glyph glyph-name="cid104" unicode="&#xb3;" horiz-adv-x="410" 
d="M202 428q-54 0 -95.5 24t-66.5 61l47 36q20 -30 48 -47.5t62 -17.5q36 0 62 20.5t26 57.5q0 38 -35.5 58.5t-100.5 20.5v45q57 0 88 22.5t31 56.5q0 31 -21.5 50t-57.5 19q-24 0 -47 -15t-42 -38l-42 38q27 32 61.5 51.5t79.5 19.5q28 0 53.5 -8t45 -23t30.5 -37t11 -49
q0 -39 -21.5 -65t-55.5 -42q38 -10 66 -37t28 -71q0 -30 -12.5 -54t-33.5 -41t-49 -26t-59 -9z" />
    <glyph glyph-name="cid105" unicode="&#xb4;" horiz-adv-x="606" 
d="M240 686l158 186l64 -61l-175 -170z" />
    <glyph glyph-name="cid106" unicode="&#xb6;" horiz-adv-x="1000" 
d="M477 294h-9q-35 0 -74.5 13t-73 40t-56 68t-22.5 97q-1 44 13 89t49.5 81t97 59t156.5 23q51 0 81.5 -2t50.5 -7v-812h-64v758h-85v-758h-64v351z" />
    <glyph glyph-name="cid107" unicode="&#xb7;" horiz-adv-x="561" 
d="M276 294q-27 0 -46.5 19.5t-19.5 49.5q0 32 19.5 51.5t46.5 19.5t46.5 -19.5t19.5 -51.5q0 -30 -19.5 -49.5t-46.5 -19.5z" />
    <glyph glyph-name="cid108" unicode="&#xb8;" horiz-adv-x="606" 
d="M205 -208q70 5 95.5 18t25.5 38q0 21 -19 33.5t-67 20.5l48 101h60l-32 -75q38 -9 59.5 -26.5t21.5 -51.5q0 -49 -47.5 -73.5t-135.5 -29.5z" />
    <glyph glyph-name="cid109" unicode="&#xb9;" horiz-adv-x="410" 
d="M192 786h-94v46q36 7 60 17.5t47 27.5h59v-436h-72v345z" />
    <glyph glyph-name="cid110" unicode="&#xbc;" horiz-adv-x="872" 
d="M165 298v344h-94v47q36 7 60 17t47 27h58v-435h-71zM668 747l-405 -760h-61l404 760h62zM707 167v80l6 121h-5l-56 -91l-69 -110h124zM837 117h-65v-117h-65v117h-198v36l183 283h80v-269h65v-50z" />
    <glyph glyph-name="cid111" unicode="&#xbd;" horiz-adv-x="903" 
d="M165 642h-94v47q36 7 60 17t47 27h58v-435h-71v344zM583 747h62l-405 -760h-61zM551 41l89.5 82.5t64.5 67t39 56.5t13 51q0 42 -22.5 67t-61.5 25q-28 0 -51.5 -18.5t-41.5 -45.5l-43 39q25 38 62.5 61t82.5 23q66 0 105.5 -36t39.5 -105q0 -32 -12 -61t-34 -58.5
t-51.5 -60.5l-64.5 -67h185v-61h-299v41z" />
    <glyph glyph-name="cid112" unicode="&#xbe;" horiz-adv-x="889" 
d="M56 675q28 33 62 52.5t80 19.5q28 0 53.5 -8t44.5 -23t30 -37t11 -49q0 -39 -21.5 -65.5t-54.5 -41.5q37 -10 65 -37t28 -71q0 -30 -12 -54t-33 -41.5t-49 -26.5t-60 -9q-54 0 -95.5 24t-66.5 61l47 37q20 -30 48.5 -47.5t62.5 -17.5q36 0 61.5 20t25.5 58t-35 58
t-100 20v45q57 0 88 22.5t31 56.5q0 31 -22 50.5t-57 19.5q-25 0 -48 -15.5t-41 -38.5zM710 747l-405 -760h-61l405 760h61zM724 167v80l6 121h-5l-56 -91l-69 -110h124zM853 117h-65v-117h-64v117h-198v36l183 283h79v-269h65v-50z" />
    <glyph glyph-name="cid113" unicode="&#xbf;" horiz-adv-x="474" 
d="M240 -219q-42 0 -76.5 12.5t-59 35.5t-38 56t-13.5 74q0 37 13 67t32.5 57.5t42 53.5t40.5 54t28 60t6 71h81q6 -44 -3 -79t-26 -64.5t-39 -55.5t-41 -51t-32 -51t-13 -55q0 -46 27 -78t81 -32q38 0 70.5 17.5t58.5 47.5l53 -48q-36 -40 -83.5 -66t-108.5 -26zM253 417
q-27 0 -46.5 19t-19.5 51q0 31 19.5 50.5t46.5 19.5t46.5 -19.5t19.5 -50.5q0 -32 -19.5 -51t-46.5 -19z" />
    <glyph glyph-name="cid114" unicode="&#xd7;" horiz-adv-x="1000" 
d="M774 54l-274 274l-273 -274l-49 48l274 274l-274 273l49 49l273 -274l274 274l48 -48l-273 -274l273 -274z" />
    <glyph glyph-name="cid115" unicode="&#xf7;" horiz-adv-x="1000" 
d="M428 630q0 30 21 51.5t51 21.5t51 -21.5t21 -51.5q0 -29 -21 -50.5t-51 -21.5t-51 21.5t-21 50.5zM863 410v-69h-726v69h726zM428 121q0 29 21 50.5t51 21.5t51 -21.5t21 -50.5q0 -30 -21 -51.5t-51 -21.5t-51 21.5t-21 51.5z" />
    <glyph glyph-name="cid116" unicode="&#x2c7;" horiz-adv-x="1000" 
d="M764 542l-264 -404l-266 404h95l171 -269l164 269h100z" />
    <glyph glyph-name="cid117" unicode="&#x2d9;" horiz-adv-x="1000" 
d="M499 290q-42 0 -67.5 28t-26.5 64q0 18 6.5 35.5t18.5 31t29.5 22t39.5 8.5t39 -8t29 -21.5t18.5 -31t6.5 -36.5q0 -38 -24.5 -65t-68.5 -27z" />
    <glyph glyph-name="cid118" unicode="&#x2018;" horiz-adv-x="278" 
d="M208 735q-42 -28 -63 -59.5t-22 -79.5q3 1 10 1q23 0 41 -14.5t18 -41.5q0 -29 -16.5 -45t-42.5 -16q-33 0 -51.5 26t-18.5 74q0 67 30.5 115.5t88.5 82.5z" />
    <glyph glyph-name="cid119" unicode="&#x2019;" horiz-adv-x="278" 
d="M70 525q42 29 62.5 60t21.5 79q-3 -1 -10 -1q-23 0 -40.5 14.5t-17.5 42.5q0 29 16 45t42 16q33 0 52 -26.5t19 -74.5q0 -67 -30.5 -115.5t-88.5 -82.5z" />
    <glyph glyph-name="cid120" unicode="&#x201c;" horiz-adv-x="475" 
d="M208 735q-42 -28 -63 -59.5t-22 -79.5q3 1 10 1q23 0 41 -14.5t18 -41.5q0 -29 -16.5 -45t-42.5 -16q-33 0 -51.5 26t-18.5 74q0 67 30.5 115.5t88.5 82.5zM404 735q-41 -28 -62 -59.5t-22 -79.5q3 1 9 1q23 0 41.5 -14.5t18.5 -41.5q0 -29 -17 -45t-43 -16q-33 0 -51 26
t-18 74q0 67 30.5 115.5t87.5 82.5z" />
    <glyph glyph-name="cid121" unicode="&#x201d;" horiz-adv-x="475" 
d="M70 525q42 29 62.5 60t21.5 79q-3 -1 -10 -1q-23 0 -40.5 14.5t-17.5 42.5q0 29 16 45t42 16q33 0 52 -26.5t19 -74.5q0 -67 -30.5 -115.5t-88.5 -82.5zM266 525q42 29 63 60t22 79q-3 -1 -10 -1q-23 0 -41 14.5t-18 42.5q0 29 16.5 45t42.5 16q33 0 51.5 -26.5
t18.5 -74.5q0 -67 -30.5 -115.5t-88.5 -82.5z" />
    <glyph glyph-name="cid122" unicode="&#x2020;" horiz-adv-x="1000" 
d="M536 522l203 5v-76l-203 6l7 -513h-86l7 513l-203 -6v76l203 -5l-7 242h86z" />
    <glyph glyph-name="cid123" unicode="&#x2021;" horiz-adv-x="1000" 
d="M536 534l203 6v-76l-203 6v-232l203 6v-77l-203 6l7 -229h-86l7 229l-203 -6v77l203 -6v232l-203 -6v76l203 -6l-7 230h86z" />
    <glyph glyph-name="cid124" unicode="&#x2025;" horiz-adv-x="1000" 
d="M184 380q0 28 19 47t47 19t47 -19t19 -47t-19 -47t-47 -19t-47 19t-19 47zM684 380q0 28 19 47t47 19t47 -19t19 -47t-19 -47t-47 -19t-47 19t-19 47z" />
    <glyph glyph-name="cid125" unicode="&#x2026;" horiz-adv-x="1000" 
d="M101 380q0 28 19 47t47 19t47 -19t19 -47t-19 -47t-47 -19t-47 19t-19 47zM434 380q0 28 19 47t47 19t47 -19t19 -47t-19 -47t-47 -19t-47 19t-19 47zM767 380q0 28 19 47t47 19t47 -19t19 -47t-19 -47t-47 -19t-47 19t-19 47z" />
    <glyph glyph-name="cid126" unicode="&#x2030;" horiz-adv-x="1000" 
d="M511 750h51l-385 -766h-52zM34 522q0 53 10 95t28 70.5t42 43t51 14.5q29 0 52.5 -16t40 -45.5t25.5 -70.5t9 -91q0 -58 -11 -99.5t-29 -68.5t-41 -40t-47 -13q-29 0 -53 15.5t-41 44.5t-26.5 70t-9.5 91zM234 522q0 28 -3 58.5t-10.5 56.5t-22 42.5t-36.5 16.5
q-21 0 -34.5 -16.5t-21 -42t-10.5 -56t-3 -58.5q0 -30 3 -60.5t10.5 -55.5t21 -41t35.5 -16t36 16.5t21.5 41.5t10.5 55.5t3 58.5zM396 212q0 53 10 95t28 70.5t42 43.5t51 15q29 0 52.5 -16t40 -45.5t25.5 -70.5t9 -91q0 -58 -11 -100t-29 -69t-41 -40t-47 -13
q-29 0 -53 15.5t-41 44.5t-26.5 70t-9.5 91zM708 212q0 53 10 95t27.5 70.5t41.5 43.5t51 15q29 0 53 -16t40.5 -45.5t25.5 -70.5t9 -91q0 -58 -11 -100t-29 -69t-41 -40t-48 -13q-29 0 -52.5 15.5t-40.5 44.5t-26.5 70t-9.5 91zM596 212q0 28 -3 59t-10.5 57t-22 42.5
t-36.5 16.5q-21 0 -34.5 -16.5t-21 -42t-10.5 -56.5t-3 -59q0 -30 3 -60.5t10.5 -55.5t21 -41t35.5 -16t36 16.5t21.5 42t10.5 55.5t3 58zM907 212q0 27 -2.5 58t-10.5 57t-22 43t-36 17q-21 0 -34.5 -16.5t-21.5 -42t-11 -56.5t-3 -59q0 -29 2.5 -59.5t10.5 -56t21.5 -41.5
t36.5 -16q22 0 36 16.5t21.5 42t10 55.5t2.5 58z" />
    <glyph glyph-name="cid127" unicode="&#x2032;" horiz-adv-x="278" 
d="M116 771l89 -1l-15 -101l-39 -166l-60 1z" />
    <glyph glyph-name="cid128" unicode="&#x2033;" horiz-adv-x="475" 
d="M116 771l89 -1l-15 -101l-39 -166l-60 1zM312 771l90 -1l-16 -101l-38 -166l-60 1z" />
    <glyph glyph-name="cid129.001" horiz-adv-x="1000" 
d="M575 665q0 -31 -22 -53t-53 -22t-53 22t-22 53t22 53t53 22t53 -22t22 -53zM500 409l330 330l29 -29l-330 -330l330 -330l-29 -29l-330 330l-331 -331l-29 29l331 331l-330 330l29 29zM215 455q31 0 53 -22t22 -53t-22 -53t-53 -22t-53 22t-22 53t22 53t53 22zM785 305
q-31 0 -53 22t-22 53t22 53t53 22t53 -22t22 -53t-22 -53t-53 -22zM425 95q0 31 22 53t53 22t53 -22t22 -53t-22 -53t-53 -22t-53 22t-22 53z" />
    <glyph glyph-name="cid130.001" horiz-adv-x="555" 
d="M429 339h-62l16 -118l17 -152h4l13 152zM302 386l-4 32l-18 180h-5l-18 -182l-4 -30h49zM194 339h-60l12 -118l12 -152h4l16 152zM569 339h-73l-42 -339h-99l-46 339h-62l-45 -339h-94l-46 339h-79v42l73 4l-44 328h85l33 -327h71l39 282h81l39 -282h73l32 327h78
l-41 -327h67v-47z" />
    <glyph glyph-name="cid131" unicode="&#x2103;" horiz-adv-x="1000" 
d="M188 477q-29 0 -54.5 10t-44.5 29t-30.5 45.5t-11.5 58.5q0 33 11.5 59.5t30.5 45t44.5 28.5t54.5 10q28 0 53.5 -10t44.5 -28.5t30.5 -45t11.5 -59.5q0 -32 -11.5 -58.5t-30.5 -45.5t-44.5 -29t-53.5 -10zM188 529q37 0 60.5 25.5t23.5 65.5q0 41 -23.5 66t-60.5 25
q-38 0 -61 -25t-23 -66q0 -40 23 -65.5t61 -25.5zM735 -13q-69 0 -128 25.5t-102 74t-67.5 119t-24.5 159.5t24.5 159.5t68.5 119.5t103.5 75t130.5 26q33 0 62 -7.5t54.5 -20t47 -29t37.5 -33.5l-54 -60q-29 31 -64.5 48.5t-81.5 17.5q-52 0 -94 -20.5t-72 -58.5
t-46.5 -92.5t-16.5 -122.5t15.5 -123t45 -93.5t71 -59t93.5 -20.5q53 0 92 20.5t74 59.5l55 -59q-44 -51 -98.5 -78t-124.5 -27z" />
    <glyph glyph-name="cid132" unicode="&#x2109;" horiz-adv-x="1000" 
d="M224 477q-29 0 -54.5 10t-44.5 29t-30.5 45.5t-11.5 58.5q0 33 11.5 59.5t30.5 45t44.5 28.5t54.5 10q28 0 53.5 -10t44.5 -28.5t30.5 -45t11.5 -59.5q0 -32 -11.5 -58.5t-30.5 -45.5t-44.5 -29t-53.5 -10zM224 529q37 0 60.5 25.5t23.5 65.5q0 41 -23.5 66t-60.5 25
q-38 0 -61 -25t-23 -66q0 -40 23 -65.5t61 -25.5zM508 732h424v-81h-329v-244h279v-81h-279v-326h-95v732z" />
    <glyph glyph-name="cid133" unicode="&#x2116;" horiz-adv-x="997" 
d="M102 -13q-10 0 -15 0.5t-13 2.5l-8 73q20 0 29 9.5t9 36.5v604h102l101 -229.5l98 -229.5l63 -146h4q-4 53 -6 96.5t-3.5 82t-2 75t-0.5 76.5v179q0 55 20 82t65 27q11 0 16 -1t13 -3l7 -72q-20 0 -29 -9.5t-9 -36.5v-604h-102l-100.5 229l-97.5 231l-64 145h-4
q4 -53 6 -96.5t3.5 -82t2 -75t0.5 -76.5v-179q0 -55 -20 -82t-65 -27zM810 309q-35 0 -66 12t-54.5 35t-37 56t-13.5 76t13.5 77t37 56.5t54.5 34.5t66 12t66.5 -12t55 -34.5t37 -56.5t13.5 -77t-13.5 -76t-37 -56t-55 -35t-66.5 -12zM810 369q45 0 71 31.5t26 87.5
q0 57 -26 88.5t-71 31.5q-44 0 -70.5 -31.5t-26.5 -88.5q0 -56 26.5 -87.5t70.5 -31.5zM669 223h282v-55h-282v55z" />
    <glyph glyph-name="cid134" unicode="&#x2121;" horiz-adv-x="1000" 
d="M149 660h-123v72h325v-72h-123v-660h-79v660zM400 578h250v-67h-172v-178h131v-63h-131v-203h183v-67h-261v578zM727 578h79v-508h164v-70h-243v578z" />
    <glyph glyph-name="cid135" unicode="&#x2122;" horiz-adv-x="711" 
d="M115 695h-112v61h289v-61h-112v-286h-65v286zM347 756h81l52 -130l32 -88h4l31 88l51 130h82v-347h-62v154l7 117h-4l-82 -218h-52l-81 218h-5l8 -117v-154h-62v347z" />
    <glyph glyph-name="cid136" unicode="&#x212b;" horiz-adv-x="1000" 
d="M607 297l-34 110q-20 62 -37.5 122.5l-35.5 124.5h-5q-33 -126 -71 -247l-35 -110h218zM498 909q-35 0 -59 -23.5t-24 -62.5q0 -42 24 -64.5t59 -22.5q33 0 57 22.5t24 64.5q0 39 -24 62.5t-57 23.5zM631 221h-265l-70 -221h-97l237 706q-37 15 -59 46.5t-22 75.5
q0 60 40 95.5t103 35.5q30 0 56 -9.5t45.5 -26.5t30.5 -41t11 -54q0 -43 -22 -74.5t-58 -46.5l240 -707h-101z" />
    <glyph glyph-name="cid137" unicode="&#x2160;" horiz-adv-x="1000" 
d="M452 732h96v-732h-96v732z" />
    <glyph glyph-name="cid138" unicode="&#x2161;" horiz-adv-x="1000" 
d="M305 732h96v-732h-96v732zM600 732h95v-732h-95v732z" />
    <glyph glyph-name="cid139" unicode="&#x2162;" horiz-adv-x="1000" 
d="M157 732h96v-732h-96v732zM452 732h96v-732h-96v732zM747 732h96v-732h-96v732z" />
    <glyph glyph-name="cid140" unicode="&#x2163;" horiz-adv-x="1000" 
d="M164 732h96v-732h-96v732zM359 732h101l118 -394l17.5 -62l16.5 -59l16.5 -58.5l18.5 -61.5h5l18.5 61.5l17 58.5l16.5 59t18 62l116 394h97l-232 -732h-111z" />
    <glyph glyph-name="cid141" unicode="&#x2164;" horiz-adv-x="1000" 
d="M213 732h100l118 -394l33.5 -121t35.5 -120h5l18.5 61.5l17 58.5l16.5 59t18 62l116 394h97l-232 -732h-111z" />
    <glyph glyph-name="cid142" unicode="&#x2165;" horiz-adv-x="1000" 
d="M65 732h100l118 -394l34 -121t35 -120h5l19 61.5t17 58.5l16.5 59t18.5 62l116 394h96l-231 -732h-111zM739 732h96v-732h-96v732z" />
    <glyph glyph-name="cid143" unicode="&#x2166;" horiz-adv-x="1000" 
d="M8 732h101l91 -394l15 -62.5l13.5 -58.5t14.5 -58.5l17 -61.5h4q19 64 32 120l28 121l92 394h97l-194 -732h-117zM593 732h96v-732h-96v732zM826 732h96v-732h-96v732z" />
    <glyph glyph-name="cid144" unicode="&#x2167;" horiz-adv-x="1000" 
d="M4 732h88l64 -394l20.5 -121l20.5 -120h4q12 64 21.5 120t19.5 121l62 394h84l-137 -732h-104zM472 732h83v-732h-83v732zM659 732h83v-732h-83v732zM845 732h83v-732h-83v732z" />
    <glyph glyph-name="cid145" unicode="&#x2168;" horiz-adv-x="1000" 
d="M165 732h96v-732h-96v732zM589 378l-199 354h106l98 -186l27 -50l31 -56h4q14 32 26 56l25 50l96 186h101l-200 -359l213 -373h-105l-106 196l-30 55.5l-32 61.5h-4l-31 -61.5l-28 -55.5l-104 -196h-100z" />
    <glyph glyph-name="cid146" unicode="&#x2169;" horiz-adv-x="1000" 
d="M441 378l-199 354h106l99 -186l26.5 -50l30.5 -56h4l26.5 56l24.5 50l97 186h100l-200 -359l214 -373h-106l-106 196l-29.5 55.5l-32.5 61.5h-4l-30 -61.5l-28 -55.5l-105 -196h-100z" />
    <glyph glyph-name="cid147" unicode="&#x2170;" horiz-adv-x="1000" 
d="M452 542h95v-542h-95v542zM501 653q-28 0 -46.5 17t-18.5 43q0 27 18.5 43.5t46.5 16.5q26 0 45 -16.5t19 -43.5q0 -26 -19 -43t-45 -17z" />
    <glyph glyph-name="cid148" unicode="&#x2171;" horiz-adv-x="1000" 
d="M315 542h94v-542h-94v542zM363 653q-28 0 -46.5 17t-18.5 43q0 27 18.5 43.5t46.5 16.5q27 0 45.5 -16.5t18.5 -43.5q0 -26 -18.5 -43t-45.5 -17zM591 542h94v-542h-94v542zM639 653q-28 0 -46.5 17t-18.5 43q0 27 18.5 43.5t46.5 16.5q27 0 45.5 -16.5t18.5 -43.5
q0 -26 -18.5 -43t-45.5 -17z" />
    <glyph glyph-name="cid149" unicode="&#x2172;" horiz-adv-x="1000" 
d="M177 542h95v-542h-95v542zM225 653q-27 0 -46 17t-19 43q0 27 19 43.5t46 16.5t45.5 -16.5t18.5 -43.5q0 -26 -18.5 -43t-45.5 -17zM452 542h95v-542h-95v542zM501 653q-28 0 -46.5 17t-18.5 43q0 27 18.5 43.5t46.5 16.5q26 0 45 -16.5t19 -43.5q0 -26 -19 -43t-45 -17z
M728 542h95v-542h-95v542zM776 653q-28 0 -46.5 17t-18.5 43q0 27 18.5 43.5t46.5 16.5q27 0 45.5 -16.5t18.5 -43.5q0 -26 -18.5 -43t-45.5 -17z" />
    <glyph glyph-name="cid150" unicode="&#x2173;" horiz-adv-x="1000" 
d="M191 542h95v-542h-95v542zM240 653q-28 0 -46.5 17t-18.5 43q0 27 18.5 43.5t46.5 16.5q27 0 45 -16.5t18 -43.5q0 -26 -18 -43t-45 -17zM390 542h97l101 -306l25 -81l25 -79h4l25 79t24 81l102 306h93l-191 -542h-110z" />
    <glyph glyph-name="cid151" unicode="&#x2174;" horiz-adv-x="1000" 
d="M252 542h97l101 -306l25.5 -81t25.5 -79h4l25 79t24 81l102 306h92l-191 -542h-110z" />
    <glyph glyph-name="cid152" unicode="&#x2175;" horiz-adv-x="1000" 
d="M114 542h97l102 -306q11 -40 24 -81l25 -79h4l26 79t24 81l102 306h92l-191 -542h-109zM714 542h94v-542h-94v542zM762 653q-28 0 -46.5 17t-18.5 43q0 27 18.5 43.5t46.5 16.5q27 0 45 -16.5t18 -43.5q0 -26 -18 -43t-45 -17z" />
    <glyph glyph-name="cid153" unicode="&#x2176;" horiz-adv-x="1000" 
d="M13 542h97l93 -306l22.5 -81t24.5 -79h4q12 38 23.5 79l22.5 81l93 306h92l-179 -542h-110zM570 542h95v-542h-95v542zM618 653q-28 0 -46.5 17t-18.5 43q0 27 18.5 43.5t46.5 16.5q27 0 45.5 -16.5t18.5 -43.5q0 -26 -18.5 -43t-45.5 -17zM821 542h94v-542h-94v542z
M869 653q-28 0 -46.5 17t-18.5 43q0 27 18.5 43.5t46.5 16.5q27 0 45.5 -16.5t18.5 -43.5q0 -26 -18.5 -43t-45.5 -17z" />
    <glyph glyph-name="cid154" unicode="&#x2177;" horiz-adv-x="1000" 
d="M6 542h91l60 -306q10 -40 17 -81t17 -79h4q9 38 17 79l16 81l60 306h86l-130 -542h-103zM461 542h82v-542h-82v542zM503 653q-26 0 -42.5 17t-16.5 43q0 27 16.5 43.5t42.5 16.5q24 0 40.5 -16.5t16.5 -43.5q0 -26 -16.5 -43t-40.5 -17zM658 542h82v-542h-82v542z
M700 653q-25 0 -42 17t-17 43q0 27 17 43.5t42 16.5q24 0 41 -16.5t17 -43.5q0 -26 -17 -43t-41 -17zM855 542h83v-542h-83v542zM898 653q-25 0 -42 17t-17 43q0 27 17 43.5t42 16.5q24 0 40.5 -16.5t16.5 -43.5q0 -26 -16.5 -43t-40.5 -17z" />
    <glyph glyph-name="cid155" unicode="&#x2178;" horiz-adv-x="1000" 
d="M203 542h94v-542h-94v542zM251 653q-28 0 -46.5 17t-18.5 43q0 27 18.5 43.5t46.5 16.5q26 0 44.5 -16.5t18.5 -43.5q0 -26 -18.5 -43t-44.5 -17zM581 283l-165 259h102l72 -118q12 -22 25.5 -44.5l27.5 -45.5h4q13 23 24.5 45.5l23.5 44.5l66 118h98l-164 -269l177 -273
h-102l-79 125l-28.5 49t-29.5 48h-5q-14 -23 -27.5 -47.5l-27.5 -49.5l-72 -125h-98z" />
    <glyph glyph-name="cid156" unicode="&#x2179;" horiz-adv-x="1000" 
d="M443 283l-165 259h102l72 -118l26.5 -44.5l27.5 -45.5h4l24 45.5l24 44.5l65 118h99l-164 -269l176 -273h-101l-80 125l-28 49t-30 48h-5q-14 -23 -27 -47.5l-27 -49.5l-73 -125h-98z" />
    <glyph glyph-name="cid157" unicode="&#x2190;" horiz-adv-x="1000" 
d="M189 346l40.5 -33.5t43 -40t41.5 -44.5t37 -46l-60 -35q-25 33 -55.5 65.5t-64 62.5t-68.5 57t-68 48q33 21 68 48t68.5 57t64 62.5t55.5 65.5l60 -35q-17 -23 -37 -46t-41.5 -44.5t-43 -40l-40.5 -33.5h771v-68h-771z" />
    <glyph glyph-name="cid158" unicode="&#x2191;" horiz-adv-x="1000" 
d="M466 691l-33.5 -40.5t-40 -43t-44.5 -41.5t-46 -37l-35 60q33 25 65.5 55.5t62.5 64t57 68.5t48 68q21 -33 48 -68t57 -68.5t62.5 -64t65.5 -55.5l-35 -60q-23 17 -46 37t-44.5 41.5t-40 43l-33.5 40.5v-771h-68v771z" />
    <glyph glyph-name="cid159" unicode="&#x2192;" horiz-adv-x="1000" 
d="M40 414h771l-40.5 33.5t-43 40t-41.5 44.5t-37 46l60 35q25 -33 55.5 -65.5t64 -62.5t68.5 -57t68 -48q-33 -21 -68 -48t-68.5 -57t-64 -62.5t-55.5 -65.5l-60 35q17 23 37 46t41.5 44.5t43 40l40.5 33.5h-771v68z" />
    <glyph glyph-name="cid160" unicode="&#x2193;" horiz-adv-x="1000" 
d="M534 69l33.5 40.5t40 43t44.5 41.5t46 37l35 -60q-33 -25 -65.5 -55.5t-62.5 -64t-57 -68.5t-48 -68q-21 33 -48 68t-57 68.5t-62.5 64t-65.5 55.5l35 60q23 -17 46 -37t44.5 -41.5t40 -43l33.5 -40.5v771h68v-771z" />
    <glyph glyph-name="cid161" unicode="&#x2194;" horiz-adv-x="1000" 
d="M189 342l40.5 -33.5t43 -40t41.5 -44.5t37 -46l-60 -35q-25 33 -55.5 65.5t-64 62.5t-68.5 57t-68 48q33 21 68 48t68.5 57t64 62.5t55.5 65.5l60 -35q-17 -23 -37 -46t-41.5 -44.5t-43 -40l-40.5 -33.5h622l-40.5 33.5t-43 40t-41.5 44.5t-37 46l60 35
q25 -33 55.5 -65.5t64 -62.5t68.5 -57t68 -48q-33 -21 -68 -48t-68.5 -57t-64 -62.5t-55.5 -65.5l-60 35q17 23 37 46t41.5 44.5t43 40l40.5 33.5h-622z" />
    <glyph glyph-name="cid162" unicode="&#x2195;" horiz-adv-x="1000" 
d="M534 69l33.5 40.5t40 43t44.5 41.5t46 37l35 -60q-33 -25 -65.5 -55.5t-62.5 -64t-57 -68.5t-48 -68q-21 33 -48 68t-57 68.5t-62.5 64t-65.5 55.5l35 60q23 -17 46 -37t44.5 -41.5t40 -43l33.5 -40.5v622l-33.5 -40.5t-40 -43t-44.5 -41.5t-46 -37l-35 60
q33 25 65.5 55.5t62.5 64t57 68.5t48 68q21 -33 48 -68t57 -68.5t62.5 -64t65.5 -55.5l-35 -60q-23 17 -46 37t-44.5 41.5t-40 43l-33.5 40.5v-622z" />
    <glyph glyph-name="cid163" unicode="&#x2196;" horiz-adv-x="1000" 
d="M255 576q8 -48 8 -111t-8 -120l-67 17q11 84 5.5 176.5t-22.5 170.5q78 -17 170.5 -22.5t176.5 5.5l17 -67q-57 -8 -120 -8t-111 8l546 -546l-49 -49z" />
    <glyph glyph-name="cid164" unicode="&#x2197;" horiz-adv-x="1000" 
d="M696 625q-48 -8 -111 -8t-120 8l17 67q84 -11 176.5 -5.5t170.5 22.5q-17 -78 -22.5 -170.5t5.5 -176.5l-67 -17q-8 57 -8 120t8 111l-546 -546l-49 49z" />
    <glyph glyph-name="cid165" unicode="&#x2198;" horiz-adv-x="1000" 
d="M745 184q-8 48 -8 111t8 120l67 -17q-11 -84 -5.5 -176.5t22.5 -170.5q-78 17 -170.5 22.5t-176.5 -5.5l-17 67q57 8 120 8t111 -8l-546 546l49 49z" />
    <glyph glyph-name="cid166" unicode="&#x2199;" horiz-adv-x="1000" 
d="M304 135q48 8 111 8t120 -8l-17 -67q-84 11 -176.5 5.5t-170.5 -22.5q17 78 22.5 170.5t-5.5 176.5l67 17q8 -57 8 -120t-8 -111l546 546l49 -49z" />
    <glyph glyph-name="cid167" unicode="&#x21d2;" horiz-adv-x="1000" 
d="M743 271q30 31 60 58t58 47q-28 20 -58 46.5t-60 57.5h-703v69h643q-27 31 -51 63t-42 61l59 34q29 -46 67 -93t81 -90.5t88.5 -81.5t90.5 -66q-45 -29 -90.5 -67t-88.5 -81.5t-81 -90.5t-67 -93l-59 34q18 29 42 61t51 63h-643v69h703v0z" />
    <glyph glyph-name="cid168" unicode="&#x21d4;" horiz-adv-x="1000" 
d="M387 673q-17 -29 -39.5 -61t-48.5 -63h402q-26 31 -48.5 63t-39.5 61l58 34q27 -46 62.5 -93t75.5 -90.5t82.5 -81.5t84.5 -66q-42 -29 -84.5 -67t-82.5 -81.5t-75.5 -90.5t-62.5 -93l-58 34q17 29 39.5 61t48.5 63h-402q26 -31 48.5 -63t39.5 -61l-58 -34
q-27 46 -62.5 93t-75.5 90.5t-82.5 81.5t-84.5 67q42 28 84.5 66t82.5 81.5t75.5 90.5t62.5 93zM244 480q-29 -31 -57.5 -57.5t-55.5 -46.5q27 -20 55.5 -47t57.5 -58h512q29 31 57.5 58t55.5 47q-27 20 -55.5 46.5t-57.5 57.5h-512z" />
    <glyph glyph-name="cid169" unicode="&#x2200;" horiz-adv-x="1000" 
d="M887 733l-385 -748h-4l-385 748l61 31l132 -259h388l132 259zM499 129h2l157 308h-316z" />
    <glyph glyph-name="cid170" unicode="&#x2202;" horiz-adv-x="1000" 
d="M706 488q0 103 -44.5 155.5t-119.5 52.5q-29 0 -53.5 -8.5t-45.5 -21t-37.5 -28t-27.5 -30.5l-49 54q19 19 42.5 37t51 32.5t59 23t67.5 8.5q51 0 94.5 -18t75 -52.5t49 -85.5t17.5 -117q0 -59 -10 -119t-30.5 -116t-50 -104.5t-68 -84.5t-86.5 -57t-104 -21
q-53 0 -94 17t-68.5 47t-42 70.5t-14.5 87.5q0 57 22 106t57.5 85t81 56t92.5 20q42 0 75.5 -10.5t60 -28.5t46 -42t33.5 -52h2q9 35 14 73t5 71zM294 210q0 -68 39 -109.5t106 -41.5q69 1 124 49t90 142q-5 36 -20.5 66t-39.5 51.5t-53.5 33t-62.5 11.5q-35 0 -67.5 -15.5
t-58.5 -42.5t-41.5 -64t-15.5 -80z" />
    <glyph glyph-name="cid171" unicode="&#x2203;" horiz-adv-x="1000" 
d="M799 739v-727h-604v69h535v261h-535v68h535v260h-535v69h604z" />
    <glyph glyph-name="cid172" unicode="&#x2207;" horiz-adv-x="1000" 
d="M151 661v56h696v-56l-294 -677h-106zM740 638h-483l143 -336l96 -236h5l95 236z" />
    <glyph glyph-name="cid173" unicode="&#x2208;" horiz-adv-x="1000" 
d="M460 629q-53 0 -98 -16.5t-80 -46t-57 -69.5t-28 -87h675v-69h-675q6 -47 28 -87t57 -69.5t80 -46t98 -16.5h412v-69h-412q-71 0 -132.5 25t-106.5 68.5t-71 102.5t-26 127t26 126.5t71 102t106.5 68.5t132.5 25h412v-69h-412z" />
    <glyph glyph-name="cid174" unicode="&#x220b;" horiz-adv-x="1000" 
d="M128 629v69h412q71 0 132.5 -25t106.5 -68.5t71 -102t26 -126.5t-26 -127t-71 -102.5t-106.5 -68.5t-132.5 -25h-412v69h412q52 0 97.5 16.5t80.5 46t57 69.5t28 87h-675v69h675q-6 47 -28 87t-57 69.5t-80.5 46t-97.5 16.5h-412z" />
    <glyph glyph-name="cid175" unicode="&#x220f;" horiz-adv-x="1000" 
d="M208 713h585v-847h-94v766h-399v-766h-92v847z" />
    <glyph glyph-name="cid176" unicode="&#x2211;" horiz-adv-x="1000" 
d="M326 75h473v-75h-598v53l287 309l-271 308v56h545v-74h-420v-4l249 -284l-265 -285v-4z" />
    <glyph glyph-name="cid177" unicode="&#x221a;" horiz-adv-x="1000" 
d="M1000 880v-41h-411l-321 -925h-30l-108 280l-70 -99l-26 19l137 193l99 -260l290 833h440z" />
    <glyph glyph-name="cid178" unicode="&#x221d;" horiz-adv-x="1000" 
d="M544 376q43 -58 96.5 -94.5t122.5 -36.5q35 0 64 9l25 -65q-39 -13 -91 -13q-43 0 -80.5 11.5t-69.5 31.5t-59.5 46t-51.5 56q-24 -30 -51.5 -56t-59.5 -46t-70 -31.5t-81 -11.5q-36 0 -72.5 12.5t-66 37.5t-47.5 62.5t-18 87.5q0 49 18 86.5t47.5 62.5t66 37.5
t72.5 12.5q43 0 81 -11.5t70 -31.5t59.5 -46t51.5 -56q24 30 51.5 56t59.5 46t69.5 31.5t80.5 11.5q52 0 91 -13l-25 -64q-29 9 -64 9q-69 0 -122.5 -37t-96.5 -94zM103 376q0 -32 11 -56t29.5 -41t43 -25.5t50.5 -8.5q69 0 122.5 36.5t96.5 94.5q-43 57 -96.5 94t-122.5 37
q-26 0 -50.5 -9t-43 -25.5t-29.5 -41t-11 -55.5z" />
    <glyph glyph-name="cid179" unicode="&#x221e;" horiz-adv-x="1000" 
d="M500 430q24 30 51.5 56t59.5 46t69.5 31.5t80.5 11.5q36 0 72.5 -12.5t66 -37.5t47.5 -62.5t18 -86.5q0 -50 -18 -87.5t-47.5 -62.5t-66 -37.5t-72.5 -12.5q-43 0 -80.5 11.5t-69.5 31.5t-59.5 46t-51.5 56q-24 -30 -51.5 -56t-60 -46t-70 -31.5t-80.5 -11.5
q-36 0 -72.5 12.5t-66 37.5t-47.5 62.5t-18 87.5q0 49 18 86.5t47.5 62.5t66 37.5t72.5 12.5q43 0 80.5 -11.5t70 -31.5t60 -46t51.5 -56zM103 376q0 -32 11 -56t29.5 -41t43 -25.5t50.5 -8.5q69 0 122 36.5t97 94.5q-44 57 -97 94t-122 37q-26 0 -50.5 -9t-43 -25.5
t-29.5 -41t-11 -55.5zM544 376q43 -58 96.5 -94.5t122.5 -36.5q26 0 50 8.5t42.5 25.5t29.5 41t11 56q0 31 -11 55.5t-29.5 41t-42.5 25.5t-50 9q-69 0 -122.5 -37t-96.5 -94z" />
    <glyph glyph-name="cid180" unicode="&#x2220;" horiz-adv-x="1000" 
d="M264 96h615v-69h-777v4l663 664l48 -49l-549 -547v-3z" />
    <glyph glyph-name="cid181" unicode="&#x2227;" horiz-adv-x="1000" 
d="M498 770h4l385 -747l-61 -32l-325 635h-2l-325 -635l-61 32z" />
    <glyph glyph-name="cid182" unicode="&#x2228;" horiz-adv-x="1000" 
d="M502 -19h-4l-385 747l61 32l325 -635h2l325 635l61 -32z" />
    <glyph glyph-name="cid183" unicode="&#x2229;" horiz-adv-x="1000" 
d="M178 415q0 72 24.5 133.5t68 106.5t102.5 70.5t127 25.5t127 -25.5t102.5 -70.5t68 -106.5t24.5 -133.5v-411h-69v411q0 57 -19.5 106t-53.5 85t-80 56t-100 20t-100 -20t-80 -56t-53.5 -85t-19.5 -106v-411h-69v411v0z" />
    <glyph glyph-name="cid184" unicode="&#x222a;" horiz-adv-x="1000" 
d="M822 336q0 -72 -24.5 -133.5t-68 -106.5t-102.5 -70.5t-127 -25.5t-127 25.5t-102.5 70.5t-68 106.5t-24.5 133.5v411h69v-411q0 -57 19.5 -106t53.5 -85t80 -56t100 -20t100 20t80 56t53.5 85t19.5 106v411h69v-411v0z" />
    <glyph glyph-name="cid185" unicode="&#x222b;" horiz-adv-x="1000" 
d="M460 605q0 75 16.5 122.5t42 73.5t57 35.5t62.5 9.5q23 0 46 -5l-7 -73q-15 4 -33 4q-19 0 -37.5 -5.5t-33.5 -24.5t-24 -54t-9 -94v-439q0 -75 -16 -122.5t-41.5 -73.5t-57.5 -35.5t-63 -9.5q-23 0 -46 5l7 73q15 -4 33 -4q19 0 37.5 5.5t33.5 24.5t24 54t9 94v439z" />
    <glyph glyph-name="cid186" unicode="&#x222c;" horiz-adv-x="1000" 
d="M266 605q0 75 16.5 122.5t42 73.5t57 35.5t62.5 9.5q23 0 46 -5l-7 -73q-15 4 -33 4q-19 0 -37.5 -5.5t-33.5 -24.5t-24 -54t-9 -94v-439q0 -75 -16 -122.5t-41.5 -73.5t-57.5 -35.5t-63 -9.5q-23 0 -46 5l7 73q15 -4 33 -4q19 0 37.5 5.5t33.5 24.5t24 54t9 94v439z
M654 605q0 75 16 122.5t41.5 73.5t57.5 35.5t63 9.5q23 0 46 -5l-7 -73q-15 4 -33 4q-19 0 -37.5 -5.5t-33.5 -24.5t-24 -54t-9 -94v-439q0 -75 -16.5 -122.5t-42 -73.5t-57 -35.5t-62.5 -9.5q-23 0 -46 5l7 73q15 -4 33 -4q19 0 37.5 5.5t33.5 24.5t24 54t9 94v439z" />
    <glyph glyph-name="cid187" unicode="&#x222e;" horiz-adv-x="1000" 
d="M460 219q-27 6 -50.5 21t-41 36t-27 47.5t-9.5 56.5t9.5 56.5t27 47.5t41 36t50.5 21v64q0 75 16.5 122.5t42 73.5t57 35.5t62.5 9.5q23 0 46 -5l-7 -73q-15 4 -33 4t-36.5 -5.5t-33.5 -23t-24.5 -51.5t-9.5 -91v-60q27 -6 50.5 -21t41 -36t27 -47.5t9.5 -56.5
t-9.5 -56.5t-27 -47.5t-41 -36t-50.5 -21v-64q0 -75 -16 -122.5t-41.5 -73.5t-57.5 -35.5t-63 -9.5q-23 0 -46 5l7 73q15 -4 33 -4t36.5 5.5t33.5 23t24.5 51.5t9.5 91v60zM460 499q-38 -11 -63 -44t-25 -75t25 -75t63 -44v238zM540 261q38 11 63 44t25 75t-25 75t-63 44
v-238z" />
    <glyph glyph-name="cid188" unicode="&#x2234;" horiz-adv-x="1000" 
d="M428 612q0 29 21 50.5t51 21.5t51 -21.5t21 -50.5q0 -30 -21 -51.5t-51 -21.5t-51 21.5t-21 51.5zM163 139q0 30 21.5 51.5t51.5 21.5t51 -21.5t21 -51.5q0 -29 -21 -50.5t-51 -21.5t-51.5 21.5t-21.5 50.5zM692 139q0 30 21.5 51.5t51.5 21.5t51 -21.5t21 -51.5
q0 -29 -21 -50.5t-51 -21.5t-51.5 21.5t-21.5 50.5z" />
    <glyph glyph-name="cid189" unicode="&#x2235;" horiz-adv-x="1000" 
d="M163 612q0 29 21.5 50.5t51.5 21.5t51 -21.5t21 -50.5q0 -30 -21 -51.5t-51 -21.5t-51.5 21.5t-21.5 51.5zM692 612q0 29 21.5 50.5t51.5 21.5t51 -21.5t21 -50.5q0 -30 -21 -51.5t-51 -21.5t-51.5 21.5t-21.5 51.5zM428 139q0 30 21 51.5t51 21.5t51 -21.5t21 -51.5
q0 -29 -21 -50.5t-51 -21.5t-51 21.5t-21 50.5z" />
    <glyph glyph-name="cid190" unicode="&#x2236;" horiz-adv-x="1000" 
d="M428 612q0 29 21 50.5t51 21.5t51 -21.5t21 -50.5q0 -30 -21 -51.5t-51 -21.5t-51 21.5t-21 51.5zM428 139q0 30 21 51.5t51 21.5t51 -21.5t21 -51.5q0 -29 -21 -50.5t-51 -21.5t-51 21.5t-21 50.5z" />
    <glyph glyph-name="cid191" unicode="&#x223d;" horiz-adv-x="1000" 
d="M476 400q25 34 54.5 66t64.5 56t76.5 38.5t89.5 14.5q36 0 72.5 -12.5t66 -37.5t47.5 -62.5t18 -86.5q0 -50 -18 -87.5t-47.5 -62.5t-66.5 -37.5t-74 -12.5q-24 0 -47 3t-44 10l26 65q28 -9 67 -9q27 0 51 8.5t43 25.5t30 41t11 56q0 31 -11 55.5t-29.5 41t-42.5 25.5
t-50 9q-39 0 -72.5 -12t-63 -33.5t-55 -50t-48.5 -61.5q-25 -35 -54.5 -66.5t-65 -55.5t-76.5 -38t-90 -14q-36 0 -72.5 12.5t-66 37.5t-47.5 62.5t-18 87.5t18.5 87.5t47.5 62t66 37t74 12.5q51 0 91 -13l-25 -64q-30 9 -67 9q-27 0 -51.5 -9t-43.5 -25.5t-30 -41
t-11 -55.5q0 -32 11 -56t29.5 -41t43 -25.5t50.5 -8.5q39 0 72 12t62.5 33t55 49t49.5 61z" />
    <glyph glyph-name="cid192" unicode="&#x2252;" horiz-adv-x="1000" 
d="M246 667q0 30 21 51.5t51 21.5t51.5 -21.5t21.5 -51.5t-21.5 -51t-51.5 -21t-51 21t-21 51zM863 506v-61h-726v61h726zM863 306v-61h-726v61h726zM609 84q0 30 21.5 51t51.5 21t51 -21t21 -51t-21 -51.5t-51 -21.5t-51.5 21.5t-21.5 51.5z" />
    <glyph glyph-name="cid193" unicode="&#x2260;" horiz-adv-x="1000" 
d="M562 446l-52 -145h353v-69h-378l-77 -210l-64 24l67 186h-274v69h299l53 145h-352v69h377l78 214l64 -24l-69 -190h276v-69h-301z" />
    <glyph glyph-name="cid194" unicode="&#x2261;" horiz-adv-x="1000" 
d="M863 624v-65h-726v65h726zM863 408v-65h-726v65h726zM863 192v-65h-726v65h726z" />
    <glyph glyph-name="cid195" unicode="&#x2264;" horiz-adv-x="1000" 
d="M872 83v-65h-744v65h744zM285 475l589 -238l-26 -63l-746 301v4l746 302l26 -64l-589 -238v-4z" />
    <glyph glyph-name="cid196" unicode="&#x2265;" horiz-adv-x="1000" 
d="M128 83h744v-65h-744v65zM715 475v4l-589 238l26 64l746 -302v-4l-746 -301l-26 63z" />
    <glyph glyph-name="cid197" unicode="&#x226a;" horiz-adv-x="1000" 
d="M642 713l-482 -335v-4l482 -336l-35 -50l-553 386v4l553 385zM945 713l-483 -335v-4l483 -336l-35 -50l-553 386v4l553 385z" />
    <glyph glyph-name="cid198" unicode="&#x226b;" horiz-adv-x="1000" 
d="M643 378v-4l-553 -386l-35 50l483 336v4l-483 335l35 50zM946 378v-4l-553 -386l-35 50l482 336v4l-482 335l35 50z" />
    <glyph glyph-name="cid199" unicode="&#x2282;" horiz-adv-x="1000" 
d="M460 53q-71 0 -132.5 25t-106.5 68.5t-71 102.5t-26 127t26 126.5t71 102t106.5 68.5t132.5 25h412v-69h-412q-57 0 -106 -19.5t-84.5 -53.5t-56 -80t-20.5 -100t20.5 -100.5t56 -80.5t84.5 -53.5t106 -19.5h412v-69h-412v0z" />
    <glyph glyph-name="cid200" unicode="&#x2283;" horiz-adv-x="1000" 
d="M540 698q71 0 132.5 -25t106.5 -68.5t71 -102t26 -126.5t-26 -127t-71 -102.5t-106.5 -68.5t-132.5 -25h-412v69h412q57 0 106 19.5t84.5 53.5t56 80.5t20.5 100.5t-20.5 100t-56 80t-84.5 53.5t-106 19.5h-412v69h412v0z" />
    <glyph glyph-name="cid201" unicode="&#x2286;" horiz-adv-x="1000" 
d="M409 694q-53 0 -93 -16t-67.5 -43t-41.5 -62t-14 -73t14 -73.5t41.5 -62.5t67.5 -43t93 -16h463v-69h-463q-67 0 -120 21.5t-89.5 58t-56 84t-19.5 100.5q0 52 19.5 99.5t56 84t89.5 58t120 21.5h463v-69h-463zM872 57v-69h-744v69h744z" />
    <glyph glyph-name="cid202" unicode="&#x2287;" horiz-adv-x="1000" 
d="M591 305q52 0 92.5 16t68 43t41.5 62.5t14 73.5t-14 73t-41.5 62t-68 43t-92.5 16h-463v69h463q67 0 119.5 -21.5t89.5 -58t56.5 -84t19.5 -99.5q0 -53 -19.5 -100.5t-56.5 -84t-89.5 -58t-119.5 -21.5h-463v69h463zM872 57v-69h-744v69h744z" />
    <glyph glyph-name="cid203" unicode="&#x2299;" horiz-adv-x="1000" 
d="M500 10q-77 0 -144 29t-117.5 79.5t-79.5 117.5t-29 144q0 76 29 143.5t79.5 118t117.5 79.5t144 29q76 0 143.5 -29t118 -79.5t79.5 -118t29 -143.5q0 -77 -29 -144t-79.5 -117.5t-118 -79.5t-143.5 -29zM199 380q0 -62 23.5 -117t64.5 -96t96 -64.5t117 -23.5t117 23.5
t96 64.5t64.5 96t23.5 117t-23.5 117t-64.5 96t-96 64.5t-117 23.5t-117 -23.5t-96 -64.5t-64.5 -96t-23.5 -117zM558 380q0 -24 -17 -41t-41 -17t-41 17t-17 41q0 23 17 40.5t41 17.5t41 -17.5t17 -40.5z" />
    <glyph glyph-name="cid204" unicode="&#x22a5;" horiz-adv-x="1000" 
d="M895 105v-69h-790v69h361v634h68v-634h361z" />
    <glyph glyph-name="cid205" unicode="&#x2312;" horiz-adv-x="1000" 
d="M24 646q91 90 210.5 144.5t265.5 54.5t265 -54.5t211 -144.5l-31 -60q-90 87 -200.5 136.5t-244.5 49.5t-244.5 -49.5t-200.5 -136.5l-31 60v0z" />
    <glyph glyph-name="cid206" unicode="&#x2460;" horiz-adv-x="1000" 
d="M500 -86q-96 0 -181 36.5t-148.5 100t-100 148.5t-36.5 181t36.5 181t100 148.5t148.5 100t181 36.5t181 -36.5t148.5 -100t100 -148.5t36.5 -181q0 -97 -37 -182t-100.5 -148t-148 -99.5t-180.5 -36.5zM500 -54q90 0 169 34t138 93t93 138t34 169t-34 169t-93 138
t-138 93t-169 34q-91 0 -170 -34.5t-137.5 -93.5t-92.5 -138t-34 -168q0 -90 34 -169t93 -138t138 -93t169 -34zM480 551h-106v53q40 7 69.5 17t55.5 24h63v-518h-82v424z" />
    <glyph glyph-name="cid207" unicode="&#x2461;" horiz-adv-x="1000" 
d="M500 -86q-96 0 -181 36.5t-148.5 100t-100 148.5t-36.5 181t36.5 181t100 148.5t148.5 100t181 36.5t181 -36.5t148.5 -100t100 -148.5t36.5 -181q0 -97 -37 -182t-100.5 -148t-148 -99.5t-180.5 -36.5zM500 -54q90 0 169 34t138 93t93 138t34 169t-34 169t-93 138
t-138 93t-169 34q-91 0 -170 -34.5t-137.5 -93.5t-92.5 -138t-34 -168q0 -90 34 -169t93 -138t138 -93t169 -34zM327 175l112 100.5t83 84.5t51.5 72t17.5 64q0 44 -25 69.5t-77 25.5q-37 0 -67.5 -18t-54.5 -41l-47 44q38 40 81 60.5t96 20.5q81 0 127.5 -42.5t46.5 -112.5
q0 -36 -17.5 -72.5t-47.5 -74.5t-71 -78.5t-89 -83.5q23 2 49.5 3t52.5 1h147v-70h-368v48z" />
    <glyph glyph-name="cid208" unicode="&#x2462;" horiz-adv-x="1000" 
d="M500 -86q-96 0 -181 36.5t-148.5 100t-100 148.5t-36.5 181t36.5 181t100 148.5t148.5 100t181 36.5t181 -36.5t148.5 -100t100 -148.5t36.5 -181q0 -97 -37 -182t-100.5 -148t-148 -99.5t-180.5 -36.5zM500 -54q90 0 169 34t138 93t93 138t34 169t-34 169t-93 138
t-138 93t-169 34q-91 0 -170 -34.5t-137.5 -93.5t-92.5 -138t-34 -168q0 -90 34 -169t93 -138t138 -93t169 -34zM495 115q-67 0 -114.5 21.5t-76.5 52.5l40 53q26 -25 61.5 -43t87.5 -18q49 0 80 24t31 64q0 22 -9 39.5t-30 30t-55.5 19.5t-85.5 7v61q89 0 125 25t36 64
q0 36 -25 56.5t-70 20.5q-35 0 -65.5 -13.5t-56.5 -38.5l-43 51q33 30 74.5 48t92.5 18q39 0 71 -9t55.5 -26.5t36.5 -43t13 -58.5q0 -45 -28.5 -74t-73.5 -46v-3q51 -13 86.5 -45.5t35.5 -86.5q0 -35 -15 -62.5t-41.5 -47t-61.5 -30t-75 -10.5z" />
    <glyph glyph-name="cid209" unicode="&#x2463;" horiz-adv-x="1000" 
d="M528 328v132q0 22 0.5 51.5t2.5 52.5h-4q-11 -21 -21 -35.5l-24 -35.5l-125 -165h171zM606 328h77v-63h-77v-138h-78v138h-256v55l240 325h94v-317zM500 -54q90 0 169 34t138 93t93 138t34 169t-34 169t-93 138t-138 93t-169 34q-91 0 -170 -34.5t-137.5 -93.5
t-92.5 -138t-34 -168q0 -90 34 -169t93 -138t138 -93t169 -34zM500 846q96 0 181 -36.5t148.5 -100t100 -148.5t36.5 -181q0 -97 -37 -182t-100.5 -148t-148 -99.5t-180.5 -36.5t-181 36.5t-148.5 100t-100 148.5t-36.5 181t36.5 181t100 148.5t148.5 100t181 36.5z" />
    <glyph glyph-name="cid210" unicode="&#x2464;" horiz-adv-x="1000" 
d="M500 -86q-96 0 -181 36.5t-148.5 100t-100 148.5t-36.5 181t36.5 181t100 148.5t148.5 100t181 36.5t181 -36.5t148.5 -100t100 -148.5t36.5 -181q0 -97 -37 -182t-100.5 -148t-148 -99.5t-180.5 -36.5zM500 -54q90 0 169 34t138 93t93 138t34 169t-34 169t-93 138
t-138 93t-169 34q-91 0 -170 -34.5t-137.5 -93.5t-92.5 -138t-34 -168q0 -90 34 -169t93 -138t138 -93t169 -34zM498 115q-68 0 -112.5 21.5t-74.5 49.5l39 54q25 -22 59 -40.5t85 -18.5q50 0 83.5 29.5t33.5 80.5q0 49 -32 78t-83 29q-30 0 -51.5 -9t-46.5 -25l-42 26
l18 255h292v-70h-222l-13 -140q19 8 40 14.5t45 6.5q37 0 69.5 -10t56.5 -30t38 -50.5t14 -72.5t-16.5 -75.5t-43.5 -56t-62.5 -34.5t-73.5 -12z" />
    <glyph glyph-name="cid211" unicode="&#x2465;" horiz-adv-x="1000" 
d="M502 179q40 0 68.5 28.5t28.5 74.5q0 48 -26.5 75.5t-78.5 27.5q-26 0 -57.5 -14.5t-60.5 -49.5q8 -73 40 -107.5t86 -34.5zM620 549q-17 18 -43 29t-54 11q-30 0 -56 -10.5t-46.5 -35t-33 -64t-13.5 -97.5q27 29 64 46.5t75 17.5q74 0 119 -40.5t45 -121.5
q0 -39 -14 -70t-38 -53t-56 -34t-68 -12q-44 0 -81 15.5t-65 46.5t-43.5 78.5t-15.5 112.5q0 77 18.5 131.5t49.5 89.5t72 51.5t85 16.5q49 0 84 -16.5t60 -40.5zM500 -54q90 0 169 34t138 93t93 138t34 169t-34 169t-93 138t-138 93t-169 34q-91 0 -170 -34.5t-137.5 -93.5
t-92.5 -138t-34 -168q0 -90 34 -169t93 -138t138 -93t169 -34zM500 846q96 0 181 -36.5t148.5 -100t100 -148.5t36.5 -181q0 -97 -37 -182t-100.5 -148t-148 -99.5t-180.5 -36.5t-181 36.5t-148.5 100t-100 148.5t-36.5 181t36.5 181t100 148.5t148.5 100t181 36.5z" />
    <glyph glyph-name="cid212" unicode="&#x2466;" horiz-adv-x="1000" 
d="M500 -86q-96 0 -181 36.5t-148.5 100t-100 148.5t-36.5 181t36.5 181t100 148.5t148.5 100t181 36.5t181 -36.5t148.5 -100t100 -148.5t36.5 -181q0 -97 -37 -182t-100.5 -148t-148 -99.5t-180.5 -36.5zM500 -54q90 0 169 34t138 93t93 138t34 169t-34 169t-93 138
t-138 93t-169 34q-91 0 -170 -34.5t-137.5 -93.5t-92.5 -138t-34 -168q0 -90 34 -169t93 -138t138 -93t169 -34zM428 127q4 71 14 130t28.5 112.5t47.5 103t71 102.5h-270v70h364v-50q-50 -58 -81.5 -110t-50 -106t-26.5 -115t-12 -137h-85z" />
    <glyph glyph-name="cid213" unicode="&#x2467;" horiz-adv-x="1000" 
d="M500 -86q-96 0 -181 36.5t-148.5 100t-100 148.5t-36.5 181t36.5 181t100 148.5t148.5 100t181 36.5t181 -36.5t148.5 -100t100 -148.5t36.5 -181q0 -97 -37 -182t-100.5 -148t-148 -99.5t-180.5 -36.5zM500 -54q90 0 169 34t138 93t93 138t34 169t-34 169t-93 138
t-138 93t-169 34q-91 0 -170 -34.5t-137.5 -93.5t-92.5 -138t-34 -168q0 -90 34 -169t93 -138t138 -93t169 -34zM500 115q-42 0 -77 10.5t-60.5 29.5t-40 45t-14.5 56q0 26 9.5 47t24.5 38.5t34.5 30.5t39.5 23v4q-33 20 -57.5 50t-24.5 71q0 31 13 56.5t35.5 43.5t53 27.5
t65.5 9.5q79 0 123.5 -39t44.5 -99q0 -21 -7.5 -40t-18.5 -34.5t-25.5 -28.5t-27.5 -22v-3q19 -11 37.5 -23t32.5 -28t22.5 -36.5t8.5 -46.5q0 -30 -14 -56t-39 -45t-60 -30t-78 -11zM538 413q28 22 44 47.5t16 51.5q0 37 -26 61.5t-73 24.5q-40 0 -65.5 -21t-25.5 -57
q0 -21 10.5 -37.5t28.5 -29t41.5 -22t49.5 -18.5zM503 175q50 0 80.5 22.5t30.5 61.5q0 23 -11.5 40t-32 30t-48 23.5l-58.5 21.5q-33 -19 -57.5 -45.5t-24.5 -61.5q0 -20 9.5 -37t25.5 -29t38 -19t48 -7z" />
    <glyph glyph-name="cid214" unicode="&#x2468;" horiz-adv-x="1000" 
d="M504 385q27 0 58 15t59 50q-8 72 -39.5 108t-84.5 36q-39 0 -67 -28.5t-28 -76.5q0 -50 25.5 -77t76.5 -27zM379 221q17 -17 43 -28t55 -11t55 11t45.5 35.5t31.5 64t14 96.5q-26 -29 -62 -46t-73 -17q-73 0 -119 40t-46 122q0 38 14 69.5t37.5 53.5t55 34t67.5 12
q43 0 80.5 -15.5t65 -46.5t43 -79t15.5 -112q0 -78 -18.5 -132.5t-49 -89.5t-71 -51t-83.5 -16q-49 0 -85 16t-60 40zM500 -54q90 0 169 34t138 93t93 138t34 169t-34 169t-93 138t-138 93t-169 34q-91 0 -170 -34.5t-137.5 -93.5t-92.5 -138t-34 -168q0 -90 34 -169
t93 -138t138 -93t169 -34zM500 846q96 0 181 -36.5t148.5 -100t100 -148.5t36.5 -181q0 -97 -37 -182t-100.5 -148t-148 -99.5t-180.5 -36.5t-181 36.5t-148.5 100t-100 148.5t-36.5 181t36.5 181t100 148.5t148.5 100t181 36.5z" />
    <glyph glyph-name="cid215" unicode="&#x2469;" horiz-adv-x="1000" 
d="M500 -86q-96 0 -181 36.5t-148.5 100t-100 148.5t-36.5 181t36.5 181t100 148.5t148.5 100t181 36.5t181 -36.5t148.5 -100t100 -148.5t36.5 -181q0 -97 -37 -182t-100.5 -148t-148 -99.5t-180.5 -36.5zM500 -54q90 0 169 34t138 93t93 138t34 169t-34 169t-93 138
t-138 93t-169 34q-91 0 -170 -34.5t-137.5 -93.5t-92.5 -138t-34 -168q0 -90 34 -169t93 -138t138 -93t169 -34zM292 551h-85v53q34 7 58 17t45 24h60v-518h-78v424zM627 115q-37 0 -67 19t-51 54t-32.5 86t-11.5 114q0 128 44 198.5t118 70.5t117.5 -70.5t43.5 -198.5
q0 -63 -11.5 -114t-32.5 -86t-50.5 -54t-66.5 -19zM627 182q37 0 60 50t23 156t-23 154.5t-60 48.5t-60 -48.5t-23 -154.5t23 -156t60 -50z" />
    <glyph glyph-name="cid216" unicode="&#x246a;" horiz-adv-x="1000" 
d="M500 -86q-96 0 -181 36.5t-148.5 100t-100 148.5t-36.5 181t36.5 181t100 148.5t148.5 100t181 36.5t181 -36.5t148.5 -100t100 -148.5t36.5 -181q0 -97 -37 -182t-100.5 -148t-148 -99.5t-180.5 -36.5zM500 -54q90 0 169 34t138 93t93 138t34 169t-34 169t-93 138
t-138 93t-169 34q-91 0 -170 -34.5t-137.5 -93.5t-92.5 -138t-34 -168q0 -90 34 -169t93 -138t138 -93t169 -34zM338 551h-85v53q34 7 58 17t46 24h59v-518h-78v424zM611 551h-85v53q33 7 57.5 17t45.5 24h59v-518h-77v424z" />
    <glyph glyph-name="cid217" unicode="&#x246b;" horiz-adv-x="1000" 
d="M500 -86q-96 0 -181 36.5t-148.5 100t-100 148.5t-36.5 181t36.5 181t100 148.5t148.5 100t181 36.5t181 -36.5t148.5 -100t100 -148.5t36.5 -181q0 -97 -37 -182t-100.5 -148t-148 -99.5t-180.5 -36.5zM500 -54q90 0 169 34t138 93t93 138t34 169t-34 169t-93 138
t-138 93t-169 34q-91 0 -170 -34.5t-137.5 -93.5t-92.5 -138t-34 -168q0 -90 34 -169t93 -138t138 -93t169 -34zM292 551h-85v53q33 7 57.5 17t44.5 24h60v-518h-77v424zM474 175l84.5 100.5t63.5 84.5t40 72t14 64q0 44 -19 69.5t-57 25.5q-26 0 -48 -15.5t-39 -38.5
l-44 43q30 38 64.5 57.5t76.5 19.5q65 0 102.5 -42.5t37.5 -112.5q0 -36 -13.5 -72.5t-36.5 -74.5t-54 -78.5l-66 -83.5q18 2 39 3t41 1h108v-70h-294v48z" />
    <glyph glyph-name="cid218" unicode="&#x246c;" horiz-adv-x="1000" 
d="M500 -86q-96 0 -181 36.5t-148.5 100t-100 148.5t-36.5 181t36.5 181t100 148.5t148.5 100t181 36.5t181 -36.5t148.5 -100t100 -148.5t36.5 -181q0 -97 -37 -182t-100.5 -148t-148 -99.5t-180.5 -36.5zM500 -54q90 0 169 34t138 93t93 138t34 169t-34 169t-93 138
t-138 93t-169 34q-91 0 -170 -34.5t-137.5 -93.5t-92.5 -138t-34 -168q0 -90 34 -169t93 -138t138 -93t169 -34zM294 551h-86v53q34 7 58 17t45 24h60v-518h-77v424zM610 115q-51 0 -89 20.5t-61 49.5l40 50q21 -23 47 -38.5t62 -15.5q35 0 58 24t23 64q0 22 -6.5 39.5
t-22 30t-42 19.5t-65.5 7v61q67 0 94 25t27 64q0 36 -19 56.5t-51 20.5q-48 0 -87 -45l-43 48q28 29 61 45.5t74 16.5q63 0 102.5 -35.5t39.5 -101.5q0 -45 -22 -74t-58 -46v-3q41 -13 69 -45.5t28 -86.5q0 -35 -12.5 -62.5t-34 -47t-50.5 -30t-62 -10.5z" />
    <glyph glyph-name="cid219" unicode="&#x246d;" horiz-adv-x="1000" 
d="M207 604q33 7 57.5 17t44.5 24h60v-518h-77v424h-85v53zM653 328v132q0 22 0.5 51.5t2.5 52.5h-4l-17 -35.5l-17 -35.5l-91 -165h126zM725 328h58v-63h-58v-138h-72v138h-200v55l182 325h90v-317zM500 -54q90 0 169 34t138 93t93 138t34 169t-34 169t-93 138t-138 93
t-169 34q-91 0 -170 -34.5t-137.5 -93.5t-92.5 -138t-34 -168q0 -90 34 -169t93 -138t138 -93t169 -34zM500 846q96 0 181 -36.5t148.5 -100t100 -148.5t36.5 -181q0 -97 -37 -182t-100.5 -148t-148 -99.5t-180.5 -36.5t-181 36.5t-148.5 100t-100 148.5t-36.5 181t36.5 181
t100 148.5t148.5 100t181 36.5z" />
    <glyph glyph-name="cid220" unicode="&#x246e;" horiz-adv-x="1000" 
d="M500 -86q-96 0 -181 36.5t-148.5 100t-100 148.5t-36.5 181t36.5 181t100 148.5t148.5 100t181 36.5t181 -36.5t148.5 -100t100 -148.5t36.5 -181q0 -97 -37 -182t-100.5 -148t-148 -99.5t-180.5 -36.5zM500 -54q90 0 169 34t138 93t93 138t34 169t-34 169t-93 138
t-138 93t-169 34q-91 0 -170 -34.5t-137.5 -93.5t-92.5 -138t-34 -168q0 -90 34 -169t93 -138t138 -93t169 -34zM292 551h-85v53q33 7 57.5 17t44.5 24h60v-518h-77v424zM614 115q-54 0 -90 21t-61 48l36 53q20 -21 46 -38.5t64 -17.5q37 0 62 29.5t25 80.5q0 49 -23 78
t-61 29q-23 0 -39.5 -9t-35.5 -25l-37 26l13 255h239v-70h-174l-8 -140q14 8 30 14.5t33 6.5q29 0 54.5 -10t45 -30t30.5 -50.5t11 -72.5t-13.5 -75.5t-35.5 -56t-51 -34.5t-60 -12z" />
    <glyph glyph-name="cid221" unicode="&#x2474;" horiz-adv-x="1000" 
d="M157 -75q-67 101 -96 211.5t-29 243.5q0 132 29 243t96 212l45 -14q-62 -97 -86.5 -208.5t-24.5 -232.5q1 -122 25 -233t86 -208zM324 88h155v527h-124v59q48 8 82.5 21t63.5 31h69v-638h141v-76h-387v76zM798 -61q62 97 86 208t25 233q0 121 -24.5 232.5t-86.5 208.5
l45 14q67 -101 96 -212t29 -243q0 -133 -29 -243.5t-96 -211.5z" />
    <glyph glyph-name="cid222" unicode="&#x2475;" horiz-adv-x="1000" 
d="M157 -75q-67 101 -96 211.5t-29 243.5q0 132 29 243t96 212l45 -14q-62 -97 -86.5 -208.5t-24.5 -232.5q1 -122 25 -233t86 -208zM293 65l136 144.5t101.5 121t63 103t21.5 91.5q0 61 -31 100t-97 39q-44 0 -82.5 -23.5t-65.5 -60.5l-54 52q42 50 93 78.5t120 28.5
q49 0 87.5 -15t65 -42.5t40.5 -66t14 -86.5q0 -50 -21.5 -102t-59 -106.5t-88.5 -113.5l-111 -123l59 4t57 2h197v-78h-445v53zM798 -61q62 97 86 208t25 233q0 121 -24.5 232.5t-86.5 208.5l45 14q67 -101 96 -212t29 -243q0 -133 -29 -243.5t-96 -211.5z" />
    <glyph glyph-name="cid223" unicode="&#x2476;" horiz-adv-x="1000" 
d="M157 -75q-67 101 -96 211.5t-29 243.5q0 132 29 243t96 212l45 -14q-62 -97 -86.5 -208.5t-24.5 -232.5q1 -122 25 -233t86 -208zM495 -1q-81 0 -138.5 30t-89.5 71l47 58q29 -35 72.5 -58.5t100.5 -23.5q31 0 57 9t45.5 25.5t30.5 41t11 54.5q0 33 -11.5 59t-38 44
t-68.5 28t-102 10v70q54 0 91.5 10.5t61 29t34 43t10.5 51.5q0 54 -32.5 83.5t-86.5 29.5q-42 0 -79 -19t-66 -52l-50 57q38 40 88.5 64.5t110.5 24.5q46 0 84 -12t65.5 -35t42.5 -56.5t15 -76.5q0 -65 -34.5 -106.5t-97.5 -63.5v-4q68 -17 112 -63t44 -120q0 -48 -18 -85.5
t-49 -63.5t-72.5 -40t-89.5 -14zM798 -61q62 97 86 208t25 233q0 121 -24.5 232.5t-86.5 208.5l45 14q67 -101 96 -212t29 -243q0 -133 -29 -243.5t-96 -211.5z" />
    <glyph glyph-name="cid224" unicode="&#x2477;" horiz-adv-x="1000" 
d="M202 821q-62 -97 -86.5 -208.5t-24.5 -232.5q1 -122 25 -233t86 -208l-45 -14q-67 101 -96 211.5t-29 243.5q0 132 29 243t96 212zM555 283v221q0 29 1 61t3 67h-4q-16 -28 -28.5 -53t-28.5 -52l-158 -244h215zM642 283h96v-73h-96v-198h-87v198h-308v61l292 455h103
v-443zM843 835q67 -101 96 -212t29 -243q0 -133 -29 -243.5t-96 -211.5l-45 14q62 97 86 208t25 233q0 121 -24.5 232.5t-86.5 208.5z" />
    <glyph glyph-name="cid225" unicode="&#x2478;" horiz-adv-x="1000" 
d="M157 -75q-67 101 -96 211.5t-29 243.5q0 132 29 243t96 212l45 -14q-62 -97 -86.5 -208.5t-24.5 -232.5q1 -122 25 -233t86 -208zM485 -2q-41 0 -74.5 8t-61 21.5t-49.5 31.5t-40 37l46 59q29 -32 69.5 -56t100.5 -24q32 0 60 11.5t49 32.5t33 51t12 68q0 74 -40 116
t-106 42q-36 0 -61.5 -11t-55.5 -33l-48 30l23 344h347v-79h-267l-20 -213q26 16 50.5 23t59.5 7q43 0 81.5 -13t67 -40.5t45.5 -69.5t17 -100t-20 -103.5t-53 -76.5t-76 -47t-89 -16zM798 -61q62 97 86 208t25 233q0 121 -24.5 232.5t-86.5 208.5l45 14q67 -101 96 -212
t29 -243q0 -133 -29 -243.5t-96 -211.5z" />
    <glyph glyph-name="cid226" unicode="&#x2479;" horiz-adv-x="1000" 
d="M202 821q-62 -97 -86.5 -208.5t-24.5 -232.5q1 -122 25 -233t86 -208l-45 -14q-67 101 -96 211.5t-29 243.5q0 132 29 243t96 212zM518 72q27 0 49.5 11t39 31.5t26 49t9.5 63.5q0 75 -33 113t-93 38q-33 0 -72.5 -20t-74.5 -73q9 -105 48 -159t101 -54zM665 607
q-21 27 -53.5 41t-67.5 14t-66.5 -15.5t-55.5 -51t-39 -94t-16 -143.5q32 43 77 66.5t88 23.5q88 0 142 -55.5t54 -165.5q0 -51 -16.5 -93t-45 -72t-66.5 -46.5t-81 -16.5q-50 0 -93.5 21.5t-75.5 64.5t-50.5 107t-18.5 149q0 108 21.5 184t57 123.5t82 69t97.5 21.5
q60 0 104 -21t74 -54zM843 835q67 -101 96 -212t29 -243q0 -133 -29 -243.5t-96 -211.5l-45 14q62 97 86 208t25 233q0 121 -24.5 232.5t-86.5 208.5z" />
    <glyph glyph-name="cid227" unicode="&#x247a;" horiz-adv-x="1000" 
d="M157 -75q-67 101 -96 211.5t-29 243.5q0 132 29 243t96 212l45 -14q-62 -97 -86.5 -208.5t-24.5 -232.5q1 -122 25 -233t86 -208zM414 12q4 101 17 185t37 159t59 146t83 147h-329v77h429v-56q-57 -82 -94 -155.5t-60 -150t-34 -162t-15 -190.5h-93zM798 -61
q62 97 86 208t25 233q0 121 -24.5 232.5t-86.5 208.5l45 14q67 -101 96 -212t29 -243q0 -133 -29 -243.5t-96 -211.5z" />
    <glyph glyph-name="cid228" unicode="&#x247b;" horiz-adv-x="1000" 
d="M157 -75q-67 101 -96 211.5t-29 243.5q0 132 29 243t96 212l45 -14q-62 -97 -86.5 -208.5t-24.5 -232.5q1 -122 25 -233t86 -208zM503 -1q-51 0 -93.5 14.5t-73 40.5t-47.5 62t-17 79q0 37 11.5 66.5t30 53t42 41.5t48.5 32v4q-44 32 -72.5 71.5t-28.5 96.5q0 40 15 73.5
t42 56.5t63.5 36t79.5 13q47 0 84 -13.5t63 -38t40 -58.5t14 -74q0 -27 -8.5 -51.5t-23 -47t-32.5 -42.5t-37 -37v-4q27 -16 50.5 -33t40 -38.5t26 -49.5t9.5 -66q0 -40 -15.5 -74t-44.5 -59t-71 -39.5t-95 -14.5zM549 401q35 37 55 72t20 77q0 25 -8.5 47.5t-24 39
t-38.5 26t-52 9.5q-48 0 -81 -30t-33 -82q0 -30 12 -53t33.5 -41.5t51 -34t65.5 -30.5zM505 67q64 0 100 33t36 88q0 36 -14 60.5t-39.5 43.5t-60 35t-75.5 33q-20 -15 -37.5 -31t-31 -35t-21 -41.5t-7.5 -49.5q0 -30 11 -55t31 -43t47.5 -28t60.5 -10zM798 -61
q62 97 86 208t25 233q0 121 -24.5 232.5t-86.5 208.5l45 14q67 -101 96 -212t29 -243q0 -133 -29 -243.5t-96 -211.5z" />
    <glyph glyph-name="cid229" unicode="&#x247c;" horiz-adv-x="1000" 
d="M202 821q-62 -97 -86.5 -208.5t-24.5 -232.5q1 -122 25 -233t86 -208l-45 -14q-67 101 -96 211.5t-29 243.5q0 132 29 243t96 212zM484 360q33 0 72.5 20t74.5 73q-9 106 -47.5 160t-101.5 54q-54 0 -88.5 -42.5t-34.5 -113.5q0 -75 32.5 -113t92.5 -38zM335 132
q21 -28 53.5 -42t67.5 -14t66.5 15.5t55.5 51.5t38.5 94t16.5 144q-32 -43 -77 -66.5t-88 -23.5q-88 0 -142 55.5t-54 164.5q0 51 16.5 93t45 72t66.5 46.5t80 16.5q50 0 93.5 -21.5t76 -64t51 -107t18.5 -149.5q0 -108 -21 -183.5t-57 -123.5t-82.5 -69.5t-97.5 -21.5
q-60 0 -104 21t-74 55zM843 835q67 -101 96 -212t29 -243q0 -133 -29 -243.5t-96 -211.5l-45 14q62 97 86 208t25 233q0 121 -24.5 232.5t-86.5 208.5z" />
    <glyph glyph-name="cid230" unicode="&#x247d;" horiz-adv-x="1000" 
d="M798 -61q62 97 86 208t25 233q0 121 -24.5 232.5t-86.5 208.5l45 14q67 -101 96 -212t29 -243q0 -133 -29 -243.5t-96 -211.5zM642 69q24 0 43 16.5t33 52.5t21.5 94t7.5 141t-7.5 140t-21.5 92t-33 50t-43 15q-23 0 -42.5 -15t-33.5 -50t-21.5 -92t-7.5 -140t7.5 -141
t21.5 -94t33.5 -52.5t42.5 -16.5zM642 -1q-39 0 -72 21.5t-56.5 66.5t-37 116t-13.5 170t13.5 168.5t37 113.5t56.5 64t72 20t71.5 -20t56.5 -64t37 -113.5t13 -168.5t-13 -170t-37 -116t-56.5 -66.5t-71.5 -21.5zM293 623h-105v51q42 8 73 21.5t58 30.5h46v-714h-72v611z
M157 -75q-67 101 -96 211.5t-29 243.5q0 132 29 243t96 212l45 -14q-62 -97 -86.5 -208.5t-24.5 -232.5q1 -122 25 -233t86 -208z" />
    <glyph glyph-name="cid231" unicode="&#x247e;" horiz-adv-x="1000" 
d="M798 -61q62 97 86 208t25 233q0 121 -24.5 232.5t-86.5 208.5l45 14q67 -101 96 -212t29 -243q0 -133 -29 -243.5t-96 -211.5zM645 623h-104v51q42 8 73 21.5t58 30.5h46v-714h-73v611zM341 623h-105v51q43 8 74 21.5t58 30.5h45v-714h-72v611zM157 -75
q-67 101 -96 211.5t-29 243.5q0 132 29 243t96 212l45 -14q-62 -97 -86.5 -208.5t-24.5 -232.5q1 -122 25 -233t86 -208z" />
    <glyph glyph-name="cid232" unicode="&#x247f;" horiz-adv-x="1000" 
d="M798 -61q62 97 86 208t25 233q0 121 -24.5 232.5t-86.5 208.5l45 14q67 -101 96 -212t29 -243q0 -133 -29 -243.5t-96 -211.5zM465 65q129 161 191.5 275t62.5 199q0 61 -24 97t-76 36q-33 0 -62.5 -22t-52.5 -54l-46 43q36 43 74 71.5t92 28.5q78 0 121.5 -54t43.5 -144
q0 -100 -60.5 -214t-165.5 -251l55 4t53 2h141v-70h-347v53zM293 623h-105v51q42 8 73 21.5t58 30.5h46v-714h-72v611zM157 -75q-67 101 -96 211.5t-29 243.5q0 132 29 243t96 212l45 -14q-62 -97 -86.5 -208.5t-24.5 -232.5q1 -122 25 -233t86 -208z" />
    <glyph glyph-name="cid233" unicode="&#x2480;" horiz-adv-x="1000" 
d="M798 -61q62 97 86 208t25 233q0 121 -24.5 232.5t-86.5 208.5l45 14q67 -101 96 -212t29 -243q0 -133 -29 -243.5t-96 -211.5zM684 385q27 -8 51.5 -23.5t42.5 -38.5t28.5 -53.5t10.5 -67.5q0 -48 -15 -85.5t-40.5 -63.5t-60 -40t-73.5 -14q-65 0 -110 27t-72 61l42 52
q24 -29 56.5 -49.5t80.5 -20.5q49 0 84 34.5t35 97.5q0 69 -43 109t-140 40v65q44 0 75 11t51 30.5t29 45t9 55.5q0 54 -27.5 84.5t-72.5 30.5q-32 0 -59.5 -16t-49.5 -43l-46 50q32 34 70.5 55t85.5 21q77 0 124.5 -46.5t47.5 -133.5q0 -65 -31.5 -107.5t-82.5 -62.5v-4z
M293 623h-105v51q42 8 73 21.5t58 30.5h46v-714h-72v611zM157 -75q-67 101 -96 211.5t-29 243.5q0 132 29 243t96 212l45 -14q-62 -97 -86.5 -208.5t-24.5 -232.5q1 -122 25 -233t86 -208z" />
    <glyph glyph-name="cid234" unicode="&#x2481;" horiz-adv-x="1000" 
d="M202 821q-62 -97 -86.5 -208.5t-24.5 -232.5q1 -122 25 -233t86 -208l-45 -14q-67 101 -96 211.5t-29 243.5q0 132 29 243t96 212zM188 674q42 8 73 21.5t58 30.5h46v-714h-72v611h-105v51zM676 283v207q0 15 0.5 33l1 37.5l1 38t1.5 33.5h-4q-11 -29 -21.5 -54
l-23.5 -54l-122 -241h167zM744 218v-206h-68v206h-239v53l232 455h75v-443h75v-65h-75zM843 835q67 -101 96 -212t29 -243q0 -133 -29 -243.5t-96 -211.5l-45 14q62 97 86 208t25 233q0 121 -24.5 232.5t-86.5 208.5z" />
    <glyph glyph-name="cid235" unicode="&#x2482;" horiz-adv-x="1000" 
d="M798 -61q62 97 86 208t25 233q0 121 -24.5 232.5t-86.5 208.5l45 14q67 -101 96 -212t29 -243q0 -133 -29 -243.5t-96 -211.5zM546 430q21 14 40.5 22t46.5 8q34 0 64.5 -13t53.5 -40t36.5 -68t13.5 -98q0 -58 -15.5 -103.5t-41.5 -76.5t-59.5 -47t-69.5 -16
q-33 0 -59.5 7.5t-48 19.5t-39 27.5t-31.5 31.5l42 52q23 -27 52.5 -48t73.5 -21q26 0 48.5 12t39 34t26 54t9.5 71q0 75 -31 118.5t-80 43.5q-27 0 -46.5 -11.5t-41.5 -31.5l-47 27l21 342h273v-71h-213zM293 623h-105v51q42 8 73 21.5t58 30.5h46v-714h-72v611zM157 -75
q-67 101 -96 211.5t-29 243.5q0 132 29 243t96 212l45 -14q-62 -97 -86.5 -208.5t-24.5 -232.5q1 -122 25 -233t86 -208z" />
    <glyph glyph-name="cid236" unicode="&#x249c;" horiz-adv-x="1000" 
d="M157 -75q-67 101 -96 211.5t-29 243.5q0 132 29 243t96 212l45 -14q-62 -97 -86.5 -208.5t-24.5 -232.5q1 -122 25 -233t86 -208zM439 92q-33 0 -61.5 10.5t-49.5 30.5t-33 48.5t-12 65.5q0 88 78 135.5t248 66.5q0 26 -5 50.5t-17 43.5t-33 30.5t-53 11.5
q-46 0 -86.5 -18.5t-72.5 -40.5l-36 65q37 25 91.5 47.5t119.5 22.5q97 0 141 -60.5t44 -163.5v-331h-76l-8 64h-4q-38 -32 -81.5 -55t-93.5 -23zM466 168q38 0 71.5 18t71.5 53v148q-66 -8 -110.5 -20t-72 -28.5t-39.5 -37.5t-12 -47q0 -46 26 -66t65 -20zM798 -61
q62 97 86 208t25 233q0 121 -24.5 232.5t-86.5 208.5l45 14q67 -101 96 -212t29 -243q0 -133 -29 -243.5t-96 -211.5z" />
    <glyph glyph-name="cid237" unicode="&#x249d;" horiz-adv-x="1000" 
d="M157 -75q-67 101 -96 211.5t-29 243.5q0 132 29 243t96 212l45 -14q-62 -97 -86.5 -208.5t-24.5 -232.5q1 -122 25 -233t86 -208zM528 0q-35 0 -74 17.5t-74 49.5h-2l-9 -53h-75v794h94v-216l-3 -98q36 32 77.5 53.5t85.5 21.5q51 0 90 -19.5t66 -55.5t40.5 -86.5
t13.5 -113.5q0 -70 -19 -124.5t-50.5 -92t-73 -57.5t-87.5 -20zM513 79q32 0 59 14.5t47 42t31 67t11 89.5q0 45 -7.5 81.5t-24 62.5t-42.5 40t-62 14q-62 0 -137 -73v-282q34 -31 66.5 -43.5t58.5 -12.5zM798 -61q62 97 86 208t25 233q0 121 -24.5 232.5t-86.5 208.5l45 14
q67 -101 96 -212t29 -243q0 -133 -29 -243.5t-96 -211.5z" />
    <glyph glyph-name="cid238" unicode="&#x249e;" horiz-adv-x="1000" 
d="M157 -75q-67 101 -96 211.5t-29 243.5q0 132 29 243t96 212l45 -14q-62 -97 -86.5 -208.5t-24.5 -232.5q1 -122 25 -233t86 -208zM536 92q-54 0 -100.5 19t-80.5 56t-53.5 89.5t-19.5 120.5q0 67 21.5 120t57.5 89.5t83 55.5t99 19q54 0 93 -19.5t66 -45.5l-47 -60
q-24 21 -49.5 34.5t-57.5 13.5q-37 0 -68 -15t-53.5 -42.5t-35.5 -65.5t-13 -84q0 -47 12.5 -85t34.5 -65t52.5 -42t67.5 -15q38 0 70 16t57 39l41 -62q-37 -33 -82.5 -52t-94.5 -19zM798 -61q62 97 86 208t25 233q0 121 -24.5 232.5t-86.5 208.5l45 14q67 -101 96 -212
t29 -243q0 -133 -29 -243.5t-96 -211.5z" />
    <glyph glyph-name="cid239" unicode="&#x249f;" horiz-adv-x="1000" 
d="M157 -75q-67 101 -96 211.5t-29 243.5q0 132 29 243t96 212l45 -14q-62 -97 -86.5 -208.5t-24.5 -232.5q1 -122 25 -233t86 -208zM460 0q-49 0 -89 19t-68.5 55.5t-44 89t-15.5 120.5q0 66 19 119t50.5 89.5t72.5 56.5t86 20t78.5 -16t67.5 -45l-4 91v209h95v-794h-78
l-9 63h-2q-30 -32 -71 -54.5t-88 -22.5zM481 79q68 0 132 73v283q-33 30 -63 42.5t-62 12.5q-31 0 -58 -14.5t-46.5 -41.5t-31 -65t-11.5 -84q0 -98 36 -152t104 -54zM798 -61q62 97 86 208t25 233q0 121 -24.5 232.5t-86.5 208.5l45 14q67 -101 96 -212t29 -243
q0 -133 -29 -243.5t-96 -211.5z" />
    <glyph glyph-name="cid240" unicode="&#x24a0;" horiz-adv-x="1000" 
d="M157 -75q-67 101 -96 211.5t-29 243.5q0 132 29 243t96 212l45 -14q-62 -97 -86.5 -208.5t-24.5 -232.5q1 -122 25 -233t86 -208zM535 92q-53 0 -99 19.5t-80.5 56t-54.5 89.5t-20 120q0 66 20 118.5t53 89.5t76 56.5t89 19.5q50 0 89 -18t66 -51t41 -80t14 -105
q0 -14 -0.5 -27.5t-2.5 -23.5h-352q5 -88 51.5 -138.5t120.5 -50.5q38 0 68.5 11.5t59.5 31.5l34 -61q-35 -24 -77 -40.5t-96 -16.5zM647 418q0 83 -33 126t-94 43q-27 0 -52 -11.5t-45 -33t-33.5 -53t-17.5 -71.5h275zM798 -61q62 97 86 208t25 233q0 121 -24.5 232.5
t-86.5 208.5l45 14q67 -101 96 -212t29 -243q0 -133 -29 -243.5t-96 -211.5z" />
    <glyph glyph-name="cid241" unicode="&#x24a1;" horiz-adv-x="1000" 
d="M202 821q-62 -97 -86.5 -208.5t-24.5 -232.5q1 -122 25 -233t86 -208l-45 -14q-67 101 -96 211.5t-29 243.5q0 132 29 243t96 212zM398 640q0 83 38.5 132t121.5 49q25 0 48.5 -5.5t42.5 -13.5l-20 -71q-31 14 -61 14q-76 0 -76 -105v-84h115v-76h-115v-466h-94v466h-74
v71l74 5v84zM843 835q67 -101 96 -212t29 -243q0 -133 -29 -243.5t-96 -211.5l-45 14q62 97 86 208t25 233q0 121 -24.5 232.5t-86.5 208.5z" />
    <glyph glyph-name="cid242" unicode="&#x24a2;" horiz-adv-x="1000" 
d="M157 -75q-67 101 -96 211.5t-29 243.5q0 132 29 243t96 212l45 -14q-62 -97 -86.5 -208.5t-24.5 -232.5q1 -122 25 -233t86 -208zM493 -31q-45 0 -82.5 9t-64 26t-41.5 43t-15 59q0 32 18.5 62t51.5 52v4q-20 14 -34 34.5t-14 50.5q0 32 19.5 56.5t39.5 39.5v4
q-26 21 -48 57t-22 84q0 43 15 78t41 59t60.5 37t72.5 13q39 0 65 -13h180v-72h-103q17 -17 29.5 -44.5t12.5 -59.5q0 -43 -14 -77t-39 -58t-58.5 -36.5t-72.5 -12.5q-12 0 -30.5 4t-35.5 12q-13 -11 -23 -23.5t-10 -32.5q0 -23 17.5 -38t65.5 -15h81q90 0 135 -29.5
t45 -93.5q0 -36 -17 -68.5t-48.5 -57t-76.5 -39t-100 -14.5zM490 426q44 0 73 33.5t29 90.5t-29 88.5t-73 31.5q-42 0 -71.5 -31.5t-29.5 -88.5q0 -29 8 -51.5t22 -38.5t32 -24.5t39 -8.5v-1zM506 33q31 0 56.5 8.5t43.5 22.5t27.5 31.5t9.5 36.5q0 35 -25.5 48t-73.5 13
h-68q-11 0 -27 1.5t-32 6.5q-24 -18 -34 -40t-10 -43q0 -39 35 -62t98 -23zM798 -61q62 97 86 208t25 233q0 121 -24.5 232.5t-86.5 208.5l45 14q67 -101 96 -212t29 -243q0 -133 -29 -243.5t-96 -211.5z" />
    <glyph glyph-name="cid243" unicode="&#x24a3;" horiz-adv-x="1000" 
d="M157 -75q-67 101 -96 211.5t-29 243.5q0 132 29 243t96 212l45 -14q-62 -97 -86.5 -208.5t-24.5 -232.5q1 -122 25 -233t86 -208zM293 808h94v-216l-4 -112q19 18 39 34.5t41.5 28.5t45.5 19t52 7q84 0 122.5 -54t38.5 -158v-343h-93v331q0 75 -23 109.5t-75 34.5
q-41 0 -72.5 -21.5t-71.5 -61.5v-392h-94v794zM798 -61q62 97 86 208t25 233q0 121 -24.5 232.5t-86.5 208.5l45 14q67 -101 96 -212t29 -243q0 -133 -29 -243.5t-96 -211.5z" />
    <glyph glyph-name="cid244" unicode="&#x24a4;" horiz-adv-x="1000" 
d="M157 -75q-67 101 -96 211.5t-29 243.5q0 132 29 243t96 212l45 -14q-62 -97 -86.5 -208.5t-24.5 -232.5q1 -122 25 -233t86 -208zM452 556h95v-542h-95v542zM501 666q-28 0 -46.5 17.5t-18.5 43.5q0 27 18.5 43.5t46.5 16.5q26 0 45 -16.5t19 -43.5q0 -26 -19 -43.5
t-45 -17.5zM798 -61q62 97 86 208t25 233q0 121 -24.5 232.5t-86.5 208.5l45 14q67 -101 96 -212t29 -243q0 -133 -29 -243.5t-96 -211.5z" />
    <glyph glyph-name="cid245" unicode="&#x24a5;" horiz-adv-x="1000" 
d="M157 -75q-67 101 -96 211.5t-29 243.5q0 132 29 243t96 212l45 -14q-62 -97 -86.5 -208.5t-24.5 -232.5q1 -122 25 -233t86 -208zM416 -148q-25 0 -45.5 4.5t-34.5 9.5l18 72q11 -4 24.5 -6.5t27.5 -2.5q41 0 54 28.5t13 77.5v601h93v-601q0 -42 -8 -76t-26 -57.5
t-46.5 -36.5t-69.5 -13zM520 747q-28 0 -46 17t-18 43q0 28 18 44.5t46 16.5q27 0 45.5 -16.5t18.5 -44.5q0 -26 -18.5 -43t-45.5 -17zM798 -61q62 97 86 208t25 233q0 121 -24.5 232.5t-86.5 208.5l45 14q67 -101 96 -212t29 -243q0 -133 -29 -243.5t-96 -211.5z" />
    <glyph glyph-name="cid246" unicode="&#x24a6;" horiz-adv-x="1000" 
d="M157 -75q-67 101 -96 211.5t-29 243.5q0 132 29 243t96 212l45 -14q-62 -97 -86.5 -208.5t-24.5 -232.5q1 -122 25 -233t86 -208zM301 808h92v-535h4l217 283h104l-172 -218l196 -324h-103l-147 259l-99 -117v-142h-92v794zM798 -61q62 97 86 208t25 233
q0 121 -24.5 232.5t-86.5 208.5l45 14q67 -101 96 -212t29 -243q0 -133 -29 -243.5t-96 -211.5z" />
    <glyph glyph-name="cid247" unicode="&#x24a7;" horiz-adv-x="1000" 
d="M157 -75q-67 101 -96 211.5t-29 243.5q0 132 29 243t96 212l45 -14q-62 -97 -86.5 -208.5t-24.5 -232.5q1 -122 25 -233t86 -208zM547 0q-53 0 -76 32.5t-23 92.5v683h95v-690q0 -22 7.5 -31t17.5 -9h8t12 2l13 -71l-23 -6t-31 -3zM798 -61q62 97 86 208t25 233
q0 121 -24.5 232.5t-86.5 208.5l45 14q67 -101 96 -212t29 -243q0 -133 -29 -243.5t-96 -211.5z" />
    <glyph glyph-name="cid248" unicode="&#x24a8;" horiz-adv-x="1000" 
d="M157 -75q-67 101 -96 211.5t-29 243.5q0 132 29 243t96 212l45 -14q-62 -97 -86.5 -208.5t-24.5 -232.5q1 -122 25 -233t86 -208zM218 648h68l8 -58h3q26 30 57 50.5t68 20.5q45 0 69.5 -22t37.5 -60q31 37 63 59.5t74 22.5q62 0 92 -47t30 -139v-369h-83v357
q0 62 -15 90t-47 28q-26 0 -49 -15.5t-49 -47.5v-412h-81v357q0 62 -16 90t-48 28q-28 0 -49.5 -15.5t-47.5 -47.5v-412h-85v542zM798 -61q62 97 86 208t25 233q0 121 -24.5 232.5t-86.5 208.5l45 14q67 -101 96 -212t29 -243q0 -133 -29 -243.5t-96 -211.5z" />
    <glyph glyph-name="cid249" unicode="&#x24a9;" horiz-adv-x="1000" 
d="M157 -75q-67 101 -96 211.5t-29 243.5q0 132 29 243t96 212l45 -14q-62 -97 -86.5 -208.5t-24.5 -232.5q1 -122 25 -233t86 -208zM289 648h77l9 -76h3q38 38 80.5 63.5t98.5 25.5q85 0 123.5 -53.5t38.5 -156.5v-345h-94v333q0 75 -23 108.5t-75 33.5q-41 0 -72.5 -20.5
t-70.5 -60.5v-394h-95v542zM798 -61q62 97 86 208t25 233q0 121 -24.5 232.5t-86.5 208.5l45 14q67 -101 96 -212t29 -243q0 -133 -29 -243.5t-96 -211.5z" />
    <glyph glyph-name="cid250" unicode="&#x24aa;" horiz-adv-x="1000" 
d="M157 -75q-67 101 -96 211.5t-29 243.5q0 132 29 243t96 212l45 -14q-62 -97 -86.5 -208.5t-24.5 -232.5q1 -122 25 -233t86 -208zM500 92q-49 0 -94 19t-79.5 56t-55 89.5t-20.5 120.5q0 67 20.5 120t55 89.5t79.5 55.5t94 19t94 -19t79 -55.5t54.5 -89.5t20.5 -120
q0 -68 -20.5 -120.5t-54.5 -89.5t-79 -56t-94 -19zM500 170q34 0 62 15t48 42t31 65t11 85q0 46 -11 84t-31 65.5t-48 42.5t-62 15t-62 -15t-48.5 -42.5t-31.5 -65.5t-11 -84q0 -47 11 -85t31.5 -65t48.5 -42t62 -15zM798 -61q62 97 86 208t25 233q0 121 -24.5 232.5
t-86.5 208.5l45 14q67 -101 96 -212t29 -243q0 -133 -29 -243.5t-96 -211.5z" />
    <glyph glyph-name="cid251" unicode="&#x24ab;" horiz-adv-x="1000" 
d="M157 -75q-67 101 -96 211.5t-29 243.5q0 132 29 243t96 212l45 -14q-62 -97 -86.5 -208.5t-24.5 -232.5q1 -122 25 -233t86 -208zM291 724h77l9 -62h2q37 31 80 53t89 22q52 0 92 -19.5t67 -55.5t40.5 -86.5t13.5 -113.5q0 -70 -19 -124.5t-51.5 -92t-74.5 -57t-88 -19.5
q-35 0 -72 16t-74 46l3 -94v-144h-94v731zM513 247q32 0 59.5 14.5t47.5 42t31.5 67t11.5 89.5q0 45 -7.5 81.5t-24 62.5t-43 40.5t-63.5 14.5q-33 0 -67 -19t-73 -54v-283q35 -30 68 -43t60 -13zM798 -61q62 97 86 208t25 233q0 121 -24.5 232.5t-86.5 208.5l45 14
q67 -101 96 -212t29 -243q0 -133 -29 -243.5t-96 -211.5z" />
    <glyph glyph-name="cid252" unicode="&#x24ac;" horiz-adv-x="1000" 
d="M157 -75q-67 101 -96 211.5t-29 243.5q0 132 29 243t96 212l45 -14q-62 -97 -86.5 -208.5t-24.5 -232.5q1 -122 25 -233t86 -208zM615 146l5 96q-32 -30 -73 -51.5t-87 -21.5q-50 0 -90.5 19t-69.5 55t-45 89t-16 121q0 66 19 118.5t51 89.5t74 56.5t88 19.5t81 -16
t71 -48h3l8 51h76v-731h-95v153zM481 247q36 0 68.5 18t65.5 56v283q-34 29 -65 42t-63 13t-59 -15t-47.5 -42t-32 -65t-11.5 -84q0 -98 37 -152t107 -54zM798 -61q62 97 86 208t25 233q0 121 -24.5 232.5t-86.5 208.5l45 14q67 -101 96 -212t29 -243q0 -133 -29 -243.5
t-96 -211.5z" />
    <glyph glyph-name="cid253" unicode="&#x24ad;" horiz-adv-x="1000" 
d="M157 -75q-67 101 -96 211.5t-29 243.5q0 132 29 243t96 212l45 -14q-62 -97 -86.5 -208.5t-24.5 -232.5q1 -122 25 -233t86 -208zM372 648h78l8 -98h4q28 52 68 81.5t86 29.5q18 0 31 -2t27 -9l-19 -82q-13 5 -24 7t-28 2q-34 0 -71.5 -28t-64.5 -96v-347h-95v542z
M798 -61q62 97 86 208t25 233q0 121 -24.5 232.5t-86.5 208.5l45 14q67 -101 96 -212t29 -243q0 -133 -29 -243.5t-96 -211.5z" />
    <glyph glyph-name="cid254" unicode="&#x24ae;" horiz-adv-x="1000" 
d="M157 -75q-67 101 -96 211.5t-29 243.5q0 132 29 243t96 212l45 -14q-62 -97 -86.5 -208.5t-24.5 -232.5q1 -122 25 -233t86 -208zM500 92q-58 0 -111 22t-91 55l45 61q36 -29 73 -46.5t87 -17.5q53 0 79 24t26 58q0 21 -11 36.5t-28 27.5t-39.5 21.5t-44.5 17.5
q-29 10 -58 23t-52 31t-37.5 43t-14.5 59q0 33 13 61t37 48.5t59 32.5t79 12q51 0 94.5 -17.5t74.5 -42.5l-45 -60q-28 20 -57.5 34t-64.5 14q-51 0 -75 -23.5t-24 -53.5q0 -20 10 -33.5t26.5 -24t38.5 -19t45 -16.5q29 -11 58.5 -24t53 -31.5t38.5 -45t15 -65.5
q0 -33 -13 -62.5t-38.5 -51t-62.5 -34.5t-85 -13zM798 -61q62 97 86 208t25 233q0 121 -24.5 232.5t-86.5 208.5l45 14q67 -101 96 -212t29 -243q0 -133 -29 -243.5t-96 -211.5z" />
    <glyph glyph-name="cid255" unicode="&#x24af;" horiz-adv-x="1000" 
d="M157 -75q-67 101 -96 211.5t-29 243.5q0 132 29 243t96 212l45 -14q-62 -97 -86.5 -208.5t-24.5 -232.5q1 -122 25 -233t86 -208zM573 49q-44 0 -73.5 13t-48 37t-26.5 57.5t-8 74.5v297h-80v71l85 5l11 152h78v-152h147v-76h-147v-299q0 -50 18.5 -77t64.5 -27
q14 0 31.5 4.5t30.5 10.5l18 -71q-23 -8 -49 -14t-52 -6zM798 -61q62 97 86 208t25 233q0 121 -24.5 232.5t-86.5 208.5l45 14q67 -101 96 -212t29 -243q0 -133 -29 -243.5t-96 -211.5z" />
    <glyph glyph-name="cid256" unicode="&#x24b0;" horiz-adv-x="1000" 
d="M157 -75q-67 101 -96 211.5t-29 243.5q0 132 29 243t96 212l45 -14q-62 -97 -86.5 -208.5t-24.5 -232.5q1 -122 25 -233t86 -208zM447 92q-85 0 -124.5 53.5t-39.5 156.5v346h94v-333q0 -75 23.5 -108t75.5 -33q40 0 71 21t69 68v385h94v-542h-77l-9 83h-3
q-37 -44 -78.5 -70.5t-95.5 -26.5zM798 -61q62 97 86 208t25 233q0 121 -24.5 232.5t-86.5 208.5l45 14q67 -101 96 -212t29 -243q0 -133 -29 -243.5t-96 -211.5z" />
    <glyph glyph-name="cid257" unicode="&#x24b1;" horiz-adv-x="1000" 
d="M157 -75q-67 101 -96 211.5t-29 243.5q0 132 29 243t96 212l45 -14q-62 -97 -86.5 -208.5t-24.5 -232.5q1 -122 25 -233t86 -208zM252 648h97l101 -306l25.5 -81t25.5 -79h4l25 79t24 81l102 306h92l-191 -542h-110zM798 -61q62 97 86 208t25 233q0 121 -24.5 232.5
t-86.5 208.5l45 14q67 -101 96 -212t29 -243q0 -133 -29 -243.5t-96 -211.5z" />
    <glyph glyph-name="cid258" unicode="&#x24b2;" horiz-adv-x="1000" 
d="M157 -75q-67 101 -96 211.5t-29 243.5q0 132 29 243t96 212l45 -14q-62 -97 -86.5 -208.5t-24.5 -232.5q1 -122 25 -233t86 -208zM166 648h90l65 -311q8 -39 14 -76.5t14 -75.5h4q9 38 15.5 75.5t15.5 76.5l73 311h92l72 -311q9 -38 16 -76t16 -76h4q8 38 15 75.5
t15 76.5l63 311h84l-121 -542h-113l-67 289q-9 39 -16 77l-15 80h-5q-8 -42 -14.5 -81t-16.5 -77l-64 -288h-111zM798 -61q62 97 86 208t25 233q0 121 -24.5 232.5t-86.5 208.5l45 14q67 -101 96 -212t29 -243q0 -133 -29 -243.5t-96 -211.5z" />
    <glyph glyph-name="cid259" unicode="&#x24b3;" horiz-adv-x="1000" 
d="M157 -75q-67 101 -96 211.5t-29 243.5q0 132 29 243t96 212l45 -14q-62 -97 -86.5 -208.5t-24.5 -232.5q1 -122 25 -233t86 -208zM443 389l-164 259h102l72 -118q12 -22 25.5 -44.5l27.5 -45.5h4q13 23 24.5 45.5t24.5 44.5l65 118h99l-164 -269l176 -273h-102l-79 125
l-28.5 49t-29.5 48h-5q-14 -23 -27 -47.5l-27 -49.5l-73 -125h-98zM798 -61q62 97 86 208t25 233q0 121 -24.5 232.5t-86.5 208.5l45 14q67 -101 96 -212t29 -243q0 -133 -29 -243.5t-96 -211.5z" />
    <glyph glyph-name="cid260" unicode="&#x24b4;" horiz-adv-x="1000" 
d="M157 -75q-67 101 -96 211.5t-29 243.5q0 132 29 243t96 212l45 -14q-62 -97 -86.5 -208.5t-24.5 -232.5q1 -122 25 -233t86 -208zM353 -11q-40 0 -70 11l18 75q10 -3 23 -5.5t24 -2.5q45 0 72 20.5t38 57.5l10 36l-216 543h97l108 -297q14 -36 26.5 -76t26.5 -78h4
q12 37 23.5 77l22.5 77l94 297h92l-202 -582q-12 -34 -28 -62t-38.5 -48.5t-53.5 -31.5t-71 -11zM798 -61q62 97 86 208t25 233q0 121 -24.5 232.5t-86.5 208.5l45 14q67 -101 96 -212t29 -243q0 -133 -29 -243.5t-96 -211.5z" />
    <glyph glyph-name="cid261" unicode="&#x24b5;" horiz-adv-x="1000" 
d="M157 -75q-67 101 -96 211.5t-29 243.5q0 132 29 243t96 212l45 -14q-62 -97 -86.5 -208.5t-24.5 -232.5q1 -122 25 -233t86 -208zM298 156l283 416h-251v76h370v-50l-284 -416h293v-76h-411v50zM798 -61q62 97 86 208t25 233q0 121 -24.5 232.5t-86.5 208.5l45 14
q67 -101 96 -212t29 -243q0 -133 -29 -243.5t-96 -211.5z" />
    <glyph glyph-name="cid262" unicode="&#x24d0;" horiz-adv-x="1000" 
d="M500 -86q-96 0 -181 36.5t-148.5 100t-100 148.5t-36.5 181t36.5 181t100 148.5t148.5 100t181 36.5t181 -36.5t148.5 -100t100 -148.5t36.5 -181q0 -97 -37 -182t-100.5 -148t-148 -99.5t-180.5 -36.5zM500 -54q90 0 169 34t138 93t93 138t34 169t-34 169t-93 138
t-138 93t-169 34q-91 0 -170 -34.5t-137.5 -93.5t-92.5 -138t-34 -168q0 -90 34 -169t93 -138t138 -93t169 -34zM460 185q-49 0 -79 29t-30 77q0 59 52.5 90.5t167.5 42.5q-1 35 -14.5 58t-52.5 23q-29 0 -59.5 -12t-53.5 -26l-25 49q27 17 66 32t83 15q66 0 97 -39t31 -111
v-219h-57l-8 42h-5q-22 -20 -50 -35.5t-63 -15.5zM482 242q44 0 89 44v93q-84 -8 -117.5 -30t-33.5 -52q0 -29 16.5 -42t45.5 -13z" />
    <glyph glyph-name="cid263" unicode="&#x24d1;" horiz-adv-x="1000" 
d="M500 -86q-96 0 -181 36.5t-148.5 100t-100 148.5t-36.5 181t36.5 181t100 148.5t148.5 100t181 36.5t181 -36.5t148.5 -100t100 -148.5t36.5 -181q0 -97 -37 -182t-100.5 -148t-148 -99.5t-180.5 -36.5zM500 -54q90 0 169 34t138 93t93 138t34 169t-34 169t-93 138
t-138 93t-169 34q-91 0 -170 -34.5t-137.5 -93.5t-92.5 -138t-34 -168q0 -90 34 -169t93 -138t138 -93t169 -34zM535 141q-24 0 -50.5 11.5t-49.5 33.5h-5l-8 -36h-53v523h70v-140l-3 -64q25 21 52 35.5t59 14.5q70 0 107 -49.5t37 -132.5q0 -47 -12.5 -83.5t-34 -61.5
t-50 -38t-59.5 -13zM525 200q40 0 67 35t27 100q0 59 -21.5 92t-67.5 33q-45 0 -91 -46v-180q22 -18 44.5 -26t41.5 -8z" />
    <glyph glyph-name="cid264" unicode="&#x24d2;" horiz-adv-x="1000" 
d="M500 -86q-96 0 -181 36.5t-148.5 100t-100 148.5t-36.5 181t36.5 181t100 148.5t148.5 100t181 36.5t181 -36.5t148.5 -100t100 -148.5t36.5 -181q0 -97 -37 -182t-100.5 -148t-148 -99.5t-180.5 -36.5zM500 -54q90 0 169 34t138 93t93 138t34 169t-34 169t-93 138
t-138 93t-169 34q-91 0 -170 -34.5t-137.5 -93.5t-92.5 -138t-34 -168q0 -90 34 -169t93 -138t138 -93t169 -34zM518 185q-38 0 -69.5 12.5t-54.5 37t-36 60t-13 80.5q0 44 14.5 79t38.5 59t56 37t67 13q39 0 66 -12.5t44 -26.5l-34 -46q-17 14 -33 20.5t-40 6.5
q-46 0 -76 -36.5t-30 -93.5q0 -59 29.5 -95t77.5 -36q28 0 47.5 8.5t34.5 21.5l29 -46q-19 -16 -47.5 -29.5t-70.5 -13.5z" />
    <glyph glyph-name="cid265" unicode="&#x24d3;" horiz-adv-x="1000" 
d="M500 -86q-96 0 -181 36.5t-148.5 100t-100 148.5t-36.5 181t36.5 181t100 148.5t148.5 100t181 36.5t181 -36.5t148.5 -100t100 -148.5t36.5 -181q0 -97 -37 -182t-100.5 -148t-148 -99.5t-180.5 -36.5zM500 -54q90 0 169 34t138 93t93 138t34 169t-34 169t-93 138
t-138 93t-169 34q-91 0 -170 -34.5t-137.5 -93.5t-92.5 -138t-34 -168q0 -90 34 -169t93 -138t138 -93t169 -34zM478 141q-71 0 -112 51t-41 145q0 42 13 75.5t35 57.5t50 36.5t58 12.5t54 -11t47 -30l-4 63v132h70v-523h-57l-7 39h-3q-22 -19 -47 -33.5t-56 -14.5zM494 200
q22 0 42 11.5t42 33.5v180q-23 20 -44 28t-41 8q-39 0 -66.5 -33.5t-27.5 -90.5q0 -66 23 -101.5t72 -35.5z" />
    <glyph glyph-name="cid266" unicode="&#x24d4;" horiz-adv-x="1000" 
d="M500 -86q-96 0 -181 36.5t-148.5 100t-100 148.5t-36.5 181t36.5 181t100 148.5t148.5 100t181 36.5t181 -36.5t148.5 -100t100 -148.5t36.5 -181q0 -97 -37 -182t-100.5 -148t-148 -99.5t-180.5 -36.5zM500 -54q90 0 169 34t138 93t93 138t34 169t-34 169t-93 138
t-138 93t-169 34q-91 0 -170 -34.5t-137.5 -93.5t-92.5 -138t-34 -168q0 -90 34 -169t93 -138t138 -93t169 -34zM520 185q-36 0 -68.5 12.5t-56.5 37t-38 60t-14 80.5q0 43 13.5 78t36.5 59.5t53.5 37.5t64.5 13q42 0 70.5 -16t45.5 -40t24.5 -53.5t7.5 -56.5
q0 -11 -1 -18.5t-3 -20.5h-242q3 -55 34 -85.5t81 -30.5q26 0 49 8t42 20l27 -45q-26 -16 -57 -28t-69 -12zM597 403q0 19 -4.5 37.5t-14.5 33t-26 23.5t-40 9q-41 0 -67 -26.5t-32 -76.5h184z" />
    <glyph glyph-name="cid267" unicode="&#x24d5;" horiz-adv-x="1000" 
d="M441 555q0 56 26 93.5t85 37.5q20 0 35 -3t30 -9l-15 -53q-8 3 -18 5.5t-23 2.5q-26 0 -38 -18.5t-12 -50.5v-50h76v-56h-76v-304h-70v304h-51v53l51 3v45zM500 -54q90 0 169 34t138 93t93 138t34 169t-34 169t-93 138t-138 93t-169 34q-91 0 -170 -34.5t-137.5 -93.5
t-92.5 -138t-34 -168q0 -90 34 -169t93 -138t138 -93t169 -34zM500 846q96 0 181 -36.5t148.5 -100t100 -148.5t36.5 -181q0 -97 -37 -182t-100.5 -148t-148 -99.5t-180.5 -36.5t-181 36.5t-148.5 100t-100 148.5t-36.5 181t36.5 181t100 148.5t148.5 100t181 36.5z" />
    <glyph glyph-name="cid268" unicode="&#x24d6;" horiz-adv-x="1000" 
d="M500 -86q-96 0 -181 36.5t-148.5 100t-100 148.5t-36.5 181t36.5 181t100 148.5t148.5 100t181 36.5t181 -36.5t148.5 -100t100 -148.5t36.5 -181q0 -97 -37 -182t-100.5 -148t-148 -99.5t-180.5 -36.5zM500 -54q90 0 169 34t138 93t93 138t34 169t-34 169t-93 138
t-138 93t-169 34q-91 0 -170 -34.5t-137.5 -93.5t-92.5 -138t-34 -168q0 -90 34 -169t93 -138t138 -93t169 -34zM492 88q-67 0 -108 24t-41 72q0 23 13 43t38 34v4q-14 9 -23 23.5t-9 36.5q0 21 12 37.5t28 27.5v5q-20 13 -33.5 37.5t-13.5 56.5q0 31 11 55t30 40.5
t44.5 25.5t53.5 9q32 0 57 -11h124v-54h-70q12 -10 19 -28t7 -38q0 -30 -11 -53t-29.5 -39t-43.5 -24.5t-53 -8.5q-12 0 -25.5 2t-27.5 9q-8 -8 -14.5 -16.5t-6.5 -21.5q0 -17 13.5 -26t48.5 -9h70q66 0 97 -20.5t31 -67.5q0 -26 -13 -48.5t-37.5 -39.5t-59.5 -27t-78 -10z
M494 410q31 0 52.5 21.5t21.5 57.5q0 38 -21.5 58.5t-52.5 20.5q-32 0 -52.5 -20.5t-20.5 -58.5q0 -36 20.5 -57.5t52.5 -21.5zM503 137q49 0 79 20t30 46q0 23 -17.5 31t-52.5 8h-58q-9 0 -22.5 0.5t-24.5 4.5q-34 -24 -34 -53q0 -28 26 -42.5t74 -14.5z" />
    <glyph glyph-name="cid269" unicode="&#x24d7;" horiz-adv-x="1000" 
d="M500 -86q-96 0 -181 36.5t-148.5 100t-100 148.5t-36.5 181t36.5 181t100 148.5t148.5 100t181 36.5t181 -36.5t148.5 -100t100 -148.5t36.5 -181q0 -97 -37 -182t-100.5 -148t-148 -99.5t-180.5 -36.5zM500 -54q90 0 169 34t138 93t93 138t34 169t-34 169t-93 138
t-138 93t-169 34q-91 0 -170 -34.5t-137.5 -93.5t-92.5 -138t-34 -168q0 -90 34 -169t93 -138t138 -93t169 -34zM358 673h69v-139l-3 -74q23 23 53.5 41t67.5 18q62 0 87.5 -39.5t25.5 -102.5v-227h-70v217q0 42 -13 67t-55 25q-21 0 -43 -13t-50 -40v-256h-69v523z" />
    <glyph glyph-name="cid270" unicode="&#x24d8;" horiz-adv-x="1000" 
d="M500 -86q-96 0 -181 36.5t-148.5 100t-100 148.5t-36.5 181t36.5 181t100 148.5t148.5 100t181 36.5t181 -36.5t148.5 -100t100 -148.5t36.5 -181q0 -97 -37 -182t-100.5 -148t-148 -99.5t-180.5 -36.5zM500 -54q90 0 169 34t138 93t93 138t34 169t-34 169t-93 138
t-138 93t-169 34q-91 0 -170 -34.5t-137.5 -93.5t-92.5 -138t-34 -168q0 -90 34 -169t93 -138t138 -93t169 -34zM465 510h71v-360h-71v360zM501 579q-20 0 -33 12t-13 31q0 20 13 32.5t33 12.5q22 0 35 -12.5t13 -32.5q0 -19 -13 -31t-35 -12z" />
    <glyph glyph-name="cid271" unicode="&#x24d9;" horiz-adv-x="1000" 
d="M500 -86q-96 0 -181 36.5t-148.5 100t-100 148.5t-36.5 181t36.5 181t100 148.5t148.5 100t181 36.5t181 -36.5t148.5 -100t100 -148.5t36.5 -181q0 -97 -37 -182t-100.5 -148t-148 -99.5t-180.5 -36.5zM500 -54q90 0 169 34t138 93t93 138t34 169t-34 169t-93 138
t-138 93t-169 34q-91 0 -170 -34.5t-137.5 -93.5t-92.5 -138t-34 -168q0 -90 34 -169t93 -138t138 -93t169 -34zM441 30q-18 0 -30 2t-24 7l13 55q8 -3 15 -4.5t18 -1.5q26 0 34 17t8 49v396h70v-392q0 -60 -23.5 -94t-80.5 -34zM511 619q-20 0 -33 12t-13 31q0 20 13 32.5
t33 12.5q22 0 35.5 -12.5t13.5 -32.5q0 -19 -13.5 -31t-35.5 -12z" />
    <glyph glyph-name="cid272" unicode="&#x24da;" horiz-adv-x="1000" 
d="M500 -86q-96 0 -181 36.5t-148.5 100t-100 148.5t-36.5 181t36.5 181t100 148.5t148.5 100t181 36.5t181 -36.5t148.5 -100t100 -148.5t36.5 -181q0 -97 -37 -182t-100.5 -148t-148 -99.5t-180.5 -36.5zM500 -54q90 0 169 34t138 93t93 138t34 169t-34 169t-93 138
t-138 93t-169 34q-91 0 -170 -34.5t-137.5 -93.5t-92.5 -138t-34 -168q0 -90 34 -169t93 -138t138 -93t169 -34zM373 673h69v-341h5l144 178h80l-125 -147l139 -213h-77l-104 165l-62 -74v-91h-69v523z" />
    <glyph glyph-name="cid273" unicode="&#x24db;" horiz-adv-x="1000" 
d="M500 -86q-96 0 -181 36.5t-148.5 100t-100 148.5t-36.5 181t36.5 181t100 148.5t148.5 100t181 36.5t181 -36.5t148.5 -100t100 -148.5t36.5 -181q0 -97 -37 -182t-100.5 -148t-148 -99.5t-180.5 -36.5zM500 -54q90 0 169 34t138 93t93 138t34 169t-34 169t-93 138
t-138 93t-169 34q-91 0 -170 -34.5t-137.5 -93.5t-92.5 -138t-34 -168q0 -90 34 -169t93 -138t138 -93t169 -34zM530 141q-42 0 -58 24.5t-16 68.5v439h70v-445q0 -16 5.5 -22t13.5 -6h7t8 2l10 -54q-8 -2 -17 -4.5t-23 -2.5z" />
    <glyph glyph-name="cid274" unicode="&#x24dc;" horiz-adv-x="1000" 
d="M500 -86q-96 0 -181 36.5t-148.5 100t-100 148.5t-36.5 181t36.5 181t100 148.5t148.5 100t181 36.5t181 -36.5t148.5 -100t100 -148.5t36.5 -181q0 -97 -37 -182t-100.5 -148t-148 -99.5t-180.5 -36.5zM500 -54q90 0 169 34t138 93t93 138t34 169t-34 169t-93 138
t-138 93t-169 34q-91 0 -170 -34.5t-137.5 -93.5t-92.5 -138t-34 -168q0 -90 34 -169t93 -138t138 -93t169 -34zM246 554h57l7 -51h2q23 25 50 42.5t64 17.5q36 0 62 -17t38 -51q26 27 55.5 47.5t65.5 20.5q60 0 86 -39.5t26 -102.5v-227h-70v217q0 42 -13.5 67t-52.5 25
q-19 0 -39 -12.5t-46 -39.5v-257h-71v217q0 42 -13.5 67t-51.5 25q-20 0 -40 -12.5t-46 -39.5v-257h-70v360z" />
    <glyph glyph-name="cid275" unicode="&#x24dd;" horiz-adv-x="1000" 
d="M500 -86q-96 0 -181 36.5t-148.5 100t-100 148.5t-36.5 181t36.5 181t100 148.5t148.5 100t181 36.5t181 -36.5t148.5 -100t100 -148.5t36.5 -181q0 -97 -37 -182t-100.5 -148t-148 -99.5t-180.5 -36.5zM500 -54q90 0 169 34t138 93t93 138t34 169t-34 169t-93 138
t-138 93t-169 34q-91 0 -170 -34.5t-137.5 -93.5t-92.5 -138t-34 -168q0 -90 34 -169t93 -138t138 -93t169 -34zM352 554h57l7 -51h2q25 25 55.5 42.5t66.5 17.5q62 0 87.5 -39.5t25.5 -102.5v-227h-70v217q0 42 -13 67t-54 25q-22 0 -44 -13t-49 -40v-256h-71v360z" />
    <glyph glyph-name="cid276" unicode="&#x24de;" horiz-adv-x="1000" 
d="M500 -86q-96 0 -181 36.5t-148.5 100t-100 148.5t-36.5 181t36.5 181t100 148.5t148.5 100t181 36.5t181 -36.5t148.5 -100t100 -148.5t36.5 -181q0 -97 -37 -182t-100.5 -148t-148 -99.5t-180.5 -36.5zM500 -54q90 0 169 34t138 93t93 138t34 169t-34 169t-93 138
t-138 93t-169 34q-91 0 -170 -34.5t-137.5 -93.5t-92.5 -138t-34 -168q0 -90 34 -169t93 -138t138 -93t169 -34zM499 185q-34 0 -65 13t-54 37.5t-37 59.5t-14 79q0 45 14 80t37 59t54 37t65 13t65.5 -13t54.5 -37t37 -59t14 -80q0 -44 -14 -79t-37 -59.5t-54.5 -37.5
t-65.5 -13zM499 244q46 0 72 36t26 94q0 60 -26 95.5t-72 35.5q-45 0 -71 -35.5t-26 -95.5q0 -58 26 -94t71 -36z" />
    <glyph glyph-name="cid277" unicode="&#x24df;" horiz-adv-x="1000" 
d="M500 -86q-96 0 -181 36.5t-148.5 100t-100 148.5t-36.5 181t36.5 181t100 148.5t148.5 100t181 36.5t181 -36.5t148.5 -100t100 -148.5t36.5 -181q0 -97 -37 -182t-100.5 -148t-148 -99.5t-180.5 -36.5zM500 -54q90 0 169 34t138 93t93 138t34 169t-34 169t-93 138
t-138 93t-169 34q-91 0 -170 -34.5t-137.5 -93.5t-92.5 -138t-34 -168q0 -90 34 -169t93 -138t138 -93t169 -34zM360 610h55l8 -41h4q21 20 49.5 35t60.5 15q71 0 108 -49.5t37 -132.5q0 -47 -12.5 -83.5t-34 -61.5t-49.5 -38t-59 -13q-24 0 -51.5 11t-49.5 31l3 -69v-108
h-69v504zM515 300q41 0 67.5 35t26.5 100q0 59 -21 92t-67 33q-44 0 -92 -46v-180q23 -18 45 -26t41 -8z" />
    <glyph glyph-name="cid278" unicode="&#x24e0;" horiz-adv-x="1000" 
d="M500 -86q-96 0 -181 36.5t-148.5 100t-100 148.5t-36.5 181t36.5 181t100 148.5t148.5 100t181 36.5t181 -36.5t148.5 -100t100 -148.5t36.5 -181q0 -97 -37 -182t-100.5 -148t-148 -99.5t-180.5 -36.5zM500 -54q90 0 169 34t138 93t93 138t34 169t-34 169t-93 138
t-138 93t-169 34q-91 0 -170 -34.5t-137.5 -93.5t-92.5 -138t-34 -168q0 -90 34 -169t93 -138t138 -93t169 -34zM579 221l4 65q-20 -20 -46.5 -32.5t-55.5 -12.5q-72 0 -113 50t-41 140q0 44 13 79t35 59t50.5 37t58.5 13q56 0 101 -45h3l7 36h54v-504h-70v115zM495 301
q44 0 84 40v183q-21 20 -43 28t-42 8q-18 0 -35.5 -9t-30.5 -25.5t-21 -40.5t-8 -54q0 -61 23.5 -95.5t72.5 -34.5z" />
    <glyph glyph-name="cid279" unicode="&#x24e1;" horiz-adv-x="1000" 
d="M500 -86q-96 0 -181 36.5t-148.5 100t-100 148.5t-36.5 181t36.5 181t100 148.5t148.5 100t181 36.5t181 -36.5t148.5 -100t100 -148.5t36.5 -181q0 -97 -37 -182t-100.5 -148t-148 -99.5t-180.5 -36.5zM500 -54q90 0 169 34t138 93t93 138t34 169t-34 169t-93 138
t-138 93t-169 34q-91 0 -170 -34.5t-137.5 -93.5t-92.5 -138t-34 -168q0 -90 34 -169t93 -138t138 -93t169 -34zM413 554h56l7 -63h4q41 72 103 72q25 0 41 -7l-13 -64q-7 2 -17 4t-19 2q-24 0 -48.5 -17t-42.5 -61v-226h-71v360z" />
    <glyph glyph-name="cid280" unicode="&#x24e2;" horiz-adv-x="1000" 
d="M500 -86q-96 0 -181 36.5t-148.5 100t-100 148.5t-36.5 181t36.5 181t100 148.5t148.5 100t181 36.5t181 -36.5t148.5 -100t100 -148.5t36.5 -181q0 -97 -37 -182t-100.5 -148t-148 -99.5t-180.5 -36.5zM500 -54q90 0 169 34t138 93t93 138t34 169t-34 169t-93 138
t-138 93t-169 34q-91 0 -170 -34.5t-137.5 -93.5t-92.5 -138t-34 -168q0 -90 34 -169t93 -138t138 -93t169 -34zM502 185q-39 0 -75.5 14.5t-63.5 34.5l34 47q25 -18 51 -29.5t55 -11.5q32 0 48.5 14.5t16.5 36.5q0 12 -7 21t-18 16t-25.5 13l-29.5 12q-19 7 -38 16
t-34.5 21.5t-25 29.5t-9.5 40q0 42 33 72.5t91 30.5q39 0 68 -12t52 -29l-35 -45q-20 14 -39 22.5t-43 8.5q-30 0 -44.5 -14t-14.5 -31q0 -24 24 -36t56 -24l38 -16t34 -20t24.5 -29t9.5 -42q0 -48 -35.5 -79.5t-97.5 -31.5z" />
    <glyph glyph-name="cid281" unicode="&#x24e3;" horiz-adv-x="1000" 
d="M500 -86q-96 0 -181 36.5t-148.5 100t-100 148.5t-36.5 181t36.5 181t100 148.5t148.5 100t181 36.5t181 -36.5t148.5 -100t100 -148.5t36.5 -181q0 -97 -37 -182t-100.5 -148t-148 -99.5t-180.5 -36.5zM500 -54q90 0 169 34t138 93t93 138t34 169t-34 169t-93 138
t-138 93t-169 34q-91 0 -170 -34.5t-137.5 -93.5t-92.5 -138t-34 -168q0 -90 34 -169t93 -138t138 -93t169 -34zM541 174q-60 0 -83.5 34.5t-23.5 91.5v185h-54v54l55 3l9 100h59v-100h98v-57h-98v-186q0 -68 56 -68q19 0 40 8l14 -52q-14 -5 -33 -9t-39 -4z" />
    <glyph glyph-name="cid282" unicode="&#x24e4;" horiz-adv-x="1000" 
d="M500 -86q-96 0 -181 36.5t-148.5 100t-100 148.5t-36.5 181t36.5 181t100 148.5t148.5 100t181 36.5t181 -36.5t148.5 -100t100 -148.5t36.5 -181q0 -97 -37 -182t-100.5 -148t-148 -99.5t-180.5 -36.5zM500 -54q90 0 169 34t138 93t93 138t34 169t-34 169t-93 138
t-138 93t-169 34q-91 0 -170 -34.5t-137.5 -93.5t-92.5 -138t-34 -168q0 -90 34 -169t93 -138t138 -93t169 -34zM463 185q-32 0 -53.5 10.5t-35 29t-19.5 44.5t-6 57v228h71v-217q0 -44 12.5 -67t54.5 -23q22 0 44.5 12t49.5 39v256h70v-360h-57l-8 50h-3q-23 -23 -53 -41
t-67 -18z" />
    <glyph glyph-name="cid283" unicode="&#x24e5;" horiz-adv-x="1000" 
d="M500 -86q-96 0 -181 36.5t-148.5 100t-100 148.5t-36.5 181t36.5 181t100 148.5t148.5 100t181 36.5t181 -36.5t148.5 -100t100 -148.5t36.5 -181q0 -97 -37 -182t-100.5 -148t-148 -99.5t-180.5 -36.5zM500 -54q90 0 169 34t138 93t93 138t34 169t-34 169t-93 138
t-138 93t-169 34q-91 0 -170 -34.5t-137.5 -93.5t-92.5 -138t-34 -168q0 -90 34 -169t93 -138t138 -93t169 -34zM330 554h70l65 -196l34 -108h4l35 108l64 196h70l-130 -360h-83z" />
    <glyph glyph-name="cid284" unicode="&#x24e6;" horiz-adv-x="1000" 
d="M500 -86q-96 0 -181 36.5t-148.5 100t-100 148.5t-36.5 181t36.5 181t100 148.5t148.5 100t181 36.5t181 -36.5t148.5 -100t100 -148.5t36.5 -181q0 -97 -37 -182t-100.5 -148t-148 -99.5t-180.5 -36.5zM500 -54q90 0 169 34t138 93t93 138t34 169t-34 169t-93 138
t-138 93t-169 34q-91 0 -170 -34.5t-137.5 -93.5t-92.5 -138t-34 -168q0 -90 34 -169t93 -138t138 -93t169 -34zM246 554h73l48 -199l21 -103h5l23 103l53 199h64l55 -199l26 -103h3l23 103l47 199h68l-97 -360h-85l-48 182l-23 102h-3l-22 -102l-48 -182h-84z" />
    <glyph glyph-name="cid285" unicode="&#x24e7;" horiz-adv-x="1000" 
d="M500 -86q-96 0 -181 36.5t-148.5 100t-100 148.5t-36.5 181t36.5 181t100 148.5t148.5 100t181 36.5t181 -36.5t148.5 -100t100 -148.5t36.5 -181q0 -97 -37 -182t-100.5 -148t-148 -99.5t-180.5 -36.5zM500 -54q90 0 169 34t138 93t93 138t34 169t-34 169t-93 138
t-138 93t-169 34q-91 0 -170 -34.5t-137.5 -93.5t-92.5 -138t-34 -168q0 -90 34 -169t93 -138t138 -93t169 -34zM457 382l-111 172h78l45 -74l36 -57h4l30 57l41 74h74l-109 -179l117 -181h-77l-49 77l-38 61h-4l-38 -61l-44 -77h-75z" />
    <glyph glyph-name="cid286" unicode="&#x24e8;" horiz-adv-x="1000" 
d="M500 -86q-96 0 -181 36.5t-148.5 100t-100 148.5t-36.5 181t36.5 181t100 148.5t148.5 100t181 36.5t181 -36.5t148.5 -100t100 -148.5t36.5 -181q0 -97 -37 -182t-100.5 -148t-148 -99.5t-180.5 -36.5zM500 -54q90 0 169 34t138 93t93 138t34 169t-34 169t-93 138
t-138 93t-169 34q-91 0 -170 -34.5t-137.5 -93.5t-92.5 -138t-34 -168q0 -90 34 -169t93 -138t138 -93t169 -34zM406 102q-26 0 -46 7l14 56q16 -6 27 -6q29 0 49 20t30 52l7 22l-145 357h71l70 -188q8 -25 17 -50.5l18 -52.5h4l15.5 51.5l15.5 51.5l58 188h69l-132 -379
q-21 -57 -53 -93t-89 -36z" />
    <glyph glyph-name="cid287" unicode="&#x24e9;" horiz-adv-x="1000" 
d="M500 -86q-96 0 -181 36.5t-148.5 100t-100 148.5t-36.5 181t36.5 181t100 148.5t148.5 100t181 36.5t181 -36.5t148.5 -100t100 -148.5t36.5 -181q0 -97 -37 -182t-100.5 -148t-148 -99.5t-180.5 -36.5zM500 -54q90 0 169 34t138 93t93 138t34 169t-34 169t-93 138
t-138 93t-169 34q-91 0 -170 -34.5t-137.5 -93.5t-92.5 -138t-34 -168q0 -90 34 -169t93 -138t138 -93t169 -34zM362 233l186 264h-164v57h254v-40l-186 -263h191v-57h-281v39z" />
    <glyph glyph-name="cid288" unicode="&#x2592;" horiz-adv-x="1000" 
d="M750 880h50l200 -200v-50zM500 880h50l450 -450v-50zM250 880h50l700 -700v-50zM0 880h50l950 -950v-50zM0 630v50l800 -800h-50zM0 380v50l550 -550h-50zM0 130v50l300 -300h-50zM0 -70l50 -50h-50v50z" />
    <glyph glyph-name="cid289" unicode="&#x25a0;" horiz-adv-x="1000" 
d="M900 780v-800h-800v800h800z" />
    <glyph glyph-name="cid290" unicode="&#x25a1;" horiz-adv-x="1000" 
d="M900 780v-800h-800v800h800zM137 17h726v726h-726v-726z" />
    <glyph glyph-name="cid291" unicode="&#x25a3;" horiz-adv-x="1000" 
d="M900 780v-800h-800v800h800zM137 17h726v726h-726v-726zM334 546h332v-332h-332v332z" />
    <glyph glyph-name="cid292" unicode="&#x25a4;" horiz-adv-x="1000" 
d="M863 17v153h-726v-153h726zM137 361v-154h726v154h-726zM863 399v154h-726v-154h726zM137 743v-153h726v153h-726zM900 780v-800h-800v800h800z" />
    <glyph glyph-name="cid293" unicode="&#x25a5;" horiz-adv-x="1000" 
d="M863 743h-153v-726h153v726zM137 17h153v726h-153v-726zM481 743h-154v-726h154v726zM519 17h154v726h-154v-726zM900 780v-800h-800v800h800z" />
    <glyph glyph-name="cid294" unicode="&#x25a6;" horiz-adv-x="1000" 
d="M863 17v153h-153v-153h153zM137 17h153v153h-153v-153zM137 743v-153h153v153h-153zM863 399v154h-153v-154h153zM710 207h153v154h-153v-154zM673 207v154h-154v-154h154zM519 17h154v153h-154v-153zM327 170v-153h154v153h-154zM327 207h154v154h-154v-154zM137 361
v-154h153v154h-153zM290 553h-153v-154h153v154zM327 553v-154h154v154h-154zM481 743h-154v-153h154v153zM519 553v-154h154v154h-154zM673 590v153h-154v-153h154zM863 743h-153v-153h153v153zM900 780v-800h-800v800h800z" />
    <glyph glyph-name="cid295" unicode="&#x25a7;" horiz-adv-x="1000" 
d="M137 17h131l-131 131v-131zM863 743h-131l131 -131v131zM491 743h-138l510 -510v138zM863 559l-184 184h-135l319 -319v135zM863 42v140l-561 561h-139zM697 17h140l-700 700v-140zM507 17h139l-509 509v-138zM137 200l182 -183h137l-319 319v-136zM900 780v-800h-800
v800h800z" />
    <glyph glyph-name="cid296" unicode="&#x25a8;" horiz-adv-x="1000" 
d="M863 17v128l-127 -128h127zM137 743v-133l133 133h-133zM137 180v-140l703 703h-139zM458 743h-136l-185 -185v-136zM137 370v-138l511 511h-138zM863 575v140l-698 -698h141zM548 17h135l180 181v135zM863 386v138l-506 -507h137zM900 780v-800h-800v800h800z" />
    <glyph glyph-name="cid297" unicode="&#x25a9;" horiz-adv-x="1000" 
d="M863 612v103l-51 -51zM863 42v103l-51 -52zM736 17h101l-51 51zM548 17h98l-49 49zM357 17h99l-50 50zM165 17h103l-51 52zM137 148v-108l54 54zM137 717v-107l54 54zM270 743h-107l53 -54zM458 743h-105l53 -52zM648 743h-104l52 -52zM786 689l54 54h-108zM760 663
l-70 69l-68 -67l70 -70zM855 567l-70 70l-67 -67l70 -71zM863 424v100l-50 -50zM863 233v100l-50 -50zM785 120l70 70l-67 67l-70 -70zM622 92l68 -68l70 70l-68 68zM596 119l70 70l-69 68l-70 -70zM432 92l69 -68l69 69l-69 69zM407 118l69 69l-70 71l-70 -70zM242 94
l71 -70l68 68l-70 71zM147 190l70 -70l68 68l-70 70zM137 336v-104l52 52zM137 526v-104l52 52zM217 638l-70 -70l68 -68l70 70zM380 665l-68 68l-70 -70l68 -68zM406 639l-70 -70l69 -69l70 70zM570 665l-69 69l-69 -69l69 -69zM666 569l-70 69l-69 -69l70 -69zM761 473
l-70 70l-69 -69l70 -70zM787 310l69 69l-69 68l-69 -69zM622 283l69 -69l70 70l-69 69zM597 308l70 70l-70 71l-70 -70zM431 283l70 -70l70 70l-70 70zM501 404l70 70l-70 70l-69 -70zM406 309l70 70l-70 69l-70 -70zM241 284l70 -70l69 69l-70 70zM310 405l70 70l-69 69
l-70 -70zM215 448l-69 -69l69 -69l69 69zM900 780v-800h-800v800h800z" />
    <glyph glyph-name="cid298" unicode="&#x25b2;" horiz-adv-x="1000" 
d="M970 12h-940l470 814z" />
    <glyph glyph-name="cid299" unicode="&#x25b3;" horiz-adv-x="1000" 
d="M970 12h-940l470 814zM94 49h812l-406 703z" />
    <glyph glyph-name="cid300" unicode="&#x25b6;" horiz-adv-x="1000" 
d="M122 -93v940l814 -470z" />
    <glyph glyph-name="cid301" unicode="&#x25b7;" horiz-adv-x="1000" 
d="M122 -93v940l814 -470zM159 783v-812l703 406z" />
    <glyph glyph-name="cid302" unicode="&#x25bc;" horiz-adv-x="1000" 
d="M970 748l-470 -814l-470 814h940z" />
    <glyph glyph-name="cid303" unicode="&#x25bd;" horiz-adv-x="1000" 
d="M970 748l-470 -814l-470 814h940zM94 711l406 -703l406 703h-812z" />
    <glyph glyph-name="cid304" unicode="&#x25c0;" horiz-adv-x="1000" 
d="M878 -93l-814 470l814 470v-940z" />
    <glyph glyph-name="cid305" unicode="&#x25c1;" horiz-adv-x="1000" 
d="M878 -93l-814 470l814 470v-940zM841 783l-703 -406l703 -406v812z" />
    <glyph glyph-name="cid306" unicode="&#x25c6;" horiz-adv-x="1000" 
d="M988 380l-488 -488l-488 488l488 488z" />
    <glyph glyph-name="cid307" unicode="&#x25c7;" horiz-adv-x="1000" 
d="M988 380l-488 -488l-488 488l488 488zM65 380l435 -435l435 435l-435 435z" />
    <glyph glyph-name="cid308" unicode="&#x25c8;" horiz-adv-x="1000" 
d="M988 380l-488 -488l-488 488l488 488zM65 380l435 -435l435 435l-435 435zM500 718l338 -338l-338 -338l-338 338z" />
    <glyph glyph-name="cid309" unicode="&#x25cb;" horiz-adv-x="1000" 
d="M500 -70q-93 0 -175 35.5t-143 96.5t-96.5 143t-35.5 175t35.5 175t96.5 143t143 96.5t175 35.5t175 -35.5t143 -96.5t96.5 -143t35.5 -175t-35.5 -175t-96.5 -143t-143 -96.5t-175 -35.5zM87 380q0 -86 32.5 -161t88.5 -131t131 -88.5t161 -32.5q85 0 160.5 32.5
t131.5 88.5t88.5 131t32.5 161q0 85 -32.5 160.5t-88.5 131.5t-131.5 88.5t-160.5 32.5q-86 0 -161 -32.5t-131 -88.5t-88.5 -131.5t-32.5 -160.5z" />
    <glyph glyph-name="cid310" unicode="&#x25ce;" horiz-adv-x="1000" 
d="M50 380q0 93 35.5 175t96.5 143t143 96.5t175 35.5t175 -35.5t143 -96.5t96.5 -143t35.5 -175t-35.5 -175t-96.5 -143t-143 -96.5t-175 -35.5t-175 35.5t-143 96.5t-96.5 143t-35.5 175zM913 380q0 85 -32.5 160.5t-88.5 131.5t-131.5 88.5t-160.5 32.5q-86 0 -161 -32.5
t-131 -88.5t-88.5 -131.5t-32.5 -160.5q0 -86 32.5 -161t88.5 -131t131 -88.5t161 -32.5q85 0 160.5 32.5t131.5 88.5t88.5 131t32.5 161zM204 380q0 61 23 115t63.5 94.5t94 63.5t115.5 23q61 0 115 -23t94.5 -63.5t63.5 -94.5t23 -115q0 -62 -23 -115.5t-63.5 -94
t-94.5 -63.5t-115 -23q-62 0 -115.5 23t-94 63.5t-63.5 94t-23 115.5zM765 380q0 55 -21 103t-57 84t-84 57t-103 21t-103 -21t-84 -57t-57 -84t-21 -103t21 -103t57 -84t84 -57t103 -21t103 21t84 57t57 84t21 103z" />
    <glyph glyph-name="cid311" unicode="&#x25cf;" horiz-adv-x="1000" 
d="M500 -70q-93 0 -175 35.5t-143 96.5t-96.5 143t-35.5 175t35.5 175t96.5 143t143 96.5t175 35.5t175 -35.5t143 -96.5t96.5 -143t35.5 -175t-35.5 -175t-96.5 -143t-143 -96.5t-175 -35.5z" />
    <glyph glyph-name="cid312" unicode="&#x25d0;" horiz-adv-x="1000" 
d="M940 380q0 -91 -34.5 -171t-94.5 -140t-140 -94.5t-171 -34.5t-171 34.5t-140 94.5t-94.5 140t-34.5 171t34.5 171t94.5 140t140 94.5t171 34.5t171 -34.5t140 -94.5t94.5 -140t34.5 -171zM500 -30q85 0 160 32t130.5 87.5t87.5 130.5t32 160t-32 160t-87.5 130.5
t-130.5 87.5t-160 32v-820z" />
    <glyph glyph-name="cid313" unicode="&#x25d1;" horiz-adv-x="1000" 
d="M940 380q0 -91 -34.5 -171t-94.5 -140t-140 -94.5t-171 -34.5t-171 34.5t-140 94.5t-94.5 140t-34.5 171t34.5 171t94.5 140t140 94.5t171 34.5t171 -34.5t140 -94.5t94.5 -140t34.5 -171zM500 790q-85 0 -160 -32t-130.5 -87.5t-87.5 -130.5t-32 -160t32 -160
t87.5 -130.5t130.5 -87.5t160 -32v820z" />
    <glyph glyph-name="cid314" unicode="&#x2605;" horiz-adv-x="1000" 
d="M962 485v-4l-283 -205l111 -338l-3 -1l-287 208l-287 -208l-3 1l111 338l-283 205v4h350l110 336h4l110 -336h350z" />
    <glyph glyph-name="cid315" unicode="&#x2606;" horiz-adv-x="1000" 
d="M496 821h8l108 -336h350l1 -9l-284 -200l113 -335l-7 -6l-285 210l-285 -210l-7 6l113 335l-284 200l1 9h350zM227 448l-99 5v-2l87 -55l150 -106l-56 -166l-41 -106l2 -1l90 71l140 103l140 -103l90 -71l2 1l-41 106l-56 166l150 106l87 55v2l-100 -5h-187l-58 179
l-26 97h-2l-27 -97l-57 -179h-188z" />
    <glyph glyph-name="cid316" unicode="&#x260e;" horiz-adv-x="1000" 
d="M222 570l41 -106q5 -12 3.5 -23t-16.5 -14l-182 -31q-28 -3 -28 28q0 16 1.5 41t7.5 50.5t16.5 48.5t28.5 37q31 24 69 43t86 31.5t109.5 19t141.5 6.5q79 0 141 -6.5t110 -19t85.5 -31.5t69.5 -43q18 -14 28.5 -37t16.5 -48.5t7.5 -50.5t1.5 -41q0 -31 -28 -28l-182 31
q-15 3 -16.5 14t3.5 23l41 106h-107v-64q0 -26 8 -49.5t23.5 -46.5t37.5 -47t50 -51q52 -51 72 -111.5t20 -126.5q0 -24 -10 -35.5t-36 -11.5h-672q-26 0 -36 11.5t-10 35.5q0 66 20 126.5t72 111.5q28 27 50 51t37.5 47t23.5 46.5t8 49.5v64h-107zM415 570v-96h170v96h-170
zM332 250q0 -35 13 -65.5t36 -53.5t53.5 -36t65.5 -13t65.5 13t53.5 36t36 53.5t13 65.5t-13 65.5t-36 53.5t-53.5 36t-65.5 13t-65.5 -13t-53.5 -36t-36 -53.5t-13 -65.5z" />
    <glyph glyph-name="cid317" unicode="&#x260f;" horiz-adv-x="1000" 
d="M682 250q0 -37 -14.5 -70t-39.5 -58t-58 -39.5t-70 -14.5t-70 14.5t-58 39.5t-39.5 58t-14.5 70t14.5 70t39.5 58t58 39.5t70 14.5t70 -14.5t58 -39.5t39.5 -58t14.5 -70zM346 250q0 -32 12 -60t33 -49t49 -33t60 -12t60 12t49 33t33 49t12 60t-12 60t-33 49t-49 33
t-60 12t-60 -12t-49 -33t-33 -49t-12 -60zM401 584h198v-124h-198v124zM429 556v-68h142v68h-142zM202 584h141v-78q0 -28 -9 -53.5t-25 -50t-38.5 -49t-50.5 -51.5q-51 -48 -69.5 -105.5t-18.5 -122.5q0 -19 6.5 -26t25.5 -7h672q19 0 25.5 7t6.5 26q0 65 -18.5 122.5
t-69.5 105.5q-56 54 -89.5 101t-33.5 103v78h141l-48 -125v-1q-7 -15 2 -17l182 -31q7 -1 9.5 2t2.5 12q0 16 -1.5 39.5t-7 47.5t-15 45.5t-25.5 33.5q-31 24 -67 42t-83.5 30t-107.5 18.5t-139 6.5t-139 -6.5t-107.5 -18.5t-83.5 -30t-67 -42q-16 -12 -25.5 -33.5
t-15 -45.5t-7 -47.5t-1.5 -39.5q0 -9 2.5 -12t9.5 -2l181 31q10 1 3 17v1zM242 556l34 -87v1q3 -7 4 -16t-1 -17t-8.5 -14.5t-18.5 -9.5l-182 -31q-19 -2 -31.5 10t-12.5 32q0 16 2 42t8 53t17.5 52.5t31.5 40.5q32 25 71 44.5t88.5 32.5t112.5 19.5t143 6.5t143 -6.5
t112.5 -19.5t88.5 -32.5t71 -44.5q20 -15 31.5 -40.5t17.5 -52.5t8 -53t2 -42q0 -20 -12.5 -32t-31.5 -10l-183 31q-12 3 -18 9.5t-8 14.5t-1 17t4 16v-1l34 87h-73v-50q0 -24 7.5 -46t22 -43.5t36 -44.5t49.5 -50q54 -53 75 -116.5t21 -131.5q0 -28 -14.5 -44.5
t-45.5 -16.5h-672q-31 0 -45.5 16.5t-14.5 44.5q0 68 21 131.5t75 116.5q28 27 49.5 50t36 44.5t22 43.5t7.5 46v50h-73z" />
    <glyph glyph-name="cid318" unicode="&#x261c;" horiz-adv-x="1000" 
d="M269 454q13 0 23 1t18 3q10 2 20 7t17 13q15 16 36 32t35 29q1 1 1 1.5t1 1.5q2 8 0 16q0 3 -3 3l-85.5 -6.5t-86 -7.5t-75 -8t-52.5 -8q-24 -5 -36.5 -10.5t-18.5 -11.5t-7 -11.5t-1 -8.5q0 -12 10.5 -22.5t49.5 -13.5q11 -1 29.5 -1t40 0.5l43.5 1t41 0.5zM301 324
q20 -4 38.5 -4t26.5 2q26 3 49.5 8t45.5 14q14 6 26.5 12.5t20.5 14.5t9.5 15.5t-0.5 15.5q-3 10 -15 7l-33 -9t-36 -10q-18 -4 -33 -5.5t-29 1.5q-17 3 -27.5 11t-18.5 26q-2 5 -7 6t-9 -1q-28 -10 -47 -29q-11 -10 -10.5 -24.5t5.5 -25.5q5 -12 18.5 -17.5t25.5 -7.5z
M392 232q12 0 27 2.5t31.5 8t33 13t30.5 16.5q23 14 33.5 25.5t10.5 25.5t-9 25q-4 3 -9.5 4t-11.5 -3l-29.5 -15t-29.5 -14q-28 -12 -61.5 -19t-71.5 -7h-16t-17 2q-5 0 -5 -5q2 -13 7.5 -26t19.5 -21t31 -10t36 -2zM427 151q31 0 70.5 16t64.5 43q11 11 11.5 22t-1.5 16
q-5 14 -15 13.5t-19 -6.5q-16 -11 -35.5 -20t-39.5 -15.5t-39 -10.5t-32 -4q-9 0 -18.5 0.5t-17.5 1.5q-4 0 -4 -3q6 -27 26 -40q14 -9 28 -11t21 -2zM874 475h-6.5t-6.5 2q-44 19 -88 35t-83 27t-71.5 17.5t-54.5 6.5q-38 0 -61.5 -6.5t-49.5 -23.5l-17.5 -12.5
l-22.5 -16.5t-23 -19t-20 -20q-14 -15 -17.5 -24t-0.5 -14q7 -14 27 -16.5t46 5.5q21 6 44 13.5l42.5 13.5t33.5 11t18 7t9 1t7 -5q8 -11 28 -26.5t52 -32.5t66 -26t64 -9q5 0 11 -3t6 -8t-5 -9.5t-12 -6.5q-28 -8 -56 -9t-66 3q-31 3 -44.5 -15.5t-13.5 -41.5t-5 -42.5
t-15 -32.5q-15 -18 -35.5 -30.5t-40.5 -22.5q-2 0 -1.5 -1.5t1.5 -1.5q26 -2 54.5 -1t58.5 6q55 9 109.5 26.5t114.5 45.5q3 2 6.5 2h6.5l63 -8q5 0 8.5 2.5t3.5 7.5v251q0 8 -10 8zM871 192q-11 1 -21 -3q-112 -52 -220 -68q-23 -4 -45 -5.5t-42 -1.5q-12 0 -26 1
t-27.5 2.5t-24 3.5t-16.5 4h-3q-5 0 -9.5 -0.5t-9.5 -0.5q-11 0 -28.5 3t-35.5 15q-36 23 -39 70q0 3 -2 3q-3 2 -5.5 2.5t-5.5 2.5q-38 23 -41 79q0 6 -4 7q-24 12 -33 31q-11 20 -8 43t18 38q2 2 4 3q2 2 0.5 3.5t-3.5 1.5q-18 0 -37 -0.5t-36.5 -0.5h-32.5t-25 1
q-50 4 -67.5 22.5t-17.5 40.5q0 18 8 30t20.5 19.5t27.5 12t29 7.5q19 3 51 7t71.5 8t83 7.5l84 6.5t75 4.5t56.5 1.5q61 0 146.5 -23t186.5 -66q3 -1 9 -1l74 9q8 1 11.5 -3.5t3.5 -10.5v-301q0 -3 -2 -7q-4 -7 -13 -7z" />
    <glyph glyph-name="cid319" unicode="&#x261e;" horiz-adv-x="1000" 
d="M464 593q22 0 56.5 -1.5t75 -4.5l84 -6.5t83 -7.5t71.5 -8t51 -7q14 -3 29 -7.5t27.5 -12t20.5 -19.5t8 -30q0 -22 -17.5 -40.5t-67.5 -22.5q-10 -1 -25 -1h-32.5t-36.5 0.5t-37 0.5q-2 0 -3.5 -1.5t0.5 -3.5q2 -1 4 -3q15 -15 18 -38t-8 -43q-9 -19 -33 -31q-4 -1 -4 -7
q-3 -56 -41 -79q-3 -2 -5.5 -2.5t-5.5 -2.5q-2 0 -2 -3q-3 -47 -39 -70q-18 -12 -35.5 -15t-28.5 -3q-5 0 -9.5 0.5t-9.5 0.5h-3q-6 -2 -16.5 -4t-24 -3.5t-27.5 -2.5t-26 -1q-20 0 -42 1.5t-45 5.5q-108 16 -220 68q-11 4 -21 3l-79 -9q-9 0 -13 7q-2 4 -2 7v301
q0 6 3.5 10.5t11.5 3.5l74 -9q6 0 9 1q101 43 186.5 66t146.5 23zM148 219q60 -28 114.5 -45.5t109.5 -26.5q30 -5 58.5 -6t54.5 1q1 0 1.5 1.5t-1.5 1.5q-20 10 -40.5 22.5t-35.5 30.5q-10 13 -15 32.5t-5 42.5t-13.5 41.5t-44.5 15.5q-38 -4 -66 -3t-56 9q-7 2 -12 6.5
t-5 9.5t6 8t11 3q30 0 64 9t66 26t52 32.5t28 26.5q2 4 7 5t9 -1t18 -7t33.5 -11l42.5 -13.5t44 -13.5q26 -8 46 -5.5t27 16.5q3 5 -0.5 14t-17.5 24q-9 10 -20 20t-23 19l-22.5 16.5l-17.5 12.5q-26 17 -49.5 23.5t-61.5 6.5q-22 0 -54.5 -6.5t-71.5 -17.5t-83 -27t-88 -35
q-3 -2 -6.5 -2h-6.5l-54 7q-10 0 -10 -8v-251q0 -5 3.5 -7.5t8.5 -2.5l63 8h6.5t6.5 -2zM571 151q7 0 21 2t28 11q20 13 26 40q0 3 -4 3q-8 -1 -17.5 -1.5t-18.5 -0.5q-14 0 -32.5 4t-38.5 10.5t-39.5 15.5t-35.5 20q-9 6 -19 6.5t-15 -13.5q-2 -5 -1.5 -16t11.5 -22
q25 -27 64.5 -43t70.5 -16zM606 232q19 0 36 2t31 10t19.5 21t7.5 26q0 5 -5 5q-9 -2 -17 -2h-16q-38 0 -71.5 7t-61.5 19q-14 6 -29.5 14l-29.5 15q-6 4 -11.5 3t-9.5 -4q-9 -11 -9 -25t10.5 -25.5t33.5 -25.5q14 -9 30.5 -16.5t33 -13t31.5 -8t27 -2.5zM697 324
q12 2 25.5 7.5t18.5 17.5q5 11 5.5 25.5t-10.5 24.5q-19 19 -47 29q-4 2 -9 1t-7 -6q-8 -18 -18.5 -26t-27.5 -11q-14 -3 -29 -1.5t-33 5.5q-17 5 -36 10l-33 9q-12 3 -15 -7q-2 -8 -0.5 -15.5t9.5 -15.5t20.5 -14.5t26.5 -12.5q22 -9 45.5 -14t49.5 -8q8 -2 26.5 -2t38.5 4
zM729 454q19 0 41 -0.5l43.5 -1t40 -0.5t29.5 1q39 3 49.5 13.5t10.5 22.5q0 3 -1 8.5t-7 11.5t-18.5 11.5t-36.5 10.5q-19 4 -52.5 8t-75 8t-86 7.5l-85.5 6.5q-3 0 -3 -3q-2 -8 0 -16q1 -1 1 -1.5t1 -1.5q14 -13 35 -29t36 -32q7 -8 17 -13t20 -7q8 -2 18 -3t23 -1z" />
    <glyph glyph-name="cid320" unicode="&#x2640;" horiz-adv-x="1000" 
d="M284 604q0 45 17 84.5t46 69t68.5 46t84.5 16.5t84.5 -16.5t68.5 -46t46 -69t17 -84.5q0 -40 -14 -75.5t-38 -64t-57.5 -47.5t-72.5 -25v-108h286v-68h-286v-276h-68v276h-286v68h286v108q-39 6 -72.5 25t-57.5 47.5t-38 64t-14 75.5zM647 604q0 31 -11.5 57.5
t-31.5 46.5t-47 31.5t-57 11.5t-57 -11.5t-47 -31.5t-31.5 -46.5t-11.5 -57.5q0 -30 11.5 -57t31.5 -46.5t47 -31t57 -11.5t57 11.5t47 31t31.5 46.5t11.5 57z" />
    <glyph glyph-name="cid321" unicode="&#x2642;" horiz-adv-x="1000" 
d="M548 212q0 -45 -17 -84t-46.5 -68.5t-68.5 -46.5t-84 -17t-84 17t-68.5 46.5t-46.5 68.5t-17 84t17 84t46.5 68.5t68.5 46.5t84 17q34 0 65.5 -10.5t58.5 -30.5l288 287h-257v69h376v-376h-69v260l-289 -288q20 -26 31.5 -59t11.5 -68zM185 212q0 -30 11.5 -57t31.5 -47
t47 -31.5t57 -11.5t57 11.5t47 31.5t31.5 47t11.5 57t-11.5 57t-31.5 47t-47 31.5t-57 11.5t-57 -11.5t-47 -31.5t-31.5 -47t-11.5 -57z" />
    <glyph glyph-name="cid322" unicode="&#x2660;" horiz-adv-x="1000" 
d="M727 599l60.5 -58.5t62 -71.5t48 -85t19.5 -100q0 -44 -14.5 -83.5t-40.5 -69.5t-63 -47.5t-82 -17.5q-57 0 -101.5 27t-63.5 70l-7.5 16.5t-8.5 5.5q-5 0 -5.5 -8t-0.5 -10q5 -78 31 -124.5t68 -81.5q8 -8 5.5 -14t-5.5 -6h-258q-3 0 -6 6t6 14q42 35 68 81.5t31 124.5
q0 2 -0.5 10t-5.5 8q-6 0 -8.5 -5.5l-7.5 -16.5q-19 -43 -63.5 -70t-101.5 -27q-45 0 -81.5 17.5t-63 47.5t-41 69.5t-14.5 83.5q0 54 19.5 100t48 85t62 71.5l60.5 58.5l67.5 67.5l65 69.5t54.5 64.5t38 51.5q2 4 4 0q13 -21 37.5 -51.5t55 -64.5l65 -69.5z" />
    <glyph glyph-name="cid323" unicode="&#x2661;" horiz-adv-x="1000" 
d="M503 649q17 42 41 70.5t52 46t58.5 25t59.5 7.5q43 0 81.5 -18.5t67 -51t45 -77t16.5 -95.5q0 -56 -20 -104t-49 -88.5t-63.5 -74.5l-62.5 -61q-34 -33 -68.5 -70t-65 -73.5t-54.5 -69t-38 -54.5q-2 -4 -4 0q-14 22 -38 54.5t-54.5 69t-65 73.5t-68.5 70l-63 61t-63 75
t-49 88.5t-20 103.5q0 51 16.5 95.5t45 77t67 51t81.5 18.5q29 0 59 -7.5t58 -25t52 -46t42 -70.5q2 -6 4 0zM887 556q0 44 -14 81.5t-37.5 65.5t-55 43.5t-66.5 15.5q-66 0 -110 -35.5t-76 -110.5q-11 -26 -27 -26t-27 26q-32 75 -76 110.5t-110 35.5q-35 0 -66.5 -15.5
t-55 -43.5t-37.5 -65.5t-14 -81.5q0 -48 19 -91.5t46.5 -82t59.5 -71l59 -57.5q32 -30 62.5 -62t56.5 -62t46.5 -57.5t34.5 -48.5q2 -4 4 0q13 21 34 48.5t47.5 57.5l56.5 62t63 62l58 58t59.5 70.5t46.5 82t19 91.5z" />
    <glyph glyph-name="cid324" unicode="&#x2663;" horiz-adv-x="1000" 
d="M464 185q-6 0 -7.5 -5.5t-8.5 -16.5q-28 -44 -75.5 -74t-107.5 -30q-42 0 -79 15t-64 42t-42.5 64t-15.5 82q0 43 15 80t42 64.5t64 43.5t81 16q23 0 46 -7t40 -16q1 -1 3 -1t4 3q1 3 0 6q-1 2 -3 3q-26 25 -44 62t-18 82q0 43 16 80.5t44 66t65.5 45t80.5 16.5
t80.5 -16.5t65.5 -44.5t44 -65.5t16 -80.5q0 -45 -18 -82.5t-44 -62.5q-2 -1 -3 -3q-2 -4 0 -6q1 -3 4 -3q1 0 3 1q17 9 40.5 16t44.5 7q45 0 82 -16t64 -43.5t42 -64.5t15 -80q0 -45 -15.5 -82t-42.5 -64t-64 -42t-79 -15q-57 0 -104.5 28t-78.5 76q-7 11 -8.5 16.5
t-7.5 5.5q-5 0 -5.5 -8t-0.5 -10q3 -39 10.5 -69.5t20.5 -55t30 -44t38 -37.5q9 -8 6 -14t-6 -6h-257q-4 0 -6.5 6t5.5 14q42 35 68 81.5t31 124.5q0 2 -0.5 10t-5.5 8z" />
    <glyph glyph-name="cid325" unicode="&#x2664;" horiz-adv-x="1000" 
d="M358 -61q-3 0 -5.5 6.5t5.5 14.5q19 18 33.5 36t25.5 37.5t18.5 42t11.5 50.5q2 12 2.5 22t-0.5 10l-3 -6q-4 -7 -9 -14q-24 -35 -66 -55t-90 -20q-45 0 -82 18t-63.5 48t-41 70t-14.5 84q0 54 19.5 100.5t48.5 86t62.5 72.5l60.5 59l68.5 67.5t65 70t55 65t38.5 52.5
q2 4 4 0q13 -22 37.5 -52.5t55.5 -65l65.5 -70l68.5 -67.5l60.5 -59t62.5 -72.5t48.5 -86t19.5 -100.5q0 -44 -14.5 -84t-41 -70t-63.5 -48t-82 -18q-48 0 -90 20t-66 55q-5 7 -9 14l-3 6q-1 0 -0.5 -10t2.5 -22q4 -28 11.5 -50.5t18.5 -42t25.5 -37.5t33.5 -36
q9 -8 6 -14.5t-6 -6.5h-284zM571 -24q3 0 -0.5 5l-9.5 13q-19 28 -32.5 66t-13.5 97q0 23 5 40.5t19 17.5q11 0 19 -10.5l22 -29.5q25 -35 59 -55t80 -20q37 0 67.5 14.5t51.5 40t32.5 58.5t11.5 71q0 48 -18.5 90.5t-45.5 78.5t-57.5 66l-55.5 53l-61 60.5l-58 61t-49 56
t-35 45.5q-2 4 -4 0q-12 -19 -34 -45.5t-49.5 -56l-58.5 -61l-61 -60.5l-56 -53t-58 -66t-45.5 -78.5t-18.5 -90.5q0 -38 11.5 -71t33 -58.5t51.5 -40t68 -14.5q46 0 80 20t59 55l22 29.5t19 10.5q14 0 19 -17.5t5 -40.5q0 -59 -13.5 -97t-32.5 -66l-9.5 -13t-0.5 -5h142z
" />
    <glyph glyph-name="cid326" unicode="&#x2665;" horiz-adv-x="1000" 
d="M505 636q22 83 79 121.5t128 38.5q43 0 81 -18.5t66.5 -51t45 -76.5t16.5 -95q0 -56 -20 -103.5t-49 -88t-63 -74l-62 -60.5q-34 -33 -68.5 -70t-64.5 -73t-54 -68.5t-38 -54.5q-2 -4 -4 0q-14 22 -38 54.5t-54 68.5t-64.5 73t-68.5 70l-62 60.5t-63 74t-49 88.5t-20 103
q0 51 16.5 95t45 76.5t66.5 51t81 18.5q35 0 67.5 -9.5t60 -29t48 -49.5t31.5 -72q2 -7 5 -7t5 7z" />
    <glyph glyph-name="cid327" unicode="&#x2667;" horiz-adv-x="1000" 
d="M345 416q-16 6 -36 11.5t-46 5.5q-36 0 -66.5 -13t-52.5 -36t-34 -54t-12 -67t13 -67t35.5 -53.5t52.5 -35.5t64 -13q51 0 91 23t70 67q8 12 15.5 22t18.5 10q14 0 20.5 -16.5t6.5 -42.5q0 -29 -3.5 -52.5t-9.5 -43t-15 -36.5t-20 -33l-9 -12t0 -4h144q3 0 0 4l-9 12
q-11 16 -20 33t-15 36.5t-9.5 43t-3.5 52.5q0 26 6.5 42.5t20.5 16.5q11 0 19.5 -12t22.5 -30q27 -37 64.5 -58.5t88.5 -21.5q34 0 64 13t52.5 35.5t35.5 53.5t13 67t-12 67t-34 54t-52.5 36t-66.5 13q-26 0 -46 -6t-36 -12q-37 -12 -49 4q-8 12 -1 25.5t20 29.5
q17 20 31 52t14 75q0 34 -13.5 65.5t-36.5 54.5t-54 37t-66 14t-66 -14t-54 -37t-36.5 -54.5t-13.5 -65.5q0 -43 14 -75t31 -52q13 -16 20 -29.5t-1 -25.5q-7 -9 -19 -9t-30 6zM61 263q0 43 15 81t41.5 66t64 44t82.5 16q23 0 46.5 -6t36.5 -13q2 -1 2.5 -0.5t-1.5 2.5
q-21 23 -38.5 61.5t-17.5 86.5q0 43 16.5 80.5t44.5 66t66 45t81 16.5t81 -16.5t66 -45t44.5 -66t16.5 -80.5q0 -48 -17 -86.5t-39 -61.5q-2 -2 -1.5 -2.5t2.5 0.5q13 7 36.5 13t46.5 6q45 0 82.5 -16t64 -44t41.5 -66t15 -81q0 -45 -15.5 -83t-43 -65t-64.5 -42.5
t-79 -15.5q-55 0 -100.5 23.5t-73.5 60.5q-3 4 -4.5 8t-3.5 6q-2 3 -3 5q-1 0 -1 -11.5t2 -22.5q7 -56 30.5 -93.5t58.5 -72.5q8 -8 5.5 -14.5t-5.5 -6.5h-284q-3 0 -6 6.5t6 14.5q35 35 58.5 72.5t30.5 93.5q2 11 2 22.5t-1 11.5q-1 -2 -3 -5q-2 -2 -4 -6l-4 -8
q-29 -38 -74 -61t-100 -23q-42 0 -79 15.5t-64.5 42.5t-43 65t-15.5 83z" />
    <glyph glyph-name="cid328" unicode="&#x2668;" horiz-adv-x="1000" 
d="M463 457q-21 40 -32 79t-11 68q0 57 21.5 105.5t78.5 87.5l31 -16q-35 -32 -52 -68t-17 -70q0 -33 11.5 -71t33.5 -79q21 -40 32 -79t11 -69q0 -57 -21.5 -105t-78.5 -87l-31 16q35 32 52 68t17 70q0 33 -11.5 71t-33.5 79zM290 459q-21 35 -31 70t-10 61q0 48 18.5 90.5
t73.5 78.5l29 -17q-34 -29 -48 -59t-14 -59q0 -28 12.5 -62.5t32.5 -70.5q21 -35 31 -69.5t10 -60.5q0 -50 -18.5 -92t-73.5 -78l-29 17q35 29 48.5 59.5t13.5 58.5t-12 63t-33 70zM640 459q-20 35 -30.5 70t-10.5 61q0 24 4 46.5t14.5 43.5t28.5 41t46 38l28 -17
q-34 -28 -48 -58.5t-14 -59.5q0 -28 12.5 -62.5t32.5 -70.5q21 -35 31 -69.5t10 -60.5q0 -50 -18 -92t-74 -78l-28 17q34 29 47.5 59.5t13.5 58.5t-12 63t-33 70zM923 232q0 -53 -32 -98t-88.5 -78t-134 -52t-168.5 -19t-168.5 19t-134 52t-88.5 78t-32 98q0 63 40.5 105.5
t107.5 58.5l19 -26q-46 -14 -73 -43t-27 -73q0 -39 27 -73t75 -58.5t113 -38.5t141 -14t141 14t113 38.5t75 58.5t27 73q0 44 -27 73t-73 43l19 26q67 -16 107.5 -58.5t40.5 -105.5z" />
    <glyph glyph-name="cid329" unicode="&#x2669;" horiz-adv-x="1000" 
d="M558 840v-750q0 -39 -15 -70.5t-40.5 -53.5t-58.5 -34t-69 -12q-17 0 -34 4.5t-30 14t-21 23.5t-8 32q0 27 15.5 51.5t40 44t55.5 31t62 11.5q17 0 34.5 -3.5t28.5 -9.5v721h40z" />
    <glyph glyph-name="cid330" unicode="&#x266a;" horiz-adv-x="1000" 
d="M511 840q0 -36 9.5 -67.5t25.5 -58.5t37 -50.5t44 -43.5t46 -44.5t41.5 -53t30 -60.5t11.5 -67q0 -63 -24 -124.5t-60 -119.5h-26l19 41t20.5 51.5t16.5 57.5t7 60q0 43 -14 81.5t-38.5 69t-58 51t-72.5 29.5v-502q0 -39 -15 -70.5t-40.5 -53.5t-58.5 -34t-69 -12
q-17 0 -34 4.5t-30 14t-21 23.5t-8 32q0 27 15.5 51.5t40 44t55.5 31t62 11.5q17 0 34.5 -3.5t28.5 -9.5v721h25z" />
    <glyph glyph-name="cid331" unicode="&#x266c;" horiz-adv-x="1000" 
d="M845 855v-652q0 -39 -15 -70.5t-40.5 -53.5t-58.5 -34t-69 -12q-17 0 -34 4.5t-30 14t-21 23.5t-8 32q0 27 15.5 51.5t40 44t55.5 31t62 11.5q17 0 34.5 -3.5t28.5 -9.5v342l-505 -110v-389q0 -39 -15 -70.5t-40.5 -53.5t-58.5 -34t-69 -12q-17 0 -34 4.5t-30 14
t-21 23.5t-8 32q0 27 15.5 51.5t40 44t55.5 31t62 11.5q17 0 34.5 -3.5t28.5 -9.5v623zM805 746l-505 -110v-72l505 110v72z" />
    <glyph glyph-name="cid332" unicode="&#x266d;" horiz-adv-x="1000" 
d="M601 474q33 0 59 -10t44 -27t27.5 -40t9.5 -49q0 -51 -19.5 -90t-51 -70.5t-72 -58.5l-83 -55t-84 -59.5t-74.5 -70.5h-9v872h39v-484q17 30 40.5 56t51 45t58.5 30t64 11zM387 17q41 45 86 80t82.5 69.5t62 73.5t24.5 91q0 46 -23 66.5t-57 20.5q-38 0 -86.5 -33.5
t-88.5 -106.5v-261z" />
    <glyph glyph-name="cid333" unicode="&#x3000;" horiz-adv-x="1000" 
 />
    <glyph glyph-name="cid334" unicode="&#x3001;" horiz-adv-x="1000" 
d="M273 -56q-24 30 -51.5 60.5t-56.5 59.5l-57.5 55t-55.5 48l65 57q27 -22 56.5 -49l59 -56.5l57.5 -59.5t51 -57z" />
    <glyph glyph-name="cid335" unicode="&#x3002;" horiz-adv-x="1000" 
d="M194 244q32 0 60 -12t48.5 -32.5t32.5 -48.5t12 -59q0 -32 -12 -59.5t-32.5 -48.5t-48.5 -33t-60 -12q-31 0 -58.5 12t-48.5 33t-33 48.5t-12 59.5q0 31 12 59t33 48.5t48.5 32.5t58.5 12zM194 -10q43 0 72 29.5t29 72.5q0 21 -8 39t-21.5 32t-32 22t-39.5 8t-39 -8
t-32 -22t-22 -32t-8 -39t8 -40t22 -32.5t32 -21.5t39 -8z" />
    <glyph glyph-name="cid336" unicode="&#x3003;" horiz-adv-x="1000" 
d="M483 582l-206 -454l-49 20l161 474zM772 582l-206 -454l-49 20l161 474z" />
    <glyph glyph-name="cid337" unicode="&#x3008;" horiz-adv-x="1000" 
d="M948 -57l-63 -29l-297 466l297 466l63 -29l-280 -437z" />
    <glyph glyph-name="cid338" unicode="&#x3009;" horiz-adv-x="1000" 
d="M52 -57l280 437l-280 437l63 29l297 -466l-297 -466z" />
    <glyph glyph-name="cid339" unicode="&#x300a;" horiz-adv-x="1000" 
d="M806 -68l-54 -18l-222 466l222 466l54 -18l-215 -448zM964 -68l-54 -18l-222 466l222 466l54 -18l-215 -448z" />
    <glyph glyph-name="cid340" unicode="&#x300b;" horiz-adv-x="1000" 
d="M194 -68l215 448l-215 448l54 18l222 -466l-222 -466zM36 -68l215 448l-215 448l54 18l222 -466l-222 -466z" />
    <glyph glyph-name="cid341" unicode="&#x300c;" horiz-adv-x="1000" 
d="M650 846h316v-69h-242v-578h-74v647z" />
    <glyph glyph-name="cid342" unicode="&#x300d;" horiz-adv-x="1000" 
d="M350 -86h-316v69h242v578h74v-647z" />
    <glyph glyph-name="cid343" unicode="&#x300e;" horiz-adv-x="1000" 
d="M770 690v-507h-171v663h367v-156h-196zM632 813v-597h105v507h196v90h-301z" />
    <glyph glyph-name="cid344" unicode="&#x300f;" horiz-adv-x="1000" 
d="M230 70v507h171v-663h-367v156h196zM368 -53v597h-105v-507h-196v-90h301z" />
    <glyph glyph-name="cid345" unicode="&#x3010;" horiz-adv-x="1000" 
d="M966 846v-5q-41 -35 -77 -82.5t-63 -106.5t-42.5 -127.5t-15.5 -144.5t15.5 -144.5t42.5 -127.5t63 -107t77 -82v-5h-300v932h300z" />
    <glyph glyph-name="cid346" unicode="&#x3011;" horiz-adv-x="1000" 
d="M334 -86h-300v5q41 34 77 82t63 107t42.5 127.5t15.5 144.5t-15.5 144.5t-42.5 127.5t-63 106.5t-77 82.5v5h300v-932z" />
    <glyph glyph-name="cid347" unicode="&#x3013;" horiz-adv-x="1000" 
d="M900 480h-800v300h800v-300zM900 -20h-800v300h800v-300z" />
    <glyph glyph-name="cid348" unicode="&#x3014;" horiz-adv-x="1000" 
d="M713 42v676l215 140l33 -52l-178 -114v-624l178 -114l-33 -52z" />
    <glyph glyph-name="cid349" unicode="&#x3015;" horiz-adv-x="1000" 
d="M72 -98l-33 52l178 114v624l-178 114l33 52l216 -140v-676z" />
    <glyph glyph-name="cid350" unicode="&#x3131;" 
d="M739 614v-467h-81v401h-476v66h557z" />
    <glyph glyph-name="cid351" unicode="&#x3132;" 
d="M452 613v-467h-81v401h-230v66h311zM808 614v-467h-81v401h-224v66h305z" />
    <glyph glyph-name="cid352" unicode="&#x3133;" 
d="M135 613h284v-467h-81v400h-203v67zM675 455q0 -38 9.5 -76.5t29.5 -73t50 -62.5t72 -45l-43 -59q-60 26 -99 71.5t-59 102.5q-20 -57 -59 -102.5t-99 -71.5l-43 59q42 17 72.5 45t50.5 62.5t29.5 73t9.5 76.5v167h79v-167z" />
    <glyph glyph-name="cid353" unicode="&#x3134;" 
d="M755 217v-67h-569v461h82v-394h487z" />
    <glyph glyph-name="cid354" unicode="&#x3135;" 
d="M645 474q0 -41 9 -82t28.5 -77.5t49.5 -66.5t72 -49l-46 -61q-58 29 -95.5 75.5t-57.5 105.5q-20 -59 -56 -105t-92 -75l-27 34l1 -4q-60 -17 -114.5 -21t-114.5 -4h-42v479h82v-413q45 2 89.5 7t88.5 19l5 -30q37 20 64 50t44 65.5t25 74.5t8 78v78h-130v66h342v-66
h-133v-78z" />
    <glyph glyph-name="cid355" unicode="&#x3136;" 
d="M240 213q45 1 90 6t90 19l11 -67q-60 -17 -115 -21t-115 -4h-42v457h81v-390zM603 191q35 0 57.5 25.5t22.5 67.5t-22.5 67.5t-57.5 25.5q-37 0 -60 -25.5t-23 -67.5t23 -67.5t60 -25.5zM603 441q31 0 58.5 -11.5t48 -32.5t32 -50t11.5 -63q0 -35 -11.5 -63.5t-32 -49
t-48 -32t-58.5 -11.5q-33 0 -60.5 11.5t-48 32t-32 49t-11.5 63.5q0 34 11.5 63t32 50t48 32.5t60.5 11.5zM777 542v-67h-353v67h142v90h80v-90h131z" />
    <glyph glyph-name="cid356" unicode="&#x3137;" 
d="M744 212v-67h-556v471h548v-67h-466v-337h474z" />
    <glyph glyph-name="cid357" unicode="&#x3138;" 
d="M240 214q50 1 100 5.5t105 17.5l8 -68q-67 -16 -126 -19.5t-122 -3.5h-46v465h285v-67h-204v-330zM770 212v-67h-286v466h283v-67h-203v-332h206z" />
    <glyph glyph-name="cid358" unicode="&#x3139;" 
d="M756 200v-68h-576v279h482v144h-484v66h562v-275h-482v-146h498z" />
    <glyph glyph-name="cid359" unicode="&#x313a;" 
d="M234 204q64 1 126.5 5.5t132.5 18.5l9 -66q-82 -16 -152 -20.5t-145 -4.5h-52v275h214v136h-216v67h297v-269h-214v-142zM777 615v-474h-81v407h-216v67h297z" />
    <glyph glyph-name="cid360" unicode="&#x313b;" 
d="M232 205q54 1 107.5 4.5t117.5 14.5l8 -67q-77 -13 -139 -16t-127 -3h-48v274h209v135h-211v66h292v-268h-209v-140zM715 548h-157v-343h157v343zM788 614v-475h-304v475h304z" />
    <glyph glyph-name="cid361" unicode="&#x313c;" 
d="M232 204q56 1 111 5t118 17l9 -66q-75 -15 -139 -19t-131 -4h-49v275h209v135h-211v66h292v-268h-209v-141zM712 383h-151v-178h151v178zM790 615v-477h-306v477h77v-164h151v164h78z" />
    <glyph glyph-name="cid362" unicode="&#x313d;" 
d="M682 454q0 -38 9 -76.5t28.5 -72t49.5 -61.5t71 -45l-45 -60q-58 26 -95.5 70.5t-57.5 100.5q-20 -56 -57.5 -100.5t-95.5 -70.5l-22 30q-72 -17 -135.5 -21.5t-132.5 -4.5h-49v274h209v135h-211v66h292v-268h-209v-140q57 1 112 6t114 19l4 -29q37 19 63.5 46.5t44 60.5
t26 69t8.5 72v168h79v-168z" />
    <glyph glyph-name="cid363" unicode="&#x313e;" 
d="M233 206q57 1 112 6t114 20l8 -67q-70 -17 -133.5 -21.5t-132.5 -4.5h-49v273h209v135h-211v66h292v-268h-209v-139zM797 206v-67h-304v475h297v-67h-216v-134h206v-67h-206v-140h223z" />
    <glyph glyph-name="cid364" unicode="&#x313f;" 
d="M233 210q55 1 108.5 6t111.5 19l10 -67q-71 -17 -133.5 -21t-130.5 -4h-47v274h198v135h-200v66h281v-268h-198v-140zM598 210h78v341h-78v-341zM805 210v-67h-334v67h54v341h-51v67h326v-67h-51v-341h56z" />
    <glyph glyph-name="cid365" unicode="&#x3140;" 
d="M235 205q53 1 104.5 5t107.5 18l10 -67q-69 -15 -129.5 -19t-126.5 -4h-47v275h185v136h-187v64h268v-264h-185v-144zM627 194q35 0 58 25t23 65t-23 65t-58 25q-37 0 -60 -25t-23 -65t23 -65t60 -25zM627 438q31 0 58.5 -11.5t48 -31.5t32 -48.5t11.5 -62.5t-11.5 -62.5
t-32 -48.5t-48 -31.5t-58.5 -11.5q-33 0 -60.5 11.5t-48 31.5t-32 48.5t-11.5 62.5t11.5 62.5t32 48.5t48 31.5t60.5 11.5zM799 539v-67h-345v67h136v97h80v-97h129z" />
    <glyph glyph-name="cid366" unicode="&#x3141;" 
d="M744 614v-467h-560v467h560zM266 548v-335h397v335h-397z" />
    <glyph glyph-name="cid367" unicode="&#x3142;" 
d="M267 620v-164h393v164h82v-482h-556v482h81zM267 209h393v174h-393v-174z" />
    <glyph glyph-name="cid368" unicode="&#x3143;" 
d="M238 618v-163h137v163h75v-475h-288v475h76zM238 211h137v177h-137v-177zM564 618v-163h136v163h76v-474h-288v474h76zM564 211h136v177h-136v-177z" />
    <glyph glyph-name="cid369" unicode="&#x3144;" 
d="M375 391h-137v-177h137v177zM687 455q0 -38 9.5 -76.5t29.5 -72.5t50.5 -62t72.5 -45l-44 -60q-60 26 -99 71.5t-59 102.5q-20 -57 -59 -102.5t-99 -71.5l-39 53v-46h-288v475h76v-163h137v163h75v-420q41 18 70.5 45.5t49 61.5t29 71.5t9.5 75.5v167h79v-167z" />
    <glyph glyph-name="cid370" unicode="&#x3145;" 
d="M506 483q0 -56 21 -103.5t58 -84t87.5 -62.5t109.5 -40l-40 -66q-94 26 -167 79t-110 134q-37 -81 -110 -134t-168 -79l-40 66q60 14 110.5 40t87.5 62.5t58 84t21 103.5v145h82v-145z" />
    <glyph glyph-name="cid371" unicode="&#x3146;" 
d="M672 496q0 -39 9 -79t28.5 -76.5t50 -67t73.5 -49.5l-46 -61q-60 29 -98.5 79t-58.5 110q-20 -63 -59.5 -117.5t-102.5 -85.5q-63 32 -103 88.5t-60 118.5q-20 -60 -57.5 -111.5t-97.5 -82.5l-48 60q43 21 74 53.5t50.5 70t28.5 76.5t9 74v116h82v-120q0 -30 7 -64.5
t22 -68.5t38 -66t55 -57q32 25 55 56t38 65t22 68.5t7 66.5v120h82v-116z" />
    <glyph glyph-name="cid372" unicode="&#x3147;" 
d="M460 624q59 0 110.5 -18.5t89.5 -51t59.5 -77.5t21.5 -99t-21.5 -99.5t-59.5 -78t-89.5 -51t-110.5 -18.5t-110 18.5t-89 51t-59.5 78t-21.5 99.5t21.5 99t59.5 77.5t89 51t110 18.5zM460 554q-42 0 -79 -13.5t-64 -37t-42.5 -55.5t-15.5 -70q0 -39 15.5 -71.5t42.5 -56
t64 -36.5t79 -13q43 0 80 13t64 36.5t42.5 56t15.5 71.5q0 38 -15.5 70t-42.5 55.5t-64 37t-80 13.5z" />
    <glyph glyph-name="cid373" unicode="&#x3148;" 
d="M508 493q0 -56 19.5 -103.5t54 -85t82.5 -65t105 -42.5l-40 -65q-91 28 -159.5 83.5t-101.5 137.5q-34 -82 -103 -137.5t-160 -83.5l-39 65q57 15 105 42.5t82.5 65t54 85t19.5 103.5v61h-236v66h554v-66h-237v-61z" />
    <glyph glyph-name="cid374" unicode="&#x3149;" 
d="M676 505q0 -43 8.5 -87t27.5 -84t49.5 -73t74.5 -54l-50 -64q-54 28 -90 72.5t-57 100.5q-21 -65 -61.5 -112t-109.5 -73q-69 26 -110.5 73.5t-62.5 113.5q-21 -57 -58 -102t-93 -73l-50 64q45 21 76 53.5t51 72.5t29 84t9 88v54h-124v67h314v-67h-109v-54q0 -98 29 -173
t99 -113q69 38 98 112.5t29 173.5v54h-109v67h313v-67h-123v-54z" />
    <glyph glyph-name="cid375" unicode="&#x314a;" 
d="M510 434q0 -50 18.5 -93.5t52.5 -78t80.5 -59.5t103.5 -38l-39 -64q-94 24 -163 77t-101 134q-31 -81 -100.5 -134t-163.5 -77l-38 64q57 13 103.5 38t80.5 59.5t52.5 78t18.5 93.5v26h-232v67h238v131h82v-131h237v-67h-230v-26z" />
    <glyph glyph-name="cid376" unicode="&#x314b;" 
d="M744 622v-492h-82v210l-479 -30l-11 74l490 22v149h-471v67h553z" />
    <glyph glyph-name="cid377" unicode="&#x314c;" 
d="M752 205v-66h-565v474h557v-67h-475v-133h468v-66h-468v-142h483z" />
    <glyph glyph-name="cid378" unicode="&#x314d;" 
d="M374 208h183v344h-183v-344zM768 208v-66h-606v66h130v344h-116v67h578v-67h-116v-344h130z" />
    <glyph glyph-name="cid379" unicode="&#x314e;" 
d="M465 162q29 0 54 7t43.5 19.5t29 30t10.5 38.5t-10.5 38.5t-29 30t-43.5 19.5t-54 7t-54 -7t-43 -19.5t-28.5 -30t-10.5 -38.5t10.5 -38.5t28.5 -30t43 -19.5t54 -7zM465 421q48 0 88.5 -12t70 -33.5t46 -52t16.5 -66.5t-16.5 -66.5t-46 -52t-70 -33.5t-88.5 -12t-88 12
t-69.5 33.5t-46 52t-16.5 66.5t16.5 66.5t46 52t69.5 33.5t88 12zM762 552v-68h-594v68h256v121h82v-121h256z" />
    <glyph glyph-name="cid380" unicode="&#x314f;" 
d="M683 393h-208v-453h-82v881h82v-359h208v-69z" />
    <glyph glyph-name="cid381" unicode="&#x3150;" 
d="M622 820v-880h-78v459h-154v-426h-78v833h78v-340h154v354h78z" />
    <glyph glyph-name="cid382" unicode="&#x3151;" 
d="M447 492v-176h203v-68h-203v-308h-82v880h82v-260h203v-68h-203z" />
    <glyph glyph-name="cid383" unicode="&#x3152;" 
d="M541 333v175h-151v-175h151zM620 821v-881h-79v325h-151v-292h-77v835h77v-232h151v245h79z" />
    <glyph glyph-name="cid384" unicode="&#x3153;" 
d="M591 820v-880h-83v458h-209v69h209v353h83z" />
    <glyph glyph-name="cid385" unicode="&#x3154;" 
d="M398 807h77v-836h-77v430h-164v68h164v338zM654 821v-881h-78v881h78z" />
    <glyph glyph-name="cid386" unicode="&#x3155;" 
d="M593 820v-880h-82v332h-211v68h211v168h-211v68h211v244h82z" />
    <glyph glyph-name="cid387" unicode="&#x3156;" 
d="M398 808h77v-836h-77v305h-168v68h168v169h-167v68h167v226zM652 821v-881h-79v881h79z" />
    <glyph glyph-name="cid388" unicode="&#x3157;" 
d="M863 227v-67h-807v67h361v375h83v-375h363z" />
    <glyph glyph-name="cid389" unicode="&#x3158;" 
d="M381 240q60 3 118 7t112 11l7 -60q-68 -11 -140.5 -17.5t-143.5 -10.5t-138 -5t-125 -1l-11 69q54 0 115 0.5t125 2.5v310h81v-306zM871 393h-134v-453h-82v881h82v-360h134v-68z" />
    <glyph glyph-name="cid390" unicode="&#x3159;" 
d="M337 258q48 2 95 6t89 9l5 -60q-53 -9 -113 -15t-120 -9.5t-116 -4.5t-101 -1l-10 69q41 0 90.5 0.5t103.5 2.5v294h77v-291zM815 821v-881h-78v456h-101v-423h-78v836h78v-346h101v358h78z" />
    <glyph glyph-name="cid391" unicode="&#x315a;" 
d="M424 253q59 3 116.5 7t111.5 12l6 -61q-68 -11 -140.5 -18t-143 -10.5t-137.5 -4.5t-124 -1l-12 69q54 0 115.5 0.5t126.5 2.5v289h81v-285zM789 820v-880h-82v880h82z" />
    <glyph glyph-name="cid392" unicode="&#x315b;" 
d="M869 217v-68h-807v68h209v395h80v-395h230v395h81v-395h207z" />
    <glyph glyph-name="cid393" unicode="&#x315c;" 
d="M868 538h-363v-384h-82v384h-362v68h807v-68z" />
    <glyph glyph-name="cid394" unicode="&#x315d;" 
d="M673 395q-69 -10 -139 -16t-140 -10v-361h-82v358q-60 -2 -115.5 -3t-106.5 -1l-11 68q65 0 138 1t149 3.5t152.5 7.5t148.5 13zM820 820v-880h-83v260h-212v65h212v555h83z" />
    <glyph glyph-name="cid395" unicode="&#x315e;" 
d="M544 395q-46 -8 -96 -13.5t-102 -8.5v-366h-78v361q-51 -3 -98.5 -4.5t-87.5 -1.5l-9 65q48 0 107 1.5t121.5 4.5t123.5 7.5t113 10.5zM587 800h78v-836h-78v238h-162v65h162v533zM835 821v-881h-79v881h79z" />
    <glyph glyph-name="cid396" unicode="&#x315f;" 
d="M694 388q-63 -8 -127.5 -14t-129.5 -10v-355h-82v351q-66 -2 -128.5 -3t-119.5 -1l-11 69q66 0 139.5 1t150 3.5t153 7t149.5 12.5zM816 821v-881h-82v881h82z" />
    <glyph glyph-name="cid397" unicode="&#x3160;" 
d="M863 540h-217v-387h-82v387h-213v-387h-82v387h-213v67h807v-67z" />
    <glyph glyph-name="cid398" unicode="&#x3161;" 
d="M863 414v-68h-807v68h807z" />
    <glyph glyph-name="cid399" unicode="&#x3162;" 
d="M799 821v-882h-83v882h83zM79 301q65 0 137.5 1t147.5 3.5t150.5 7.5t146.5 14l6 -60q-73 -11 -148.5 -18t-149.5 -10.5t-144.5 -4.5t-133.5 -1z" />
    <glyph glyph-name="cid400" unicode="&#x3163;" 
d="M506 821v-882h-82v882h82z" />
    <glyph glyph-name="cid401" unicode="&#x318d;" 
d="M455 381q0 24 18.5 44t44.5 20q28 0 46 -20t18 -44q0 -25 -18 -45t-46 -20q-26 0 -44 20t-19 45z" />
    <glyph glyph-name="cid402" unicode="&#x318e;" 
d="M619 823v-886h-82v886h82zM319 387q0 25 18 44.5t45 19.5t45.5 -19.5t18.5 -44.5t-18.5 -44.5t-45.5 -19.5t-45 19.5t-18 44.5z" />
    <glyph glyph-name="cid403" unicode="&#x3200;" horiz-adv-x="1000" 
d="M736 599v-482h-79v417h-424v65h503zM157 -75q-67 101 -96 211.5t-29 243.5q0 132 29 243t96 212l45 -14q-62 -97 -86 -208.5t-25 -232.5q0 -122 24.5 -233t86.5 -208zM798 -61q62 97 86.5 211.5t24.5 229.5q0 121 -24.5 232.5t-86.5 208.5l45 14q67 -101 96 -212t29 -243
q0 -133 -29 -243.5t-96 -211.5z" />
    <glyph glyph-name="cid404" unicode="&#x3201;" horiz-adv-x="1000" 
d="M202 821q-62 -97 -86 -208.5t-25 -232.5q0 -122 24.5 -233t86.5 -208l-45 -14q-67 101 -96 211.5t-29 243.5q0 132 29 243t96 212zM357 224h410v-65h-489v475h79v-410zM843 835q67 -101 96 -212t29 -243q0 -133 -29 -243.5t-96 -211.5l-45 14q62 97 86.5 211.5
t24.5 229.5q0 121 -24.5 232.5t-86.5 208.5z" />
    <glyph glyph-name="cid405" unicode="&#x3202;" horiz-adv-x="1000" 
d="M202 821q-62 -97 -86 -208.5t-25 -232.5q0 -122 24.5 -233t86.5 -208l-45 -14q-67 101 -96 211.5t-29 243.5q0 132 29 243t96 212zM344 216h411v-65h-490v476h479v-65h-400v-346zM843 835q67 -101 96 -212t29 -243q0 -133 -29 -243.5t-96 -211.5l-45 14q62 97 86.5 211.5
t24.5 229.5q0 121 -24.5 232.5t-86.5 208.5z" />
    <glyph glyph-name="cid406" unicode="&#x3203;" horiz-adv-x="1000" 
d="M202 821q-62 -97 -86 -208.5t-25 -232.5q0 -122 24.5 -233t86.5 -208l-45 -14q-67 101 -96 211.5t-29 243.5q0 132 29 243t96 212zM334 188h422v-66h-497v293h405v161h-407v61h481v-284h-404v-165zM843 835q67 -101 96 -212t29 -243q0 -133 -29 -243.5t-96 -211.5l-45 14
q62 97 86.5 211.5t24.5 229.5q0 121 -24.5 232.5t-86.5 208.5z" />
    <glyph glyph-name="cid407" unicode="&#x3204;" horiz-adv-x="1000" 
d="M745 607v-456h-480v456h480zM344 542v-326h323v326h-323zM157 -75q-67 101 -96 211.5t-29 243.5q0 132 29 243t96 212l45 -14q-62 -97 -86 -208.5t-25 -232.5q0 -122 24.5 -233t86.5 -208zM798 -61q62 97 86.5 211.5t24.5 229.5q0 121 -24.5 232.5t-86.5 208.5l45 14
q67 -101 96 -212t29 -243q0 -133 -29 -243.5t-96 -211.5z" />
    <glyph glyph-name="cid408" unicode="&#x3205;" horiz-adv-x="1000" 
d="M340 636v-178h327v178h78v-505h-483v505h78zM340 201h327v187h-327v-187zM157 -75q-67 101 -96 211.5t-29 243.5q0 132 29 243t96 212l45 -14q-62 -97 -86 -208.5t-25 -232.5q0 -122 24.5 -233t86.5 -208zM798 -61q62 97 86.5 211.5t24.5 229.5q0 121 -24.5 232.5
t-86.5 208.5l45 14q67 -101 96 -212t29 -243q0 -133 -29 -243.5t-96 -211.5z" />
    <glyph glyph-name="cid409" unicode="&#x3206;" horiz-adv-x="1000" 
d="M202 821q-62 -97 -86 -208.5t-25 -232.5q0 -122 24.5 -233t86.5 -208l-45 -14q-67 101 -96 211.5t-29 243.5q0 132 29 243t96 212zM546 508q0 -50 17.5 -97t49.5 -86.5t77 -70t101 -47.5l-39 -64q-85 28 -147.5 83t-94.5 130q-32 -75 -95 -130.5t-148 -83.5l-40 64
q56 17 101.5 47.5t78 70t50 86.5t17.5 98v140h72v-140zM843 835q67 -101 96 -212t29 -243q0 -133 -29 -243.5t-96 -211.5l-45 14q62 97 86.5 211.5t24.5 229.5q0 121 -24.5 232.5t-86.5 208.5z" />
    <glyph glyph-name="cid410" unicode="&#x3207;" horiz-adv-x="1000" 
d="M503 616q55 0 102 -17t81 -48t53.5 -73.5t19.5 -93.5t-19.5 -94t-53.5 -74t-81 -48t-102 -17t-101.5 17t-81 48t-54 74t-19.5 94t19.5 93.5t54 73.5t81 48t101.5 17zM503 552q-40 0 -74 -12.5t-58.5 -35t-38.5 -53.5t-14 -67t14 -67t38.5 -53.5t58.5 -35t74 -12.5
t74 12.5t59 35t39 53.5t14 67t-14 67t-39 53.5t-59 35t-74 12.5zM157 -75q-67 101 -96 211.5t-29 243.5q0 132 29 243t96 212l45 -14q-62 -97 -86 -208.5t-25 -232.5q0 -122 24.5 -233t86.5 -208zM798 -61q62 97 86.5 211.5t24.5 229.5q0 121 -24.5 232.5t-86.5 208.5l45 14
q67 -101 96 -212t29 -243q0 -133 -29 -243.5t-96 -211.5z" />
    <glyph glyph-name="cid411" unicode="&#x3208;" horiz-adv-x="1000" 
d="M202 821q-62 -97 -86 -208.5t-25 -232.5q0 -122 24.5 -233t86.5 -208l-45 -14q-67 101 -96 211.5t-29 243.5q0 132 29 243t96 212zM540 490q0 -48 18.5 -91.5t52 -79.5t79.5 -63.5t102 -42.5l-37 -61q-87 26 -152 77.5t-99 123.5q-33 -72 -97.5 -124t-149.5 -77l-37 61
q55 15 100.5 42.5t78.5 64t51 80t18 90.5v52h-216v65h506v-65h-218v-52zM843 835q67 -101 96 -212t29 -243q0 -133 -29 -243.5t-96 -211.5l-45 14q62 97 86.5 211.5t24.5 229.5q0 121 -24.5 232.5t-86.5 208.5z" />
    <glyph glyph-name="cid412" unicode="&#x3209;" horiz-adv-x="1000" 
d="M202 821q-62 -97 -86 -208.5t-25 -232.5q0 -122 24.5 -233t86.5 -208l-45 -14q-67 101 -96 211.5t-29 243.5q0 132 29 243t96 212zM544 433q0 -41 16.5 -78.5t47 -69t73 -54.5t95.5 -36l-36 -60q-84 23 -145 70t-91 113q-30 -66 -92 -113.5t-148 -70.5l-35 61
q54 13 97.5 36t74 54.5t47.5 69t17 78.5v42h-215v66h215v132h79v-132h212v-66h-212v-42zM843 835q67 -101 96 -212t29 -243q0 -133 -29 -243.5t-96 -211.5l-45 14q62 97 86.5 211.5t24.5 229.5q0 121 -24.5 232.5t-86.5 208.5z" />
    <glyph glyph-name="cid413" unicode="&#x320a;" horiz-adv-x="1000" 
d="M202 821q-62 -97 -86 -208.5t-25 -232.5q0 -122 24.5 -233t86.5 -208l-45 -14q-67 101 -96 211.5t-29 243.5q0 132 29 243t96 212zM258 616h486v-488h-79v221l-423 -26l-10 70l433 19v139h-407v65zM843 835q67 -101 96 -212t29 -243q0 -133 -29 -243.5t-96 -211.5l-45 14
q62 97 86.5 211.5t24.5 229.5q0 121 -24.5 232.5t-86.5 208.5z" />
    <glyph glyph-name="cid414" unicode="&#x320b;" horiz-adv-x="1000" 
d="M202 821q-62 -97 -86 -208.5t-25 -232.5q0 -122 24.5 -233t86.5 -208l-45 -14q-67 101 -96 211.5t-29 243.5q0 132 29 243t96 212zM340 213h417v-65h-491v467h476v-65h-402v-134h401v-65h-401v-138zM843 835q67 -101 96 -212t29 -243q0 -133 -29 -243.5t-96 -211.5
l-45 14q62 97 86.5 211.5t24.5 229.5q0 121 -24.5 232.5t-86.5 208.5z" />
    <glyph glyph-name="cid415" unicode="&#x320c;" horiz-adv-x="1000" 
d="M202 821q-62 -97 -86 -208.5t-25 -232.5q0 -122 24.5 -233t86.5 -208l-45 -14q-67 101 -96 211.5t-29 243.5q0 132 29 243t96 212zM430 241h163v291h-163v-291zM672 241h119v-65h-574v65h134v291h-110v64h528v-64h-97v-291zM843 835q67 -101 96 -212t29 -243
q0 -133 -29 -243.5t-96 -211.5l-45 14q62 97 86.5 211.5t24.5 229.5q0 121 -24.5 232.5t-86.5 208.5z" />
    <glyph glyph-name="cid416" unicode="&#x320d;" horiz-adv-x="1000" 
d="M202 821q-62 -97 -86 -208.5t-25 -232.5q0 -122 24.5 -233t86.5 -208l-45 -14q-67 101 -96 211.5t-29 243.5q0 132 29 243t96 212zM500 137q29 0 53.5 8.5t42.5 24t28 36.5t10 45q0 25 -10 46t-28 36.5t-42.5 24t-53.5 8.5t-53.5 -8.5t-42 -24t-27.5 -36.5t-10 -46
q0 -24 10 -45t27.5 -36.5t42 -24t53.5 -8.5zM500 430q45 0 83.5 -13t66 -37t43.5 -57t16 -72t-16 -72t-43.5 -56.5t-66 -37t-83.5 -13.5t-83 13.5t-66 37t-44 56.5t-16 72t16 72t44 57t66 37t83 13zM538 559h238v-67h-552v67h236v120h78v-120zM843 835q67 -101 96 -212
t29 -243q0 -133 -29 -243.5t-96 -211.5l-45 14q62 97 86.5 211.5t24.5 229.5q0 121 -24.5 232.5t-86.5 208.5z" />
    <glyph glyph-name="cid417" unicode="&#x320e;" horiz-adv-x="1000" 
d="M198 821q-62 -97 -86 -208.5t-25 -232.5q0 -122 24.5 -233t86.5 -208l-41 -14q-67 101 -96 211.5t-29 243.5q0 132 29 243t96 212zM534 688q0 -86 -18.5 -166.5t-56.5 -154t-97.5 -138t-141.5 -118.5l-51 57q132 86 202.5 200t82.5 252h-256v68h336zM742 381v-412h-82
v817h82v-337h133v-68h-133zM843 835q67 -101 96 -212t29 -243q0 -133 -29 -243.5t-96 -211.5l-41 14q62 97 86.5 211.5t24.5 229.5q0 121 -24.5 232.5t-86.5 208.5z" />
    <glyph glyph-name="cid418" unicode="&#x320f;" horiz-adv-x="1000" 
d="M198 821q-62 -97 -86 -208.5t-25 -232.5q0 -122 24.5 -233t86.5 -208l-41 -14q-67 101 -96 211.5t-29 243.5q0 132 29 243t96 212zM269 250q79 1 162.5 8t176.5 27l9 -71q-101 -21 -189.5 -28.5t-174.5 -7.5h-63v526h79v-454zM748 388v-419h-83v817h83v-330h132v-68h-132
zM843 835q67 -101 96 -212t29 -243q0 -133 -29 -243.5t-96 -211.5l-41 14q62 97 86.5 211.5t24.5 229.5q0 121 -24.5 232.5t-86.5 208.5z" />
    <glyph glyph-name="cid419" unicode="&#x3210;" horiz-adv-x="1000" 
d="M198 821q-62 -97 -86 -208.5t-25 -232.5q0 -122 24.5 -233t86.5 -208l-41 -14q-67 101 -96 211.5t-29 243.5q0 132 29 243t96 212zM277 229q47 0 89 1t81 4t78 8t80 13l9 -72q-45 -9 -86.5 -14t-84 -8t-87.5 -4t-97 -1h-62v546h354v-69h-274v-404zM757 388v-418h-82v817
h82v-331h123v-68h-123zM843 835q67 -101 96 -212t29 -243q0 -133 -29 -243.5t-96 -211.5l-41 14q62 97 86.5 211.5t24.5 229.5q0 121 -24.5 232.5t-86.5 208.5z" />
    <glyph glyph-name="cid420" unicode="&#x3211;" horiz-adv-x="1000" 
d="M198 821q-62 -97 -86 -208.5t-25 -232.5q0 -122 24.5 -233t86.5 -208l-41 -14q-67 101 -96 211.5t-29 243.5q0 132 29 243t96 212zM283 232q45 0 85 1.5t78 4t75.5 7.5t78.5 13l7 -71q-44 -8 -84.5 -13t-82 -8t-85.5 -4t-94 -1h-59v313h243v161h-245v66h326v-293h-243
v-176zM751 387v-418h-83v817h83v-331h117v-68h-117zM843 835q67 -101 96 -212t29 -243q0 -133 -29 -243.5t-96 -211.5l-41 14q62 97 86.5 211.5t24.5 229.5q0 121 -24.5 232.5t-86.5 208.5z" />
    <glyph glyph-name="cid421" unicode="&#x3212;" horiz-adv-x="1000" 
d="M198 821q-62 -97 -86 -208.5t-25 -232.5q0 -122 24.5 -233t86.5 -208l-41 -14q-67 101 -96 211.5t-29 243.5q0 132 29 243t96 212zM268 243h175v384h-175v-384zM188 696h336v-521h-336v521zM743 384v-415h-82v817h82v-334h132v-68h-132zM843 835q67 -101 96 -212t29 -243
q0 -133 -29 -243.5t-96 -211.5l-41 14q62 97 86.5 211.5t24.5 229.5q0 121 -24.5 232.5t-86.5 208.5z" />
    <glyph glyph-name="cid422" unicode="&#x3213;" horiz-adv-x="1000" 
d="M198 821q-62 -97 -86 -208.5t-25 -232.5q0 -122 24.5 -233t86.5 -208l-41 -14q-67 101 -96 211.5t-29 243.5q0 132 29 243t96 212zM476 440h-191v-217h191v217zM476 711h78v-559h-348v559h79v-200h191v200zM752 385v-416h-82v817h82v-333h124v-68h-124zM843 835
q67 -101 96 -212t29 -243q0 -133 -29 -243.5t-96 -211.5l-41 14q62 97 86.5 211.5t24.5 229.5q0 121 -24.5 232.5t-86.5 208.5z" />
    <glyph glyph-name="cid423" unicode="&#x3214;" horiz-adv-x="1000" 
d="M198 821q-62 -97 -86 -208.5t-25 -232.5q0 -122 24.5 -233t86.5 -208l-41 -14q-67 101 -96 211.5t-29 243.5q0 132 29 243t96 212zM417 563q0 -60 12 -116t36 -104.5t60 -86.5t83 -62l-53 -61q-67 38 -112 101.5t-68 147.5q-23 -84 -67.5 -147.5t-111.5 -101.5l-53 61
q47 24 82.5 62t59.5 86.5t36 104.5t12 116v150h84v-150zM745 387v-418h-82v817h82v-331h125v-68h-125zM843 835q67 -101 96 -212t29 -243q0 -133 -29 -243.5t-96 -211.5l-41 14q62 97 86.5 211.5t24.5 229.5q0 121 -24.5 232.5t-86.5 208.5z" />
    <glyph glyph-name="cid424" unicode="&#x3215;" horiz-adv-x="1000" 
d="M198 821q-62 -97 -86 -208.5t-25 -232.5q0 -122 24.5 -233t86.5 -208l-41 -14q-67 101 -96 211.5t-29 243.5q0 132 29 243t96 212zM360 226q51 0 81.5 55.5t30.5 148.5q0 94 -30.5 149.5t-81.5 55.5t-81.5 -55.5t-30.5 -149.5q0 -93 30.5 -148.5t81.5 -55.5zM360 706
q43 0 78.5 -19.5t60 -55.5t38 -87t13.5 -114t-13.5 -114t-38 -87t-60 -55t-78.5 -19q-44 0 -78.5 19t-59.5 55t-38 87t-13 114t13 114t38 87t59.5 55.5t78.5 19.5zM753 381v-412h-82v817h82v-337h120v-68h-120zM843 835q67 -101 96 -212t29 -243q0 -133 -29 -243.5
t-96 -211.5l-41 14q62 97 86.5 211.5t24.5 229.5q0 121 -24.5 232.5t-86.5 208.5z" />
    <glyph glyph-name="cid425" unicode="&#x3216;" horiz-adv-x="1000" 
d="M198 821q-62 -97 -86 -208.5t-25 -232.5q0 -122 24.5 -233t86.5 -208l-41 -14q-67 101 -96 211.5t-29 243.5q0 132 29 243t96 212zM424 556q0 -60 11 -117t33 -107t56 -90.5t80 -65.5l-52 -59q-66 40 -107.5 106.5t-62.5 151.5q-20 -85 -62 -151.5t-108 -106.5l-51 59
q46 25 79.5 65.5t55.5 90.5t33 107t11 117v73h-146v69h377v-69h-147v-73zM752 384v-415h-83v817h83v-334h123v-68h-123zM843 835q67 -101 96 -212t29 -243q0 -133 -29 -243.5t-96 -211.5l-41 14q62 97 86.5 211.5t24.5 229.5q0 121 -24.5 232.5t-86.5 208.5z" />
    <glyph glyph-name="cid426" unicode="&#x3217;" horiz-adv-x="1000" 
d="M198 821q-62 -97 -86 -208.5t-25 -232.5q0 -122 24.5 -233t86.5 -208l-41 -14q-67 101 -96 211.5t-29 243.5q0 132 29 243t96 212zM419 498q0 -51 12.5 -98.5t37 -88.5t60 -73t80.5 -52l-47 -61q-67 32 -113.5 87.5t-70.5 128.5q-23 -73 -69.5 -128.5t-113.5 -87.5
l-47 61q45 20 80.5 52t60 73t37 88.5t12.5 98.5v33h-165v68h164v138h82v-138h165v-68h-165v-33zM752 375v-406h-82v817h82v-343h123v-68h-123zM843 835q67 -101 96 -212t29 -243q0 -133 -29 -243.5t-96 -211.5l-41 14q62 97 86.5 211.5t24.5 229.5q0 121 -24.5 232.5
t-86.5 208.5z" />
    <glyph glyph-name="cid427" unicode="&#x3218;" horiz-adv-x="1000" 
d="M198 821q-62 -97 -86 -208.5t-25 -232.5q0 -122 24.5 -233t86.5 -208l-41 -14q-67 101 -96 211.5t-29 243.5q0 132 29 243t96 212zM544 691q0 -86 -15 -167.5t-50.5 -156.5t-92.5 -142.5t-141 -124.5l-54 55q89 59 145.5 129t87.5 150l-226 -22l-13 69l260 18
q8 30 12.5 61t6.5 63h-254v68h334zM744 380v-411h-82v817h82v-338h125v-68h-125zM843 835q67 -101 96 -212t29 -243q0 -133 -29 -243.5t-96 -211.5l-41 14q62 97 86.5 211.5t24.5 229.5q0 121 -24.5 232.5t-86.5 208.5z" />
    <glyph glyph-name="cid428" unicode="&#x3219;" horiz-adv-x="1000" 
d="M198 821q-62 -97 -86 -208.5t-25 -232.5q0 -122 24.5 -233t86.5 -208l-41 -14q-67 101 -96 211.5t-29 243.5q0 132 29 243t96 212zM280 230q46 0 86.5 1t78.5 3.5t76 7t79 12.5l8 -71q-44 -8 -85.5 -13t-83.5 -7.5t-86 -3.5t-95 -1h-60v538h353v-69h-271v-155h254v-69
h-254v-173zM753 380v-411h-83v817h83v-338h127v-68h-127zM843 835q67 -101 96 -212t29 -243q0 -133 -29 -243.5t-96 -211.5l-41 14q62 97 86.5 211.5t24.5 229.5q0 121 -24.5 232.5t-86.5 208.5z" />
    <glyph glyph-name="cid429" unicode="&#x321a;" horiz-adv-x="1000" 
d="M198 821q-62 -97 -86 -208.5t-25 -232.5q0 -122 24.5 -233t86.5 -208l-41 -14q-67 101 -96 211.5t-29 243.5q0 132 29 243t96 212zM329 224q29 1 59 1.5t59 2.5v395h-118v-399zM524 233q28 2 54.5 4.5t51.5 5.5l4 -60q-57 -9 -120 -15t-126 -9t-121.5 -4t-106.5 -1l-9 68
h48t53 1v400h-78v68h423v-68h-73v-390zM765 381v-412h-82v817h82v-337h115v-68h-115zM843 835q67 -101 96 -212t29 -243q0 -133 -29 -243.5t-96 -211.5l-41 14q62 97 86.5 211.5t24.5 229.5q0 121 -24.5 232.5t-86.5 208.5z" />
    <glyph glyph-name="cid430" unicode="&#x321b;" horiz-adv-x="1000" 
d="M198 821q-62 -97 -86 -208.5t-25 -232.5q0 -122 24.5 -233t86.5 -208l-41 -14q-67 101 -96 211.5t-29 243.5q0 132 29 243t96 212zM377 200q25 0 47 8.5t37.5 24t24.5 37t9 46.5q0 51 -33.5 83.5t-84.5 32.5t-84.5 -32.5t-33.5 -83.5q0 -25 9 -46.5t24.5 -37t37 -24
t47.5 -8.5zM377 496q42 0 77 -13t61 -37t40.5 -57t14.5 -73q0 -39 -14.5 -72t-40.5 -57t-61 -37.5t-77 -13.5q-41 0 -76.5 13.5t-61 37.5t-40 57t-14.5 72q0 40 14.5 73t40 57t61 37t76.5 13zM420 629h186v-68h-456v68h187v127h83v-127zM761 383v-414h-82v817h82v-337h114
v-66h-114zM843 835q67 -101 96 -212t29 -243q0 -133 -29 -243.5t-96 -211.5l-41 14q62 97 86.5 211.5t24.5 229.5q0 121 -24.5 232.5t-86.5 208.5z" />
    <glyph glyph-name="cid431" unicode="&#x321c;" horiz-adv-x="1000" 
d="M177 464q52 8 102.5 27t90 46t65 60t28.5 69h-235v69h555v-69h-234q3 -36 28.5 -69t65.5 -60t90 -45.5t102 -26.5l-33 -65q-47 8 -92 24t-84 38.5t-70 51.5t-50 62q-19 -33 -50 -62t-69.5 -51.5t-83.5 -38.5t-93 -24zM198 821q-62 -97 -86 -208.5t-25 -232.5
q0 -122 24.5 -233t86.5 -208l-41 -14q-67 101 -96 211.5t-29 243.5q0 132 29 243t96 212zM547 271v-305h-82v305h-306v69h693v-69h-305zM843 835q67 -101 96 -212t29 -243q0 -133 -29 -243.5t-96 -211.5l-41 14q62 97 86.5 211.5t24.5 229.5q0 121 -24.5 232.5t-86.5 208.5z
" />
    <glyph glyph-name="cid432" unicode="&#x3260;" horiz-adv-x="1000" 
d="M711 569v-438h-79v373h-376v65h455zM966 380q0 -96 -36.5 -181t-100 -148.5t-148.5 -100t-181 -36.5t-181 36.5t-148.5 100t-100 148.5t-36.5 181t36.5 181t100 148.5t148.5 100t181 36.5t181 -36.5t148.5 -100t100 -148.5t36.5 -181zM500 814q-90 0 -169 -34t-138 -93
t-93 -138t-34 -169t34 -169t93 -138t138 -93t169 -34t169 34t138 93t93 138t34 169t-34 169t-93 138t-138 93t-169 34z" />
    <glyph glyph-name="cid433" unicode="&#x3261;" horiz-adv-x="1000" 
d="M384 248h364v-65h-443v425h79v-360zM500 -54q90 0 169 34t138 93t93 138t34 169t-34 169t-93 138t-138 93t-169 34t-169 -34t-138 -93t-93 -138t-34 -169t34 -169t93 -138t138 -93t169 -34zM500 846q96 0 181 -36.5t148.5 -100t100 -148.5t36.5 -181t-36.5 -181
t-100 -148.5t-148.5 -100t-181 -36.5t-181 36.5t-148.5 100t-100 148.5t-36.5 181t36.5 181t100 148.5t148.5 100t181 36.5z" />
    <glyph glyph-name="cid434" unicode="&#x3262;" horiz-adv-x="1000" 
d="M362 217h364v-65h-444v434h434v-65h-354v-304zM500 -54q90 0 169 34t138 93t93 138t34 169t-34 169t-93 138t-138 93t-169 34t-169 -34t-138 -93t-93 -138t-34 -169t34 -169t93 -138t138 -93t169 -34zM500 846q96 0 181 -36.5t148.5 -100t100 -148.5t36.5 -181
t-36.5 -181t-100 -148.5t-148.5 -100t-181 -36.5t-181 36.5t-148.5 100t-100 148.5t-36.5 181t36.5 181t100 148.5t148.5 100t181 36.5z" />
    <glyph glyph-name="cid435" unicode="&#x3263;" horiz-adv-x="1000" 
d="M357 208h383v-66h-458v270h362v144h-364v58h439v-264h-362v-142zM500 -54q90 0 169 34t138 93t93 138t34 169t-34 169t-93 138t-138 93t-169 34t-169 -34t-138 -93t-93 -138t-34 -169t34 -169t93 -138t138 -93t169 -34zM500 846q96 0 181 -36.5t148.5 -100t100 -148.5
t36.5 -181t-36.5 -181t-100 -148.5t-148.5 -100t-181 -36.5t-181 36.5t-148.5 100t-100 148.5t-36.5 181t36.5 181t100 148.5t148.5 100t181 36.5z" />
    <glyph glyph-name="cid436" unicode="&#x3264;" horiz-adv-x="1000" 
d="M716 565v-411h-435v411h435zM359 501v-283h279v283h-279zM966 380q0 -96 -36.5 -181t-100 -148.5t-148.5 -100t-181 -36.5t-181 36.5t-148.5 100t-100 148.5t-36.5 181t36.5 181t100 148.5t148.5 100t181 36.5t181 -36.5t148.5 -100t100 -148.5t36.5 -181zM500 814
q-90 0 -169 -34t-138 -93t-93 -138t-34 -169t34 -169t93 -138t138 -93t169 -34t169 34t138 93t93 138t34 169t-34 169t-93 138t-138 93t-169 34z" />
    <glyph glyph-name="cid437" unicode="&#x3265;" horiz-adv-x="1000" 
d="M356 593v-162h282v162h78v-458h-438v458h78zM356 197h282v171h-282v-171zM966 380q0 -96 -36.5 -181t-100 -148.5t-148.5 -100t-181 -36.5t-181 36.5t-148.5 100t-100 148.5t-36.5 181t36.5 181t100 148.5t148.5 100t181 36.5t181 -36.5t148.5 -100t100 -148.5t36.5 -181
zM500 814q-90 0 -169 -34t-138 -93t-93 -138t-34 -169t34 -169t93 -138t138 -93t169 -34t169 34t138 93t93 138t34 169t-34 169t-93 138t-138 93t-169 34z" />
    <glyph glyph-name="cid438" unicode="&#x3266;" horiz-adv-x="1000" 
d="M532 481q0 -41 17 -81t47.5 -75t73.5 -62.5t95 -43.5l-39 -60q-78 26 -136.5 76t-90.5 116q-30 -66 -87.5 -116.5t-135.5 -76.5l-40 60q52 16 94.5 43.5t72.5 63t46 75.5t16 81v127h67v-127zM500 -54q90 0 169 34t138 93t93 138t34 169t-34 169t-93 138t-138 93t-169 34
t-169 -34t-138 -93t-93 -138t-34 -169t34 -169t93 -138t138 -93t169 -34zM500 846q96 0 181 -36.5t148.5 -100t100 -148.5t36.5 -181t-36.5 -181t-100 -148.5t-148.5 -100t-181 -36.5t-181 36.5t-148.5 100t-100 148.5t-36.5 181t36.5 181t100 148.5t148.5 100t181 36.5z
" />
    <glyph glyph-name="cid439" unicode="&#x3267;" horiz-adv-x="1000" 
d="M499 574q50 0 92.5 -15.5t73.5 -43.5t48.5 -66.5t17.5 -84.5q0 -47 -17.5 -85.5t-48.5 -66.5t-73.5 -43.5t-92.5 -15.5t-92.5 15.5t-73.5 43.5t-48.5 66.5t-17.5 85.5q0 46 17.5 84.5t48.5 66.5t73.5 43.5t92.5 15.5zM499 516q-36 0 -66.5 -11.5t-52.5 -32t-34.5 -48
t-12.5 -60.5t12.5 -61t34.5 -48t52.5 -31.5t66.5 -11.5t66.5 11.5t52.5 31.5t34.5 48t12.5 61t-12.5 60.5t-34.5 48t-52.5 32t-66.5 11.5zM966 380q0 -96 -36.5 -181t-100 -148.5t-148.5 -100t-181 -36.5t-181 36.5t-148.5 100t-100 148.5t-36.5 181t36.5 181t100 148.5
t148.5 100t181 36.5t181 -36.5t148.5 -100t100 -148.5t36.5 -181zM500 814q-90 0 -169 -34t-138 -93t-93 -138t-34 -169t34 -169t93 -138t138 -93t169 -34t169 34t138 93t93 138t34 169t-34 169t-93 138t-138 93t-169 34z" />
    <glyph glyph-name="cid440" unicode="&#x3268;" horiz-adv-x="1000" 
d="M532 474q0 -40 16 -77.5t45.5 -69t71 -55.5t93.5 -37l-36 -59q-78 23 -135.5 67.5t-87.5 104.5q-30 -60 -87.5 -104.5t-136.5 -67.5l-36 59q52 13 94 37t71.5 55.5t45.5 69t16 77.5v29h-195v65h457v-65h-196v-29zM500 -54q90 0 169 34t138 93t93 138t34 169t-34 169
t-93 138t-138 93t-169 34t-169 -34t-138 -93t-93 -138t-34 -169t34 -169t93 -138t138 -93t169 -34zM500 846q96 0 181 -36.5t148.5 -100t100 -148.5t36.5 -181t-36.5 -181t-100 -148.5t-148.5 -100t-181 -36.5t-181 36.5t-148.5 100t-100 148.5t-36.5 181t36.5 181
t100 148.5t148.5 100t181 36.5z" />
    <glyph glyph-name="cid441" unicode="&#x3269;" horiz-adv-x="1000" 
d="M540 431q0 -35 14.5 -67.5t42 -60t67 -48.5t89.5 -33l-35 -60q-78 21 -132.5 62.5t-82.5 98.5q-28 -57 -83 -98.5t-132 -62.5l-35 60q49 12 88.5 33t67 48.5t42 60t14.5 67.5v15h-191v65h191v122h75v-122h193v-65h-193v-15zM500 -54q90 0 169 34t138 93t93 138t34 169
t-34 169t-93 138t-138 93t-169 34t-169 -34t-138 -93t-93 -138t-34 -169t34 -169t93 -138t138 -93t169 -34zM500 846q96 0 181 -36.5t148.5 -100t100 -148.5t36.5 -181t-36.5 -181t-100 -148.5t-148.5 -100t-181 -36.5t-181 36.5t-148.5 100t-100 148.5t-36.5 181t36.5 181
t100 148.5t148.5 100t181 36.5z" />
    <glyph glyph-name="cid442" unicode="&#x326a;" horiz-adv-x="1000" 
d="M277 573h441v-443h-73v200l-376 -25l-12 69l388 18v119h-368v62zM500 -54q90 0 169 34t138 93t93 138t34 169t-34 169t-93 138t-138 93t-169 34t-169 -34t-138 -93t-93 -138t-34 -169t34 -169t93 -138t138 -93t169 -34zM500 846q96 0 181 -36.5t148.5 -100t100 -148.5
t36.5 -181t-36.5 -181t-100 -148.5t-148.5 -100t-181 -36.5t-181 36.5t-148.5 100t-100 148.5t-36.5 181t36.5 181t100 148.5t148.5 100t181 36.5z" />
    <glyph glyph-name="cid443" unicode="&#x326b;" horiz-adv-x="1000" 
d="M357 217h370v-65h-449v423h440v-65h-361v-115h357v-65h-357v-113zM500 -54q90 0 169 34t138 93t93 138t34 169t-34 169t-93 138t-138 93t-169 34t-169 -34t-138 -93t-93 -138t-34 -169t34 -169t93 -138t138 -93t169 -34zM500 846q96 0 181 -36.5t148.5 -100t100 -148.5
t36.5 -181t-36.5 -181t-100 -148.5t-148.5 -100t-181 -36.5t-181 36.5t-148.5 100t-100 148.5t-36.5 181t36.5 181t100 148.5t148.5 100t181 36.5z" />
    <glyph glyph-name="cid444" unicode="&#x326c;" horiz-adv-x="1000" 
d="M420 239h159v252h-159v-252zM652 239h107v-65h-522v65h109v252h-87v65h478v-65h-85v-252zM500 -54q90 0 169 34t138 93t93 138t34 169t-34 169t-93 138t-138 93t-169 34t-169 -34t-138 -93t-93 -138t-34 -169t34 -169t93 -138t138 -93t169 -34zM500 846q96 0 181 -36.5
t148.5 -100t100 -148.5t36.5 -181t-36.5 -181t-100 -148.5t-148.5 -100t-181 -36.5t-181 36.5t-148.5 100t-100 148.5t-36.5 181t36.5 181t100 148.5t148.5 100t181 36.5z" />
    <glyph glyph-name="cid445" unicode="&#x326d;" horiz-adv-x="1000" 
d="M499 148q25 0 46.5 8t37.5 22.5t24.5 33.5t8.5 41q0 45 -33 75t-84 30q-25 0 -46.5 -8t-37 -22t-24 -33.5t-8.5 -41.5q0 -45 32.5 -75t83.5 -30zM499 416q40 0 74 -12t59 -34t39 -51.5t14 -65.5t-14 -65.5t-39 -51.5t-59 -34t-74 -12q-39 0 -73 12t-59 34t-39.5 51.5
t-14.5 65.5t14.5 65.5t39.5 51.5t59 34t73 12zM537 529h217v-63h-512v63h218v103h77v-103zM500 -54q90 0 169 34t138 93t93 138t34 169t-34 169t-93 138t-138 93t-169 34t-169 -34t-138 -93t-93 -138t-34 -169t34 -169t93 -138t138 -93t169 -34zM500 846q96 0 181 -36.5
t148.5 -100t100 -148.5t36.5 -181t-36.5 -181t-100 -148.5t-148.5 -100t-181 -36.5t-181 36.5t-148.5 100t-100 148.5t-36.5 181t36.5 181t100 148.5t148.5 100t181 36.5z" />
    <glyph glyph-name="cid446" unicode="&#x326e;" horiz-adv-x="1000" 
d="M506 645q0 -159 -73.5 -285.5t-222.5 -215.5l-49 57q118 70 185 164t79 212h-221v68h302zM839 449v-68h-126v-355h-81v715h81v-292h126zM500 -54q90 0 169 34t138 93t93 138t34 169t-34 169t-93 138t-138 93t-169 34t-169 -34t-138 -93t-93 -138t-34 -169t34 -169
t93 -138t138 -93t169 -34zM500 846q96 0 181 -36.5t148.5 -100t100 -148.5t36.5 -181t-36.5 -181t-100 -148.5t-148.5 -100t-181 -36.5t-181 36.5t-148.5 100t-100 148.5t-36.5 181t36.5 181t100 148.5t148.5 100t181 36.5z" />
    <glyph glyph-name="cid447" unicode="&#x326f;" horiz-adv-x="1000" 
d="M265 251q71 1 147 7.5t161 24.5l9 -71q-95 -20 -177.5 -26.5t-160.5 -6.5h-59v459h80v-387zM844 449v-68h-121v-355h-81v715h81v-292h121zM500 -54q90 0 169 34t138 93t93 138t34 169t-34 169t-93 138t-138 93t-169 34t-169 -34t-138 -93t-93 -138t-34 -169t34 -169
t93 -138t138 -93t169 -34zM500 846q96 0 181 -36.5t148.5 -100t100 -148.5t36.5 -181t-36.5 -181t-100 -148.5t-148.5 -100t-181 -36.5t-181 36.5t-148.5 100t-100 148.5t-36.5 181t36.5 181t100 148.5t148.5 100t181 36.5z" />
    <glyph glyph-name="cid448" unicode="&#x3270;" horiz-adv-x="1000" 
d="M269 255q42 0 80.5 1t75 3.5t72.5 7t74 12.5l9 -71q-42 -8 -81 -13t-79 -8t-82 -4t-90 -1h-59v463h334v-68h-254v-322zM839 431v-69h-119v-336h-82v715h82v-310h119zM500 -54q90 0 169 34t138 93t93 138t34 169t-34 169t-93 138t-138 93t-169 34t-169 -34t-138 -93
t-93 -138t-34 -169t34 -169t93 -138t138 -93t169 -34zM500 846q96 0 181 -36.5t148.5 -100t100 -148.5t36.5 -181t-36.5 -181t-100 -148.5t-148.5 -100t-181 -36.5t-181 36.5t-148.5 100t-100 148.5t-36.5 181t36.5 181t100 148.5t148.5 100t181 36.5z" />
    <glyph glyph-name="cid449" unicode="&#x3271;" horiz-adv-x="1000" 
d="M263 243q42 0 79 1t73 3.5t72 7.5t74 13l8 -70q-42 -8 -81 -13t-78.5 -7.5t-81.5 -3.5t-89 -1h-57v284h237v130h-239v65h320v-259h-237v-150zM839 449v-68h-122v-355h-81v715h81v-292h122zM500 -54q90 0 169 34t138 93t93 138t34 169t-34 169t-93 138t-138 93t-169 34
t-169 -34t-138 -93t-93 -138t-34 -169t34 -169t93 -138t138 -93t169 -34zM500 846q96 0 181 -36.5t148.5 -100t100 -148.5t36.5 -181t-36.5 -181t-100 -148.5t-148.5 -100t-181 -36.5t-181 36.5t-148.5 100t-100 148.5t-36.5 181t36.5 181t100 148.5t148.5 100t181 36.5z
" />
    <glyph glyph-name="cid450" unicode="&#x3272;" horiz-adv-x="1000" 
d="M266 257h168v331h-168v-331zM188 654h324v-462h-324v462zM842 449v-68h-125v-355h-81v715h81v-292h125zM500 -54q90 0 169 34t138 93t93 138t34 169t-34 169t-93 138t-138 93t-169 34t-169 -34t-138 -93t-93 -138t-34 -169t34 -169t93 -138t138 -93t169 -34zM500 846
q96 0 181 -36.5t148.5 -100t100 -148.5t36.5 -181t-36.5 -181t-100 -148.5t-148.5 -100t-181 -36.5t-181 36.5t-148.5 100t-100 148.5t-36.5 181t36.5 181t100 148.5t148.5 100t181 36.5z" />
    <glyph glyph-name="cid451" unicode="&#x3273;" horiz-adv-x="1000" 
d="M441 427h-175v-186h175v186zM441 669h76v-499h-327v499h76v-171h175v171zM839 449v-68h-119v-355h-82v715h82v-292h119zM500 -54q90 0 169 34t138 93t93 138t34 169t-34 169t-93 138t-138 93t-169 34t-169 -34t-138 -93t-93 -138t-34 -169t34 -169t93 -138t138 -93
t169 -34zM500 846q96 0 181 -36.5t148.5 -100t100 -148.5t36.5 -181t-36.5 -181t-100 -148.5t-148.5 -100t-181 -36.5t-181 36.5t-148.5 100t-100 148.5t-36.5 181t36.5 181t100 148.5t148.5 100t181 36.5z" />
    <glyph glyph-name="cid452" unicode="&#x3274;" horiz-adv-x="1000" 
d="M390 606q0 -59 11.5 -115t34 -104.5t57 -87t80.5 -63.5l-52 -60q-65 37 -107 99.5t-64 143.5q-23 -81 -65 -143.5t-107 -99.5l-53 60q46 25 81 63.5t57.5 87t34 104.5t11.5 115v79h81v-79zM839 449v-68h-126v-355h-81v715h81v-292h126zM500 -54q90 0 169 34t138 93
t93 138t34 169t-34 169t-93 138t-138 93t-169 34t-169 -34t-138 -93t-93 -138t-34 -169t34 -169t93 -138t138 -93t169 -34zM500 846q96 0 181 -36.5t148.5 -100t100 -148.5t36.5 -181t-36.5 -181t-100 -148.5t-148.5 -100t-181 -36.5t-181 36.5t-148.5 100t-100 148.5
t-36.5 181t36.5 181t100 148.5t148.5 100t181 36.5z" />
    <glyph glyph-name="cid453" unicode="&#x3275;" horiz-adv-x="1000" 
d="M345 237q48 0 74 49t26 133t-26 133t-74 49q-47 0 -73 -49t-26 -133t26 -133t73 -49zM345 671q81 0 128 -67.5t47 -184.5q0 -58 -12 -104.5t-35 -79.5t-55.5 -50.5t-72.5 -17.5t-72.5 17.5t-55 50.5t-35 79.5t-12.5 104.5t12.5 105t35 79.5t55 50t72.5 17.5zM833 453v-68
h-125v-359h-82v715h82v-288h125zM500 -54q90 0 169 34t138 93t93 138t34 169t-34 169t-93 138t-138 93t-169 34t-169 -34t-138 -93t-93 -138t-34 -169t34 -169t93 -138t138 -93t169 -34zM500 846q96 0 181 -36.5t148.5 -100t100 -148.5t36.5 -181t-36.5 -181t-100 -148.5
t-148.5 -100t-181 -36.5t-181 36.5t-148.5 100t-100 148.5t-36.5 181t36.5 181t100 148.5t148.5 100t181 36.5z" />
    <glyph glyph-name="cid454" unicode="&#x3276;" horiz-adv-x="1000" 
d="M407 521q0 -42 11 -83.5t32.5 -78t54 -66t75.5 -47.5l-44 -58q-63 29 -105 79t-63 114q-22 -64 -64 -114t-105 -79l-44 59q43 18 75 47t54 65.5t33 78t11 83.5v61h-143v68h366v-68h-144v-61zM839 449v-68h-123v-355h-81v715h81v-292h123zM500 -54q90 0 169 34t138 93
t93 138t34 169t-34 169t-93 138t-138 93t-169 34t-169 -34t-138 -93t-93 -138t-34 -169t34 -169t93 -138t138 -93t169 -34zM500 846q96 0 181 -36.5t148.5 -100t100 -148.5t36.5 -181t-36.5 -181t-100 -148.5t-148.5 -100t-181 -36.5t-181 36.5t-148.5 100t-100 148.5
t-36.5 181t36.5 181t100 148.5t148.5 100t181 36.5z" />
    <glyph glyph-name="cid455" unicode="&#x3277;" horiz-adv-x="1000" 
d="M404 479q0 -38 11 -75t33 -69.5t54 -58.5t74 -42l-44 -62q-63 26 -105 72t-64 104q-22 -58 -64 -104t-105 -72l-44 62q42 16 74.5 42t54.5 58.5t33 69.5t11 75v32h-146v69h145v110h82v-110h138v-69h-138v-32zM840 449v-68h-122v-355h-82v715h82v-292h122zM500 -54
q90 0 169 34t138 93t93 138t34 169t-34 169t-93 138t-138 93t-169 34t-169 -34t-138 -93t-93 -138t-34 -169t34 -169t93 -138t138 -93t169 -34zM500 846q96 0 181 -36.5t148.5 -100t100 -148.5t36.5 -181t-36.5 -181t-100 -148.5t-148.5 -100t-181 -36.5t-181 36.5
t-148.5 100t-100 148.5t-36.5 181t36.5 181t100 148.5t148.5 100t181 36.5z" />
    <glyph glyph-name="cid456" unicode="&#x3278;" horiz-adv-x="1000" 
d="M524 647q0 -81 -16 -154t-52 -138.5t-94 -121.5t-141 -102l-53 53q86 45 141.5 100t87.5 120l-222 -22l-13 69l261 18q8 26 13 53.5t7 56.5h-234v68h315zM840 433v-68h-123v-339h-81v715h81v-308h123zM500 -54q90 0 169 34t138 93t93 138t34 169t-34 169t-93 138t-138 93
t-169 34t-169 -34t-138 -93t-93 -138t-34 -169t34 -169t93 -138t138 -93t169 -34zM500 846q96 0 181 -36.5t148.5 -100t100 -148.5t36.5 -181t-36.5 -181t-100 -148.5t-148.5 -100t-181 -36.5t-181 36.5t-148.5 100t-100 148.5t-36.5 181t36.5 181t100 148.5t148.5 100
t181 36.5z" />
    <glyph glyph-name="cid457" unicode="&#x3279;" horiz-adv-x="1000" 
d="M263 256q43 0 81.5 1t75.5 3.5t73.5 7t75.5 11.5l8 -71q-43 -8 -83 -12.5t-80 -7t-82.5 -3.5t-91.5 -1h-58v482h336v-69h-255v-131h232v-67h-232v-143zM839 449v-68h-122v-355h-81v715h81v-292h122zM500 -54q90 0 169 34t138 93t93 138t34 169t-34 169t-93 138t-138 93
t-169 34t-169 -34t-138 -93t-93 -138t-34 -169t34 -169t93 -138t138 -93t169 -34zM500 846q96 0 181 -36.5t148.5 -100t100 -148.5t36.5 -181t-36.5 -181t-100 -148.5t-148.5 -100t-181 -36.5t-181 36.5t-148.5 100t-100 148.5t-36.5 181t36.5 181t100 148.5t148.5 100
t181 36.5z" />
    <glyph glyph-name="cid458" unicode="&#x327a;" horiz-adv-x="1000" 
d="M313 248q26 1 52.5 1.5t52.5 1.5v326h-105v-329zM491 256q55 3 101 9l4 -59q-53 -9 -113 -14.5t-120 -8.5t-116 -4t-100 -1l-9 68h48.5t53.5 1v330h-74v68h398v-68h-73v-321zM843 449v-68h-117v-355h-82v715h82v-292h117zM500 -54q90 0 169 34t138 93t93 138t34 169
t-34 169t-93 138t-138 93t-169 34t-169 -34t-138 -93t-93 -138t-34 -169t34 -169t93 -138t138 -93t169 -34zM500 846q96 0 181 -36.5t148.5 -100t100 -148.5t36.5 -181t-36.5 -181t-100 -148.5t-148.5 -100t-181 -36.5t-181 36.5t-148.5 100t-100 148.5t-36.5 181t36.5 181
t100 148.5t148.5 100t181 36.5z" />
    <glyph glyph-name="cid459" unicode="&#x327b;" horiz-adv-x="1000" 
d="M365 219q44 0 72 26.5t28 68.5t-28 69t-72 27t-72.5 -27t-28.5 -69t28.5 -68.5t72.5 -26.5zM365 471q37 0 68.5 -11.5t54.5 -32t36 -49.5t13 -64t-13 -63.5t-36 -49.5t-54.5 -32.5t-68.5 -11.5t-68.5 11.5t-55 32.5t-36.5 49.5t-13 63.5t13 64t36.5 49.5t55 32t68.5 11.5
zM408 591h168v-68h-422v68h172v106h82v-106zM841 449v-68h-118v-355h-81v715h81v-292h118zM500 -54q90 0 169 34t138 93t93 138t34 169t-34 169t-93 138t-138 93t-169 34t-169 -34t-138 -93t-93 -138t-34 -169t34 -169t93 -138t138 -93t169 -34zM500 846q96 0 181 -36.5
t148.5 -100t100 -148.5t36.5 -181t-36.5 -181t-100 -148.5t-148.5 -100t-181 -36.5t-181 36.5t-148.5 100t-100 148.5t-36.5 181t36.5 181t100 148.5t148.5 100t181 36.5z" />
    <glyph glyph-name="cid460" unicode="&#x327f;" horiz-adv-x="1000" 
d="M34 380q0 96 36.5 181t100 148.5t148.5 100t181 36.5q87 0 165.5 -30.5t139.5 -83.5t102 -125.5t53 -156.5h-32q-12 78 -50 144.5t-95 115t-129.5 76.5t-153.5 28q-89 0 -166.5 -33t-136 -89.5t-93.5 -132.5t-38 -162h168v-34h-200v17zM313 645h85v-245h2l218 245h93
l-173 -201l197 -317h-90l-158 260l-89 -95v-165h-85v518zM500 -86q-88 0 -166 30.5t-139.5 83.5t-102 126t-53.5 157h32q12 -78 50 -145t95 -115.5t130 -76.5t154 -28q88 0 165 32.5t135.5 89t94 133t38.5 163.5h-240v33h273v-17q0 -97 -37 -182t-100.5 -148t-148 -99.5
t-180.5 -36.5z" />
    <glyph glyph-name="cid461" unicode="&#x33c2;" horiz-adv-x="1000" 
d="M198 -13q-63 0 -102 38t-39 112q0 91 72 139t215 68q0 27 -5 52t-17 44t-30.5 30.5t-45.5 11.5q-38 0 -70.5 -16.5t-62.5 -38.5l-36 62q36 26 83 47t102 21q85 0 129 -58.5t44 -156.5v-342h-75l-8 67h-3q-32 -37 -70.5 -58.5t-80.5 -21.5zM225 61q31 0 60.5 18.5
t58.5 50.5v154q-56 -9 -94 -21.5t-61 -29.5t-33 -38.5t-10 -48.5q0 -47 23 -66t56 -19zM539 544h64l7 -67h4q14 36 36.5 57.5t60.5 21.5q32 0 50.5 -23t25.5 -63q13 38 36.5 62t58.5 24q43 0 67 -37t24 -109v-410h-79v396q0 82 -43 82q-21 0 -35 -19t-26 -56v-403h-67v396
q0 39 -10 60.5t-31 21.5q-38 0 -64 -75v-403h-79v544z" />
    <glyph glyph-name="cid462" unicode="&#x33c7;" horiz-adv-x="1000" 
d="M279 -12q-47 0 -89 22.5t-73 69t-49 117.5t-18 169q0 97 18.5 169t50 119t73.5 70t89 23q49 0 84.5 -24t59.5 -56l-55 -58q-17 26 -37 41.5t-49 15.5t-55.5 -17.5t-46.5 -53.5t-32 -92t-12 -134q0 -79 11.5 -135.5t31.5 -93t47 -54t59 -17.5q29 0 51.5 16.5t44.5 48.5
l54 -56q-32 -44 -71 -67t-87 -23zM645 -12q-37 0 -69.5 17.5t-57 52.5t-38.5 88.5t-14 124.5q0 72 14 125.5t38.5 89t57 53t69.5 17.5q36 0 68.5 -17.5t57 -53t38.5 -89t14 -125.5q0 -71 -14 -124.5t-38.5 -88.5t-57 -52.5t-68.5 -17.5zM645 64q38 0 65 49.5t27 157.5
t-27 159t-65 51q-40 0 -66.5 -51t-26.5 -159t26 -157.5t67 -49.5zM908 -12q-24 0 -41.5 18.5t-17.5 50.5q0 31 17.5 50.5t41.5 19.5q23 0 40.5 -19.5t17.5 -50.5q0 -32 -17.5 -50.5t-40.5 -18.5z" />
    <glyph glyph-name="cid463" unicode="&#x33d8;" horiz-adv-x="1000" 
d="M69 544h75l9 -63h3q26 34 58 54.5t70 20.5q83 0 126.5 -72t43.5 -204q0 -72 -15 -127t-40.5 -92t-59.5 -56t-72 -19q-26 0 -54 13.5t-55 45.5l3 -94v-162h-92v755zM248 64q46 0 78.5 55t32.5 160q0 94 -23 147.5t-76 53.5q-23 0 -48 -17.5t-51 -57.5v-289
q24 -32 46.5 -42t40.5 -10zM539 544h64l7 -67h4q14 36 36.5 57.5t60.5 21.5q32 0 50.5 -23t25.5 -63q13 38 36.5 62t58.5 24q43 0 67 -37t24 -109v-410h-79v396q0 82 -43 82q-21 0 -35 -19t-26 -56v-403h-67v396q0 39 -10 60.5t-31 21.5q-38 0 -64 -75v-403h-79v544z" />
    <glyph glyph-name="cid464" unicode="&#xac00;" 
d="M511 727q0 -96 -23 -186t-72 -171t-126 -150.5t-186 -123.5l-45 64q173 87 265 213t106 286h-329v68h410zM887 391h-144v-465h-82v897h82v-364h144v-68z" />
    <glyph glyph-name="cid465" unicode="&#xac01;" 
d="M505 766q0 -85 -29 -157.5t-83 -130.5t-132 -101.5t-176 -70.5l-34 65q82 22 147 54.5t112 74.5t74 92t33 107h-325v67h413zM166 256h583v-330h-82v264h-501v66zM882 528h-133v-231h-82v527h82v-228h133v-68z" />
    <glyph glyph-name="cid466" unicode="&#xac04;" 
d="M509 753q0 -87 -29.5 -162t-84.5 -136t-132.5 -108t-174.5 -77l-33 65q79 25 143.5 60.5t112 80.5t76 98t34.5 112h-330v67h418zM272 13h516v-67h-598v288h82v-221zM882 550v-68h-133v-315h-82v655h82v-272h133z" />
    <glyph glyph-name="cid467" unicode="&#xac07;" 
d="M505 766q0 -86 -28.5 -158.5t-82.5 -131.5t-132.5 -102.5t-177.5 -70.5l-31 66q82 22 147 55t111.5 75t73.5 92.5t33 107.5h-326v67h413zM267 4h503v-66h-584v327h568v-67h-487v-194zM882 603v-68h-133v-221h-82v510h82v-221h133z" />
    <glyph glyph-name="cid468" unicode="&#xac08;" 
d="M508 779q0 -84 -29.5 -153.5t-84 -124.5t-133 -94t-176.5 -62l-31 68q167 37 260.5 115.5t103.5 183.5h-325v67h415zM262 0h520v-65h-600v231h486v95h-489v65h570v-222h-487v-104zM882 622v-68h-133v-188h-82v457h82v-201h133z" />
    <glyph glyph-name="cid469" unicode="&#xac09;" 
d="M508 776q0 -85 -29 -155t-83.5 -125.5t-133 -95t-177.5 -63.5l-30 67q169 39 261 118t102 187h-322v67h412zM225 -1q46 0 82.5 0.5t68 3t60 6t58.5 9.5l9 -62q-33 -7 -64 -11t-66.5 -6.5t-77.5 -3t-96 -0.5h-54v218h211v86h-213v63h292v-208h-210v-95zM473 302h276v-372
h-81v306h-195v66zM882 549h-133v-206h-82v479h82v-205h133v-68z" />
    <glyph glyph-name="cid470" unicode="&#xac0a;" 
d="M508 776q0 -85 -29 -154.5t-84 -124t-133 -93.5t-177 -62l-31 68q168 37 260.5 115t102.5 184h-323v67h414zM210 2q35 0 64 0.5t55 2.5t50.5 5t51.5 8l8 -64q-31 -6 -59.5 -9t-59 -5t-65.5 -2.5t-78 -0.5h-47v221h203v83h-205v62h285v-206h-203v-95zM539 -4h138v246h-138
v-246zM467 303h282v-369h-282v369zM882 548h-133v-203h-82v477h82v-205h133v-69z" />
    <glyph glyph-name="cid471" unicode="&#xac10;" 
d="M506 766q0 -86 -29 -158.5t-83 -130.5t-132.5 -101.5t-177.5 -70.5l-32 65q165 45 259.5 129.5t106.5 199.5h-326v67h414zM265 5h403v201h-403v-201zM184 272h565v-333h-565v333zM882 536h-133v-222h-82v510h82v-220h133v-68z" />
    <glyph glyph-name="cid472" unicode="&#xac11;" 
d="M507 769q0 -85 -29 -155.5t-83 -126t-132.5 -96t-177.5 -64.5l-31 67q167 40 259.5 119.5t103.5 188.5h-322v67h412zM667 120h-404v-116h404v116zM667 297h82v-359h-567v359h81v-113h404v113zM882 543h-133v-205h-82v485h82v-212h133v-68z" />
    <glyph glyph-name="cid473" unicode="&#xac12;" 
d="M506 769q0 -85 -28.5 -155.5t-82.5 -126.5t-132 -96.5t-177 -64.5l-31 67q166 41 258.5 121t103.5 188h-322v67h411zM382 119h-154v-117h154v117zM382 290h76v-351h-307v351h77v-108h154v108zM698 226q0 -33 9.5 -67.5t28.5 -66t48 -58t68 -43.5l-44 -61q-56 26 -93 68.5
t-57 96.5q-20 -53 -57 -96t-93 -69l-44 61q39 18 68 44.5t48.5 57.5t29 64.5t9.5 65.5v75h79v-72zM882 616v-68h-133v-213h-82v488h82v-207h133z" />
    <glyph glyph-name="cid474" unicode="&#xac13;" 
d="M509 753q0 -86 -29 -160.5t-83 -135t-132 -106.5t-176 -76l-34 66q162 49 258 138.5t108 207.5h-325v66h413zM520 256q0 -49 24 -91t65 -75.5t94.5 -57t113.5 -34.5l-33 -65q-50 10 -96 28t-86 43.5t-71.5 57.5t-51.5 71q-20 -39 -51.5 -72t-72 -58.5t-87 -43.5
t-96.5 -28l-34 65q60 10 114.5 34t95.5 57.5t65.5 76.5t24.5 92v39h82v-39zM881 574v-69h-109v-276h-82v595h82v-250h109z" />
    <glyph glyph-name="cid475" unicode="&#xac14;" 
d="M507 766q0 -86 -29 -159t-83 -131.5t-132.5 -102.5t-177.5 -71l-31 68q81 22 146 54.5t111.5 74.5t73.5 92.5t33 107.5h-324v67h413zM679 222q0 -35 12 -69.5t35 -64.5t56.5 -54t76.5 -39l-41 -60q-66 24 -111 69t-68 103q-20 -56 -61 -105t-104 -75q-65 26 -105.5 72.5
t-60.5 103.5q-24 -55 -69 -100t-108 -68l-41 60q42 15 75.5 40t56.5 55.5t35.5 64.5t12.5 67v63h79v-63q0 -61 30.5 -119.5t93.5 -96.5q31 20 55 46.5t39.5 55.5t23.5 58.5t8 55.5v63h80v-63zM882 599v-68h-133v-210h-82v504h82v-226h133z" />
    <glyph glyph-name="cid476" unicode="&#xac15;" 
d="M507 756q0 -86 -29 -159.5t-83 -133.5t-132 -105t-175 -74l-33 66q80 24 144.5 58t111 77.5t74 95t33.5 109.5h-325v66h414zM468 -8q97 0 154 29t57 80q0 52 -57 81t-154 29t-154 -29t-57 -81q0 -51 57 -80t154 -29zM468 275q66 0 120 -12t92.5 -34.5t59 -54.5t20.5 -73
t-20.5 -73t-59 -54.5t-92.5 -34.5t-120 -12t-120 12t-92.5 34.5t-59 54.5t-20.5 73t20.5 73t59 54.5t92.5 34.5t120 12zM882 591v-68h-133v-236h-82v536h82v-232h133z" />
    <glyph glyph-name="cid477" unicode="&#xac16;" 
d="M507 766q0 -86 -28.5 -157.5t-82.5 -129t-132.5 -100t-177.5 -68.5l-31 67q168 43 260.5 126.5t103.5 194.5h-325v67h413zM515 200q2 -37 26 -71t63 -61.5t89 -47.5t106 -29l-32 -64q-98 17 -177.5 64.5t-117.5 115.5q-19 -34 -49 -63t-69 -52t-84.5 -39.5t-94.5 -24.5
l-30 63q56 9 106.5 28.5t89.5 47t62.5 61.5t25.5 72h-251v66h586v-66h-249zM882 595v-69h-133v-216h-82v515h82v-230h133z" />
    <glyph glyph-name="cid478" unicode="&#xac17;" 
d="M507 765q0 -85 -28.5 -155.5t-82.5 -126.5t-132 -96.5t-177 -64.5l-31 67q169 40 260.5 121.5t101.5 187.5h-323v67h412zM511 190q3 -36 27 -69t63 -59.5t90 -45.5t108 -27l-32 -61q-49 8 -94 23.5t-84 37t-70 49.5t-50 61q-20 -33 -50.5 -61t-69 -49.5t-84 -37
t-93.5 -23.5l-32 61q57 8 107.5 27t89.5 46t63 59.5t27 68.5h-257v65h258v107h82v-107h258v-65h-257zM882 614v-68h-133v-217h-82v495h82v-210h133z" />
    <glyph glyph-name="cid479" unicode="&#xac19;" 
d="M510 760q0 -84 -28.5 -154t-83 -124t-132.5 -93t-177 -62l-33 66q171 37 262.5 116.5t100.5 184.5h-326v66h417zM266 0h508v-62h-590v365h570v-61h-488v-89h477v-61h-477v-92zM882 615v-68h-133v-203h-82v479h82v-208h133z" />
    <glyph glyph-name="cid480" unicode="&#xac1a;" 
d="M509 765q0 -86 -30.5 -157t-86 -127.5t-134 -97.5t-173.5 -66l-31 69q79 20 144 51t112 70.5t75 88t34 102.5h-323v67h413zM382 8h186v206h-186v-206zM649 8h135v-66h-615v66h132v206h-124v66h596v-66h-124v-206zM882 609v-68h-133v-217h-82v499h82v-214h133z" />
    <glyph glyph-name="cid481" unicode="&#xac1b;" 
d="M507 771q0 -171 -109.5 -282t-311.5 -160l-30 68q171 39 261 118.5t100 188.5h-325v67h415zM474 -13q81 0 126.5 17.5t45.5 50.5q0 32 -45.5 50t-126.5 18t-126.5 -18t-45.5 -50q0 -33 45.5 -50.5t126.5 -17.5zM474 182q117 0 183 -33t66 -94q0 -62 -66 -95t-183 -33
t-183 33t-66 95q0 61 66 94t183 33zM515 287h271v-63h-624v63h271v106h82v-106zM882 623v-68h-133v-205h-82v473h82v-200h133z" />
    <glyph glyph-name="cid482" unicode="&#xac1c;" 
d="M437 707q0 -87 -16.5 -169.5t-55.5 -157.5t-103.5 -141.5t-160.5 -120.5l-48 59q77 43 132.5 94.5t92 110t55 123.5t23.5 135h-269v67h350zM814 823v-897h-79v469h-122v-424h-77v828h77v-337h122v361h79z" />
    <glyph glyph-name="cid483" unicode="&#xac1d;" 
d="M443 756q0 -161 -87 -280t-258 -191l-40 60q138 57 214 145t87 200h-266v66h350zM207 252h603v-326h-82v259h-521v67zM810 822v-527h-79v235h-118v-231h-78v507h78v-209h118v225h79z" />
    <glyph glyph-name="cid484" unicode="&#xac20;" 
d="M613 183h-78v623h78v-258h118v274h79v-669h-79v328h-118v-298zM442 735q0 -162 -85.5 -282.5t-256.5 -195.5l-41 60q137 59 212.5 148t87.5 204h-264v66h347zM837 18v-67h-615v284h82v-217h533z" />
    <glyph glyph-name="cid485" unicode="&#xac24;" 
d="M613 369h-78v436h78v-185h118v202h79v-459h-79v191h-118v-185zM441 768q0 -155 -86.5 -263.5t-254.5 -169.5l-39 60q136 48 210.5 126t86.5 181h-262v66h345zM844 4v-66h-624v229h509v90h-511v65h592v-217h-509v-101h543z" />
    <glyph glyph-name="cid486" unicode="&#xac2c;" 
d="M444 756q0 -162 -85 -279.5t-256 -189.5l-42 61q138 56 212.5 142t85.5 200h-264v66h349zM301 6h428v189h-428v-189zM221 261h589v-321h-589v321zM810 822v-514h-79v226h-118v-220h-78v492h78v-205h118v221h79z" />
    <glyph glyph-name="cid487" unicode="&#xac2d;" 
d="M443 763q0 -320 -341 -459l-41 61q138 54 212 137t86 194h-263v67h347zM729 123h-425v-117h425v117zM729 296h81v-356h-588v356h82v-108h425v108zM810 823v-487h-79v203h-118v-197h-78v464h78v-200h118v217h79z" />
    <glyph glyph-name="cid488" unicode="&#xac2f;" 
d="M613 319h-78v487h78v-220h118v237h79v-586h-79v282h-118v-200zM445 741q0 -161 -83.5 -284.5t-258.5 -199.5l-44 60q144 60 217 150.5t84 206.5h-262v67h347zM553 238q0 -45 25.5 -85t68 -72.5t97.5 -55t114 -31.5l-33 -65q-50 9 -97.5 26.5t-88.5 42t-73.5 56.5
t-53.5 70q-20 -38 -52.5 -70t-73.5 -56.5t-88.5 -42t-97.5 -26.5l-32 65q58 9 113 31.5t97 55t67.5 72.5t25.5 85v39h82v-39z" />
    <glyph glyph-name="cid489" unicode="&#xac30;" 
d="M613 313h-78v493h78v-210h118v226h79v-513h-79v220h-118v-216zM443 756q0 -161 -87 -278t-255 -188l-42 61q136 55 212 140.5t87 197.5h-263v67h348zM696 216q0 -35 12 -69t35.5 -64t57 -54t75.5 -39l-40 -60q-67 23 -112.5 68t-68.5 102q-20 -55 -61 -103t-104 -75
q-65 26 -105 72t-60 103q-25 -54 -70 -98.5t-109 -68.5l-41 60q42 16 76 41t57 55t35.5 63.5t12.5 66.5v58h79v-58q0 -61 30.5 -119t93.5 -95q32 20 56 46.5t39.5 55t23.5 57.5t8 55v58h80v-58z" />
    <glyph glyph-name="cid490" unicode="&#xac31;" 
d="M613 303h-78v503h78v-219h118v235h79v-550h-79v248h-118v-217zM444 749q0 -162 -86.5 -282t-257.5 -192l-43 60q138 57 214.5 145t87.5 203h-262v66h347zM515 -7q103 0 162 27t59 76q0 48 -59 75.5t-162 27.5q-104 0 -163.5 -27.5t-59.5 -75.5q0 -49 59.5 -76t163.5 -27z
M515 263q70 0 126 -11.5t95.5 -33t60.5 -52.5t21 -70q0 -40 -21 -71t-60.5 -52.5t-95.5 -32.5t-126 -11q-71 0 -127 11t-96 32.5t-61 52.5t-21 71q0 39 21 70t61 52.5t96 33t127 11.5z" />
    <glyph glyph-name="cid491" unicode="&#xac38;" 
d="M511 727q0 -95 -23 -185t-72 -171t-126 -151t-186 -124l-45 64q173 87 265 213t106 286h-329v68h410zM743 514v-201h142v-68h-142v-319h-82v897h82v-241h142v-68h-142z" />
    <glyph glyph-name="cid492" unicode="&#xac39;" 
d="M505 766q0 -85 -29 -157.5t-83 -130.5t-132 -101.5t-176 -70.5l-34 65q82 22 147 54.5t112 74.5t74 92t33 107h-325v67h413zM166 256h583v-330h-82v264h-501v66zM749 620v-127h133v-66h-133v-130h-82v527h82v-138h133v-66h-133z" />
    <glyph glyph-name="cid493" unicode="&#xac3c;" 
d="M509 753q0 -87 -29.5 -161.5t-84.5 -136t-132.5 -108.5t-174.5 -77l-33 65q79 25 143.5 60.5t112 80.5t76 98t34.5 112h-330v67h418zM272 13h516v-67h-598v288h82v-221zM749 586v-153h133v-68h-133v-198h-82v655h82v-168h133v-68h-133z" />
    <glyph glyph-name="cid494" unicode="&#xac40;" 
d="M508 779q0 -84 -29.5 -154t-84 -124.5t-133 -93.5t-176.5 -62l-31 67q167 37 260.5 115.5t103.5 184.5h-325v67h415zM262 0h520v-65h-600v231h486v95h-489v65h570v-222h-487v-104zM749 645v-111h133v-66h-133v-102h-82v457h82v-112h133v-66h-133z" />
    <glyph glyph-name="cid495" unicode="&#xac4b;" 
d="M509 753q0 -87 -29 -161.5t-83 -135t-132 -106.5t-176 -76l-34 66q162 49 258 138.5t108 208.5h-325v66h413zM520 253q0 -48 24 -90.5t65 -76t94.5 -57t113.5 -34.5l-34 -63q-50 10 -96 27.5t-85.5 43t-71 57.5t-51.5 71q-20 -39 -51.5 -72t-72 -58.5t-87 -43.5
t-96.5 -28l-34 65q60 10 114.5 33.5t95.5 57.5t65.5 76.5t24.5 91.5v40h82v-40zM749 601v-148h133v-68h-133v-158h-82v596h82v-154h133v-68h-133z" />
    <glyph glyph-name="cid496" unicode="&#xac4d;" 
d="M507 756q0 -86 -29 -159.5t-83 -133.5t-132 -105.5t-175 -73.5l-33 66q80 24 144.5 58t111 77.5t74 95t33.5 109.5h-325v66h414zM468 -8q97 0 154 29t57 80q0 52 -57 81t-154 29t-154 -29t-57 -81q0 -51 57 -80t154 -29zM468 275q66 0 120 -12t92.5 -34.5t59 -54.5
t20.5 -73t-20.5 -73t-59 -54.5t-92.5 -34.5t-120 -12t-120 12t-92.5 34.5t-59 54.5t-20.5 73t20.5 73t59 54.5t92.5 34.5t120 12zM749 614v-129h132v-67h-132v-131h-82v536h82v-142h132v-67h-132z" />
    <glyph glyph-name="cid497" unicode="&#xac54;" 
d="M437 707q0 -86 -16.5 -168.5t-55.5 -158t-103.5 -142t-160.5 -120.5l-48 59q77 43 132.5 95t92 110.5t55 123.5t23.5 134h-269v67h350zM735 336v186h-122v-186h122zM814 823v-897h-79v343h-122v-299h-77v829h77v-210h122v234h79z" />
    <glyph glyph-name="cid498" unicode="&#xac58;" 
d="M613 583v-151h118v151h-118zM613 182h-78v624h78v-156h118v172h79v-669h-79v212h-118v-183zM442 735q0 -162 -85.5 -283t-256.5 -196l-41 61q137 59 212.5 148t87.5 204h-264v66h347zM837 18v-67h-615v283h82v-216h533z" />
    <glyph glyph-name="cid499" unicode="&#xac5c;" 
d="M613 636v-104h118v104h-118zM613 369h-78v437h78v-106h118v122h79v-459h-79v105h-118v-99zM441 769q0 -155 -86.5 -264.5t-254.5 -172.5l-39 61q137 49 211 127t86 183h-262v66h345zM844 -2v-66h-624v228h509v94h-511v65h592v-220h-509v-101h543z" />
    <glyph glyph-name="cid500" unicode="&#xac70;" 
d="M501 726q0 -96 -21 -185.5t-69 -169.5t-125 -149.5t-189 -124.5l-45 64q90 44 156.5 98t111.5 117t69 134t30 150h-327v66h409zM791 822v-896h-82v470h-210v67h210v359h82z" />
    <glyph glyph-name="cid501" unicode="&#xac71;" 
d="M514 766q0 -85 -29 -157.5t-83 -131t-131 -102t-173 -70.5l-33 64q160 46 254.5 130.5t107.5 199.5h-316v67h403zM192 257h600v-328h-83v262h-517v66zM792 823v-526h-83v223h-192v67h192v236h83z" />
    <glyph glyph-name="cid502" unicode="&#xac74;" 
d="M709 546v276h83v-662h-83v319h-194v67h194zM519 753q0 -87 -29.5 -162.5t-84 -137.5t-131.5 -110.5t-172 -79.5l-35 66q77 25 141 61.5t111 82t76 99.5t36 114h-319v67h407zM815 13v-67h-590v281h82v-214h508z" />
    <glyph glyph-name="cid503" unicode="&#xac77;" 
d="M709 517h-195v68h195v238h83v-510h-83v204zM512 766q0 -85 -28.5 -157.5t-82.5 -131.5t-131.5 -103t-174.5 -72l-32 66q161 45 255.5 130.5t107.5 200.5h-318v67h404zM810 4v-66h-597v325h581v-66h-499v-193h515z" />
    <glyph glyph-name="cid504" unicode="&#xac78;" 
d="M709 541h-195v66h195v216h83v-460h-83v178zM508 779q0 -84 -28 -153t-81.5 -123.5t-130 -94t-172.5 -63.5l-30 65q161 39 252 117t102 186h-306v66h394zM822 0v-65h-606v231h494v93h-496v65h578v-220h-495v-104h525z" />
    <glyph glyph-name="cid505" unicode="&#xac7a;" 
d="M512 777q0 -84 -28.5 -153.5t-82.5 -124t-131 -94t-174 -63.5l-30 64q163 39 255 118t103 187h-313v66h401zM242 3q36 0 66 0.5t57 2t52.5 5t52.5 8.5l8 -64q-32 -6 -60.5 -9t-59.5 -5t-66.5 -2.5t-80.5 -0.5h-48v223h209v85h-211v63h290v-209h-209v-97zM578 0h142v248
h-142v-248zM506 309h286v-371h-286v371zM792 823v-474h-83v190h-194v67h194v217h83z" />
    <glyph glyph-name="cid506" unicode="&#xac80;" 
d="M513 766q0 -85 -29 -157.5t-83 -131t-131 -102t-173 -70.5l-34 64q161 46 255.5 130.5t107.5 199.5h-318v67h405zM293 5h418v203h-418v-203zM212 273h579v-334h-579v334zM791 823v-512h-82v214h-195v67h195v231h82z" />
    <glyph glyph-name="cid507" unicode="&#xac81;" 
d="M514 767q0 -85 -28 -155.5t-81.5 -126.5t-131 -97.5t-176.5 -66.5l-33 64q165 42 258 122.5t104 192.5h-316v67h404zM710 119h-417v-115h417v115zM710 295h81v-357h-580v357h82v-112h417v112zM791 823v-483h-82v190h-194v68h194v225h82z" />
    <glyph glyph-name="cid508" unicode="&#xac83;" 
d="M709 503h-193v67h193v252h83v-606h-83v287zM513 752q0 -87 -28 -161t-80.5 -134t-128.5 -106.5t-172 -77.5l-36 65q160 51 252.5 139.5t104.5 207.5h-314v67h402zM543 253q0 -48 24 -90.5t65 -76t95 -57t113 -34.5l-33 -64q-50 10 -96 28t-86 43.5t-71.5 57.5t-51.5 71
q-20 -39 -51.5 -72t-72 -58.5t-87.5 -43.5t-97 -28l-33 65q60 10 114.5 33.5t95.5 57.5t65.5 76.5t24.5 91.5v41h82v-41z" />
    <glyph glyph-name="cid509" unicode="&#xac84;" 
d="M709 525h-193v68h193v230h83v-511h-83v213zM513 766q0 -85 -29 -157.5t-83 -131t-131 -102t-173 -70.5l-34 64q79 23 143.5 56t111 75t74 92t33.5 107h-312v67h400zM691 222q0 -35 12 -69t35 -64t56.5 -54t76.5 -38l-41 -62q-66 25 -111.5 69t-68.5 101q-21 -55 -62 -103
t-104 -74q-65 25 -105.5 71.5t-61.5 102.5q-24 -54 -69 -98t-108 -69l-42 62q43 15 76.5 40t56.5 55t35.5 63.5t12.5 66.5v65h79v-65q0 -60 31 -119t94 -96q32 20 56 46.5t40 55t24 58t8 55.5v65h80v-65z" />
    <glyph glyph-name="cid510" unicode="&#xac85;" 
d="M709 503h-192v67h192v252h83v-534h-83v215zM515 755q0 -86 -29 -159.5t-83 -132.5t-131.5 -103.5t-174.5 -73.5l-33 65q161 48 256 135t106 203h-315v66h404zM500 -5q99 0 157 29t58 80t-58 80t-157 29t-158 -29t-59 -80t59 -80t158 -29zM500 277q67 0 122 -12t93.5 -34
t59.5 -54.5t21 -72.5q0 -41 -21 -73t-59.5 -54.5t-93.5 -34.5t-122 -12q-68 0 -123 12t-94 34.5t-60 54.5t-21 73q0 40 21 72.5t60 54.5t94 34t123 12z" />
    <glyph glyph-name="cid511" unicode="&#xac86;" 
d="M709 586v237h83v-513h-83v209h-193v67h193zM527 766q0 -86 -30 -158t-85.5 -129.5t-135 -100t-178.5 -67.5l-31 66q83 21 149.5 53t114 73t75 90.5t33.5 105.5h-328v67h416zM549 198q1 -36 24.5 -70t62.5 -61.5t90.5 -47t108.5 -28.5l-31 -63q-49 8 -94.5 23.5t-84.5 38
t-69.5 51t-49.5 61.5q-19 -33 -49.5 -61.5t-69.5 -51t-84.5 -38t-94.5 -23.5l-30 63q57 8 108.5 27.5t90.5 47t62 61t24 71.5h-250v66h590v-66h-254z" />
    <glyph glyph-name="cid512" unicode="&#xac89;" 
d="M709 529h-190v68h190v226h83v-483h-83v189zM514 769q0 -169 -109.5 -282t-307.5 -165l-32 66q167 42 259 123.5t103 191.5h-318v66h405zM812 1v-62h-594v364h577v-62h-495v-88h482v-61h-482v-91h512z" />
    <glyph glyph-name="cid513" unicode="&#xac8a;" 
d="M709 589v234h83v-502h-83v200h-196v68h196zM513 765q0 -84 -29 -155.5t-83.5 -129t-131.5 -100t-173 -68.5l-31 65q79 21 143 53t110.5 73t74 90t33.5 105h-316v67h403zM404 6h185v205h-185v-205zM810 6v-66h-623v66h136v205h-128v66h604v-66h-129v-205h140z" />
    <glyph glyph-name="cid514" unicode="&#xac8b;" 
d="M709 544h-196v67h196v212h83v-476h-83v197zM506 770q0 -169 -107.5 -279.5t-304.5 -162.5l-29 66q165 41 254.5 121t100.5 189h-308v66h394zM497 -14q77 0 120.5 17.5t43.5 50.5q0 32 -43.5 49.5t-120.5 17.5t-120.5 -17.5t-43.5 -49.5q0 -33 43.5 -50.5t120.5 -17.5z
M497 180q116 0 182.5 -33t66.5 -93q0 -61 -66.5 -93.5t-182.5 -32.5t-182.5 32.5t-66.5 93.5q0 60 66.5 93t182.5 33zM810 284v-63h-625v63h272v105h82v-105h271z" />
    <glyph glyph-name="cid515" unicode="&#xac8c;" 
d="M550 799h78v-828h-78v419h-184q-41 -78 -105.5 -146.5t-158.5 -124.5l-48 59q145 87 218.5 204.5t84.5 259.5h-265v67h346q0 -66 -10 -129.5t-33 -123.5h155v343zM815 823v-897h-78v897h78z" />
    <glyph glyph-name="cid516" unicode="&#xac90;" 
d="M810 149h-79v673h79v-673zM369 468q-87 -130 -269 -210l-42 60q140 59 216 148t87 204h-262v67h346q0 -112 -40 -202h148v269h77v-629h-77v293h-184zM842 13v-67h-615v287h82v-220h533z" />
    <glyph glyph-name="cid517" unicode="&#xac94;" 
d="M810 363h-79v459h79v-459zM382 537q-84 -132 -278 -205l-41 61q139 48 213.5 126.5t85.5 183.5h-260v66h345q0 -45 -8 -86.5t-22 -79.5h136v200h77v-436h-77v170h-171zM844 4v-66h-624v227h508v89h-510v65h592v-216h-509v-99h543z" />
    <glyph glyph-name="cid518" unicode="&#xac9c;" 
d="M382 509q-86 -141 -276 -222l-42 61q136 56 211.5 141.5t87.5 199.5h-262v67h346q0 -98 -33 -180h139v227h77v-487h-77v193h-171zM302 6h427v191h-427v-191zM222 263h588v-323h-588v323zM810 822v-516h-79v516h79z" />
    <glyph glyph-name="cid519" unicode="&#xac9d;" 
d="M379 516q-85 -136 -277 -210l-40 60q142 53 214.5 136t83.5 192h-258v66h343q0 -95 -32 -177h140v220h77v-467h-77v180h-174zM729 119h-425v-114h425v114zM729 292h81v-353h-588v353h82v-108h425v108zM810 822v-493h-79v493h79z" />
    <glyph glyph-name="cid520" unicode="&#xac9f;" 
d="M810 226h-79v597h79v-597zM382 492q-43 -74 -112.5 -133t-166.5 -102l-43 60q138 60 213.5 149.5t87.5 207.5h-263v67h346q0 -100 -31 -183h140v245h77v-500h-77v189h-171zM550 238q0 -45 25.5 -85t68 -72.5t98 -54.5t114.5 -31l-32 -65q-50 9 -98 26.5t-89 42t-74 56.5
t-54 70q-21 -38 -53.5 -70t-74 -56.5t-89 -42t-98.5 -26.5l-32 65q59 9 114.5 31t98 54.5t68 72.5t25.5 85v40h82v-40z" />
    <glyph glyph-name="cid521" unicode="&#xaca0;" 
d="M810 305h-79v517h79v-517zM377 502q-44 -68 -112.5 -121.5t-160.5 -93.5l-43 61q138 55 214 141.5t88 200.5h-263v66h347q0 -103 -36 -188h142v235h77v-484h-77v183h-176zM696 216q0 -35 12 -69t35.5 -64t57 -54t75.5 -39l-40 -60q-67 23 -112.5 68t-68.5 102
q-20 -55 -61 -103.5t-104 -74.5q-65 26 -105 72t-60 103q-25 -54 -70 -98.5t-109 -68.5l-41 60q42 15 76 40t57 55.5t35.5 64t12.5 66.5v58h79v-58q0 -61 30.5 -119t93.5 -95q32 20 56 46t39.5 55t23.5 58t8 55v58h80v-58z" />
    <glyph glyph-name="cid522" unicode="&#xaca1;" 
d="M810 272h-79v550h79v-550zM380 501q-86 -144 -279 -226l-42 60q138 57 215 145t88 203h-264v66h349q0 -49 -8.5 -94t-24.5 -87h139v235h77v-500h-77v198h-173zM516 -8q103 0 162.5 27.5t59.5 76.5q0 48 -59.5 75.5t-162.5 27.5t-162.5 -27.5t-59.5 -75.5
q0 -49 59.5 -76.5t162.5 -27.5zM516 262q70 0 126.5 -11.5t96 -32.5t60.5 -52t21 -70q0 -40 -21 -71t-60.5 -52.5t-96 -32.5t-126.5 -11t-126.5 11t-96 32.5t-60.5 52.5t-21 71q0 39 21 70t60.5 52t96 32.5t126.5 11.5z" />
    <glyph glyph-name="cid523" unicode="&#xaca8;" 
d="M791 824v-897h-82v343h-248v67h248v174h-235q-38 -125 -129.5 -231.5t-248.5 -184.5l-43 66q178 88 267.5 214t101.5 285h-330v66h412q0 -38 -3.5 -75.5t-10.5 -73.5h219v247h82z" />
    <glyph glyph-name="cid524" unicode="&#xaca9;" 
d="M192 248h600v-320h-83v254h-517v66zM792 823v-535h-83v118h-232v67h232v123h-219q-45 -106 -145.5 -181t-245.5 -116l-33 66q81 22 147 55t113 75t75 93t34 108h-322v67h410q0 -52 -12 -100h198v160h83z" />
    <glyph glyph-name="cid525" unicode="&#xacaa;" 
d="M170 259h293v-333h-82v266h-211v67zM505 259h287v-333h-83v266h-204v67zM792 823v-521h-83v107h-234v67h234v125h-220q-45 -107 -145 -182t-244 -115l-34 66q81 22 146 54.5t112.5 74.5t75.5 92.5t34 107.5h-322v67h410q0 -49 -11 -99h198v156h83z" />
    <glyph glyph-name="cid526" unicode="&#xacac;" 
d="M485 571q-47 -107 -145 -185.5t-236 -123.5l-36 67q78 25 142.5 61.5t112 82t76.5 99.5t36 114h-321v66h409q0 -60 -15 -114h201v184h83v-667h-83v214h-236v67h236v135h-224zM814 13v-67h-589v274h82v-207h507z" />
    <glyph glyph-name="cid527" unicode="&#xacaf;" 
d="M488 608q-44 -109 -144 -186t-246 -118l-33 66q161 44 256.5 129t107.5 200h-321v67h409q0 -49 -10 -92h202v149h83v-510h-83v104h-234v67h234v124h-221zM810 4v-66h-597v325h581v-66h-499v-193h515z" />
    <glyph glyph-name="cid528" unicode="&#xacb0;" 
d="M488 629q-42 -106 -142 -177.5t-249 -106.5l-30 67q165 38 256.5 115.5t102.5 184.5h-312v67h401q0 -44 -9 -86h203v130h83v-458h-83v93h-234v64h234v107h-221zM822 0v-65h-606v231h494v92h-496v66h578v-220h-495v-104h525z" />
    <glyph glyph-name="cid529" unicode="&#xacb8;" 
d="M293 5h418v202h-418v-202zM212 272h579v-333h-579v333zM791 823v-513h-82v114h-234v67h234v117h-223q-44 -109 -143.5 -185.5t-245.5 -117.5l-33 64q161 45 256 130t108 200h-320v67h407q0 -46 -9 -91h203v148h82z" />
    <glyph glyph-name="cid530" unicode="&#xacb9;" 
d="M710 119h-417v-115h417v115zM710 295h81v-357h-580v357h82v-112h417v112zM791 823v-482h-82v91h-232v67h232v116h-221q-42 -108 -141.5 -182t-248.5 -112l-34 65q166 42 259 122.5t104 191.5h-317v67h405q0 -23 -2 -44t-6 -41h202v141h82z" />
    <glyph glyph-name="cid531" unicode="&#xacbb;" 
d="M484 587q-42 -110 -139.5 -188.5t-240.5 -125.5l-36 64q160 51 253 139.5t105 208.5h-315v67h403q0 -26 -2.5 -50.5t-7.5 -47.5h205v168h83v-608h-83v183h-234v67h234v123h-225zM543 253q0 -49 24 -91t65 -75.5t95 -57t113 -33.5l-33 -65q-50 10 -96 27.5t-86 43
t-71.5 58t-51.5 71.5q-20 -39 -51.5 -72t-72 -58.5t-87.5 -43.5t-97 -28l-33 65q60 10 114.5 33.5t95.5 57.5t65.5 76.5t24.5 91.5v39h82v-39z" />
    <glyph glyph-name="cid532" unicode="&#xacbc;" 
d="M486 606q-44 -109 -143.5 -184.5t-245.5 -116.5l-33 64q80 22 144.5 55t111.5 75t74.5 92.5t33.5 107.5h-315v67h403q0 -49 -10 -93h203v150h82v-512h-82v109h-234v67h234v119h-223zM691 222q0 -35 12 -69t35 -64t56.5 -54t76.5 -39l-41 -61q-66 25 -111.5 69t-68.5 101
q-21 -55 -62 -103t-104 -75q-65 26 -105.5 72t-61.5 103q-24 -54 -69 -98t-108 -69l-42 61q43 16 76.5 41t56.5 55t35.5 63.5t12.5 66.5v65h79v-65q0 -61 31 -119.5t94 -95.5q32 20 56 46.5t40 55t24 58t8 55.5v65h80v-65z" />
    </font>
</defs>
</svg>
