<?xml version="1.0" standalone="no"?>
<!DOCTYPE svg PUBLIC "-//W3C//DTD SVG 1.1//EN" "http://www.w3.org/Graphics/SVG/1.1/DTD/svg11.dtd" >
<svg>
<metadata>
Created by FontForge 20090622 at Mon Jul 13 02:11:49 2015
 By deploy user
Copyright  2015 Spoqa (http://bi.spoqa.com/)
</metadata>
<defs>
<font id="SpoqaHanSans-Bold" horiz-adv-x="920" >
  <font-face 
    font-family="SpoqaHanSans"
    font-weight="700"
    font-stretch="normal"
    units-per-em="1000"
    panose-1="2 11 8 0 0 0 0 0 0 0"
    ascent="880"
    descent="-120"
    x-height="560"
    cap-height="740"
    bbox="-54 -283 1056 978"
    underline-thickness="50"
    underline-position="-100"
    unicode-range="U+000D-U+FFE6"
  />
<missing-glyph horiz-adv-x="1000" 
 />
    <glyph glyph-name=".notdef" horiz-adv-x="1000" 
 />
    <glyph glyph-name="NULL" horiz-adv-x="0" 
 />
    <glyph glyph-name="NULL" horiz-adv-x="0" 
 />
    <glyph glyph-name="nonmarkingreturn" unicode="&#xd;" horiz-adv-x="227" 
 />
    <glyph glyph-name="cid1" unicode=" " horiz-adv-x="227" 
 />
    <glyph glyph-name="cid4.001" horiz-adv-x="589" 
d="M125 217h-86v95h97l17 137h-91v96h103l25 192h85l-23 -192h126l25 192h85l-22 -192h89v-96h-101l-17 -137h95v-95h-106l-26 -217h-88l26 217h-125l-27 -217h-87zM349 312l17 137h-126l-17 -137h126z" />
    <glyph glyph-name="cid5.001" horiz-adv-x="589" 
d="M437 557q-31 29 -60.5 44t-67.5 15q-45 0 -68.5 -20.5t-23.5 -62.5q0 -31 22.5 -52t56.5 -39t73 -36t73 -44.5t56.5 -64t22.5 -93.5q0 -82 -44.5 -138.5t-131.5 -73.5v-116h-99v112q-51 6 -104.5 28.5t-93.5 58.5l65 99q42 -32 82 -50t83 -18q53 0 77.5 22.5t24.5 65.5
q0 34 -22.5 57t-56.5 42.5t-73 38.5t-73 45t-56.5 61.5t-22.5 87.5q0 82 45.5 135.5t124.5 68.5v116h99v-114q54 -8 94 -32.5t72 -58.5z" />
    <glyph glyph-name="cid6.001" horiz-adv-x="962" 
d="M212 285q-40 0 -73 16t-57 46t-37 74t-13 100q0 55 13 98.5t37 73.5t57 45.5t73 15.5t73 -15.5t57 -45.5t37.5 -73.5t13.5 -98.5q0 -56 -13.5 -100t-37.5 -74t-57 -46t-73 -16zM212 368q32 0 54.5 35.5t22.5 117.5t-22.5 116t-54.5 34t-54 -34t-22 -116t22 -117.5
t54 -35.5zM639 754h87l-403 -768h-86zM750 -14q-39 0 -72 16t-57 46.5t-37.5 74t-13.5 99.5t13.5 99.5t37.5 73.5t57 45.5t72 15.5t72.5 -15.5t57.5 -45.5t37.5 -73.5t13.5 -99.5t-13.5 -99.5t-37.5 -74t-57.5 -46.5t-72.5 -16zM750 70q32 0 54.5 35t22.5 117t-22.5 116.5
t-54.5 34.5t-54.5 -34.5t-22.5 -116.5t22.5 -117t54.5 -35z" />
    <glyph glyph-name="cid7.001" horiz-adv-x="739" 
d="M170 205q0 -48 33 -77t87 -29q27 0 54.5 10t53.5 27q-96 79 -167 173q-27 -23 -44 -48.5t-17 -55.5zM244 566q0 -23 7 -48t20 -51q43 26 73 55t30 70q0 28 -13.5 46t-42.5 18q-32 0 -53 -24t-21 -66zM683 -14q-44 10 -90.5 29.5t-93.5 48.5q-46 -36 -102 -57t-125 -21
q-58 0 -103 16.5t-76 45t-47 67t-16 81.5q0 39 11.5 70t30.5 56t44 45.5t53 38.5q-23 42 -35 82.5t-12 77.5q0 39 13.5 73t39 59.5t61 40.5t80.5 15q79 0 125.5 -44t46.5 -117q0 -37 -13.5 -67t-36 -56t-51 -48t-58.5 -43q33 -42 74 -81t86 -73q29 39 52.5 86t38.5 102h133
q-20 -69 -51 -132.5t-74 -121.5q36 -20 69 -34t62 -19z" />
    <glyph glyph-name="cid8.001" horiz-adv-x="325" 
d="M92 641l-5 139h150l-5 -139l-29 -215h-82z" />
    <glyph glyph-name="cid9.001" horiz-adv-x="378" 
d="M234 -202q-71 116 -110 241.5t-39 276.5q0 150 39 275.5t110 241.5l92 -39q-63 -110 -92.5 -232.5t-29.5 -245.5q0 -125 29.5 -247t92.5 -232l-92 -39v0z" />
    <glyph glyph-name="cid10.001" horiz-adv-x="378" 
d="M52 -163q63 110 92.5 232t29.5 247q0 123 -29.5 245.5t-92.5 232.5l91 39q72 -116 111 -241.5t39 -275.5q0 -151 -39.5 -276.5t-110.5 -241.5z" />
    <glyph glyph-name="cid11.001" horiz-adv-x="506" 
d="M102 464l66 114l-119 53l24 74l128 -29l13 132h79l12 -132l128 29l24 -74l-120 -53l67 -114l-63 -46l-88 100l-88 -100z" />
    <glyph glyph-name="cid12.001" horiz-adv-x="589" 
d="M240 322h-202v104h202v213h109v-213h202v-104h-202v-213h-109v213z" />
    <glyph glyph-name="cid13.001" horiz-adv-x="325" 
d="M53 -133q58 22 89 57.5t31 79.5h-9q-36 0 -64 22.5t-28 64.5q0 40 28 63.5t67 23.5q51 0 78.5 -38t27.5 -107q0 -88 -49 -152t-140 -94z" />
    <glyph glyph-name="cid14.001" horiz-adv-x="370" 
d="M49 339h273v-105h-273v105z" />
    <glyph glyph-name="cid15.001" horiz-adv-x="325" 
d="M162 -14q-39 0 -65 27.5t-26 68.5t26 68.5t65 27.5q40 0 66 -27.5t26 -68.5t-26 -68.5t-66 -27.5z" />
    <glyph glyph-name="cid16.001" horiz-adv-x="388" 
d="M262 805h98l-248 -987h-98z" />
    <glyph glyph-name="cid17.001" horiz-adv-x="589" 
d="M295 -14q-57 0 -103 24.5t-79 73.5t-51 121t-18 168t18 167.5t51 119t79 71t103 23.5q56 0 102 -23.5t79 -71t51 -119t18 -167.5t-18 -168t-51 -121t-79 -73.5t-102 -24.5zM295 101q24 0 44 13t35 44.5t23.5 84t8.5 130.5t-8.5 129t-23.5 82t-35 43.5t-44 12.5
t-44.5 -12.5t-35.5 -43.5t-23.5 -82t-8.5 -129t8.5 -130.5t23.5 -84t35.5 -44.5t44.5 -13z" />
    <glyph glyph-name="cid18.001" horiz-adv-x="589" 
d="M82 119h159v468h-134v91q56 11 96.5 25.5t75.5 36.5h109v-621h139v-119h-445v119z" />
    <glyph glyph-name="cid19.001" horiz-adv-x="589" 
d="M43 85q75 67 134.5 127.5t101 114t63 101t21.5 90.5q0 57 -29 88.5t-82 31.5q-41 0 -74.5 -22.5t-61.5 -53.5l-80 80q51 54 105 83t130 29q52 0 95 -16t74 -46t47.5 -72t16.5 -94q0 -50 -19.5 -102t-53 -104t-78 -103.5t-95.5 -100.5q28 3 61 5.5t59 2.5h161v-124h-496
v85z" />
    <glyph glyph-name="cid20.001" horiz-adv-x="589" 
d="M274 -14q-88 0 -148.5 29t-99.5 74l69 93q33 -32 73.5 -54t91.5 -22q57 0 91.5 26.5t34.5 76.5q0 27 -9 49t-32.5 37.5t-63 23.5t-99.5 8v106q51 0 85.5 8.5t55.5 23.5t30 35.5t9 45.5q0 44 -25.5 68t-73.5 25q-40 -1 -73.5 -18.5t-66.5 -47.5l-75 90q48 42 102 66.5
t120 24.5q54 0 98 -13t75.5 -38t49 -61.5t17.5 -84.5q0 -60 -32 -103t-92 -66v-5q31 -9 58.5 -24.5t47 -38.5t31 -53t11.5 -66q0 -51 -21 -91t-56.5 -67.5t-82.5 -42t-100 -14.5z" />
    <glyph glyph-name="cid21.001" horiz-adv-x="589" 
d="M336 304v151q0 16 0.5 36t1.5 40.5l2 40.5t2 36h-4l-28.5 -59.5t-30.5 -60.5l-115 -184h172zM561 192h-88v-192h-137v192h-315v100l276 448h176v-436h88v-112z" />
    <glyph glyph-name="cid22.001" horiz-adv-x="589" 
d="M276 -14q-88 0 -148.5 30t-101.5 71l68 94q32 -31 71.5 -53t91.5 -22q58 0 94.5 35t36.5 101q0 65 -34 99.5t-91 34.5q-33 0 -56 -9t-55 -30l-67 44l20 359h396v-123h-269l-14 -157q22 11 42.5 16t46.5 5q46 0 87.5 -14t73 -43t49.5 -73.5t18 -104.5q0 -62 -21 -110.5
t-57 -81.5t-83 -50.5t-98 -17.5z" />
    <glyph glyph-name="cid23.001" horiz-adv-x="589" 
d="M313 97q42 0 71 34t29 102q0 66 -28.5 97.5t-76.5 31.5q-30 0 -61.5 -17.5t-59.5 -60.5q5 -51 16.5 -86.5t28 -58t37.5 -32.5t44 -10zM459 582q-20 23 -51 38.5t-63 15.5t-60 -13t-50 -42t-35.5 -77t-15.5 -117q30 37 73 58t79 21q46 0 85 -14t67.5 -43t44 -72.5
t15.5 -103.5q0 -57 -18.5 -102.5t-50 -78t-74 -49.5t-89.5 -17q-53 0 -101 21.5t-85 67.5t-58.5 116.5t-21.5 168.5q0 103 23.5 177.5t63.5 122.5t91.5 71t107.5 23q68 0 117.5 -24.5t83.5 -59.5z" />
    <glyph glyph-name="cid24.001" horiz-adv-x="589" 
d="M186 0q5 96 16.5 177t34 154.5t58 142.5t88.5 143h-333v123h492v-89q-65 -79 -103.5 -149.5t-60 -146t-30.5 -161t-13 -194.5h-149v0z" />
    <glyph glyph-name="cid25.001" horiz-adv-x="589" 
d="M294 -14q-53 0 -98 14.5t-78 41t-52 62.5t-19 80q0 36 10 65t27.5 53t40.5 42.5t49 32.5v5q-43 31 -70.5 73.5t-27.5 102.5q0 45 16.5 81t46.5 61.5t71 39t89 13.5q49 0 89 -14t68 -40t43 -62.5t15 -80.5q0 -27 -8 -52t-21 -46.5t-30.5 -39.5t-35.5 -31v-5
q25 -14 48 -32.5t39.5 -42.5t26.5 -54.5t10 -68.5q0 -42 -18 -78t-50.5 -63t-78.5 -42t-102 -15zM341 423q53 56 53 124q0 45 -25.5 74t-72.5 29q-38 0 -64 -23.5t-26 -68.5q0 -26 10 -46t28 -36t43 -28.5t54 -24.5zM298 90q47 0 77.5 25.5t30.5 73.5q0 29 -12 50t-34 38
t-52 31t-66 29q-30 -24 -49 -59.5t-19 -77.5q0 -51 36 -80.5t88 -29.5z" />
    <glyph glyph-name="cid26.001" horiz-adv-x="589" 
d="M280 379q30 0 62.5 18t59.5 61q-5 51 -16.5 86t-28 57t-37.5 32t-45 10q-42 0 -71 -33.5t-29 -102.5q0 -66 28.5 -97t76.5 -31zM129 158q20 -22 52 -37t65 -15q31 0 59 12.5t49 42t34.5 77t15.5 117.5q-14 -19 -32.5 -34t-38.5 -25.5t-41 -16t-40 -5.5q-46 0 -85 14.5
t-67 43.5t-44 72.5t-16 102.5q0 57 18.5 102.5t50.5 78t74 49.5t90 17q52 0 100.5 -21t85 -66t58.5 -114.5t22 -165.5q0 -105 -23.5 -181t-63 -124.5t-91 -72t-106.5 -23.5q-69 0 -119.5 25t-83.5 59z" />
    <glyph glyph-name="cid27.001" horiz-adv-x="325" 
d="M162 366q-39 0 -65 27t-26 68q0 42 26 69t65 27q40 0 66 -27t26 -69q0 -41 -26 -68t-66 -27zM162 -14q-39 0 -65 27.5t-26 68.5t26 68.5t65 27.5q40 0 66 -27.5t26 -68.5t-26 -68.5t-66 -27.5z" />
    <glyph glyph-name="cid28.001" horiz-adv-x="325" 
d="M162 366q-39 0 -65 27t-26 68q0 42 26 69t65 27q40 0 66 -27t26 -69q0 -41 -26 -68t-66 -27zM53 -133q58 22 89 57.5t31 79.5h-9q-36 0 -64 22.5t-28 64.5q0 40 28 63.5t67 23.5q51 0 78.5 -38t27.5 -107q0 -88 -49 -152t-140 -94z" />
    <glyph glyph-name="cid29.001" horiz-adv-x="589" 
d="M38 324v104l513 198v-121l-210 -72l-153 -54v-5l153 -54l210 -72v-122z" />
    <glyph glyph-name="cid30.001" horiz-adv-x="589" 
d="M38 556h513v-105h-513v105zM38 297h513v-105h-513v105z" />
    <glyph glyph-name="cid31.001" horiz-adv-x="589" 
d="M38 248l211 72l153 54v5l-153 54l-211 72v121l513 -198v-104l-513 -198v122z" />
    <glyph glyph-name="cid32.001" horiz-adv-x="514" 
d="M177 252q-6 40 2.5 73t24.5 60.5t37 51.5l39 46t30.5 44t12.5 46q0 38 -23 60t-62 22q-33 0 -60 -15.5t-51 -40.5l-81 74q39 45 91.5 72.5t118.5 27.5q45 0 83 -11.5t66 -35.5t43.5 -59.5t15.5 -83.5q0 -35 -13 -64t-31.5 -54t-40.5 -48t-39.5 -48t-28 -53.5t-6.5 -63.5
h-128zM241 -14q-39 0 -65 27.5t-26 68.5t26 68.5t65 27.5q40 0 66 -27.5t26 -68.5t-26 -68.5t-66 -27.5z" />
    <glyph glyph-name="cid33.001" horiz-adv-x="1007" 
d="M478 -190q-85 0 -161.5 26t-134.5 78.5t-92 132t-34 185.5q0 117 40 213t108.5 164.5t159.5 105.5t193 37q90 0 163 -29t124.5 -81.5t79 -125.5t27.5 -160q0 -77 -23 -135t-59 -96.5t-80.5 -58t-87.5 -19.5q-48 0 -83.5 22t-43.5 64h-2q-12 -17 -28.5 -31t-34.5 -24
t-37 -15.5t-37 -5.5q-65 0 -105.5 45t-40.5 123q0 50 17 99t47 88t71.5 63t90.5 24q29 0 51 -13.5t36 -42.5h2l16 47h91l-49 -244q-26 -107 54 -107q26 0 51 15t45 42.5t32 66.5t12 88q0 63 -18 119.5t-56 99t-96.5 67t-140.5 24.5q-74 0 -143.5 -30t-124.5 -85.5t-88 -134
t-33 -175.5q0 -84 26.5 -146.5t72 -104.5t106.5 -63t129 -21q46 0 92.5 13t82.5 33l33 -82q-51 -29 -105.5 -42t-114.5 -13zM466 150q20 0 39.5 13t43.5 43l29 160q-22 37 -59 37q-27 0 -49 -16.5t-37.5 -41.5t-24 -55t-8.5 -57q0 -42 18.5 -62.5t47.5 -20.5z" />
    <glyph glyph-name="cid34.001" horiz-adv-x="641" 
d="M406 305l-22 81q-17 58 -32.5 120t-32.5 122h-4q-14 -61 -30 -122.5t-33 -119.5l-22 -81h176zM438 190h-240l-52 -190h-150l237 740h174l238 -740h-155z" />
    <glyph glyph-name="cid35.001" horiz-adv-x="681" 
d="M91 740h245q57 0 106 -9t85 -30t56.5 -56t20.5 -87q0 -26 -7 -51t-20 -46.5t-31.5 -38t-42.5 -24.5v-5q60 -14 99.5 -57t39.5 -118q0 -56 -22 -97t-60.5 -68t-91 -40t-113.5 -13h-264v740zM325 439q71 0 103 26t32 71q0 49 -33 70t-100 21h-88v-188h86zM342 114
q76 0 116 27.5t40 85.5q0 54 -39.5 78t-116.5 24h-103v-215h103z" />
    <glyph glyph-name="cid36.001" horiz-adv-x="657" 
d="M393 -14q-70 0 -132 25t-108 73t-72.5 119t-26.5 164q0 91 27.5 163t74.5 122t109.5 76t132.5 26q71 0 126 -28.5t91 -66.5l-78 -94q-28 27 -61 44.5t-75 17.5t-78 -17.5t-62 -50.5t-41 -80t-15 -107t13.5 -108t39 -81.5t61 -51t79.5 -17.5q48 0 85.5 20.5t67.5 52.5
l78 -92q-46 -54 -105 -81.5t-131 -27.5z" />
    <glyph glyph-name="cid37.001" horiz-adv-x="714" 
d="M91 740h203q85 0 152.5 -22t115 -67.5t73 -114.5t25.5 -163q0 -93 -25.5 -163t-72 -116.5t-112.5 -70t-148 -23.5h-211v740zM285 119q52 0 93.5 14.5t70.5 45t44.5 78.5t15.5 116t-15.5 115.5t-44.5 77t-70.5 43t-93.5 13.5h-46v-503h46z" />
    <glyph glyph-name="cid38.001" horiz-adv-x="615" 
d="M91 740h454v-123h-306v-171h260v-124h-260v-198h317v-124h-465v740z" />
    <glyph glyph-name="cid39.001" horiz-adv-x="585" 
d="M91 740h456v-123h-308v-193h263v-124h-263v-300h-148v740z" />
    <glyph glyph-name="cid40.001" horiz-adv-x="717" 
d="M409 -14q-76 0 -141 25t-112.5 73t-74.5 119t-27 164q0 91 28 163t76 122t112.5 76t138.5 26q80 0 136.5 -29t92.5 -66l-79 -94q-27 26 -60.5 44t-84.5 18q-46 0 -84.5 -17.5t-66 -50.5t-43 -80t-15.5 -107q0 -121 55 -189.5t164 -68.5q27 0 52 7t41 21v146h-131v121h263
v-334q-38 -37 -100 -63t-140 -26z" />
    <glyph glyph-name="cid41.001" horiz-adv-x="757" 
d="M91 740h148v-291h280v291h147v-740h-147v320h-280v-320h-148v740z" />
    <glyph glyph-name="cid42.001" horiz-adv-x="330" 
d="M91 740h148v-740h-148v740z" />
    <glyph glyph-name="cid43.001" horiz-adv-x="568" 
d="M252 -14q-81 0 -136.5 32.5t-93.5 97.5l102 75q22 -41 50 -59t60 -18q49 0 74 30t25 107v489h148v-501q0 -52 -13.5 -98t-41.5 -80.5t-71 -54.5t-103 -20z" />
    <glyph glyph-name="cid44.001" horiz-adv-x="686" 
d="M91 740h148v-321h3l245 321h163l-226 -291l266 -449h-163l-191 332l-97 -124v-208h-148v740z" />
    <glyph glyph-name="cid45.001" horiz-adv-x="577" 
d="M91 740h148v-616h300v-124h-448v740z" />
    <glyph glyph-name="cid46.001" horiz-adv-x="854" 
d="M91 740h164l126 -346q12 -35 23 -71l22 -72h5q12 36 22.5 72t22.5 71l123 346h164v-740h-135v309q0 26 2 57.5t4.5 64t5.5 64t6 57.5h-4l-60 -174l-114 -311h-85l-115 311l-59 174h-4q3 -26 6 -57.5l6 -64t5 -64t2 -57.5v-309h-133v740z" />
    <glyph glyph-name="cid47.001" horiz-adv-x="749" 
d="M91 740h151l215 -394l74 -160h5l-12.5 127t-6.5 132v295h140v-740h-150l-214 396l-75 159h-5q5 -60 11.5 -127t6.5 -131v-297h-140v740z" />
    <glyph glyph-name="cid48.001" horiz-adv-x="770" 
d="M385 -14q-74 0 -134.5 26.5t-104.5 77t-68 122t-24 161.5t24 161t68 120t104.5 74.5t134.5 25.5q73 0 134 -26t105 -74.5t68 -119.5t24 -161t-24 -161.5t-68 -122t-105 -77t-134 -26.5zM385 114q41 0 74.5 18t57 52t36 82t12.5 107q0 120 -48.5 187t-131.5 67t-131.5 -67
t-48.5 -187q0 -59 12.5 -107t36 -82t57 -52t74.5 -18z" />
    <glyph glyph-name="cid49.001" horiz-adv-x="667" 
d="M91 740h243q61 0 114 -11.5t92 -38.5t61.5 -71.5t22.5 -110.5q0 -63 -22.5 -109.5t-61 -76.5t-90.5 -44.5t-112 -14.5h-99v-263h-148v740zM328 380q151 0 151 128q0 65 -39.5 90t-116.5 25h-84v-243h89z" />
    <glyph glyph-name="cid50.001" horiz-adv-x="770" 
d="M205 373q0 -125 48.5 -195.5t131.5 -70.5t131.5 70.5t48.5 195.5q0 120 -48.5 187t-131.5 67t-131.5 -67t-48.5 -187zM748 -179q-19 -9 -51 -15.5t-73 -6.5q-57 0 -104.5 14.5t-86.5 40t-68 61t-48 77.5q-59 11 -107.5 42.5t-83 80t-53.5 114t-19 144.5q0 90 24 161
t68 120t104.5 74.5t134.5 25.5q73 0 134 -26t105 -74.5t68 -119.5t24 -161q0 -76 -17.5 -139t-49 -111t-76.5 -80t-100 -46q26 -42 71.5 -60.5t96.5 -18.5q24 0 44.5 3.5t36.5 8.5z" />
    <glyph glyph-name="cid51.001" horiz-adv-x="682" 
d="M239 397h96q72 0 109.5 29.5t37.5 89.5t-37.5 83.5t-109.5 23.5h-96v-226zM494 0l-152 280h-103v-280h-148v740h258q58 0 109 -11t88.5 -37t59 -69t21.5 -107q0 -84 -38.5 -136t-102.5 -77l173 -303h-165z" />
    <glyph glyph-name="cid52.001" horiz-adv-x="624" 
d="M312 -14q-75 0 -145.5 28t-124.5 80l85 102q40 -37 89.5 -59.5t98.5 -22.5q58 0 88 23t30 62q0 21 -8 35t-22.5 25t-35 20l-45.5 20l-99 42q-28 12 -55 29t-48 41.5t-34 56t-13 72.5q0 45 19 84.5t53 68t81 45t103 16.5q65 0 126 -24.5t106 -70.5l-75 -93q-35 29 -73 45
t-84 16q-49 0 -78 -20.5t-29 -57.5q0 -20 9.5 -34t25 -25t36.5 -20t45 -18l97 -41q34 -14 61.5 -32t47 -42t30 -55.5t10.5 -71.5q0 -45 -18.5 -86t-53.5 -71.5t-85.5 -48.5t-114.5 -18z" />
    <glyph glyph-name="cid53.001" horiz-adv-x="625" 
d="M238 617h-208v123h566v-123h-210v-617h-148v617z" />
    <glyph glyph-name="cid54.001" horiz-adv-x="748" 
d="M375 -14q-68 0 -121 19.5t-90.5 61.5t-57 108t-19.5 158v407h148v-420q0 -58 9.5 -97.5t27.5 -63.5t44 -34.5t59 -10.5t59.5 10.5t45.5 34.5t29 63.5t10 97.5v420h142v-407q0 -92 -19 -158t-56 -108t-90 -61.5t-121 -19.5z" />
    <glyph glyph-name="cid55.001" horiz-adv-x="618" 
d="M-5 740h155l98 -360q17 -62 30.5 -119t31.5 -120h5l31.5 120l31.5 119l96 360h150l-227 -740h-176z" />
    <glyph glyph-name="cid56.001" horiz-adv-x="915" 
d="M18 740h151l59 -361q8 -59 17 -117.5t17 -118.5h4q11 60 23 119l24 117l86 361h126l86 -361l23.5 -116.5l23.5 -119.5h5l16.5 119l16.5 117l58 361h141l-137 -740h-184l-83 366l-17 86.5t-15 84.5h-4l-15.5 -84.5t-16.5 -86.5l-81 -366h-181z" />
    <glyph glyph-name="cid57.001" horiz-adv-x="627" 
d="M222 382l-195 358h164l74 -152q13 -26 25.5 -54l29.5 -63h5l25.5 63t23.5 54l70 152h156l-195 -365l208 -375h-164l-83 164l-27.5 58.5l-30.5 63.5h-4l-27 -63.5l-27 -58.5l-79 -164h-157z" />
    <glyph glyph-name="cid58.001" horiz-adv-x="581" 
d="M216 271l-222 469h157l74 -180l31.5 -81.5l32.5 -82.5h4l33.5 82.5l32.5 81.5l74 180h154l-223 -469v-271h-148v271z" />
    <glyph glyph-name="cid59.001" horiz-adv-x="613" 
d="M43 89l345 528h-312v123h493v-88l-344 -528h348v-124h-530v89z" />
    <glyph glyph-name="cid60.001" horiz-adv-x="378" 
d="M101 803h229v-78h-119v-818h119v-80h-229v976z" />
    <glyph glyph-name="cid61.001" horiz-adv-x="388" 
d="M28 805h97l249 -987h-98z" />
    <glyph glyph-name="cid62.001" horiz-adv-x="378" 
d="M48 -93h119v818h-119v78h229v-976h-229v80z" />
    <glyph glyph-name="cid63.001" horiz-adv-x="589" 
d="M234 760h121l175 -447h-122l-59 161l-52 153h-5l-52 -153l-58 -161h-122z" />
    <glyph glyph-name="cid64.001" horiz-adv-x="567" 
d="M14 -69h540v-86h-540v86z" />
    <glyph glyph-name="cid65.001" horiz-adv-x="626" 
d="M110 826l101 98l171 -203l-73 -71z" />
    <glyph glyph-name="cid66.001" horiz-adv-x="591" 
d="M217 -14q-38 0 -68.5 12.5t-52 35t-33.5 52.5t-12 66q0 90 76.5 139.5t245.5 67.5q-2 42 -22.5 69.5t-72.5 27.5q-39 0 -77 -15t-77 -38l-53 97q50 31 109 52.5t125 21.5q107 0 161 -62.5t54 -184.5v-327h-120l-11 60h-3q-37 -32 -79 -53t-90 -21zM265 101q32 0 57 14.5
t51 40.5v113q-51 -7 -86 -17t-56 -23.5t-30.5 -29.5t-9.5 -35q0 -33 21 -48t53 -15z" />
    <glyph glyph-name="cid67.001" horiz-adv-x="644" 
d="M360 -14q-38 0 -76.5 19t-73.5 54h-3l-13 -59h-115v798h146v-201l-3 -90q33 30 73 48.5t82 18.5q52 0 93 -20.5t69.5 -57.5t43.5 -89.5t15 -116.5q0 -72 -20 -128.5t-53 -95.5t-76 -59.5t-89 -20.5zM327 107q51 0 85.5 44t34.5 136q0 81 -26.5 123.5t-84.5 42.5
q-29 0 -55.5 -14.5t-55.5 -43.5v-246q26 -23 52.5 -32.5t49.5 -9.5z" />
    <glyph glyph-name="cid68.001" horiz-adv-x="527" 
d="M317 -14q-58 0 -108 20t-86.5 57.5t-57.5 92t-21 123.5q0 70 23.5 125t62.5 92.5t91 57.5t109 20q52 0 92 -18t71 -44l-70 -95q-21 18 -41.5 27.5t-44.5 9.5q-64 0 -103.5 -47.5t-39.5 -127.5q0 -79 39 -126t100 -47q30 0 58 12.5t51 32.5l58 -97q-40 -35 -88 -51.5
t-95 -16.5z" />
    <glyph glyph-name="cid69.001" horiz-adv-x="644" 
d="M276 -14q-52 0 -94.5 20t-72.5 58t-46 92t-16 123t19.5 123.5t52.5 92.5t75.5 58.5t87.5 20.5q48 0 80 -16.5t62 -44.5l-6 88v197h147v-798h-119l-12 58h-3q-31 -30 -71 -51t-84 -21zM314 107q29 0 54.5 13t49.5 45v246q-26 23 -52 32.5t-52 9.5q-24 0 -45 -11t-36.5 -33
t-25 -54t-9.5 -74q0 -88 30 -131t86 -43z" />
    <glyph glyph-name="cid70.001" horiz-adv-x="581" 
d="M322 -14q-59 0 -109.5 20t-88 57.5t-59 92t-21.5 123.5q0 68 22 122.5t58.5 93t83.5 59t97 20.5q58 0 101.5 -20t73 -56t44.5 -85t15 -107q0 -20 -2 -38.5t-5 -28.5h-345q9 -69 50.5 -104.5t104.5 -35.5q35 0 65.5 10t60.5 29l50 -90q-42 -29 -92.5 -45.5t-103.5 -16.5z
M413 336q0 57 -26 90.5t-80 33.5q-44 0 -79 -31.5t-43 -92.5h228z" />
    <glyph glyph-name="cid71.001" horiz-adv-x="372" 
d="M378 684q-14 5 -29.5 8.5t-29.5 3.5q-33 0 -50.5 -20.5t-17.5 -67.5v-48h105v-116h-105v-444h-147v444h-75v109l75 6v46q0 44 10.5 82t34 65.5t60.5 43.5t90 16q32 0 59.5 -6t46.5 -14z" />
    <glyph glyph-name="cid72.001" horiz-adv-x="597" 
d="M276 -243q-50 0 -92.5 8.5t-74 26.5t-49.5 45t-18 64q0 35 21 64.5t59 51.5v5q-22 14 -36.5 36.5t-14.5 57.5q0 32 18.5 59.5t43.5 45.5v4q-29 21 -51.5 59t-22.5 87t18.5 87t50 64t72 39t85.5 13q23 0 45 -4t39 -10h202v-108h-96q11 -14 18.5 -36.5t7.5 -48.5
q0 -47 -17 -82.5t-46 -59.5t-68.5 -36t-84.5 -12q-17 0 -35.5 3.5t-36.5 9.5q-12 -10 -18 -20.5t-6 -27.5q0 -23 19 -34.5t69 -11.5h95q102 0 155 -33t53 -107q0 -42 -21 -78.5t-60.5 -63.5t-96 -42t-126.5 -15zM285 268q37 0 62 26.5t25 76.5t-24.5 76.5t-62.5 26.5
t-63 -26.5t-25 -76.5t25.5 -76.5t62.5 -26.5zM298 -150q63 0 102.5 24t39.5 57q0 30 -24 40t-69 10h-68q-26 0 -44.5 2t-33.5 6q-37 -30 -37 -65t36 -54.5t98 -19.5z" />
    <glyph glyph-name="cid73.001" horiz-adv-x="640" 
d="M79 798h146v-201l-6 -105q34 32 76.5 57t99.5 25q91 0 132 -59.5t41 -165.5v-349h-147v331q0 65 -18.5 91t-60.5 26q-35 0 -60 -16t-57 -47v-385h-146v798z" />
    <glyph glyph-name="cid74.001" horiz-adv-x="304" 
d="M79 560h146v-560h-146v560zM153 650q-38 0 -63 22.5t-25 57.5q0 36 25 58t63 22t62.5 -22t24.5 -58q0 -35 -24.5 -57.5t-62.5 -22.5z" />
    <glyph glyph-name="cid75.001" horiz-adv-x="305" 
d="M40 -229q-32 0 -54.5 4.5t-39.5 10.5l26 109q24 -8 46 -8q36 0 49 23.5t13 71.5v578h147v-574q0 -45 -9.5 -84t-31 -68.5t-57.5 -46t-89 -16.5zM154 650q-38 0 -63 22.5t-25 57.5q0 36 25 58t63 22t63 -22t25 -58q0 -35 -25 -57.5t-63 -22.5z" />
    <glyph glyph-name="cid76.001" horiz-adv-x="605" 
d="M79 798h143v-480h4l194 242h160l-194 -229l212 -331h-159l-136 232l-81 -92v-140h-143v798z" />
    <glyph glyph-name="cid77.001" horiz-adv-x="315" 
d="M217 -14q-38 0 -64.5 12t-43 34.5t-23.5 54t-7 70.5v641h146v-648q0 -25 9.5 -34.5t20.5 -9.5h8.5t11.5 2l18 -109q-13 -5 -31.5 -9t-44.5 -4z" />
    <glyph glyph-name="cid78.001" horiz-adv-x="964" 
d="M79 560h120l10 -75h4q35 37 76 63t96 26q60 0 97 -25.5t57 -72.5q38 41 80.5 69.5t97.5 28.5q90 0 132 -59.5t42 -165.5v-349h-147v331q0 65 -19 91t-59 26q-48 0 -108 -63v-385h-147v331q0 65 -19 91t-59 26q-48 0 -108 -63v-385h-146v560z" />
    <glyph glyph-name="cid79.001" horiz-adv-x="641" 
d="M79 560h120l10 -74h4q37 36 81 62t101 26q91 0 132 -59.5t41 -165.5v-349h-147v331q0 65 -18.5 91t-60.5 26q-35 0 -60 -16t-57 -47v-385h-146v560z" />
    <glyph glyph-name="cid80.001" horiz-adv-x="626" 
d="M313 -14q-53 0 -101.5 20t-85.5 57.5t-59.5 92t-22.5 123.5q0 70 22.5 125t59.5 92.5t85.5 57.5t101.5 20q52 0 101 -20t86 -57.5t59.5 -92.5t22.5 -125q0 -69 -22.5 -123.5t-59.5 -92t-86 -57.5t-101 -20zM313 106q57 0 88 47t31 126q0 80 -31 127.5t-88 47.5t-88 -47.5
t-31 -127.5q0 -79 31 -126t88 -47z" />
    <glyph glyph-name="cid81.001" horiz-adv-x="644" 
d="M79 560h120l10 -58h4q35 30 77.5 51t87.5 21q52 0 92.5 -20.5t69 -57.5t43.5 -90t15 -117q0 -72 -20 -128.5t-53 -95t-76 -59t-89 -20.5q-37 0 -72 16t-67 45l4 -92v-170h-146v775zM327 107q51 0 85.5 44t34.5 136q0 81 -26.5 123.5t-84.5 42.5q-29 0 -55.5 -14.5
t-55.5 -43.5v-246q27 -23 53 -32.5t49 -9.5z" />
    <glyph glyph-name="cid82.001" horiz-adv-x="644" 
d="M418 -37l6 90q-29 -29 -67.5 -48t-80.5 -19q-52 0 -94.5 20t-72.5 58t-46 92t-16 123t19.5 123.5t52.5 92.5t75.5 58.5t87.5 20.5q47 0 82.5 -17t69.5 -52h4l12 55h115v-775h-147v178zM314 107q29 0 54.5 13t49.5 45v246q-26 23 -52 32.5t-52 9.5q-24 0 -45 -11
t-36.5 -33t-25 -54t-9.5 -74q0 -88 30 -131t86 -43z" />
    <glyph glyph-name="cid83.001" horiz-adv-x="436" 
d="M79 560h120l10 -99h4q31 55 73 84t86 29q23 0 38 -3.5t28 -8.5l-26 -127q-14 5 -27.5 7t-30.5 2q-33 0 -69 -24.5t-60 -85.5v-334h-146v560z" />
    <glyph glyph-name="cid84.001" horiz-adv-x="495" 
d="M239 -14q-57 0 -114 22t-99 57l67 92q38 -29 74.5 -45t75.5 -16q42 0 61.5 16.5t19.5 42.5q0 16 -10 27.5t-26.5 21.5t-37.5 18l-43 17q-27 10 -54 23.5t-49 33t-36 45.5t-14 61q0 38 15 69.5t42 54.5t65.5 35.5t85.5 12.5q62 0 109 -21.5t82 -47.5l-66 -89
q-30 21 -59.5 34.5t-61.5 13.5q-38 0 -56 -15t-18 -39q0 -15 9.5 -26t25.5 -20t36.5 -16.5l42.5 -15.5q28 -11 55.5 -24t50 -32t36.5 -46.5t14 -66.5q0 -37 -14.5 -69t-42.5 -56t-69.5 -38t-96.5 -14z" />
    <glyph glyph-name="cid85.001" horiz-adv-x="420" 
d="M284 -14q-50 0 -85 15t-57 42.5t-32 66.5t-10 86v248h-79v109l86 7l17 150h123v-150h138v-116h-138v-248q0 -94 76 -94q14 0 29 3.5t26 8.5l24 -107q-23 -8 -52 -14.5t-66 -6.5z" />
    <glyph glyph-name="cid86.001" horiz-adv-x="637" 
d="M245 -14q-90 0 -131 59.5t-41 164.5v350h147v-331q0 -66 18.5 -91.5t59.5 -25.5q35 0 60 16t54 54v378h147v-560h-120l-11 80h-4q-36 -43 -78.5 -68.5t-100.5 -25.5z" />
    <glyph glyph-name="cid87.001" horiz-adv-x="576" 
d="M14 560h148l82 -279l22.5 -84.5l22.5 -85.5h5l22.5 85.5l22.5 84.5l82 279h141l-187 -560h-170z" />
    <glyph glyph-name="cid88.001" horiz-adv-x="863" 
d="M27 560h147l61 -277q8 -41 14 -81t14 -82h4l16 82.5t19 80.5l67 277h131l70 -277q10 -41 18 -81l17 -82h5q8 42 14 82t14 81l61 277h136l-138 -560h-173l-59 244q-9 40 -16.5 79l-15.5 84h-5l-15 -84.5t-16 -78.5l-57 -244h-168z" />
    <glyph glyph-name="cid89.001" horiz-adv-x="562" 
d="M191 292l-164 268h158l56 -100l50 -94h4l20.5 47l20.5 47l47 100h152l-164 -285l175 -275h-158l-62 102l-27 50t-27 49h-5l-23.5 -48.5l-23.5 -50.5l-52 -102h-152z" />
    <glyph glyph-name="cid90.001" horiz-adv-x="574" 
d="M128 -225q-25 0 -42.5 3t-34.5 8l27 113l18.5 -4.5t20.5 -2.5q43 0 68 24t37 61l10 33l-218 550h148l89 -260q13 -38 24 -77.5l23 -80.5h5l20 79l20 79l77 260h141l-199 -577q-18 -50 -39.5 -88.5t-49 -65t-63 -40.5t-82.5 -14z" />
    <glyph glyph-name="cid91.001" horiz-adv-x="511" 
d="M41 79l250 365h-222v116h406v-79l-251 -365h259v-116h-442v79z" />
    <glyph glyph-name="cid92.001" horiz-adv-x="378" 
d="M265 -173q-37 0 -63.5 8t-44 26.5t-26 49t-8.5 75.5q0 30 1.5 55t3.5 48t3.5 46.5t1.5 50.5q0 16 -4.5 31t-16 27t-30 19.5t-46.5 8.5v87q28 0 46.5 7.5t30 19.5t16 27.5t4.5 30.5q0 27 -1.5 50.5t-3.5 47t-3.5 48t-1.5 54.5q0 46 8.5 76.5t26 49t44 26t63.5 7.5h65v-78
h-23q-39 0 -52 -18.5t-13 -68.5q0 -48 2.5 -92t2.5 -98q0 -63 -19 -91.5t-61 -38.5v-5q42 -10 61 -39t19 -91q0 -54 -2.5 -98t-2.5 -92q0 -25 3 -41.5t10 -26.5t19.5 -14t32.5 -4h23v-80h-65v0z" />
    <glyph glyph-name="cid93.001" horiz-adv-x="296" 
d="M100 851h96v-1134h-96v1134z" />
    <glyph glyph-name="cid94.001" horiz-adv-x="378" 
d="M48 -93h23q19 0 31.5 4t20 14t10.5 26.5t3 41.5q0 48 -2.5 92t-2.5 98q0 62 19 91t61 39v5q-42 10 -61 38.5t-19 91.5q0 54 2.5 98t2.5 92q0 50 -13.5 68.5t-51.5 18.5h-23v78h65q37 0 63.5 -7.5t44 -26t26 -49t8.5 -76.5q0 -30 -1.5 -54.5t-4 -48t-4 -47t-1.5 -50.5
q0 -15 4.5 -30.5t16 -27.5t30 -19.5t46.5 -7.5v-87q-28 -1 -46.5 -8.5t-30 -19.5t-16 -27t-4.5 -31q0 -27 1.5 -50.5t4 -46.5t4 -48t1.5 -55q0 -45 -8.5 -75.5t-26 -49t-44 -26.5t-63.5 -8h-65v80z" />
    <glyph glyph-name="cid95.001" horiz-adv-x="589" 
d="M392 278q-35 0 -61 13.5t-48.5 30l-43 30.5t-44.5 14q-47 0 -83 -66l-77 58q39 62 80 87.5t83 25.5q34 0 60.5 -14t49 -30.5t43 -30t43.5 -13.5q47 0 83 65l77 -58q-38 -61 -79.5 -86.5t-82.5 -25.5z" />
    <glyph glyph-name="cid96" unicode="&#xa1;" horiz-adv-x="370" 
d="M116 -62l21 369h96l21 -369l5 -138h-148zM185 382q-39 0 -65 27t-26 69q0 41 26 68.5t65 27.5t65.5 -27.5t26.5 -68.5q0 -42 -26.5 -69t-65.5 -27z" />
    <glyph glyph-name="cid97" unicode="&#xa4;" horiz-adv-x="589" 
d="M25 175l70 71q-39 52 -39 127q0 76 38 128l-69 71l73 74l79 -78q26 15 56 23.5t62 8.5q31 0 61 -8.5t56 -23.5l79 78l74 -74l-71 -71q40 -52 40 -128q0 -38 -11 -69.5t-29 -57.5l71 -71l-74 -75l-79 80q-27 -16 -57 -23.5t-60 -7.5q-65 0 -118 31l-79 -80zM295 252
q45 0 76.5 33t31.5 88q0 28 -8.5 50.5t-23 38.5t-34.5 25t-42 9q-23 0 -42.5 -9t-34 -25t-23 -38.5t-8.5 -50.5q0 -55 31.5 -88t76.5 -33z" />
    <glyph glyph-name="cid98" unicode="&#xa5;" horiz-adv-x="589" 
d="M221 170h-176v73h176v65h-176v73h143l-171 340h152l66 -162l28.5 -75l30.5 -75h5l60 150l66 162h147l-172 -340h145v-73h-178v-65h178v-73h-178v-170h-146v170z" />
    <glyph glyph-name="cid99" unicode="&#xa7;" horiz-adv-x="1000" 
d="M679 653q-25 14 -63.5 25t-92.5 11q-52 0 -80 -19t-28 -45q0 -32 33.5 -50.5t96.5 -36.5q46 -14 84.5 -30t66 -38.5t43 -52.5t15.5 -71q0 -45 -20.5 -80.5t-53.5 -59.5q16 -13 31.5 -40t15.5 -64q0 -48 -22 -82t-57 -56t-78.5 -32.5t-86.5 -10.5q-54 0 -108 11t-96 39
l31 93q25 -15 70.5 -31.5t101.5 -16.5q52 0 82.5 19.5t30.5 52.5q0 15 -7 27.5t-22.5 23.5t-41 21.5t-61.5 21.5q-47 14 -87 30.5t-69 39t-45.5 51.5t-16.5 69q0 35 21 73t66 64q-18 15 -31 43t-13 58q0 40 18 72.5t49.5 55t75.5 34.5t96 12t97 -10t81 -28zM402 466
q-20 -13 -31 -30.5t-11 -37.5q0 -27 23 -49.5t87 -43.5l82.5 -29t51.5 -21q17 11 26 29.5t9 38.5q0 31 -26 51.5t-63 36t-77.5 28t-70.5 27.5z" />
    <glyph glyph-name="cid100" unicode="&#xa8;" horiz-adv-x="626" 
d="M193 651q-32 0 -53 21.5t-21 52.5q0 32 21 53.5t53 21.5q33 0 54 -21.5t21 -53.5q0 -31 -21 -52.5t-54 -21.5zM433 651q-33 0 -54 21.5t-21 52.5q0 32 21 53.5t54 21.5q32 0 53 -21.5t21 -53.5q0 -31 -21 -52.5t-53 -21.5z" />
    <glyph glyph-name="cid101" unicode="&#xb0;" horiz-adv-x="404" 
d="M202 461q-32 0 -60.5 11.5t-50 32.5t-34 50t-12.5 64t12.5 64t34 50t50 33t60.5 12q33 0 62 -12t50 -33t33.5 -50t12.5 -64t-12.5 -64t-33.5 -50t-50 -32.5t-62 -11.5zM202 534q35 0 57 23.5t22 61.5t-22 62t-57 24t-56.5 -24t-21.5 -62t21.5 -61.5t56.5 -23.5z" />
    <glyph glyph-name="cid102" unicode="&#xb1;" horiz-adv-x="1000" 
d="M855 458h-304v-253h-102v253h-304v101h304v253h102v-253h304v-101zM863 111v-102h-718v102h718z" />
    <glyph glyph-name="cid103" unicode="&#xb2;" horiz-adv-x="424" 
d="M53 491q90 76 144 131.5t54 99.5q0 35 -18.5 55.5t-51.5 20.5q-24 0 -44.5 -15.5t-39.5 -40.5l-63 56q66 89 164 89q72 0 115.5 -37.5t43.5 -109.5q0 -28 -10.5 -54.5t-28 -53t-41 -53.5l-50.5 -56h148v-91h-322v59z" />
    <glyph glyph-name="cid104" unicode="&#xb3;" horiz-adv-x="424" 
d="M209 418q-57 0 -102 23.5t-73 65.5l67 52q39 -58 98 -58q29 0 49.5 16t20.5 45q0 64 -114 64v63q46 0 72 16t26 46q0 25 -16.5 39t-45.5 14q-22 0 -41.5 -13.5t-35.5 -33.5l-62 56q34 37 70 55.5t87 18.5q30 0 57.5 -8.5t48.5 -24t33 -38t12 -50.5q0 -37 -18 -62t-50 -42
q35 -13 60 -40t25 -68q0 -31 -13.5 -56t-36.5 -43t-53.5 -27.5t-64.5 -9.5z" />
    <glyph glyph-name="cid105" unicode="&#xb4;" horiz-adv-x="626" 
d="M244 721l171 203l100 -98l-198 -176z" />
    <glyph glyph-name="cid106" unicode="&#xb6;" horiz-adv-x="1000" 
d="M442 300h-7q-26 0 -60 12.5t-64.5 38.5t-52 66.5t-22.5 97.5q-1 46 13 92t51 83t100 60.5t161 23.5q51 0 88 -3t62 -8v-819h-94v737h-81v-737h-94v356z" />
    <glyph glyph-name="cid107" unicode="&#xb7;" horiz-adv-x="592" 
d="M294 276q-39 0 -65.5 27.5t-26.5 67.5q0 42 26.5 69.5t65.5 27.5t65 -27.5t26 -69.5q0 -40 -26 -67.5t-65 -27.5z" />
    <glyph glyph-name="cid108" unicode="&#xb8;" horiz-adv-x="626" 
d="M194 -206q67 4 92.5 15.5t25.5 36.5q0 18 -18 30t-69 20l53 108h88l-32 -74q42 -10 63.5 -29t21.5 -54q0 -57 -55.5 -83.5t-158.5 -31.5z" />
    <glyph glyph-name="cid109" unicode="&#xb9;" horiz-adv-x="424" 
d="M189 759h-99v67q43 7 69 18t53 30h87v-442h-110v327z" />
    <glyph glyph-name="cid110" unicode="&#xbc;" horiz-adv-x="909" 
d="M157 298v327h-99v68q43 7 69 18t53 29h86v-442h-109zM699 754l-402 -768h-88l402 768h88zM730 176v56l6 130h-5l-48 -89l-53 -97h100zM892 104h-66v-104h-96v104h-203v54l167 284h132v-266h66v-72z" />
    <glyph glyph-name="cid111" unicode="&#xbd;" horiz-adv-x="948" 
d="M157 625h-99v68q43 7 69 18t53 29h86v-442h-109v327zM592 754h87l-402 -768h-87zM576 59l81.5 71t63 61t40.5 52.5t14 46.5q0 36 -19 56t-51 20q-24 0 -45 -15.5t-40 -41.5l-62 57q32 44 73 67t90 23q72 0 115.5 -38t43.5 -110q0 -28 -10.5 -54.5t-28 -53t-41 -53.5
t-50.5 -55h148v-92h-322v59z" />
    <glyph glyph-name="cid112" unicode="&#xbe;" horiz-adv-x="921" 
d="M48 679q34 38 70.5 56.5t87.5 18.5q30 0 57.5 -8.5t48.5 -24t33 -38t12 -50.5q0 -37 -18 -62t-50 -42q35 -14 59.5 -41t24.5 -68q0 -30 -13.5 -55t-36.5 -43t-53 -27.5t-64 -9.5q-57 0 -102.5 23t-73.5 65l67 53q42 -58 98 -58q30 0 51 15.5t21 44.5q0 64 -115 64v64
q46 0 72 16t26 45q0 25 -17 39.5t-45 14.5q-23 0 -42 -13.5t-35 -33.5zM728 754l-402 -768h-87l403 768h86zM741 176v56l7 130h-5l-49 -89l-54 -97h101zM904 104h-66v-104h-97v104h-202v54l166 284h133v-266h66v-72z" />
    <glyph glyph-name="cid113" unicode="&#xbf;" horiz-adv-x="514" 
d="M258 -214q-45 0 -83.5 12t-66 35.5t-43.5 59.5t-16 84q0 35 13 64t31.5 54t40.5 48t39.5 48t28 53t6.5 63h129q6 -40 -2.5 -72.5t-25 -60.5t-37 -51.5l-38.5 -46t-30.5 -44t-12.5 -45.5q0 -38 22.5 -60t62.5 -22q33 0 59.5 15.5t50.5 40.5l82 -74q-40 -45 -92 -73
t-118 -28zM272 382q-39 0 -65 27t-26 69q0 41 26 68.5t65 27.5t65.5 -27.5t26.5 -68.5q0 -42 -26.5 -69t-65.5 -27z" />
    <glyph glyph-name="cid114" unicode="&#xd7;" horiz-adv-x="1000" 
d="M758 51l-257 257l-257 -257l-72 72l257 257l-257 257l72 72l257 -257l257 257l72 -72l-257 -257l257 -257z" />
    <glyph glyph-name="cid115" unicode="&#xf7;" horiz-adv-x="1000" 
d="M413 631q0 18 7 33.5t18.5 27.5t27.5 19t34 7t34 -7t27.5 -19t18.5 -27.5t7 -33.5q0 -36 -25.5 -61.5t-61.5 -25.5t-61.5 25.5t-25.5 61.5zM855 430v-102h-710v102h710zM413 127q0 36 25.5 61.5t61.5 25.5t61.5 -25.5t25.5 -61.5q0 -18 -7 -33.5t-18.5 -27.5t-27.5 -19
t-34 -7t-34 7t-27.5 19t-18.5 27.5t-7 33.5z" />
    <glyph glyph-name="cid116" unicode="&#x2c7;" horiz-adv-x="1000" 
d="M794 556l-293 -431l-295 432h151l143 -226l136 225h158z" />
    <glyph glyph-name="cid117" unicode="&#x2d9;" horiz-adv-x="1000" 
d="M500 281q-22 0 -41 8t-32.5 22t-21 32t-7.5 38q0 21 7 40t20 34t32 23.5t43 8.5q48 0 74 -31.5t26 -74.5q0 -41 -26 -70.5t-74 -30.5v1z" />
    <glyph glyph-name="cid118" unicode="&#x2018;" horiz-adv-x="325" 
d="M247 714q-48 -26 -72.5 -59.5t-25.5 -82.5q4 1 11 1q32 0 56 -20.5t24 -56.5q0 -39 -22.5 -61.5t-57.5 -22.5q-48 0 -72.5 35.5t-24.5 99.5q0 154 150 232z" />
    <glyph glyph-name="cid119" unicode="&#x2019;" horiz-adv-x="325" 
d="M78 488q48 27 72 60t25 83q-3 -1 -10 -1q-32 0 -56 20.5t-24 56.5q0 38 22.5 61t57.5 23q48 0 72.5 -35.5t24.5 -100.5q0 -155 -151 -231z" />
    <glyph glyph-name="cid120" unicode="&#x201c;" horiz-adv-x="575" 
d="M247 714q-48 -26 -72.5 -59.5t-25.5 -82.5q4 1 11 1q32 0 56 -20.5t24 -56.5q0 -39 -22.5 -61.5t-57.5 -22.5q-48 0 -72.5 35.5t-24.5 99.5q0 154 150 232zM497 714q-48 -26 -72.5 -59.5t-25.5 -82.5q4 1 11 1q32 0 56 -20.5t24 -56.5q0 -39 -22.5 -61.5t-57.5 -22.5
q-48 0 -72.5 35.5t-24.5 99.5q0 154 150 232z" />
    <glyph glyph-name="cid121" unicode="&#x201d;" horiz-adv-x="575" 
d="M78 488q48 27 72 60t25 83q-3 -1 -10 -1q-32 0 -56 20.5t-24 56.5q0 38 22.5 61t57.5 23q48 0 72.5 -35.5t24.5 -100.5q0 -155 -151 -231zM328 488q48 27 72 60t25 83q-3 -1 -10 -1q-32 0 -56 20.5t-24 56.5q0 38 22.5 61t57.5 23q48 0 72.5 -35.5t24.5 -100.5
q0 -155 -151 -231z" />
    <glyph glyph-name="cid122" unicode="&#x2020;" horiz-adv-x="1000" 
d="M556 539l192 10v-117l-192 10l11 -499h-134l11 499l-192 -10v117l192 -10l-11 233h134z" />
    <glyph glyph-name="cid123" unicode="&#x2021;" horiz-adv-x="1000" 
d="M556 555l192 9v-117l-192 10l1 -196l191 10v-117l-192 10l11 -221h-134l11 221l-192 -10v117l192 -10v196l-192 -10v117l192 -9l-11 217h134z" />
    <glyph glyph-name="cid124" unicode="&#x2025;" horiz-adv-x="1000" 
d="M169 380q0 34 23.5 57.5t57.5 23.5t57.5 -23.5t23.5 -57.5t-23.5 -57.5t-57.5 -23.5t-57.5 23.5t-23.5 57.5zM669 380q0 34 23.5 57.5t57.5 23.5t57.5 -23.5t23.5 -57.5t-23.5 -57.5t-57.5 -23.5t-57.5 23.5t-23.5 57.5z" />
    <glyph glyph-name="cid125" unicode="&#x2026;" horiz-adv-x="1000" 
d="M86 380q0 34 23.5 57.5t57.5 23.5t57.5 -23.5t23.5 -57.5t-23.5 -57.5t-57.5 -23.5t-57.5 23.5t-23.5 57.5zM419 380q0 34 23.5 57.5t57.5 23.5t57.5 -23.5t23.5 -57.5t-23.5 -57.5t-57.5 -23.5t-57.5 23.5t-23.5 57.5zM752 380q0 34 23.5 57.5t57.5 23.5t57.5 -23.5
t23.5 -57.5t-23.5 -57.5t-57.5 -23.5t-57.5 23.5t-23.5 57.5z" />
    <glyph glyph-name="cid126" unicode="&#x2030;" horiz-adv-x="1000" 
d="M508 755h67l-392 -769h-67zM30 524q0 46 9 88t26 73.5t42 49.5t57 18q36 0 60.5 -20.5t39.5 -53t21 -73t6 -79.5q0 -59 -11 -102t-29 -71t-41 -41t-47 -13q-36 0 -61.5 19.5t-41 51t-23 72t-7.5 81.5zM208 524q0 33 -2 62.5t-7 51.5t-14.5 34.5t-24.5 12.5q-25 0 -36 -44
t-11 -114q0 -74 10 -116.5t39 -42.5q14 0 23 11.5t14 32.5t7 49.5t2 62.5zM401 218q0 47 9 88.5t26 73t42 49.5t57 18q36 0 60.5 -20.5t39.5 -53t21 -73t6 -79.5q0 -59 -11 -102t-29 -70.5t-41 -41t-47 -13.5q-36 0 -61.5 19.5t-41 51.5t-23 72t-7.5 81zM709 218
q0 47 9 88.5t26 73t42 49.5t57 18q36 0 60.5 -20.5t39.5 -53t21 -73t6 -79.5q0 -59 -11 -102t-29 -70.5t-41 -41t-47 -13.5q-36 0 -61.5 19.5t-41 51.5t-23 72t-7.5 81zM579 219q0 33 -2 62.5t-7 51t-14.5 34t-24.5 12.5q-25 0 -36 -43.5t-11 -114.5q0 -73 10 -116t39 -43
q14 0 23 11.5t14 32.5t7 50t2 63zM887 219q0 33 -2 62.5t-7 51t-14.5 34t-24.5 12.5q-26 0 -36.5 -43.5t-10.5 -114.5q0 -72 10 -115.5t39 -43.5q14 0 23 11.5t14 32.5t7 50t2 63z" />
    <glyph glyph-name="cid127" unicode="&#x2032;" horiz-adv-x="325" 
d="M116 780l146 -1l-24 -132l-49 -188l-96 1z" />
    <glyph glyph-name="cid128" unicode="&#x2033;" horiz-adv-x="575" 
d="M116 780l146 -1l-24 -132l-49 -188l-96 1zM365 780l147 -1l-24 -132l-49 -188l-96 1z" />
    <glyph glyph-name="cid129.001" horiz-adv-x="1000" 
d="M575 665q0 -31 -22 -53t-53 -22t-53 22t-22 53t22 53t53 22t53 -22t22 -53zM500 409l330 330l29 -29l-330 -330l330 -330l-29 -29l-330 330l-331 -331l-29 29l331 331l-330 330l29 29zM215 455q31 0 53 -22t22 -53t-22 -53t-53 -22t-53 22t-22 53t22 53t53 22zM785 305
q-31 0 -53 22t-22 53t22 53t53 22t53 -22t22 -53t-22 -53t-53 -22zM425 95q0 31 22 53t53 22t53 -22t22 -53t-22 -53t-53 -22t-53 22t-22 53z" />
    <glyph glyph-name="cid130.001" horiz-adv-x="589" 
d="M435 335h-40l8 -68l15 -163h4l9 163zM204 335h-38l5 -68l8 -163h4l14 163zM280 396h30l-13 175h-5zM608 335h-70l-38 -335h-149l-35 335h-40l-34 -335h-145l-41 335h-76v55l69 5l-40 326h131l22 -325h49l31 280h114l32 -280h52l21 325h120l-37 -325h64v-61z" />
    <glyph glyph-name="cid131" unicode="&#x2103;" horiz-adv-x="1000" 
d="M187 462q-33 0 -62 12t-50.5 33t-34 50t-12.5 64t12.5 64t34 50t50.5 33t62 12t61.5 -12t50 -33t34 -50t12.5 -64t-12.5 -64t-34 -50t-50 -33t-61.5 -12zM187 535q35 0 57 24t22 62t-22 62t-57 24t-57 -24t-22 -62t22 -62t57 -24zM745 -14q-72 0 -134.5 25t-109 73
t-73 119t-26.5 164q0 92 27.5 164.5t74.5 122.5t110 76t135 26q34 0 65.5 -8t59 -21t50.5 -30t41 -36l-82 -92q-28 28 -59 43t-73 15q-43 0 -79 -17.5t-62.5 -50.5t-41 -80t-14.5 -106q0 -60 13.5 -108t39 -81.5t61 -51t79.5 -17.5q48 0 83.5 19t64.5 51l83 -90
q-92 -109 -233 -109z" />
    <glyph glyph-name="cid132" unicode="&#x2109;" horiz-adv-x="1000" 
d="M207 462q-33 0 -62 12t-50.5 33t-34 50t-12.5 64t12.5 64t34 50t50.5 33t62 12t61.5 -12t50 -33t34 -50t12.5 -64t-12.5 -64t-34 -50t-50 -33t-61.5 -12zM207 535q35 0 57 24t22 62t-22 62t-57 24t-57 -24t-22 -62t22 -62t57 -24zM500 743h458v-125h-310v-193h264v-124
h-264v-301h-148v743z" />
    <glyph glyph-name="cid133" unicode="&#x2116;" horiz-adv-x="1074" 
d="M109 -14q-17 0 -24 1.5t-18 4.5l-11 114q23 0 33 9.5t10 38.5v567h161l94 -230l90 -232l40 -98h5q-6 52 -10 95t-6.5 79.5t-3.5 68.5t-1 63v129q0 69 29 104t92 35q17 0 24.5 -1t18.5 -5l11 -113q-24 0 -34 -10t-10 -39v-567h-161l-94 230.5l-90 232.5l-40 97h-5
q6 -52 10 -94.5t6.5 -79.5t3.5 -69t1 -63v-129q0 -69 -28.5 -104t-92.5 -35zM872 307q-37 0 -70 12.5t-58.5 36.5t-40.5 58.5t-15 79.5t15 80.5t40.5 59.5t58.5 36.5t70 12.5t70.5 -12.5t58.5 -36.5t40 -59.5t15 -80.5t-15 -79.5t-40 -58.5t-58.5 -36.5t-70.5 -12.5z
M872 398q32 0 50.5 24t18.5 72q0 50 -18.5 74t-50.5 24t-50.5 -24t-18.5 -74q0 -48 18.5 -72t50.5 -24zM724 232h296v-80h-296v80z" />
    <glyph glyph-name="cid134" unicode="&#x2121;" horiz-adv-x="1000" 
d="M128 635h-103v108h323v-108h-103v-635h-117v635zM392 597h261v-99h-144v-146h106v-92h-106v-161h155v-99h-272v597zM722 597h117v-492h141v-105h-258v597z" />
    <glyph glyph-name="cid135" unicode="&#x2122;" horiz-adv-x="760" 
d="M106 678h-102v89h303v-89h-103v-266h-98v266zM357 767h111l47 -117l27 -80h5l27 80l45 117h113v-355h-90v121l11 128h-4l-70 -196h-70l-69 196h-5l12 -128v-121h-90v355z" />
    <glyph glyph-name="cid136" unicode="&#x212b;" horiz-adv-x="1000" 
d="M586 305l-22 82q-17 57 -32.5 119t-32.5 122h-5l-29.5 -122t-32.5 -119l-22 -82h176zM497 905q-32 0 -53 -21t-21 -56q0 -38 21 -58t53 -20q31 0 52.5 20t21.5 58q0 35 -21.5 56t-52.5 21zM617 190h-239l-52 -190h-152l229 714q-33 19 -51.5 49.5t-18.5 72.5
q0 65 45.5 103.5t118.5 38.5q36 0 66 -10t52 -28.5t34 -45t12 -58.5q0 -40 -17.5 -70t-48.5 -49l231 -717h-157z" />
    <glyph glyph-name="cid137" unicode="&#x2160;" horiz-adv-x="1000" 
d="M425 743h150v-743h-150v743z" />
    <glyph glyph-name="cid138" unicode="&#x2161;" horiz-adv-x="1000" 
d="M260 743h149v-743h-149v743zM591 743h149v-743h-149v743z" />
    <glyph glyph-name="cid139" unicode="&#x2162;" horiz-adv-x="1000" 
d="M94 743h150v-743h-150v743zM425 743h150v-743h-150v743zM757 743h149v-743h-149v743z" />
    <glyph glyph-name="cid140" unicode="&#x2163;" horiz-adv-x="1000" 
d="M115 743h150v-743h-150v743zM349 743h157l98 -361q17 -63 30.5 -120t31.5 -120h5q18 63 32 120t31 120l96 361h151l-227 -743h-177z" />
    <glyph glyph-name="cid141" unicode="&#x2164;" horiz-adv-x="1000" 
d="M184 743h157l98 -361l30 -119.5t32 -120.5h5q18 63 32 120t31 120l96 361h151l-227 -743h-178z" />
    <glyph glyph-name="cid142" unicode="&#x2165;" horiz-adv-x="1000" 
d="M18 743h157l98 -361l30 -119.5t32 -120.5h5q18 63 32 120t31 120l96 361h151l-227 -743h-178zM735 743h149v-743h-149v743z" />
    <glyph glyph-name="cid143" unicode="&#x2166;" horiz-adv-x="1000" 
d="M14 743h156l59 -361l20.5 -120t23.5 -120h5q14 63 23.5 120l19.5 120l58 361h151l-162 -743h-192zM570 743h150v-743h-150v743zM809 743h150v-743h-150v743z" />
    <glyph glyph-name="cid144" unicode="&#x2167;" horiz-adv-x="1000" 
d="M12 743h127l46 -361l16.5 -120l16.5 -120h5l17 120t16 120l45 361h120l-129 -743h-143zM469 743h119v-743h-119v743zM651 743h120v-743h-120v743zM834 743h119v-743h-119v743z" />
    <glyph glyph-name="cid145" unicode="&#x2168;" horiz-adv-x="1000" 
d="M111 743h149v-743h-149v743zM573 383l-196 360h166l74 -154l25.5 -53.5l29.5 -62.5h5l25.5 62.5l22.5 53.5l70 154h158l-195 -367l208 -376h-165l-84 165l-27.5 57l-28.5 63h-4l-28 -63l-26 -57l-79 -165h-158z" />
    <glyph glyph-name="cid146" unicode="&#x2169;" horiz-adv-x="1000" 
d="M407 383l-196 360h166l74 -154q14 -26 26.5 -53.5l28.5 -62.5h5l25.5 62.5t23.5 53.5l70 154h157l-195 -367l208 -376h-165l-83 165l-28 57l-29 63h-4q-14 -34 -27.5 -63l-26.5 -57l-79 -165h-158z" />
    <glyph glyph-name="cid147" unicode="&#x2170;" horiz-adv-x="1000" 
d="M426 561h149v-561h-149v561zM500 652q-38 0 -63 22.5t-25 57.5q0 36 25 58.5t63 22.5t63.5 -22.5t25.5 -58.5q0 -35 -25.5 -57.5t-63.5 -22.5z" />
    <glyph glyph-name="cid148" unicode="&#x2171;" horiz-adv-x="1000" 
d="M274 561h148v-561h-148v561zM348 652q-38 0 -63 22.5t-25 57.5q0 36 25 58.5t63 22.5t63 -22.5t25 -58.5q0 -35 -25 -57.5t-63 -22.5zM579 561h148v-561h-148v561zM653 652q-38 0 -63 22.5t-25 57.5q0 36 25 58.5t63 22.5t63 -22.5t25 -58.5q0 -35 -25 -57.5t-63 -22.5z
" />
    <glyph glyph-name="cid149" unicode="&#x2172;" horiz-adv-x="1000" 
d="M121 561h148v-561h-148v561zM195 652q-38 0 -63 22.5t-25 57.5q0 36 25 58.5t63 22.5t63 -22.5t25 -58.5q0 -35 -25 -57.5t-63 -22.5zM426 561h149v-561h-149v561zM500 652q-38 0 -63 22.5t-25 57.5q0 36 25 58.5t63 22.5t63.5 -22.5t25.5 -58.5q0 -35 -25.5 -57.5
t-63.5 -22.5zM731 561h149v-561h-149v561zM806 652q-39 0 -64 22.5t-25 57.5q0 36 25 58.5t64 22.5q38 0 63 -22.5t25 -58.5q0 -35 -25 -57.5t-63 -22.5z" />
    <glyph glyph-name="cid150" unicode="&#x2173;" horiz-adv-x="1000" 
d="M137 561h149v-561h-149v561zM212 652q-38 0 -63 22.5t-25 57.5q0 36 25 58.5t63 22.5t63 -22.5t25 -58.5q0 -35 -25 -57.5t-63 -22.5zM378 561h149l82 -279l22.5 -84.5l22.5 -85.5h4q11 43 23 85.5l23 84.5l81 279h143l-186 -561h-172z" />
    <glyph glyph-name="cid151" unicode="&#x2174;" horiz-adv-x="1000" 
d="M225 561h149l82 -279l22.5 -84.5l23.5 -85.5h4q11 43 23 85.5l23 84.5l81 279h143l-187 -561h-171z" />
    <glyph glyph-name="cid152" unicode="&#x2175;" horiz-adv-x="1000" 
d="M73 561h148l82 -279l23 -84.5t23 -85.5h4q11 43 23 85.5l23 84.5l81 279h143l-187 -561h-171zM715 561h148v-561h-148v561zM789 652q-38 0 -63 22.5t-25 57.5q0 36 25 58.5t63 22.5t63 -22.5t25 -58.5q0 -35 -25 -57.5t-63 -22.5z" />
    <glyph glyph-name="cid153" unicode="&#x2176;" horiz-adv-x="1000" 
d="M10 561h149l59 -279q8 -42 18 -84.5l20 -85.5h4q11 43 20 85.5t17 84.5l61 279h142l-156 -561h-172zM547 561h149v-561h-149v561zM621 652q-38 0 -63 22.5t-25 57.5q0 36 25 58.5t63 22.5t63.5 -22.5t25.5 -58.5q0 -35 -25.5 -57.5t-63.5 -22.5zM792 561h149v-561h-149
v561zM867 652q-39 0 -63.5 22.5t-24.5 57.5q0 36 24.5 58.5t63.5 22.5q38 0 63 -22.5t25 -58.5q0 -35 -25 -57.5t-63 -22.5z" />
    <glyph glyph-name="cid154" unicode="&#x2177;" horiz-adv-x="1000" 
d="M15 561h134l41 -279q8 -42 14 -84.5t13 -85.5h4q8 43 13 85.5t13 84.5l42 279h128l-126 -561h-144zM464 561h119v-561h-119v561zM523 652q-32 0 -52.5 22.5t-20.5 57.5q0 36 20.5 58.5t52.5 22.5t53 -22.5t21 -58.5q0 -35 -21 -57.5t-53 -22.5zM651 561h118v-561h-118
v561zM710 652q-32 0 -52.5 22.5t-20.5 57.5q0 36 20.5 58.5t52.5 22.5t52.5 -22.5t20.5 -58.5q0 -35 -20.5 -57.5t-52.5 -22.5zM838 561h118v-561h-118v561zM897 652q-32 0 -52.5 22.5t-20.5 57.5q0 36 20.5 58.5t52.5 22.5t52.5 -22.5t20.5 -58.5q0 -35 -20.5 -57.5
t-52.5 -22.5z" />
    <glyph glyph-name="cid155" unicode="&#x2178;" horiz-adv-x="1000" 
d="M144 561h148v-561h-148v561zM218 652q-38 0 -63 22.5t-25 57.5q0 36 25 58.5t63 22.5t63 -22.5t25 -58.5q0 -35 -25 -57.5t-63 -22.5zM562 292l-164 269h158l56 -99q13 -23 25.5 -47.5t25.5 -47.5h4q11 23 21 47.5l20 47.5l47 99h153l-164 -285l175 -276h-159l-63 103
l-26 49t-27 49h-5l-24 -48.5t-23 -49.5l-53 -103h-153z" />
    <glyph glyph-name="cid156" unicode="&#x2179;" horiz-adv-x="1000" 
d="M410 292l-165 269h159l56 -99q13 -23 25 -47.5t25 -47.5h4q11 23 21.5 47.5l20.5 47.5l46 99h154l-164 -285l174 -276h-159l-62 103q-14 24 -27 49t-27 49h-5l-23.5 -48.5l-23.5 -49.5l-52 -103h-153z" />
    <glyph glyph-name="cid157" unicode="&#x2190;" horiz-adv-x="1000" 
d="M253 329q16 -12 33.5 -27.5t35 -33.5t34 -37.5t30.5 -38.5l-90 -50q-26 33 -57.5 66t-65.5 64t-69 58.5t-69 49.5q34 22 69 49.5t69 58.5t65.5 64t57.5 66l90 -50q-14 -19 -30.5 -38.5t-34 -37.5t-35 -33.5t-33.5 -27.5h707v-102h-707z" />
    <glyph glyph-name="cid158" unicode="&#x2191;" horiz-adv-x="1000" 
d="M449 627q-12 -16 -27.5 -33.5t-33.5 -35t-37.5 -34t-38.5 -30.5l-50 90q33 26 66 57.5t64 65.5t58.5 69t49.5 69q22 -34 49.5 -69t58.5 -69t64 -65.5t66 -57.5l-50 -90q-19 14 -38.5 30.5t-37.5 34t-33.5 35t-27.5 33.5v-707h-102v707z" />
    <glyph glyph-name="cid159" unicode="&#x2192;" horiz-adv-x="1000" 
d="M40 431h707q-16 12 -33.5 27.5t-35 33.5t-34 37.5t-30.5 38.5l90 50q26 -33 57.5 -66t65.5 -64t69 -58.5t69 -49.5q-34 -22 -69 -49.5t-69 -58.5t-65.5 -64t-57.5 -66l-90 50q14 19 30.5 38.5t34 37.5t35 33.5t33.5 27.5h-707v102z" />
    <glyph glyph-name="cid160" unicode="&#x2193;" horiz-adv-x="1000" 
d="M551 133q12 16 27.5 33.5t33.5 35t37.5 34t38.5 30.5l50 -90q-33 -26 -66 -57.5t-64 -65.5t-58.5 -69t-49.5 -69q-22 34 -49.5 69t-58.5 69t-64 65.5t-66 57.5l50 90q19 -14 38.5 -30.5t37.5 -34t33.5 -35t27.5 -33.5v707h102v-707z" />
    <glyph glyph-name="cid161" unicode="&#x2194;" horiz-adv-x="1000" 
d="M253 329q16 -12 33.5 -27.5t35 -33.5t34 -37.5t30.5 -38.5l-90 -50q-26 33 -57.5 66t-65.5 64t-69 58.5t-69 49.5q34 22 69 49.5t69 58.5t65.5 64t57.5 66l90 -50q-14 -19 -30.5 -38.5t-34 -37.5t-35 -33.5t-33.5 -27.5h494q-16 12 -33.5 27.5t-35 33.5t-34 37.5
t-30.5 38.5l90 50q26 -33 57.5 -66t65.5 -64t69 -58.5t69 -49.5q-34 -22 -69 -49.5t-69 -58.5t-65.5 -64t-57.5 -66l-90 50q14 19 30.5 38.5t34 37.5t35 33.5t33.5 27.5h-494z" />
    <glyph glyph-name="cid162" unicode="&#x2195;" horiz-adv-x="1000" 
d="M551 133q12 16 27.5 33.5t33.5 35t37.5 34t38.5 30.5l50 -90q-33 -26 -66 -57.5t-64 -65.5t-58.5 -69t-49.5 -69q-22 34 -49.5 69t-58.5 69t-64 65.5t-66 57.5l50 90q19 -14 38.5 -30.5t37.5 -34t33.5 -35t27.5 -33.5v494q-12 -16 -27.5 -33.5t-33.5 -35t-37.5 -34
t-38.5 -30.5l-50 90q33 26 66 57.5t64 65.5t58.5 69t49.5 69q22 -34 49.5 -69t58.5 -69t64 -65.5t66 -57.5l-50 -90q-19 14 -38.5 30.5t-37.5 34t-33.5 35t-27.5 33.5v-494z" />
    <glyph glyph-name="cid163" unicode="&#x2196;" horiz-adv-x="1000" 
d="M290 518q3 -19 4 -42.5t0.5 -48.5t-2.5 -50.5t-6 -48.5l-99 28q5 42 6.5 87.5t-1 91t-8 90t-13.5 84.5q40 -8 84.5 -13.5t90 -8t91 -1t87.5 6.5l28 -99q-23 -4 -48.5 -6t-50.5 -2.5t-48.5 0.5t-42.5 4l499 -500l-71 -71z" />
    <glyph glyph-name="cid164" unicode="&#x2197;" horiz-adv-x="1000" 
d="M638 590q-19 -3 -42.5 -4t-48.5 -0.5t-50.5 2.5t-48.5 6l28 99q42 -5 87.5 -6.5t91 1t90 8t84.5 13.5q-8 -40 -13.5 -84.5t-8 -90t-1 -91t6.5 -87.5l-99 -28q-4 23 -6 48.5t-2.5 50.5t0.5 48.5t4 42.5l-500 -499l-71 71z" />
    <glyph glyph-name="cid165" unicode="&#x2198;" horiz-adv-x="1000" 
d="M710 242q-3 19 -4 42.5t-0.5 48.5t2.5 50.5t6 48.5l99 -28q-5 -42 -6.5 -87.5t1 -91t8 -90t13.5 -84.5q-40 8 -84.5 13.5t-90 8t-91 1t-87.5 -6.5l-28 99q23 4 48.5 6t50.5 2.5t48.5 -0.5t42.5 -4l-499 500l71 71z" />
    <glyph glyph-name="cid166" unicode="&#x2199;" horiz-adv-x="1000" 
d="M362 170q19 3 42.5 4t48.5 0.5t50.5 -2.5t48.5 -6l-28 -99q-42 5 -87.5 6.5t-91 -1t-90 -8t-84.5 -13.5q8 40 13.5 84.5t8 90t1 91t-6.5 87.5l99 28q4 -23 6 -48.5t2.5 -50.5t-0.5 -48.5t-4 -42.5l500 499l71 -71z" />
    <glyph glyph-name="cid167" unicode="&#x21d2;" horiz-adv-x="1000" 
d="M716 291q49 54 96 88q-47 34 -96 88h-676v101h589q-22 26 -41.5 54t-33.5 53l87 50q30 -50 70 -99.5t84 -94.5t91 -84t92 -68q-45 -29 -92 -68t-91 -84t-84 -94.5t-70 -99.5l-87 50q14 25 33.5 53t41.5 54h-589v101h676v0z" />
    <glyph glyph-name="cid168" unicode="&#x21d4;" horiz-adv-x="1000" 
d="M402 675q-13 -25 -30.5 -53t-37.5 -54h332q-20 26 -37.5 54t-30.5 53l88 50q27 -50 61 -99.5t72.5 -94.5t79 -84t79.5 -68q-39 -29 -79.5 -68t-79 -84t-72.5 -94.5t-61 -99.5l-88 50q13 25 30.5 53t37.5 54h-332q20 -26 37.5 -54t30.5 -53l-88 -50q-27 50 -61 99.5
t-72.5 94.5t-79 84t-79.5 68q39 29 79.5 68t79 84t72.5 94.5t61 99.5zM258 467q-44 -55 -85 -88q41 -33 85 -88h484q44 55 85 88q-41 33 -85 88h-484z" />
    <glyph glyph-name="cid169" unicode="&#x2200;" horiz-adv-x="1000" 
d="M890 725l-388 -741h-4l-388 741l90 47l121 -232h358l121 232zM498 199h4l124 239h-252z" />
    <glyph glyph-name="cid170" unicode="&#x2202;" horiz-adv-x="1000" 
d="M686 477q0 90 -42 139t-114 49q-52 0 -92 -23.5t-66 -50.5l-72 86q56 46 114.5 69t131.5 23q54 0 102 -19t84.5 -56.5t57.5 -93t21 -127.5q0 -49 -9 -104t-28.5 -109t-49 -103t-70 -86.5t-93.5 -59.5t-118 -22q-61 0 -107.5 18t-77.5 50t-47 75.5t-16 94.5q0 60 22.5 109
t60 84.5t85 54.5t97.5 19q71 0 123.5 -28.5t90.5 -81.5h2q5 25 7.5 49t2.5 44zM316 234q0 -63 36.5 -98.5t92.5 -35.5q72 0 118 44t70 116q-19 68 -64.5 100.5t-97.5 32.5q-29 0 -56.5 -10.5t-49.5 -31t-35.5 -50t-13.5 -67.5z" />
    <glyph glyph-name="cid171" unicode="&#x2203;" horiz-adv-x="1000" 
d="M808 747v-736h-619v101h517v217h-517v102h517v215h-517v101h619z" />
    <glyph glyph-name="cid172" unicode="&#x2207;" horiz-adv-x="1000" 
d="M140 638v89h720v-89l-269 -651h-182zM692 603h-388l107 -275l83 -225h5l83 225z" />
    <glyph glyph-name="cid173" unicode="&#x2208;" horiz-adv-x="1000" 
d="M454 599q-42 0 -79 -12.5t-66.5 -35t-50 -53.5t-28.5 -68h641v-102h-641q8 -37 28.5 -68t50 -53.5t66.5 -35t79 -12.5h417v-101h-417q-70 0 -131 24.5t-106 67.5t-70.5 101.5t-25.5 127.5t25.5 127.5t70.5 101.5t106 67.5t131 24.5h417v-101h-417z" />
    <glyph glyph-name="cid174" unicode="&#x220b;" horiz-adv-x="1000" 
d="M129 599v101h417q70 0 131 -24.5t106 -67.5t70.5 -101.5t25.5 -127.5t-25.5 -127.5t-70.5 -101.5t-106 -67.5t-131 -24.5h-417v101h417q42 0 79 12.5t66.5 35t50 53.5t28.5 68h-641v102h641q-8 37 -28.5 68t-50 53.5t-66.5 35t-79 12.5h-417z" />
    <glyph glyph-name="cid175" unicode="&#x220f;" horiz-adv-x="1000" 
d="M184 721h633v-857h-149v729h-336v-729h-148v857z" />
    <glyph glyph-name="cid176" unicode="&#x2211;" horiz-adv-x="1000" 
d="M391 120h410v-120h-602v81l248 286l-236 279v88h560v-119h-365v-3l200 -240l-215 -248v-4z" />
    <glyph glyph-name="cid177" unicode="&#x221a;" horiz-adv-x="1000" 
d="M1000 880v-47h-413l-322 -925h-32l-109 278l-68 -95l-28 21l145 203l97 -248l283 813h447z" />
    <glyph glyph-name="cid178" unicode="&#x221d;" horiz-adv-x="1000" 
d="M567 379q19 -23 40 -42.5t45 -34t52 -23t60 -8.5q30 0 56 9l38 -94q-42 -16 -96 -16q-43 0 -80 10t-69.5 28t-60 42t-52.5 51q-24 -27 -52 -51t-60.5 -42t-69.5 -28t-80 -10q-37 0 -74.5 13t-67.5 39.5t-49 65.5t-19 91t19 91.5t49 65.5t67.5 39.5t74.5 13.5
q43 0 80 -10.5t69.5 -28.5t60.5 -42t52 -51q25 27 52.5 51t60 42t69.5 28.5t80 10.5q51 0 96 -17l-38 -94q-26 9 -56 9q-32 0 -60 -8.5t-52 -23t-45 -34t-40 -42.5zM130 379q0 -50 30.5 -79t75.5 -29q64 0 111.5 31t86.5 77q-39 46 -86.5 77t-111.5 31q-45 0 -75.5 -29
t-30.5 -79z" />
    <glyph glyph-name="cid179" unicode="&#x221e;" horiz-adv-x="1000" 
d="M500 457q25 27 52.5 51t60 42t69.5 28.5t80 10.5q37 0 74.5 -13.5t67.5 -39.5t48.5 -65.5t18.5 -91.5t-18.5 -91t-48.5 -65.5t-67.5 -39.5t-74.5 -13q-43 0 -80 10t-69.5 28t-60 42t-52.5 51q-24 -27 -52 -51t-60.5 -42t-69.5 -28t-80 -10q-37 0 -74.5 13t-67.5 39.5
t-49 65.5t-19 91t19 91.5t49 65.5t67.5 39.5t74.5 13.5q43 0 80 -10.5t69.5 -28.5t60.5 -42t52 -51zM130 379q0 -50 30.5 -79t75.5 -29q64 0 111.5 31t86.5 77q-39 46 -86.5 77t-111.5 31q-45 0 -75.5 -29t-30.5 -79zM567 379q19 -23 40 -42.5t45 -34t52 -23t60 -8.5
q45 0 75.5 29t30.5 79t-30.5 79t-75.5 29q-32 0 -60 -8.5t-52 -23t-45 -34t-40 -42.5z" />
    <glyph glyph-name="cid180" unicode="&#x2220;" horiz-adv-x="1000" 
d="M336 130h551v-101h-791v4l656 659l72 -72l-488 -487v-3z" />
    <glyph glyph-name="cid181" unicode="&#x2227;" horiz-adv-x="1000" 
d="M498 778h4l388 -740l-90 -48l-298 573h-4l-298 -573l-90 48z" />
    <glyph glyph-name="cid182" unicode="&#x2228;" horiz-adv-x="1000" 
d="M502 -20h-4l-388 740l90 48l298 -573h4l298 573l90 -48z" />
    <glyph glyph-name="cid183" unicode="&#x2229;" horiz-adv-x="1000" 
d="M179 425q0 70 24.5 131t67.5 106t101.5 70.5t127.5 25.5t127.5 -25.5t101.5 -70.5t67.5 -106t24.5 -131v-417h-101v417q0 49 -16.5 91.5t-46 73.5t-70 49t-87.5 18t-87.5 -18t-70 -49t-46 -73.5t-16.5 -91.5v-417h-101v417v0z" />
    <glyph glyph-name="cid184" unicode="&#x222a;" horiz-adv-x="1000" 
d="M821 333q0 -70 -24.5 -131t-67.5 -106t-101.5 -70.5t-127.5 -25.5t-127.5 25.5t-101.5 70.5t-67.5 106t-24.5 131v417h101v-417q0 -49 16.5 -91.5t46 -73.5t70 -48.5t87.5 -17.5t87.5 17.5t70 48.5t46 73.5t16.5 91.5v417h101v-417v0z" />
    <glyph glyph-name="cid185" unicode="&#x222b;" horiz-adv-x="1000" 
d="M438 595q0 78 17 128t44 78.5t61.5 39.5t70.5 11q17 0 33 -2t31 -5l-11 -115q-20 4 -41 4q-20 0 -35.5 -7t-25.5 -25t-15 -49.5t-5 -80.5v-407q0 -78 -17 -128t-44 -78.5t-61.5 -39.5t-70.5 -11q-17 0 -33 2t-31 5l11 115q20 -4 41 -4q20 0 35.5 7t25.5 25t15 49.5
t5 80.5v407z" />
    <glyph glyph-name="cid186" unicode="&#x222c;" horiz-adv-x="1000" 
d="M240 595q0 78 17 128t44 78.5t61.5 39.5t70.5 11q17 0 33 -2t31 -5l-11 -115q-20 4 -41 4q-20 0 -35 -7t-25 -25t-15 -49.5t-5 -80.5v-407q0 -78 -17 -128t-44.5 -78.5t-62 -39.5t-70.5 -11q-17 0 -33 2t-31 5l11 115q20 -4 42 -4q20 0 35 7t25 25t15 49.5t5 80.5v407z
M635 595q0 78 17 128t44.5 78.5t62 39.5t70.5 11q17 0 33 -2t31 -5l-11 -115q-20 4 -42 4q-20 0 -35 -7t-25 -25t-15 -49.5t-5 -80.5v-407q0 -78 -17 -128t-44 -78.5t-61.5 -39.5t-70.5 -11q-17 0 -33 2t-31 5l11 115q20 -4 41 -4q20 0 35 7t25 25t15 49.5t5 80.5v407z" />
    <glyph glyph-name="cid187" unicode="&#x222e;" horiz-adv-x="1000" 
d="M438 207q-27 9 -49.5 26t-39 39.5t-25.5 50t-9 57.5t9 57.5t25.5 50t39 39.5t49.5 26v42q0 78 17 128t44 78.5t61.5 39.5t70.5 11q17 0 33 -2t31 -5l-11 -115q-20 4 -41 4q-20 0 -34.5 -6.5t-25 -23t-16 -46t-5.5 -74.5v-31q27 -9 49.5 -26t39 -39.5t25.5 -50t9 -57.5
t-9 -57.5t-25.5 -50t-39 -39.5t-49.5 -26v-42q0 -78 -17 -128t-44 -78.5t-61.5 -39.5t-70.5 -11q-17 0 -33 2t-31 5l11 115q20 -4 41 -4q19 0 34 6.5t25.5 23t16 46t5.5 74.5v31zM438 495q-32 -16 -51.5 -46.5t-19.5 -68.5t19.5 -68.5t51.5 -46.5v230zM562 265
q32 16 51.5 46.5t19.5 68.5t-19.5 68.5t-51.5 46.5v-230z" />
    <glyph glyph-name="cid188" unicode="&#x2234;" horiz-adv-x="1000" 
d="M413 604q0 36 25.5 61.5t61.5 25.5t61.5 -25.5t25.5 -61.5q0 -18 -7 -33.5t-18.5 -27.5t-27.5 -19t-34 -7t-34 7t-27.5 19t-18.5 27.5t-7 33.5zM169 154q0 18 7 33.5t18.5 27.5t27.5 19t34 7t33.5 -7t27.5 -19t19 -27.5t7 -33.5t-7 -34t-19 -27.5t-27.5 -18.5t-33.5 -7
q-36 0 -61.5 25.5t-25.5 61.5zM658 154q0 18 7 33.5t18.5 27.5t27 19t33.5 7t34 -7t27.5 -19t18.5 -27.5t7 -33.5q0 -36 -25.5 -61.5t-61.5 -25.5q-18 0 -33.5 7t-27 18.5t-18.5 27.5t-7 34z" />
    <glyph glyph-name="cid189" unicode="&#x2235;" horiz-adv-x="1000" 
d="M169 604q0 36 25.5 61.5t61.5 25.5q18 0 33.5 -7t27.5 -18.5t19 -27.5t7 -34t-7 -33.5t-19 -27.5t-27.5 -19t-33.5 -7t-34 7t-27.5 19t-18.5 27.5t-7 33.5zM658 604q0 18 7 34t18.5 27.5t27 18.5t33.5 7q36 0 61.5 -25.5t25.5 -61.5q0 -18 -7 -33.5t-18.5 -27.5
t-27.5 -19t-34 -7t-33.5 7t-27 19t-18.5 27.5t-7 33.5zM413 154q0 18 7 33.5t18.5 27.5t27.5 19t34 7t34 -7t27.5 -19t18.5 -27.5t7 -33.5q0 -36 -25.5 -61.5t-61.5 -25.5t-61.5 25.5t-25.5 61.5z" />
    <glyph glyph-name="cid190" unicode="&#x2236;" horiz-adv-x="1000" 
d="M413 604q0 36 25.5 61.5t61.5 25.5t61.5 -25.5t25.5 -61.5q0 -18 -7 -33.5t-18.5 -27.5t-27.5 -19t-34 -7t-34 7t-27.5 19t-18.5 27.5t-7 33.5zM413 154q0 18 7 33.5t18.5 27.5t27.5 19t34 7t34 -7t27.5 -19t18.5 -27.5t7 -33.5q0 -36 -25.5 -61.5t-61.5 -25.5
t-61.5 25.5t-25.5 61.5z" />
    <glyph glyph-name="cid191" unicode="&#x223d;" horiz-adv-x="1000" 
d="M464 415q27 34 58 65.5t67.5 55.5t79 38.5t93.5 14.5q37 0 74.5 -13.5t67.5 -39.5t48.5 -65.5t18.5 -91.5q0 -53 -18.5 -92t-49 -65t-68.5 -39t-77 -13q-55 0 -96 16l38 94q25 -9 60 -9q48 0 79 28.5t31 79.5q0 50 -30.5 79t-75.5 29q-39 0 -71 -12t-60 -32t-52 -46.5
t-46 -54.5q-27 -35 -57.5 -66t-67 -54.5t-79 -37.5t-93.5 -14q-37 0 -74.5 13t-67.5 39.5t-49 65.5t-19 91t19 91.5t49 66t68.5 39.5t77.5 13q51 0 96 -17l-38 -94q-26 9 -60 9q-48 0 -79 -28.5t-31 -79.5q0 -50 30.5 -79t75.5 -29q39 0 71 12t59.5 31.5t51.5 45.5t46 55z
" />
    <glyph glyph-name="cid192" unicode="&#x2252;" horiz-adv-x="1000" 
d="M236 673q0 36 25.5 61.5t61.5 25.5q18 0 33.5 -7t27 -18.5t18.5 -27.5t7 -34t-7 -33.5t-18.5 -27t-27 -18.5t-33.5 -7t-34 7t-27.5 18.5t-18.5 27t-7 33.5zM855 519v-86h-710v86h710zM855 325v-86h-710v86h710zM591 85q0 18 7 33.5t18.5 27t27 18.5t33.5 7t34 -7
t27.5 -18.5t18.5 -27t7 -33.5q0 -36 -25.5 -61.5t-61.5 -25.5q-18 0 -33.5 7t-27 18.5t-18.5 27.5t-7 34z" />
    <glyph glyph-name="cid193" unicode="&#x2260;" horiz-adv-x="1000" 
d="M577 443l-47 -129h325v-102h-362l-66 -184l-96 35l55 149h-241v102h277l47 129h-324v101h361l67 186l96 -35l-55 -151h241v-101h-278z" />
    <glyph glyph-name="cid194" unicode="&#x2261;" horiz-adv-x="1000" 
d="M855 645v-94h-710v94h710zM855 426v-94h-710v94h710zM855 207v-94h-710v94h710z" />
    <glyph glyph-name="cid195" unicode="&#x2264;" horiz-adv-x="1000" 
d="M871 85v-94h-742v94h742zM365 474l512 -206l-38 -95l-743 301v3l743 301l38 -95l-512 -206v-3z" />
    <glyph glyph-name="cid196" unicode="&#x2265;" horiz-adv-x="1000" 
d="M129 85h742v-94h-742v94zM635 474v3l-512 206l39 95l742 -301v-3l-742 -301l-39 95z" />
    <glyph glyph-name="cid197" unicode="&#x226a;" horiz-adv-x="1000" 
d="M636 698l-456 -317v-4l456 -317l-49 -71l-555 388v4l555 388zM967 698l-455 -317v-4l455 -317l-49 -71l-555 388v4l555 388z" />
    <glyph glyph-name="cid198" unicode="&#x226b;" horiz-adv-x="1000" 
d="M637 381v-4l-555 -388l-49 71l455 317v4l-455 317l49 71zM968 381v-4l-555 -388l-49 71l456 317v4l-456 317l49 71z" />
    <glyph glyph-name="cid199" unicode="&#x2282;" horiz-adv-x="1000" 
d="M454 58q-70 0 -131 24.5t-106 67.5t-70.5 101.5t-25.5 127.5t25.5 127.5t70.5 101.5t106 67.5t131 24.5h417v-101h-417q-49 0 -91.5 -16.5t-73.5 -46t-48.5 -70t-17.5 -87.5t17.5 -87.5t48.5 -70t73.5 -46t91.5 -16.5h417v-101h-417v0z" />
    <glyph glyph-name="cid200" unicode="&#x2283;" horiz-adv-x="1000" 
d="M546 700q70 0 131 -24.5t106 -67.5t70.5 -101.5t25.5 -127.5t-25.5 -127.5t-70.5 -101.5t-106 -67.5t-131 -24.5h-417v101h417q49 0 91.5 16.5t73.5 46t49 70t18 87.5t-18 87.5t-49 70t-73.5 46t-91.5 16.5h-417v101h417v0z" />
    <glyph glyph-name="cid201" unicode="&#x2286;" horiz-adv-x="1000" 
d="M407 667q-42 0 -76 -13.5t-58 -36.5t-37 -54t-13 -66t13 -66t37 -54t58 -36.5t76 -13.5h464v-101h-465q-62 0 -114.5 21.5t-90.5 58t-59 86t-21 105.5t21 105.5t59 86.5t90.5 58.5t114.5 21.5h465v-102h-464zM871 91v-102h-742v102h742z" />
    <glyph glyph-name="cid202" unicode="&#x2287;" horiz-adv-x="1000" 
d="M594 327q41 0 75 13.5t58 36.5t37.5 54t13.5 66t-13.5 66t-37.5 54t-58 36.5t-75 13.5h-465v102h465q62 0 114.5 -21.5t90.5 -58.5t59 -86.5t21 -105.5t-21 -105.5t-59 -86t-90.5 -58t-114.5 -21.5h-465v101h465zM871 91v-102h-742v102h742z" />
    <glyph glyph-name="cid203" unicode="&#x2299;" horiz-adv-x="1000" 
d="M500 10q-77 0 -144 29t-117.5 79.5t-79.5 117.5t-29 144q0 76 29 143.5t79.5 118t117.5 79.5t144 29q76 0 143.5 -29t118 -79.5t79.5 -118t29 -143.5q0 -77 -29 -144t-79.5 -117.5t-118 -79.5t-143.5 -29zM232 380q0 -56 21 -104.5t57.5 -85t85 -57.5t104.5 -21
q55 0 104 21t85.5 57.5t57.5 85t21 104.5q0 55 -21 104t-57.5 85.5t-85.5 57.5t-104 21q-56 0 -104.5 -21t-85 -57.5t-57.5 -85.5t-21 -104zM566 380q0 -28 -19.5 -47t-46.5 -19t-46.5 19t-19.5 47q0 27 19.5 46.5t46.5 19.5t46.5 -19.5t19.5 -46.5z" />
    <glyph glyph-name="cid204" unicode="&#x22a5;" horiz-adv-x="1000" 
d="M905 132v-102h-810v102h354v605h102v-605h354z" />
    <glyph glyph-name="cid205" unicode="&#x2312;" horiz-adv-x="1000" 
d="M20 654q40 40 89.5 76t109.5 63t130.5 42.5t150.5 15.5t150 -15.5t130 -42.5t110 -63t90 -76l-42 -96q-41 38 -87.5 71t-100.5 57t-116 38t-134 14t-134.5 -14t-116.5 -38t-100.5 -57t-86.5 -71l-42 96v0z" />
    <glyph glyph-name="cid206" unicode="&#x2460;" horiz-adv-x="1000" 
d="M500 -92q-98 0 -183.5 37t-150 101.5t-101.5 150t-37 183.5q0 97 37 183t101.5 150.5t150 101.5t183.5 37q97 0 183 -37t150.5 -101.5t101.5 -150.5t37 -183q0 -98 -37.5 -184t-102 -150t-150 -101t-182.5 -37zM500 -55q90 0 169 34t138.5 93.5t93.5 138.5t34 169
t-34 169t-93.5 138.5t-138.5 93.5t-169 34q-91 0 -170 -34.5t-138 -94t-93 -138.5t-34 -168q0 -90 34 -169t93.5 -138.5t138.5 -93.5t169 -34zM459 518h-109v80q45 9 78.5 20.5t62.5 28.5h96v-525h-128v396z" />
    <glyph glyph-name="cid207" unicode="&#x2461;" horiz-adv-x="1000" 
d="M500 -92q-98 0 -183.5 37t-150 101.5t-101.5 150t-37 183.5q0 97 37 183t101.5 150.5t150 101.5t183.5 37q97 0 183 -37t150.5 -101.5t101.5 -150.5t37 -183q0 -98 -37.5 -184t-102 -150t-150 -101t-182.5 -37zM500 -55q90 0 169 34t138.5 93.5t93.5 138.5t34 169
t-34 169t-93.5 138.5t-138.5 93.5t-169 34q-91 0 -170 -34.5t-138 -94t-93 -138.5t-34 -168q0 -90 34 -169t93.5 -138.5t138.5 -93.5t169 -34zM317 196l100.5 86t77.5 75.5t50 66t18 58.5q0 78 -79 78q-33 0 -59.5 -16.5t-48.5 -36.5l-70 68q83 84 193 84q42 0 76.5 -12
t59 -33.5t38 -52t13.5 -67.5q0 -34 -16 -68.5t-42 -69t-59.5 -68t-69.5 -64.5q22 2 49.5 3.5t50.5 1.5h107v-107h-389v74z" />
    <glyph glyph-name="cid208" unicode="&#x2462;" horiz-adv-x="1000" 
d="M500 -92q-98 0 -183.5 37t-150 101.5t-101.5 150t-37 183.5q0 97 37 183t101.5 150.5t150 101.5t183.5 37q97 0 183 -37t150.5 -101.5t101.5 -150.5t37 -183q0 -98 -37.5 -184t-102 -150t-150 -101t-182.5 -37zM500 -55q90 0 169 34t138.5 93.5t93.5 138.5t34 169
t-34 169t-93.5 138.5t-138.5 93.5t-169 34q-91 0 -170 -34.5t-138 -94t-93 -138.5t-34 -168q0 -90 34 -169t93.5 -138.5t138.5 -93.5t169 -34zM489 110q-64 0 -116 20.5t-83 55.5l59 80q26 -23 60 -39.5t78 -16.5q38 0 62.5 17t24.5 47q0 17 -7 30.5t-24.5 22.5t-48 14
t-78.5 5v89q79 0 109.5 18.5t30.5 50.5q0 58 -73 58q-58 0 -112 -48l-63 77q38 32 82.5 50t95.5 18q90 0 143.5 -37.5t53.5 -109.5q0 -40 -25 -68.5t-72 -46.5v-3q51 -14 84 -46t33 -84q0 -37 -17 -65.5t-46 -48t-68 -30t-83 -10.5z" />
    <glyph glyph-name="cid209" unicode="&#x2463;" horiz-adv-x="1000" 
d="M510 340v82q0 26 1 58.5t3 58.5h-4q-7 -12 -12 -21.5t-10.5 -18.5l-10.5 -18l-12 -21l-83 -120h128zM629 340h67v-94h-67v-124h-119v124h-249v88l213 313h155v-307zM500 -55q90 0 169 34t138.5 93.5t93.5 138.5t34 169t-34 169t-93.5 138.5t-138.5 93.5t-169 34
q-91 0 -170 -34.5t-138 -94t-93 -138.5t-34 -168q0 -90 34 -169t93.5 -138.5t138.5 -93.5t169 -34zM500 852q97 0 183 -37t150.5 -101.5t101.5 -150.5t37 -183q0 -98 -37.5 -184t-102 -150t-150 -101t-182.5 -37q-98 0 -183.5 37t-150 101.5t-101.5 150t-37 183.5
q0 97 37 183t101.5 150.5t150 101.5t183.5 37z" />
    <glyph glyph-name="cid210" unicode="&#x2464;" horiz-adv-x="1000" 
d="M500 -92q-98 0 -183.5 37t-150 101.5t-101.5 150t-37 183.5q0 97 37 183t101.5 150.5t150 101.5t183.5 37q97 0 183 -37t150.5 -101.5t101.5 -150.5t37 -183q0 -98 -37.5 -184t-102 -150t-150 -101t-182.5 -37zM500 -55q90 0 169 34t138.5 93.5t93.5 138.5t34 169
t-34 169t-93.5 138.5t-138.5 93.5t-169 34q-91 0 -170 -34.5t-138 -94t-93 -138.5t-34 -168q0 -90 34 -169t93.5 -138.5t138.5 -93.5t169 -34zM496 111q-69 0 -117 21t-82 53l57 81q26 -21 58.5 -38.5t73.5 -17.5q43 0 68.5 22t25.5 61q0 38 -25.5 59.5t-64.5 21.5
q-28 0 -46 -7.5t-44 -23.5l-57 37l16 267h322v-105h-217l-8 -97q34 14 69 14q37 0 70 -10t58 -30t39.5 -51t14.5 -73q0 -44 -17 -78t-46 -57.5t-67.5 -36t-80.5 -12.5z" />
    <glyph glyph-name="cid211" unicode="&#x2465;" horiz-adv-x="1000" 
d="M502 205q30 0 52.5 20.5t22.5 58.5t-23 58.5t-59 20.5q-23 0 -46.5 -11.5t-45.5 -39.5q10 -62 37 -84.5t62 -22.5zM617 520q-16 15 -41.5 26t-51.5 11q-24 0 -45.5 -8t-38.5 -27t-28 -50t-13 -77q25 27 60 42t69 15q35 0 65 -9.5t52.5 -30t35.5 -51t13 -72.5t-15.5 -75
t-41.5 -56.5t-61 -35.5t-75 -12q-43 0 -82.5 15t-69.5 47t-48 82t-18 120q0 73 19.5 127t52 89t75 52t88.5 17q57 0 97.5 -18.5t68.5 -44.5zM500 -55q90 0 169 34t138.5 93.5t93.5 138.5t34 169t-34 169t-93.5 138.5t-138.5 93.5t-169 34q-91 0 -170 -34.5t-138 -94
t-93 -138.5t-34 -168q0 -90 34 -169t93.5 -138.5t138.5 -93.5t169 -34zM500 852q97 0 183 -37t150.5 -101.5t101.5 -150.5t37 -183q0 -98 -37.5 -184t-102 -150t-150 -101t-182.5 -37q-98 0 -183.5 37t-150 101.5t-101.5 150t-37 183.5q0 97 37 183t101.5 150.5t150 101.5
t183.5 37z" />
    <glyph glyph-name="cid212" unicode="&#x2466;" horiz-adv-x="1000" 
d="M500 -92q-98 0 -183.5 37t-150 101.5t-101.5 150t-37 183.5q0 97 37 183t101.5 150.5t150 101.5t183.5 37q97 0 183 -37t150.5 -101.5t101.5 -150.5t37 -183q0 -98 -37.5 -184t-102 -150t-150 -101t-182.5 -37zM500 -55q90 0 169 34t138.5 93.5t93.5 138.5t34 169
t-34 169t-93.5 138.5t-138.5 93.5t-169 34q-91 0 -170 -34.5t-138 -94t-93 -138.5t-34 -168q0 -90 34 -169t93.5 -138.5t138.5 -93.5t169 -34zM408 122q4 65 13 119.5t26.5 104t44.5 97.5t68 99h-249v105h387v-77q-50 -55 -79.5 -103t-46.5 -99t-24 -110t-11 -136h-129z" />
    <glyph glyph-name="cid213" unicode="&#x2467;" horiz-adv-x="1000" 
d="M500 -92q-98 0 -183.5 37t-150 101.5t-101.5 150t-37 183.5q0 97 37 183t101.5 150.5t150 101.5t183.5 37q97 0 183 -37t150.5 -101.5t101.5 -150.5t37 -183q0 -98 -37.5 -184t-102 -150t-150 -101t-182.5 -37zM500 -55q90 0 169 34t138.5 93.5t93.5 138.5t34 169
t-34 169t-93.5 138.5t-138.5 93.5t-169 34q-91 0 -170 -34.5t-138 -94t-93 -138.5t-34 -168q0 -90 34 -169t93.5 -138.5t138.5 -93.5t169 -34zM497 110q-44 0 -81 10.5t-64 29.5t-42 45t-15 57q0 25 8 45t22 36.5t32.5 29t39.5 22.5v3q-35 23 -57.5 53t-22.5 72q0 34 14 61
t38.5 46t57.5 29t71 10q84 0 132.5 -39t48.5 -101q0 -42 -23.5 -71.5t-52.5 -47.5v-3q21 -11 39 -24t32 -29.5t22 -37.5t8 -47q0 -32 -15 -59t-42 -47t-65.5 -31.5t-84.5 -11.5zM532 428q41 35 41 78q0 30 -20.5 48.5t-56.5 18.5q-29 0 -49 -15t-20 -45q0 -32 29.5 -51.5
t75.5 -33.5zM503 198q37 0 61.5 15.5t24.5 49.5q0 17 -9 29.5t-25 23t-39.5 20t-51.5 19.5q-22 -14 -39 -35t-17 -49q0 -34 28.5 -53.5t66.5 -19.5z" />
    <glyph glyph-name="cid214" unicode="&#x2468;" horiz-adv-x="1000" 
d="M503 406q22 0 47 12.5t45 40.5q-10 61 -37 83.5t-60 22.5q-29 0 -51.5 -19.5t-22.5 -61.5t22 -60t57 -18zM382 250q16 -15 41.5 -27t54.5 -12q24 0 45 8.5t37 28t26 50.5t12 76q-23 -26 -56 -40.5t-65 -14.5q-36 0 -67 9.5t-54.5 29.5t-36.5 51t-13 73q0 41 15 74t41 56
t61 35.5t74 12.5q43 0 82.5 -15t70 -46.5t48.5 -81.5t18 -120q0 -74 -19.5 -128t-52 -89.5t-74.5 -52.5t-88 -17q-57 0 -98.5 19t-68.5 45zM500 -55q90 0 169 34t138.5 93.5t93.5 138.5t34 169t-34 169t-93.5 138.5t-138.5 93.5t-169 34q-91 0 -170 -34.5t-138 -94
t-93 -138.5t-34 -168q0 -90 34 -169t93.5 -138.5t138.5 -93.5t169 -34zM500 852q97 0 183 -37t150.5 -101.5t101.5 -150.5t37 -183q0 -98 -37.5 -184t-102 -150t-150 -101t-182.5 -37q-98 0 -183.5 37t-150 101.5t-101.5 150t-37 183.5q0 97 37 183t101.5 150.5t150 101.5
t183.5 37z" />
    <glyph glyph-name="cid215" unicode="&#x2469;" horiz-adv-x="1000" 
d="M500 -92q-98 0 -183.5 37t-150 101.5t-101.5 150t-37 183.5q0 97 37 183t101.5 150.5t150 101.5t183.5 37q97 0 183 -37t150.5 -101.5t101.5 -150.5t37 -183q0 -98 -37.5 -184t-102 -150t-150 -101t-182.5 -37zM500 -55q90 0 169 34t138.5 93.5t93.5 138.5t34 169
t-34 169t-93.5 138.5t-138.5 93.5t-169 34q-91 0 -170 -34.5t-138 -94t-93 -138.5t-34 -168q0 -90 34 -169t93.5 -138.5t138.5 -93.5t169 -34zM271 518h-88v80q38 9 65 20.5t53 28.5h88v-525h-118v396zM642 110q-39 0 -71 19t-55 55t-35.5 87.5t-12.5 116.5q0 130 48 201
t126 71q39 0 71 -18.5t55 -53.5t35.5 -85.5t12.5 -114.5q0 -65 -12.5 -116.5t-35.5 -87.5t-55 -55t-71 -19zM642 212q25 0 41 39t16 137q0 49 -4.5 82t-12 53t-18 28.5t-22.5 8.5t-22.5 -8.5t-18 -28.5t-11.5 -53t-4 -82q0 -98 15.5 -137t40.5 -39z" />
    <glyph glyph-name="cid216" unicode="&#x246a;" horiz-adv-x="1000" 
d="M500 -92q-98 0 -183.5 37t-150 101.5t-101.5 150t-37 183.5q0 97 37 183t101.5 150.5t150 101.5t183.5 37q97 0 183 -37t150.5 -101.5t101.5 -150.5t37 -183q0 -98 -37.5 -184t-102 -150t-150 -101t-182.5 -37zM500 -55q90 0 169 34t138.5 93.5t93.5 138.5t34 169
t-34 169t-93.5 138.5t-138.5 93.5t-169 34q-91 0 -170 -34.5t-138 -94t-93 -138.5t-34 -168q0 -90 34 -169t93.5 -138.5t138.5 -93.5t169 -34zM312 518h-88v80q38 9 65 20.5t53 28.5h88v-525h-118v396zM602 518h-88v80q38 9 65 20.5t52 28.5h89v-525h-118v396z" />
    <glyph glyph-name="cid217" unicode="&#x246b;" horiz-adv-x="1000" 
d="M500 -92q-98 0 -183.5 37t-150 101.5t-101.5 150t-37 183.5q0 97 37 183t101.5 150.5t150 101.5t183.5 37q97 0 183 -37t150.5 -101.5t101.5 -150.5t37 -183q0 -98 -37.5 -184t-102 -150t-150 -101t-182.5 -37zM500 -55q90 0 169 34t138.5 93.5t93.5 138.5t34 169
t-34 169t-93.5 138.5t-138.5 93.5t-169 34q-91 0 -170 -34.5t-138 -94t-93 -138.5t-34 -168q0 -90 34 -169t93.5 -138.5t138.5 -93.5t169 -34zM270 518h-89v80q38 9 65 20.5t53 28.5h88v-525h-117v396zM477 196l71.5 86t56 75.5t36.5 66t13 58.5q0 78 -54 78q-20 0 -37 -13
t-32 -30l-63 68q33 38 70.5 56t81.5 18q33 0 60 -12t46 -33.5t29.5 -52t10.5 -67.5q0 -34 -12 -68.5t-31.5 -69t-43.5 -68l-48 -64.5q17 2 39 3.5t39 1.5h72v-107h-304v74z" />
    <glyph glyph-name="cid218" unicode="&#x246c;" horiz-adv-x="1000" 
d="M500 -92q-98 0 -183.5 37t-150 101.5t-101.5 150t-37 183.5q0 97 37 183t101.5 150.5t150 101.5t183.5 37q97 0 183 -37t150.5 -101.5t101.5 -150.5t37 -183q0 -98 -37.5 -184t-102 -150t-150 -101t-182.5 -37zM500 -55q90 0 169 34t138.5 93.5t93.5 138.5t34 169
t-34 169t-93.5 138.5t-138.5 93.5t-169 34q-91 0 -170 -34.5t-138 -94t-93 -138.5t-34 -168q0 -90 34 -169t93.5 -138.5t138.5 -93.5t169 -34zM274 518h-88v80q38 9 65 20.5t52 28.5h89v-525h-118v396zM616 110q-48 0 -89 17t-65 48l55 79q20 -20 42 -32t51 -12
q26 0 42.5 17t16.5 47q0 17 -4.5 30.5t-17 22.5t-34.5 14t-56 5v89q55 0 76 18.5t21 50.5q0 28 -13.5 43t-35.5 15q-20 0 -36 -8.5t-36 -28.5l-59 76q61 58 140 58q72 0 115 -37.5t43 -109.5q0 -78 -76 -115v-3q40 -14 65.5 -46t25.5 -84q0 -37 -13.5 -65.5t-37 -48
t-54.5 -30t-66 -10.5z" />
    <glyph glyph-name="cid219" unicode="&#x246d;" horiz-adv-x="1000" 
d="M181 598q38 9 65 20.5t53 28.5h88v-525h-117v396h-89v80zM647 340v82q0 26 1.5 58.5t2.5 58.5h-3q-11 -25 -17 -40l-16 -39l-54 -120h86zM754 340h51v-94h-51v-124h-107v124h-190v88l158 313h139v-307zM500 -55q90 0 169 34t138.5 93.5t93.5 138.5t34 169t-34 169
t-93.5 138.5t-138.5 93.5t-169 34q-91 0 -170 -34.5t-138 -94t-93 -138.5t-34 -168q0 -90 34 -169t93.5 -138.5t138.5 -93.5t169 -34zM500 852q97 0 183 -37t150.5 -101.5t101.5 -150.5t37 -183q0 -98 -37.5 -184t-102 -150t-150 -101t-182.5 -37q-98 0 -183.5 37
t-150 101.5t-101.5 150t-37 183.5q0 97 37 183t101.5 150.5t150 101.5t183.5 37z" />
    <glyph glyph-name="cid220" unicode="&#x246e;" horiz-adv-x="1000" 
d="M500 -92q-98 0 -183.5 37t-150 101.5t-101.5 150t-37 183.5q0 97 37 183t101.5 150.5t150 101.5t183.5 37q97 0 183 -37t150.5 -101.5t101.5 -150.5t37 -183q0 -98 -37.5 -184t-102 -150t-150 -101t-182.5 -37zM500 -55q90 0 169 34t138.5 93.5t93.5 138.5t34 169
t-34 169t-93.5 138.5t-138.5 93.5t-169 34q-91 0 -170 -34.5t-138 -94t-93 -138.5t-34 -168q0 -90 34 -169t93.5 -138.5t138.5 -93.5t169 -34zM270 518h-89v80q38 9 65 20.5t53 28.5h88v-525h-117v396zM615 111q-53 0 -91 19t-65 48l52 81q19 -19 43 -34t52 -15
q31 0 48.5 22t17.5 61q0 38 -17 59.5t-44 21.5q-18 0 -33 -7.5t-31 -23.5l-51 37l11 267h262v-105h-164l-4 -97q25 14 48 14q28 0 53.5 -10t45 -30t30.5 -51t11 -73q0 -44 -14 -78t-38 -57.5t-55.5 -36t-66.5 -12.5z" />
    <glyph glyph-name="cid221" unicode="&#x2474;" horiz-adv-x="1000" 
d="M151 -90q-69 105 -96 219.5t-27 250.5q0 135 27 250t96 220l65 -16q-31 -52 -51 -105t-32 -109.5t-16.5 -116t-4.5 -123.5t5 -123.5t16.5 -116t31.5 -109.5t51 -105zM310 124h144v451h-121v91q53 10 89.5 25t70.5 38h108v-605h125v-120h-416v120zM784 -74q31 52 51 105
t31.5 109.5t16.5 116t5 123.5t-4.5 123.5t-16.5 116t-32 109.5t-51 105l65 16q69 -105 96 -220t27 -250q0 -136 -27 -250.5t-96 -219.5z" />
    <glyph glyph-name="cid222" unicode="&#x2475;" horiz-adv-x="1000" 
d="M151 -90q-69 105 -96 219.5t-27 250.5q0 135 27 250t96 220l65 -16q-31 -52 -51 -105t-32 -109.5t-16.5 -116t-4.5 -123.5t5 -123.5t16.5 -116t31.5 -109.5t51 -105zM271 89l122 128.5t94 110.5t60 95.5t21 84.5q0 56 -24.5 87t-74.5 31q-38 0 -70.5 -22.5t-58.5 -54.5
l-81 80q49 56 102.5 84.5t126.5 28.5q51 0 92 -16t69.5 -45.5t44 -71.5t15.5 -93q0 -47 -18.5 -95.5t-49.5 -98t-72 -100l-86 -101.5l58.5 4.5t55.5 2.5h140v-124h-466v85zM784 -74q31 52 51 105t31.5 109.5t16.5 116t5 123.5t-4.5 123.5t-16.5 116t-32 109.5t-51 105l65 16
q69 -105 96 -220t27 -250q0 -136 -27 -250.5t-96 -219.5z" />
    <glyph glyph-name="cid223" unicode="&#x2476;" horiz-adv-x="1000" 
d="M151 -90q-69 105 -96 219.5t-27 250.5q0 135 27 250t96 220l65 -16q-31 -52 -51 -105t-32 -109.5t-16.5 -116t-4.5 -123.5t5 -123.5t16.5 -116t31.5 -109.5t51 -105zM482 -9q-85 0 -144 29t-96 74l69 92q31 -32 70.5 -53.5t85.5 -21.5q54 0 86.5 25.5t32.5 73.5
q0 26 -9 47t-31 35.5t-59.5 22.5t-95.5 8v106q48 0 81 8t53 22.5t29 34t9 42.5q0 43 -24 66.5t-67 23.5q-38 0 -69.5 -17t-61.5 -49l-76 90q45 42 97.5 67t115.5 25q52 0 95 -12.5t73.5 -37.5t47 -61t16.5 -83q0 -59 -32 -99.5t-92 -64.5v-5q66 -17 106.5 -62t40.5 -117
q0 -50 -20 -89t-54 -65.5t-80 -40.5t-97 -14zM784 -74q31 52 51 105t31.5 109.5t16.5 116t5 123.5t-4.5 123.5t-16.5 116t-32 109.5t-51 105l65 16q69 -105 96 -220t27 -250q0 -136 -27 -250.5t-96 -219.5z" />
    <glyph glyph-name="cid224" unicode="&#x2477;" horiz-adv-x="1000" 
d="M216 834q-31 -52 -51 -105t-32 -109.5t-16.5 -116t-4.5 -123.5t5 -123.5t16.5 -116t31.5 -109.5t51 -105l-65 -16q-69 105 -96 219.5t-27 250.5q0 135 27 250t96 220zM531 298v149q0 33 1.5 74.5t3.5 77.5h-5q-14 -31 -25.5 -59.5t-28.5 -59.5l-106 -182h160zM668 298h87
v-113h-87v-181h-137v181h-299v101l265 443h171v-431zM849 850q69 -105 96 -220t27 -250q0 -136 -27 -250.5t-96 -219.5l-65 16q31 52 51 105t31.5 109.5t16.5 116t5 123.5t-4.5 123.5t-16.5 116t-32 109.5t-51 105z" />
    <glyph glyph-name="cid225" unicode="&#x2478;" horiz-adv-x="1000" 
d="M151 -90q-69 105 -96 219.5t-27 250.5q0 135 27 250t96 220l65 -16q-31 -52 -51 -105t-32 -109.5t-16.5 -116t-4.5 -123.5t5 -123.5t16.5 -116t31.5 -109.5t51 -105zM482 -10q-84 0 -143 30t-99 72l69 93q29 -32 67 -53.5t86 -21.5q55 0 90 33.5t35 94.5q0 60 -33 92.5
t-84 32.5q-31 0 -52.5 -9t-51.5 -30l-67 43l21 362h381v-124h-254l-14 -159q22 11 42.5 16t46.5 5q43 0 82 -13.5t68 -41.5t46 -70t17 -100q0 -60 -21 -107t-56 -79.5t-80.5 -49t-95.5 -16.5zM784 -74q31 52 51 105t31.5 109.5t16.5 116t5 123.5t-4.5 123.5t-16.5 116
t-32 109.5t-51 105l65 16q69 -105 96 -220t27 -250q0 -136 -27 -250.5t-96 -219.5z" />
    <glyph glyph-name="cid226" unicode="&#x2479;" horiz-adv-x="1000" 
d="M216 834q-31 -52 -51 -105t-32 -109.5t-16.5 -116t-4.5 -123.5t5 -123.5t16.5 -116t31.5 -109.5t51 -105l-65 -16q-69 105 -96 219.5t-27 250.5q0 135 27 250t96 220zM517 103q39 0 66.5 31.5t27.5 95.5q0 63 -26.5 91t-71.5 28q-26 0 -56 -17t-56 -60
q10 -92 41.5 -130.5t74.5 -38.5zM657 570q-18 23 -48 37.5t-61 14.5q-30 0 -56.5 -12.5t-46.5 -41.5t-33 -76.5t-15 -116.5q15 19 33 34t37 25t38.5 15t36.5 5q44 0 81.5 -13.5t65 -41t43 -70t15.5 -99.5q0 -56 -18 -100t-49 -75t-72.5 -47.5t-87.5 -16.5q-51 0 -97.5 20.5
t-82 64t-57 111t-21.5 160.5q0 104 23 178.5t61 122.5t88 71t104 23q67 0 116 -24.5t81 -59.5zM849 850q69 -105 96 -220t27 -250q0 -136 -27 -250.5t-96 -219.5l-65 16q31 52 51 105t31.5 109t16.5 115.5t5 124.5q0 64 -4.5 123.5t-16.5 116t-32 109.5t-51 105z" />
    <glyph glyph-name="cid227" unicode="&#x247a;" horiz-adv-x="1000" 
d="M151 -90q-69 105 -96 219.5t-27 250.5q0 135 27 250t96 220l65 -16q-31 -52 -51 -105t-32 -109.5t-16.5 -116t-4.5 -123.5t5 -123.5t16.5 -116t31.5 -109.5t51 -105zM387 4q4 94 15.5 172.5t33 149t55 138.5t81.5 141h-303v124h460v-91q-59 -78 -95 -147t-56.5 -142
t-30 -156t-13.5 -189h-147zM784 -74q31 52 51 105t31.5 109.5t16.5 116t5 123.5t-4.5 123.5t-16.5 116t-32 109.5t-51 105l65 16q69 -105 96 -220t27 -250q0 -136 -27 -250.5t-96 -219.5z" />
    <glyph glyph-name="cid228" unicode="&#x247b;" horiz-adv-x="1000" 
d="M151 -90q-69 105 -96 219.5t-27 250.5q0 135 27 250t96 220l65 -16q-31 -52 -51 -105t-32 -109.5t-16.5 -116t-4.5 -123.5t5 -123.5t16.5 -116t31.5 -109.5t51 -105zM500 -9q-54 0 -99.5 14.5t-78.5 41t-51.5 62.5t-18.5 80q0 34 10 62t27.5 50t40 39.5t48.5 31.5v5
q-43 32 -70.5 72.5t-27.5 97.5q0 45 16.5 81t46.5 61.5t71 39t89 13.5q49 0 89 -14t68 -39.5t43.5 -61.5t15.5 -80q0 -26 -8 -49.5t-21.5 -44.5t-31 -38.5t-36.5 -32.5v-4q27 -15 50 -33t40 -40.5t26.5 -51t9.5 -64.5q0 -42 -17.5 -78.5t-50 -63t-78.5 -41.5t-102 -15z
M545 418q25 29 39 58t14 61q0 45 -25.5 73.5t-72.5 28.5q-38 0 -64 -23.5t-26 -68.5q0 -24 9.5 -43t27.5 -34t43 -27.5t55 -24.5zM502 94q48 0 78 25.5t30 73.5q0 27 -12 46.5t-33 35.5t-51 29.5l-66 28.5q-29 -24 -48.5 -55.5t-19.5 -72.5q0 -51 35.5 -81t86.5 -30z
M784 -74q31 52 51 105t31.5 109.5t16.5 116t5 123.5t-4.5 123.5t-16.5 116t-32 109.5t-51 105l65 16q69 -105 96 -220t27 -250q0 -136 -27 -250.5t-96 -219.5z" />
    <glyph glyph-name="cid229" unicode="&#x247c;" horiz-adv-x="1000" 
d="M216 834q-31 -52 -51 -105t-32 -109.5t-16.5 -116t-4.5 -123.5t5 -123.5t16.5 -116t31.5 -109.5t51 -105l-65 -16q-69 105 -96 219.5t-27 250.5q0 135 27 250t96 220zM492 384q28 0 58 17t55 61q-10 92 -41.5 130.5t-73.5 38.5q-40 0 -67.5 -32t-27.5 -96q0 -63 27 -91
t70 -28zM350 164q18 -23 48 -38t60 -15t56.5 12.5t46.5 41.5t33 76.5t15 117.5q-29 -38 -69 -59t-75 -21q-45 0 -82.5 13.5t-64.5 41.5t-42.5 70t-15.5 99q0 55 18 99.5t49 75.5t72 47.5t87 16.5q51 0 97.5 -20.5t82 -64t57 -110.5t21.5 -160q0 -104 -23 -179t-61 -123
t-88 -71t-104 -23q-66 0 -116 25t-82 60zM849 850q69 -105 96 -220t27 -250q0 -136 -27 -250.5t-96 -219.5l-65 16q31 52 51 105t31.5 109.5t16.5 116t5 123.5t-4.5 123.5t-16.5 116t-32 109.5t-51 105z" />
    <glyph glyph-name="cid230" unicode="&#x247d;" horiz-adv-x="1000" 
d="M784 -74q31 52 51 105t31.5 109.5t16.5 116t5 123.5t-4.5 123.5t-16.5 116t-32 109.5t-51 105l65 16q69 -105 96 -220t27 -250q0 -136 -27 -250.5t-96 -219.5zM642 95q15 0 27.5 13.5t21 45t13.5 84.5t5 132t-5 131t-13.5 82.5t-21 42.5t-27.5 12q-14 0 -26 -12
t-21 -42.5t-14 -82.5t-5 -131t5 -132t14 -84.5t21 -45t26 -13.5zM642 -9q-39 0 -71 20.5t-55.5 66t-36.5 117.5t-13 175t13 174t36.5 115t55.5 63.5t71 19.5t71 -19.5t55 -63.5t36 -115t13 -174t-13 -175t-36 -117.5t-55 -66t-71 -20.5zM294 590h-95v76q47 10 79 25.5
t63 37.5h62v-725h-109v586zM151 -90q-69 105 -96 219.5t-27 250.5q0 135 27 250t96 220l65 -16q-31 -52 -51 -105t-32 -109.5t-16.5 -116t-4.5 -123.5t5 -123.5t16.5 -116t31.5 -109.5t51 -105z" />
    <glyph glyph-name="cid231" unicode="&#x247e;" horiz-adv-x="1000" 
d="M784 -74q31 52 51 105t31.5 109.5t16.5 116t5 123.5t-4.5 123.5t-16.5 116t-32 109.5t-51 105l65 16q69 -105 96 -220t27 -250q0 -136 -27 -250.5t-96 -219.5zM620 590h-96v76q47 10 79 25.5t64 37.5h61v-725h-108v586zM331 590h-96v76q47 10 79 25.5t64 37.5h61v-725
h-108v586zM151 -90q-69 105 -96 219.5t-27 250.5q0 135 27 250t96 220l65 -16q-31 -52 -51 -105t-32 -109.5t-16.5 -116t-4.5 -123.5t5 -123.5t16.5 -116t31.5 -109.5t51 -105z" />
    <glyph glyph-name="cid232" unicode="&#x247f;" horiz-adv-x="1000" 
d="M784 -74q31 52 51 105t31.5 109.5t16.5 116t5 123.5t-4.5 123.5t-16.5 116t-32 109.5t-51 105l65 16q69 -105 96 -220t27 -250q0 -136 -27 -250.5t-96 -219.5zM464 89q106 143 162.5 253.5t56.5 188.5q0 57 -18.5 83.5t-54.5 26.5q-26 0 -50 -17.5t-44 -43.5l-64 65
q38 44 75 70.5t91 26.5q77 0 122 -56.5t45 -151.5q0 -45 -14 -96.5t-38 -106.5t-56.5 -112t-69.5 -114q23 3 50 5t47 2h100v-108h-340v85zM294 590h-95v76q47 10 79 25.5t63 37.5h62v-725h-109v586zM151 -90q-69 105 -96 219.5t-27 250.5q0 135 27 250t96 220l65 -16
q-31 -52 -51 -105t-32 -109.5t-16.5 -116t-4.5 -123.5t5 -123.5t16.5 -116t31.5 -109.5t51 -105z" />
    <glyph glyph-name="cid233" unicode="&#x2480;" horiz-adv-x="1000" 
d="M784 -74q31 52 51 105t31.5 109.5t16.5 116t5 123.5t-4.5 123.5t-16.5 116t-32 109.5t-51 105l65 16q69 -105 96 -220t27 -250q0 -136 -27 -250.5t-96 -219.5zM684 379q54 -17 88.5 -62t34.5 -117q0 -50 -15 -89t-41.5 -65.5t-61.5 -40.5t-74 -14q-60 0 -101.5 21.5
t-67.5 54.5l61 80q20 -22 44.5 -37t56.5 -15q38 0 64.5 27t26.5 78q0 59 -35 93.5t-117 34.5v96q73 0 103.5 34.5t30.5 88.5q0 45 -19 69.5t-54 24.5q-23 0 -41 -10.5t-36 -31.5l-67 78q33 31 68.5 48t78.5 17q82 0 130.5 -50t48.5 -144q0 -59 -27.5 -100t-78.5 -64v-5z
M294 590h-95v76q47 10 79 25.5t63 37.5h62v-725h-109v586zM151 -90q-69 105 -96 219.5t-27 250.5q0 135 27 250t96 220l65 -16q-31 -52 -51 -105t-32 -109.5t-16.5 -116t-4.5 -123.5t5 -123.5t16.5 -116t31.5 -109.5t51 -105z" />
    <glyph glyph-name="cid234" unicode="&#x2481;" horiz-adv-x="1000" 
d="M216 834q-31 -52 -51 -105t-32 -109.5t-16.5 -116t-4.5 -123.5t5 -123.5t16.5 -116t31.5 -109.5t51 -105l-65 -16q-69 105 -96 219.5t-27 250.5q0 135 27 250t96 220zM199 666q47 10 79 25.5t63 37.5h62v-725h-109v586h-95v76zM661 298v144q0 16 0.5 36.5l1 41.5l1 41.5
t1.5 37.5h-3l-20 -59.5l-21 -60.5l-76 -181h116zM759 200v-196h-98v196h-211v86l196 443h113v-431h65v-98h-65zM849 850q69 -105 96 -220t27 -250q0 -136 -27 -250.5t-96 -219.5l-65 16q31 52 51 105t31.5 109.5t16.5 116t5 123.5t-4.5 123.5t-16.5 116t-32 109.5t-51 105z
" />
    <glyph glyph-name="cid235" unicode="&#x2482;" horiz-adv-x="1000" 
d="M784 -74q31 52 51 105t31.5 109.5t16.5 116t5 123.5t-4.5 123.5t-16.5 116t-32 109.5t-51 105l65 16q69 -105 96 -220t27 -250q0 -136 -27 -250.5t-96 -219.5zM579 438q17 11 31.5 16t32.5 5q32 0 61 -13t50.5 -39.5t34.5 -67.5t13 -97q0 -60 -15 -107t-39.5 -79.5
t-57 -49t-68.5 -16.5q-63 0 -106 22.5t-73 54.5l61 79q20 -22 43.5 -36.5t52.5 -14.5q43 0 68 37t25 106q0 63 -22 98t-55 35q-20 0 -35 -9t-33 -27l-64 37l16 357h270v-108h-182zM294 590h-95v76q47 10 79 25.5t63 37.5h62v-725h-109v586zM151 -90q-69 105 -96 219.5
t-27 250.5q0 135 27 250t96 220l65 -16q-31 -52 -51 -105t-32 -109.5t-16.5 -116t-4.5 -123.5t5 -123.5t16.5 -116t31.5 -109.5t51 -105z" />
    <glyph glyph-name="cid236" unicode="&#x249c;" horiz-adv-x="1000" 
d="M151 -90q-69 105 -96 219.5t-27 250.5q0 135 27 250t96 220l65 -16q-31 -52 -51 -105t-32 -109.5t-16.5 -116t-4.5 -123.5t5 -123.5t16.5 -116t31.5 -109.5t51 -105zM424 82q-36 0 -65.5 12.5t-50.5 34.5t-32.5 53t-11.5 67q0 88 73.5 138t234.5 68q-1 42 -20 69.5
t-68 27.5q-37 0 -73 -15t-72 -39l-54 99q48 31 105.5 52t122.5 21q103 0 155.5 -61.5t52.5 -186.5v-326h-121l-11 59h-4q-35 -32 -75 -52.5t-86 -20.5zM472 198q29 0 52.5 14t47.5 40v113q-93 -13 -129.5 -40t-36.5 -65q0 -32 18.5 -47t47.5 -15zM784 -74q31 52 51 105
t31.5 109.5t16.5 116t5 123.5t-4.5 123.5t-16.5 116t-32 109.5t-51 105l65 16q69 -105 96 -220t27 -250q0 -136 -27 -250.5t-96 -219.5z" />
    <glyph glyph-name="cid237" unicode="&#x249d;" horiz-adv-x="1000" 
d="M151 -90q-69 105 -96 219.5t-27 250.5q0 135 27 250t96 220l65 -16q-31 -52 -51 -105t-32 -109.5t-16.5 -116t-4.5 -123.5t5 -123.5t16.5 -116t31.5 -109.5t51 -105zM554 -2q-34 0 -69 18t-67 54h-4l-11 -59h-117v801h149v-202l-5 -91q31 30 67 48.5t73 18.5
q49 0 87.5 -20t65 -57.5t40.5 -90t14 -116.5q0 -72 -18.5 -128.5t-49.5 -95.5t-71.5 -59.5t-83.5 -20.5zM521 119q44 0 74 44t30 136q0 81 -22.5 123.5t-72.5 42.5q-25 0 -47.5 -14t-47.5 -43v-247q22 -23 44 -32.5t42 -9.5zM784 -74q31 52 51 105t31.5 109.5t16.5 116
t5 123.5t-4.5 123.5t-16.5 116t-32 109.5t-51 105l65 16q69 -105 96 -220t27 -250q0 -136 -27 -250.5t-96 -219.5z" />
    <glyph glyph-name="cid238" unicode="&#x249e;" horiz-adv-x="1000" 
d="M151 -90q-69 105 -96 219.5t-27 250.5q0 135 27 250t96 220l65 -16q-31 -52 -51 -105t-32 -109.5t-16.5 -116t-4.5 -123.5t5 -123.5t16.5 -116t31.5 -109.5t51 -105zM542 82q-58 0 -108 20t-87 57.5t-58 92.5t-21 124q0 70 23.5 125t63.5 92.5t91.5 57t108.5 19.5
q54 0 94.5 -18.5t69.5 -45.5l-70 -92q-21 17 -42 27t-44 10q-65 0 -104 -48t-39 -127q0 -39 10.5 -71.5t28.5 -55t43.5 -35t55.5 -12.5q33 0 60 13.5t49 31.5l61 -94q-41 -36 -90 -53.5t-96 -17.5zM784 -74q31 52 51 105t31.5 109.5t16.5 116t5 123.5t-4.5 123.5t-16.5 116
t-32 109.5t-51 105l65 16q69 -105 96 -220t27 -250q0 -136 -27 -250.5t-96 -219.5z" />
    <glyph glyph-name="cid239" unicode="&#x249f;" horiz-adv-x="1000" 
d="M151 -90q-69 105 -96 219.5t-27 250.5q0 135 27 250t96 220l65 -16q-31 -52 -51 -105t-32 -109.5t-16.5 -116t-4.5 -123.5t5 -123.5t16.5 -116t31.5 -109.5t51 -105zM439 -2q-49 0 -88.5 20t-67.5 58t-43 92.5t-15 123.5t18.5 123.5t49 92.5t70 58t81.5 20t72 -16t56 -44
l-4 88v198h148v-801h-122l-11 58h-3q-27 -30 -64.5 -50.5t-76.5 -20.5zM477 119q26 0 47.5 13.5t43.5 43.5v248q-23 22 -45 31.5t-45 9.5q-42 0 -71.5 -43.5t-29.5 -128.5q0 -88 26 -131t74 -43zM784 -74q31 52 51 105t31.5 109.5t16.5 116t5 123.5t-4.5 123.5t-16.5 116
t-32 109.5t-51 105l65 16q69 -105 96 -220t27 -250q0 -136 -27 -250.5t-96 -219.5z" />
    <glyph glyph-name="cid240" unicode="&#x24a0;" horiz-adv-x="1000" 
d="M151 -90q-69 105 -96 219.5t-27 250.5q0 135 27 250t96 220l65 -16q-31 -52 -51 -105t-32 -109.5t-16.5 -116t-4.5 -123.5t5 -123.5t16.5 -116t31.5 -109.5t51 -105zM533 82q-56 0 -104 20t-84 57.5t-56.5 92.5t-20.5 124q0 68 20.5 122.5t55 92.5t79 58.5t92.5 20.5
q54 0 95 -20t69 -55.5t42 -85t14 -107.5q0 -20 -2 -37t-4 -27h-317q9 -72 46 -107t94 -35q32 0 58.5 10t53.5 28l50 -89q-38 -30 -85 -46.5t-96 -16.5zM608 429q0 60 -21.5 94.5t-68.5 34.5q-40 0 -70 -32t-38 -97h198zM784 -74q31 52 51 105t31.5 109.5t16.5 116t5 123.5
t-4.5 123.5t-16.5 116t-32 109.5t-51 105l65 16q69 -105 96 -220t27 -250q0 -136 -27 -250.5t-96 -219.5z" />
    <glyph glyph-name="cid241" unicode="&#x24a1;" horiz-adv-x="1000" 
d="M216 834q-31 -52 -51 -105t-32 -109.5t-16.5 -116t-4.5 -123.5t5 -123.5t16.5 -116t31.5 -109.5t51 -105l-65 -16q-69 105 -96 219.5t-27 250.5q0 135 27 250t96 220zM363 618q0 43 10.5 81t34 66.5t61 44.5t90.5 16q33 0 60.5 -6.5t46.5 -14.5l-28 -109q-29 12 -58 12
q-33 0 -51 -20t-18 -67v-48h106v-117h-106v-445h-148v445h-75v111l75 5v46zM849 850q69 -105 96 -220t27 -250q0 -136 -27 -250.5t-96 -219.5l-65 16q31 52 51 105t31.5 109.5t16.5 116t5 123.5t-4.5 123.5t-16.5 116t-32 109.5t-51 105z" />
    <glyph glyph-name="cid242" unicode="&#x24a2;" horiz-adv-x="1000" 
d="M151 -90q-69 105 -96 219.5t-27 250.5q0 135 27 250t96 220l65 -16q-31 -52 -51 -105t-32 -109.5t-16.5 -116t-4.5 -123.5t5 -123.5t16.5 -116t31.5 -109.5t51 -105zM477 -43q-41 0 -76.5 8t-61.5 25t-41 42.5t-15 61.5q0 34 18 61.5t52 49.5v4q-21 15 -35.5 36t-14.5 53
q0 30 18 56.5t44 45.5v4q-29 21 -52 57.5t-23 84.5t16.5 84.5t44.5 61.5t64.5 37.5t76.5 12.5q17 0 32.5 -3t29.5 -10h186v-108h-81q10 -14 18 -34.5t8 -44.5q0 -47 -15 -82t-41.5 -58t-61.5 -34.5t-75 -11.5q-8 0 -21.5 2.5t-27.5 7.5q-9 -10 -15.5 -18.5t-6.5 -22.5
q0 -20 12 -30t45 -10h62q98 0 148.5 -32t50.5 -104q0 -41 -18 -76t-52 -61t-82.5 -40.5t-109.5 -14.5zM492 446q31 0 51 26t20 74q0 47 -20 71.5t-51 24.5q-30 0 -50 -24.5t-20 -71.5q0 -48 20.5 -74t49.5 -26zM500 50q43 0 70.5 21t27.5 50t-21.5 38.5t-61.5 9.5h-35
q-29 0 -46 8q-28 -27 -28 -63q0 -30 25 -47t69 -17zM784 -74q31 52 51 105t31.5 109.5t16.5 116t5 123.5t-4.5 123.5t-16.5 116t-32 109.5t-51 105l65 16q69 -105 96 -220t27 -250q0 -136 -27 -250.5t-96 -219.5z" />
    <glyph glyph-name="cid243" unicode="&#x24a3;" horiz-adv-x="1000" 
d="M151 -90q-69 105 -96 219.5t-27 250.5q0 135 27 250t96 220l65 -16q-31 -52 -51 -105t-32 -109.5t-16.5 -116t-4.5 -123.5t5 -123.5t16.5 -116t31.5 -109.5t51 -105zM275 812h148v-202l-8 -106q17 16 35 30.5t39 26t44.5 18.5t51.5 7q87 0 126.5 -59t39.5 -165v-351h-148
v331q0 66 -16.5 92.5t-54.5 26.5q-32 0 -56 -17t-53 -46v-387h-148v801zM784 -74q31 52 51 105t31.5 109.5t16.5 116t5 123.5t-4.5 123.5t-16.5 116t-32 109.5t-51 105l65 16q69 -105 96 -220t27 -250q0 -136 -27 -250.5t-96 -219.5z" />
    <glyph glyph-name="cid244" unicode="&#x24a4;" horiz-adv-x="1000" 
d="M151 -90q-69 105 -96 219.5t-27 250.5q0 135 27 250t96 220l65 -16q-31 -52 -51 -105t-32 -109.5t-16.5 -116t-4.5 -123.5t5 -123.5t16.5 -116t31.5 -109.5t51 -105zM426 573h149v-562h-149v562zM500 664q-38 0 -63 22.5t-25 57.5t25 57.5t63 22.5t63.5 -22.5t25.5 -57.5
t-25.5 -57.5t-63.5 -22.5zM784 -74q31 52 51 105t31.5 109.5t16.5 116t5 123.5t-4.5 123.5t-16.5 116t-32 109.5t-51 105l65 16q69 -105 96 -220t27 -250q0 -136 -27 -250.5t-96 -219.5z" />
    <glyph glyph-name="cid245" unicode="&#x24a5;" horiz-adv-x="1000" 
d="M151 -90q-69 105 -96 219.5t-27 250.5q0 135 27 250t96 220l65 -16q-31 -52 -51 -105t-32 -109.5t-16.5 -116t-4.5 -123.5t5 -123.5t16.5 -116t31.5 -109.5t51 -105zM407 -157q-33 0 -56 4.5t-40 10.5l26 110q12 -4 23.5 -6t23.5 -2q36 0 49.5 24t13.5 72v578h147v-575
q0 -45 -9.5 -84.5t-31 -69t-57.5 -46t-89 -16.5zM521 725q-39 0 -64 22.5t-25 57.5t25 57.5t64 22.5q38 0 62.5 -22.5t24.5 -57.5t-24.5 -57.5t-62.5 -22.5zM784 -74q31 52 51 105t31.5 109.5t16.5 116t5 123.5t-4.5 123.5t-16.5 116t-32 109.5t-51 105l65 16
q69 -105 96 -220t27 -250q0 -136 -27 -250.5t-96 -219.5z" />
    <glyph glyph-name="cid246" unicode="&#x24a6;" horiz-adv-x="1000" 
d="M151 -90q-69 105 -96 219.5t-27 250.5q0 135 27 250t96 220l65 -16q-31 -52 -51 -105t-32 -109.5t-16.5 -116t-4.5 -123.5t5 -123.5t16.5 -116t31.5 -109.5t51 -105zM272 812h145v-481h4l164 242h161l-172 -230l189 -332h-161l-113 233l-72 -93v-140h-145v801zM784 -74
q31 52 51 105t31.5 109.5t16.5 116t5 123.5t-4.5 123.5t-16.5 116t-32 109.5t-51 105l65 16q69 -105 96 -220t27 -250q0 -136 -27 -250.5t-96 -219.5z" />
    <glyph glyph-name="cid247" unicode="&#x24a7;" horiz-adv-x="1000" 
d="M151 -90q-69 105 -96 219.5t-27 250.5q0 135 27 250t96 220l65 -16q-31 -52 -51 -105t-32 -109.5t-16.5 -116t-4.5 -123.5t5 -123.5t16.5 -116t31.5 -109.5t51 -105zM561 -2q-77 0 -108.5 46.5t-31.5 125.5v642h149v-649q0 -26 9 -35.5t20 -9.5h8t12 2l18 -110
q-13 -5 -31.5 -8.5t-44.5 -3.5zM784 -74q31 52 51 105t31.5 109.5t16.5 116t5 123.5t-4.5 123.5t-16.5 116t-32 109.5t-51 105l65 16q69 -105 96 -220t27 -250q0 -136 -27 -250.5t-96 -219.5z" />
    <glyph glyph-name="cid248" unicode="&#x24a8;" horiz-adv-x="1000" 
d="M151 -90q-69 105 -96 219.5t-27 250.5q0 135 27 250t96 220l65 -16q-31 -52 -51 -105t-32 -109.5t-16.5 -116t-4.5 -123.5t5 -123.5t16.5 -116t31.5 -109.5t51 -105zM198 657h98l12 -54h4q26 28 54.5 47.5t68.5 19.5q42 0 66.5 -19.5t41.5 -57.5q29 32 60 54.5t73 22.5
q67 0 99 -49t32 -140v-385h-124v366q0 46 -11.5 64.5t-34.5 18.5q-35 0 -75 -43v-406h-118v366q0 46 -11.5 64.5t-34.5 18.5q-19 0 -36.5 -10t-37.5 -33v-406h-126v561zM784 -74q31 52 51 105t31.5 109.5t16.5 116t5 123.5t-4.5 123.5t-16.5 116t-32 109.5t-51 105l65 16
q69 -105 96 -220t27 -250q0 -136 -27 -250.5t-96 -219.5z" />
    <glyph glyph-name="cid249" unicode="&#x24a9;" horiz-adv-x="1000" 
d="M151 -90q-69 105 -96 219.5t-27 250.5q0 135 27 250t96 220l65 -16q-31 -52 -51 -105t-32 -109.5t-16.5 -116t-4.5 -123.5t5 -123.5t16.5 -116t31.5 -109.5t51 -105zM265 657h121l11 -70h5q35 35 76.5 59t97.5 24q87 0 126.5 -58t39.5 -162v-354h-148v335q0 63 -17 88.5
t-55 25.5q-32 0 -55.5 -15t-52.5 -44v-390h-149v561zM784 -74q31 52 51 105t31.5 109.5t16.5 116t5 123.5t-4.5 123.5t-16.5 116t-32 109.5t-51 105l65 16q69 -105 96 -220t27 -250q0 -136 -27 -250.5t-96 -219.5z" />
    <glyph glyph-name="cid250" unicode="&#x24aa;" horiz-adv-x="1000" 
d="M151 -90q-69 105 -96 219.5t-27 250.5q0 135 27 250t96 220l65 -16q-31 -52 -51 -105t-32 -109.5t-16.5 -116t-4.5 -123.5t5 -123.5t16.5 -116t31.5 -109.5t51 -105zM500 82q-51 0 -98.5 20t-84 57.5t-58 92.5t-21.5 124q0 70 21.5 125t58 92.5t84 57t98.5 19.5
t98.5 -19.5t84 -57t58 -92.5t21.5 -125q0 -69 -21.5 -124t-58 -92.5t-84 -57.5t-98.5 -20zM500 202q53 0 81.5 47.5t28.5 126.5t-28.5 127t-81.5 48q-54 0 -82.5 -48t-28.5 -127t28.5 -126.5t82.5 -47.5zM784 -74q31 52 51 105t31.5 109.5t16.5 116t5 123.5t-4.5 123.5
t-16.5 116t-32 109.5t-51 105l65 16q69 -105 96 -220t27 -250q0 -136 -27 -250.5t-96 -219.5z" />
    <glyph glyph-name="cid251" unicode="&#x24ab;" horiz-adv-x="1000" 
d="M151 -90q-69 105 -96 219.5t-27 250.5q0 135 27 250t96 220l65 -16q-31 -52 -51 -105t-32 -109.5t-16.5 -116t-4.5 -123.5t5 -123.5t16.5 -116t31.5 -109.5t51 -105zM279 729h120l12 -58h4q33 30 73.5 50.5t82.5 20.5q50 0 90 -20t67.5 -57.5t42 -90t14.5 -116.5
q0 -72 -19.5 -128.5t-51.5 -95.5t-73.5 -59.5t-86.5 -20.5q-35 0 -67.5 15.5t-64.5 44.5l5 -90v-132h-148v737zM521 276q47 0 79 44t32 136q0 80 -24 122.5t-78 42.5q-27 0 -50.5 -14.5t-52.5 -42.5v-246q25 -23 48.5 -32.5t45.5 -9.5zM784 -74q31 52 51 105t31.5 109.5
t16.5 116t5 123.5t-4.5 123.5t-16.5 116t-32 109.5t-51 105l65 16q69 -105 96 -220t27 -250q0 -136 -27 -250.5t-96 -219.5z" />
    <glyph glyph-name="cid252" unicode="&#x24ac;" horiz-adv-x="1000" 
d="M151 -90q-69 105 -96 219.5t-27 250.5q0 135 27 250t96 220l65 -16q-31 -52 -51 -105t-32 -109.5t-16.5 -116t-4.5 -123.5t5 -123.5t16.5 -116t31.5 -109.5t51 -105zM574 131l4 89q-28 -28 -64.5 -47t-75.5 -19q-51 0 -92 20t-70 58t-45 92.5t-16 123.5t19.5 123.5
t51 92.5t72.5 58t85 20q45 0 78 -16.5t68 -51.5h4l12 55h116v-737h-147v139zM475 276q28 0 51 13.5t48 42.5v248q-25 22 -49.5 31.5t-48.5 9.5q-45 0 -76.5 -43.5t-31.5 -128.5q0 -88 28 -130.5t79 -42.5zM784 -74q31 52 51 105t31.5 109.5t16.5 116t5 123.5t-4.5 123.5
t-16.5 116t-32 109.5t-51 105l65 16q69 -105 96 -220t27 -250q0 -136 -27 -250.5t-96 -219.5z" />
    <glyph glyph-name="cid253" unicode="&#x24ad;" horiz-adv-x="1000" 
d="M151 -90q-69 105 -96 219.5t-27 250.5q0 135 27 250t96 220l65 -16q-31 -52 -51 -105t-32 -109.5t-16.5 -116t-4.5 -123.5t5 -123.5t16.5 -116t31.5 -109.5t51 -105zM341 657h120l12 -99h4q30 56 72 84t87 28q43 0 65 -11l-25 -127q-15 3 -28 6t-31 3q-17 0 -34.5 -6
t-34.5 -19t-32 -34.5t-27 -51.5v-334h-148v561zM784 -74q31 52 51 105t31.5 109.5t16.5 116t5 123.5t-4.5 123.5t-16.5 116t-32 109.5t-51 105l65 16q69 -105 96 -220t27 -250q0 -136 -27 -250.5t-96 -219.5z" />
    <glyph glyph-name="cid254" unicode="&#x24ae;" horiz-adv-x="1000" 
d="M151 -90q-69 105 -96 219.5t-27 250.5q0 135 27 250t96 220l65 -16q-31 -52 -51 -105t-32 -109.5t-16.5 -116t-4.5 -123.5t5 -123.5t16.5 -116t31.5 -109.5t51 -105zM492 82q-56 0 -114 22t-100 57l67 93q38 -29 74.5 -45.5t75.5 -16.5q43 0 62.5 16.5t19.5 42.5
q0 16 -10 27.5t-26.5 21.5t-37.5 18l-43 17q-27 10 -54.5 24t-49.5 33.5t-36 45.5t-14 61q0 38 14.5 69.5t42 54t66.5 35t87 12.5q61 0 108.5 -20.5t81.5 -47.5l-66 -90q-29 22 -59 35t-62 13q-38 0 -56 -15.5t-18 -38.5q0 -15 9.5 -26t25.5 -19.5t36.5 -16l42.5 -15.5
q28 -10 56 -23.5t50.5 -33t36.5 -47t14 -66.5q0 -37 -14.5 -69t-43 -56t-70 -38t-96.5 -14zM784 -74q31 52 51 105t31.5 109.5t16.5 116t5 123.5t-4.5 123.5t-16.5 116t-32 109.5t-51 105l65 16q69 -105 96 -220t27 -250q0 -136 -27 -250.5t-96 -219.5z" />
    <glyph glyph-name="cid255" unicode="&#x24af;" horiz-adv-x="1000" 
d="M151 -90q-69 105 -96 219.5t-27 250.5q0 135 27 250t96 220l65 -16q-31 -52 -51 -105t-32 -109.5t-16.5 -116t-4.5 -123.5t5 -123.5t16.5 -116t31.5 -109.5t51 -105zM574 34q-50 0 -85.5 15t-58 43t-32.5 67t-10 86v247h-78v112l87 5l17 152h122v-152h139v-117h-139v-247
q0 -49 20 -72t57 -23q14 0 29 4t27 9l24 -108q-23 -8 -52.5 -14.5t-66.5 -6.5zM784 -74q31 52 51 105t31.5 109.5t16.5 116t5 123.5t-4.5 123.5t-16.5 116t-32 109.5t-51 105l65 16q69 -105 96 -220t27 -250q0 -136 -27 -250.5t-96 -219.5z" />
    <glyph glyph-name="cid256" unicode="&#x24b0;" horiz-adv-x="1000" 
d="M151 -90q-69 105 -96 219.5t-27 250.5q0 135 27 250t96 220l65 -16q-31 -52 -51 -105t-32 -109.5t-16.5 -116t-4.5 -123.5t5 -123.5t16.5 -116t31.5 -109.5t51 -105zM427 82q-87 0 -126.5 58t-39.5 161v356h147v-336q0 -63 17.5 -88t54.5 -25q32 0 55 15.5t50 50.5v383
h148v-561h-121l-10 76h-5q-35 -42 -75 -66t-95 -24zM784 -74q31 52 51 105t31.5 109.5t16.5 116t5 123.5t-4.5 123.5t-16.5 116t-32 109.5t-51 105l65 16q69 -105 96 -220t27 -250q0 -136 -27 -250.5t-96 -219.5z" />
    <glyph glyph-name="cid257" unicode="&#x24b1;" horiz-adv-x="1000" 
d="M151 -90q-69 105 -96 219.5t-27 250.5q0 135 27 250t96 220l65 -16q-31 -52 -51 -105t-32 -109.5t-16.5 -116t-4.5 -123.5t5 -123.5t16.5 -116t31.5 -109.5t51 -105zM225 657h149l82 -279l22.5 -85l23.5 -86h4l23 86l23 85l81 279h143l-187 -561h-171zM784 -74
q31 52 51 105t31.5 109.5t16.5 116t5 123.5t-4.5 123.5t-16.5 116t-32 109.5t-51 105l65 16q69 -105 96 -220t27 -250q0 -136 -27 -250.5t-96 -219.5z" />
    <glyph glyph-name="cid258" unicode="&#x24b2;" horiz-adv-x="1000" 
d="M151 -90q-69 105 -96 219.5t-27 250.5q0 135 27 250t96 220l65 -16q-31 -52 -51 -105t-32 -109.5t-16.5 -116t-4.5 -123.5t5 -123.5t16.5 -116t31.5 -109.5t51 -105zM165 657h132l39 -276l10 -82.5t11 -82.5h4q8 42 13.5 83t12.5 82l51 276h131l53 -276q8 -42 13.5 -82.5
t14.5 -82.5h4q6 42 11 82.5l10 82.5l37 276h123l-93 -561h-174l-43 245q-7 39 -12.5 78t-10.5 84h-5l-11 -85t-12 -79l-39 -243h-171zM784 -74q31 52 51 105t31.5 109.5t16.5 116t5 123.5t-4.5 123.5t-16.5 116t-32 109.5t-51 105l65 16q69 -105 96 -220t27 -250
q0 -136 -27 -250.5t-96 -219.5z" />
    <glyph glyph-name="cid259" unicode="&#x24b3;" horiz-adv-x="1000" 
d="M151 -90q-69 105 -96 219.5t-27 250.5q0 135 27 250t96 220l65 -16q-31 -52 -51 -105t-32 -109.5t-16.5 -116t-4.5 -123.5t5 -123.5t16.5 -116t31.5 -109.5t51 -105zM410 388l-165 269h159l56 -99q13 -23 25.5 -47.5l25.5 -48.5h4l20.5 48.5l20.5 47.5l46 99h154
l-164 -286l174 -275h-158l-63 102q-14 24 -27 49l-27 50h-5l-23.5 -49.5l-23.5 -49.5l-52 -102h-153zM784 -74q31 52 51 105t31.5 109.5t16.5 116t5 123.5t-4.5 123.5t-16.5 116t-32 109.5t-51 105l65 16q69 -105 96 -220t27 -250q0 -136 -27 -250.5t-96 -219.5z" />
    <glyph glyph-name="cid260" unicode="&#x24b4;" horiz-adv-x="1000" 
d="M151 -90q-69 105 -96 219.5t-27 250.5q0 135 27 250t96 220l65 -16q-31 -52 -51 -105t-32 -109.5t-16.5 -116t-4.5 -123.5t5 -123.5t16.5 -116t31.5 -109.5t51 -105zM358 -17q-26 0 -44 3t-35 8l27 114q8 -3 19.5 -5.5t21.5 -2.5q76 0 90 53l7 25l-216 551h149l86 -259
q14 -38 25 -78l23 -81h4l21 80t21 79l73 259h141l-192 -570q-30 -87 -80.5 -131.5t-140.5 -44.5zM784 -74q31 52 51 105t31.5 109.5t16.5 116t5 123.5t-4.5 123.5t-16.5 116t-32 109.5t-51 105l65 16q69 -105 96 -220t27 -250q0 -136 -27 -250.5t-96 -219.5z" />
    <glyph glyph-name="cid261" unicode="&#x24b5;" horiz-adv-x="1000" 
d="M151 -90q-69 105 -96 219.5t-27 250.5q0 135 27 250t96 220l65 -16q-31 -52 -51 -105t-32 -109.5t-16.5 -116t-4.5 -123.5t5 -123.5t16.5 -116t31.5 -109.5t51 -105zM284 174l252 366h-223v117h408v-80l-252 -365h259v-116h-444v78zM784 -74q31 52 51 105t31.5 109.5
t16.5 116t5 123.5t-4.5 123.5t-16.5 116t-32 109.5t-51 105l65 16q69 -105 96 -220t27 -250q0 -136 -27 -250.5t-96 -219.5z" />
    <glyph glyph-name="cid262" unicode="&#x24d0;" horiz-adv-x="1000" 
d="M500 -92q-98 0 -183.5 37t-150 101.5t-101.5 150t-37 183.5q0 97 37 183t101.5 150.5t150 101.5t183.5 37q97 0 183 -37t150.5 -101.5t101.5 -150.5t37 -183q0 -98 -37.5 -184t-102 -150t-150 -101t-182.5 -37zM500 -55q90 0 169 34t138.5 93.5t93.5 138.5t34 169
t-34 169t-93.5 138.5t-138.5 93.5t-169 34q-91 0 -170 -34.5t-138 -94t-93 -138.5t-34 -168q0 -90 34 -169t93.5 -138.5t138.5 -93.5t169 -34zM452 183q-52 0 -82.5 32t-30.5 80q0 60 50.5 92.5t164.5 43.5q-1 27 -14 42.5t-44 15.5q-26 0 -53 -10t-53 -25l-38 70
q35 20 76 34.5t86 14.5q71 0 108.5 -41t37.5 -123v-217h-84l-9 39h-5q-22 -21 -49 -34.5t-61 -13.5zM488 264q19 0 34 8t32 25v72q-64 -7 -88.5 -25t-24.5 -41q0 -39 47 -39z" />
    <glyph glyph-name="cid263" unicode="&#x24d1;" horiz-adv-x="1000" 
d="M500 -92q-98 0 -183.5 37t-150 101.5t-101.5 150t-37 183.5q0 97 37 183t101.5 150.5t150 101.5t183.5 37q97 0 183 -37t150.5 -101.5t101.5 -150.5t37 -183q0 -98 -37.5 -184t-102 -150t-150 -101t-182.5 -37zM500 -55q90 0 169 34t138.5 93.5t93.5 138.5t34 169
t-34 169t-93.5 138.5t-138.5 93.5t-169 34q-91 0 -170 -34.5t-138 -94t-93 -138.5t-34 -168q0 -90 34 -169t93.5 -138.5t138.5 -93.5t169 -34zM554 135q-26 0 -52.5 12t-46.5 35h-5l-9 -38h-81v528h105v-132l-4 -60q23 20 49 32.5t54 12.5q69 0 108.5 -51.5t39.5 -136.5
q0 -48 -13 -86t-35 -63.5t-50.5 -39t-59.5 -13.5zM531 219q30 0 51.5 28t21.5 87q0 106 -69 106q-37 0 -70 -36v-160q34 -25 66 -25z" />
    <glyph glyph-name="cid264" unicode="&#x24d2;" horiz-adv-x="1000" 
d="M500 -92q-98 0 -183.5 37t-150 101.5t-101.5 150t-37 183.5q0 97 37 183t101.5 150.5t150 101.5t183.5 37q97 0 183 -37t150.5 -101.5t101.5 -150.5t37 -183q0 -98 -37.5 -184t-102 -150t-150 -101t-182.5 -37zM500 -55q90 0 169 34t138.5 93.5t93.5 138.5t34 169
t-34 169t-93.5 138.5t-138.5 93.5t-169 34q-91 0 -170 -34.5t-138 -94t-93 -138.5t-34 -168q0 -90 34 -169t93.5 -138.5t138.5 -93.5t169 -34zM513 183q-39 0 -72.5 13t-58 38t-38.5 61.5t-14 82.5t15.5 82t41.5 61t60 38.5t72 13.5q43 0 71.5 -12.5t45.5 -26.5l-49 -68
q-14 11 -27.5 17t-32.5 6q-38 0 -63 -30.5t-25 -80.5t24 -80.5t63 -30.5q26 0 42.5 7.5t28.5 18.5l43 -67q-19 -16 -50.5 -29.5t-76.5 -13.5z" />
    <glyph glyph-name="cid265" unicode="&#x24d3;" horiz-adv-x="1000" 
d="M500 -92q-98 0 -183.5 37t-150 101.5t-101.5 150t-37 183.5q0 97 37 183t101.5 150.5t150 101.5t183.5 37q97 0 183 -37t150.5 -101.5t101.5 -150.5t37 -183q0 -98 -37.5 -184t-102 -150t-150 -101t-182.5 -37zM500 -55q90 0 169 34t138.5 93.5t93.5 138.5t34 169
t-34 169t-93.5 138.5t-138.5 93.5t-169 34q-91 0 -170 -34.5t-138 -94t-93 -138.5t-34 -168q0 -90 34 -169t93.5 -138.5t138.5 -93.5t169 -34zM463 135q-72 0 -113.5 52.5t-41.5 149.5q0 44 13.5 79t36 59t50 37t56.5 13q30 0 53 -11t43 -28l-6 61v125h105v-528h-85l-9 37
h-3q-20 -20 -45 -33t-54 -13zM491 219q33 0 63 36v159q-17 15 -33 21t-33 6q-29 0 -50.5 -26.5t-21.5 -77.5q0 -61 19 -89.5t56 -28.5z" />
    <glyph glyph-name="cid266" unicode="&#x24d4;" horiz-adv-x="1000" 
d="M500 -92q-98 0 -183.5 37t-150 101.5t-101.5 150t-37 183.5q0 97 37 183t101.5 150.5t150 101.5t183.5 37q97 0 183 -37t150.5 -101.5t101.5 -150.5t37 -183q0 -98 -37.5 -184t-102 -150t-150 -101t-182.5 -37zM500 -55q90 0 169 34t138.5 93.5t93.5 138.5t34 169
t-34 169t-93.5 138.5t-138.5 93.5t-169 34q-91 0 -170 -34.5t-138 -94t-93 -138.5t-34 -168q0 -90 34 -169t93.5 -138.5t138.5 -93.5t169 -34zM522 183q-39 0 -73.5 13t-60 38t-40.5 61.5t-15 82.5q0 45 14.5 81t39 61.5t56.5 39t68 13.5q42 0 72.5 -15t49.5 -40t28 -57
t9 -65q0 -14 -1.5 -23l-3.5 -21h-230q6 -46 33.5 -67t67.5 -21q44 0 85 24l36 -63q-29 -20 -64.5 -31t-70.5 -11zM580 413q0 30 -15 55t-52 25q-32 0 -53 -20t-27 -60h147z" />
    <glyph glyph-name="cid267" unicode="&#x24d5;" horiz-adv-x="1000" 
d="M422 538q0 30 7.5 57.5t23.5 48t41.5 32.5t62.5 12q23 0 41.5 -4t33.5 -9l-21 -76q-15 6 -39 6q-44 0 -44 -62v-27h70v-82h-70v-290h-106v290h-50v79l50 3v22zM500 -55q90 0 169 34t138.5 93.5t93.5 138.5t34 169t-34 169t-93.5 138.5t-138.5 93.5t-169 34
q-91 0 -170 -34.5t-138 -94t-93 -138.5t-34 -168q0 -90 34 -169t93.5 -138.5t138.5 -93.5t169 -34zM500 852q97 0 183 -37t150.5 -101.5t101.5 -150.5t37 -183q0 -98 -37.5 -184t-102 -150t-150 -101t-182.5 -37q-98 0 -183.5 37t-150 101.5t-101.5 150t-37 183.5
q0 97 37 183t101.5 150.5t150 101.5t183.5 37z" />
    <glyph glyph-name="cid268" unicode="&#x24d6;" horiz-adv-x="1000" 
d="M500 -92q-98 0 -183.5 37t-150 101.5t-101.5 150t-37 183.5q0 97 37 183t101.5 150.5t150 101.5t183.5 37q97 0 183 -37t150.5 -101.5t101.5 -150.5t37 -183q0 -98 -37.5 -184t-102 -150t-150 -101t-182.5 -37zM500 -55q90 0 169 34t138.5 93.5t93.5 138.5t34 169
t-34 169t-93.5 138.5t-138.5 93.5t-169 34q-91 0 -170 -34.5t-138 -94t-93 -138.5t-34 -168q0 -90 34 -169t93.5 -138.5t138.5 -93.5t169 -34zM483 83q-33 0 -62 5.5t-50 17.5t-33 30t-12 43q0 47 53 74v5q-16 10 -25 25t-9 38q0 20 12 38t30 30v5q-21 13 -36 38t-15 58
t12.5 58.5t34 42.5t49.5 25.5t59 8.5q15 0 30 -2t29 -7h135v-78h-61q6 -8 10 -22.5t4 -28.5q0 -32 -12 -56t-32 -39.5t-46.5 -23.5t-56.5 -8q-11 0 -22 1.5t-25 6.5q-8 -7 -12 -13t-4 -16q0 -15 12.5 -21.5t44.5 -6.5h65q70 0 105 -22t35 -72q0 -28 -14.5 -52.5t-41 -42.5
t-65 -28.5t-86.5 -10.5zM491 425q23 0 39 17t16 48q0 32 -16 48t-39 16q-26 0 -41 -16t-15 -48q0 -31 15 -48t41 -17zM500 150q40 0 65 15t25 35q0 17 -15 24t-44 7h-44q-12 0 -25.5 0.5t-25.5 4.5q-23 -20 -23 -39q0 -23 23 -35t64 -12z" />
    <glyph glyph-name="cid269" unicode="&#x24d7;" horiz-adv-x="1000" 
d="M500 -92q-98 0 -183.5 37t-150 101.5t-101.5 150t-37 183.5q0 97 37 183t101.5 150.5t150 101.5t183.5 37q97 0 183 -37t150.5 -101.5t101.5 -150.5t37 -183q0 -98 -37.5 -184t-102 -150t-150 -101t-182.5 -37zM500 -55q90 0 169 34t138.5 93.5t93.5 138.5t34 169
t-34 169t-93.5 138.5t-138.5 93.5t-169 34q-91 0 -170 -34.5t-138 -94t-93 -138.5t-34 -168q0 -90 34 -169t93.5 -138.5t138.5 -93.5t169 -34zM346 672h105v-132l-6 -70q21 20 50.5 37.5t67.5 17.5q65 0 91 -41t26 -110v-230h-105v217q0 37 -9.5 56.5t-42.5 19.5
q-19 0 -35.5 -10t-36.5 -30v-253h-105v528z" />
    <glyph glyph-name="cid270" unicode="&#x24d8;" horiz-adv-x="1000" 
d="M500 -92q-98 0 -183.5 37t-150 101.5t-101.5 150t-37 183.5q0 97 37 183t101.5 150.5t150 101.5t183.5 37q97 0 183 -37t150.5 -101.5t101.5 -150.5t37 -183q0 -98 -37.5 -184t-102 -150t-150 -101t-182.5 -37zM500 -55q90 0 169 34t138.5 93.5t93.5 138.5t34 169
t-34 169t-93.5 138.5t-138.5 93.5t-169 34q-91 0 -170 -34.5t-138 -94t-93 -138.5t-34 -168q0 -90 34 -169t93.5 -138.5t138.5 -93.5t169 -34zM448 516h105v-372h-105v372zM500 573q-27 0 -44 15t-17 40t17 40.5t44 15.5q29 0 46.5 -15.5t17.5 -40.5t-17.5 -40t-46.5 -15z
" />
    <glyph glyph-name="cid271" unicode="&#x24d9;" horiz-adv-x="1000" 
d="M500 -92q-98 0 -183.5 37t-150 101.5t-101.5 150t-37 183.5q0 97 37 183t101.5 150.5t150 101.5t183.5 37q97 0 183 -37t150.5 -101.5t101.5 -150.5t37 -183q0 -98 -37.5 -184t-102 -150t-150 -101t-182.5 -37zM500 -55q90 0 169 34t138.5 93.5t93.5 138.5t34 169
t-34 169t-93.5 138.5t-138.5 93.5t-169 34q-91 0 -170 -34.5t-138 -94t-93 -138.5t-34 -168q0 -90 34 -169t93.5 -138.5t138.5 -93.5t169 -34zM435 27q-23 0 -38 3t-27 6l19 79q6 -2 13 -3.5t18 -1.5q23 0 30.5 14.5t7.5 46.5v385h106v-381q0 -31 -6.5 -58t-21.5 -47
t-40 -31.5t-61 -11.5zM512 613q-28 0 -45 15t-17 40t17 40.5t45 15.5q27 0 45 -15.5t18 -40.5t-18 -40t-45 -15z" />
    <glyph glyph-name="cid272" unicode="&#x24da;" horiz-adv-x="1000" 
d="M500 -92q-98 0 -183.5 37t-150 101.5t-101.5 150t-37 183.5q0 97 37 183t101.5 150.5t150 101.5t183.5 37q97 0 183 -37t150.5 -101.5t101.5 -150.5t37 -183q0 -98 -37.5 -184t-102 -150t-150 -101t-182.5 -37zM500 -55q90 0 169 34t138.5 93.5t93.5 138.5t34 169
t-34 169t-93.5 138.5t-138.5 93.5t-169 34q-91 0 -170 -34.5t-138 -94t-93 -138.5t-34 -168q0 -90 34 -169t93.5 -138.5t138.5 -93.5t169 -34zM354 672h105v-311h5l119 155h115l-134 -156l145 -216h-114l-90 148l-46 -57v-91h-105v528z" />
    <glyph glyph-name="cid273" unicode="&#x24db;" horiz-adv-x="1000" 
d="M500 -92q-98 0 -183.5 37t-150 101.5t-101.5 150t-37 183.5q0 97 37 183t101.5 150.5t150 101.5t183.5 37q97 0 183 -37t150.5 -101.5t101.5 -150.5t37 -183q0 -98 -37.5 -184t-102 -150t-150 -101t-182.5 -37zM500 -55q90 0 169 34t138.5 93.5t93.5 138.5t34 169
t-34 169t-93.5 138.5t-138.5 93.5t-169 34q-91 0 -170 -34.5t-138 -94t-93 -138.5t-34 -168q0 -90 34 -169t93.5 -138.5t138.5 -93.5t169 -34zM534 135q-56 0 -77 32.5t-21 88.5v416h105v-422q0 -31 19 -31h7t8 2l14 -78q-11 -3 -23 -5.5t-32 -2.5z" />
    <glyph glyph-name="cid274" unicode="&#x24dc;" horiz-adv-x="1000" 
d="M500 -92q-98 0 -183.5 37t-150 101.5t-101.5 150t-37 183.5q0 97 37 183t101.5 150.5t150 101.5t183.5 37q97 0 183 -37t150.5 -101.5t101.5 -150.5t37 -183q0 -98 -37.5 -184t-102 -150t-150 -101t-182.5 -37zM500 -55q90 0 169 34t138.5 93.5t93.5 138.5t34 169
t-34 169t-93.5 138.5t-138.5 93.5t-169 34q-91 0 -170 -34.5t-138 -94t-93 -138.5t-34 -168q0 -90 34 -169t93.5 -138.5t138.5 -93.5t169 -34zM226 564h85l8 -49h3q23 23 49.5 40.5t65.5 17.5q73 0 104 -64q24 25 52.5 44.5t66.5 19.5q63 0 91.5 -41t28.5 -110v-230h-106
v217q0 37 -10.5 56t-41.5 19q-28 0 -67 -39v-253h-105v217q0 37 -11 56t-42 19q-30 0 -66 -39v-253h-105v372z" />
    <glyph glyph-name="cid275" unicode="&#x24dd;" horiz-adv-x="1000" 
d="M500 -92q-98 0 -183.5 37t-150 101.5t-101.5 150t-37 183.5q0 97 37 183t101.5 150.5t150 101.5t183.5 37q97 0 183 -37t150.5 -101.5t101.5 -150.5t37 -183q0 -98 -37.5 -184t-102 -150t-150 -101t-182.5 -37zM500 -55q90 0 169 34t138.5 93.5t93.5 138.5t34 169
t-34 169t-93.5 138.5t-138.5 93.5t-169 34q-91 0 -170 -34.5t-138 -94t-93 -138.5t-34 -168q0 -90 34 -169t93.5 -138.5t138.5 -93.5t169 -34zM335 564h84l10 -49h2q23 23 53.5 40.5t68.5 17.5q64 0 90.5 -41t26.5 -110v-230h-105v217q0 37 -10 56t-42 19q-19 0 -36 -10
t-37 -30v-252h-105v372z" />
    <glyph glyph-name="cid276" unicode="&#x24de;" horiz-adv-x="1000" 
d="M500 -92q-98 0 -183.5 37t-150 101.5t-101.5 150t-37 183.5q0 97 37 183t101.5 150.5t150 101.5t183.5 37q97 0 183 -37t150.5 -101.5t101.5 -150.5t37 -183q0 -98 -37.5 -184t-102 -150t-150 -101t-182.5 -37zM500 -55q90 0 169 34t138.5 93.5t93.5 138.5t34 169
t-34 169t-93.5 138.5t-138.5 93.5t-169 34q-91 0 -170 -34.5t-138 -94t-93 -138.5t-34 -168q0 -90 34 -169t93.5 -138.5t138.5 -93.5t169 -34zM500 183q-36 0 -69 13t-58 38t-40 61t-15 82t15 82.5t40 62t58 38.5t69 13t69 -13t57.5 -38.5t39.5 -62t15 -82.5t-15 -82
t-39.5 -61t-57.5 -38t-69 -13zM500 267q37 0 55 30t18 80q0 51 -18 81.5t-55 30.5q-38 0 -56 -30.5t-18 -81.5q0 -50 18 -80t56 -30z" />
    <glyph glyph-name="cid277" unicode="&#x24df;" horiz-adv-x="1000" 
d="M500 -92q-98 0 -183.5 37t-150 101.5t-101.5 150t-37 183.5q0 97 37 183t101.5 150.5t150 101.5t183.5 37q97 0 183 -37t150.5 -101.5t101.5 -150.5t37 -183q0 -98 -37.5 -184t-102 -150t-150 -101t-182.5 -37zM500 -55q90 0 169 34t138.5 93.5t93.5 138.5t34 169
t-34 169t-93.5 138.5t-138.5 93.5t-169 34q-91 0 -170 -34.5t-138 -94t-93 -138.5t-34 -168q0 -90 34 -169t93.5 -138.5t138.5 -93.5t169 -34zM346 616h84l9 -39h3q20 20 49.5 34t59.5 14q69 0 108 -51.5t39 -136.5q0 -48 -13 -86t-35 -63.5t-50.5 -39t-59.5 -13.5
q-24 0 -48.5 10t-44.5 30l4 -74v-94h-105v509zM518 319q30 0 51 28t21 87q0 106 -69 106q-35 0 -70 -36v-160q34 -25 67 -25z" />
    <glyph glyph-name="cid278" unicode="&#x24e0;" horiz-adv-x="1000" 
d="M500 -92q-98 0 -183.5 37t-150 101.5t-101.5 150t-37 183.5q0 97 37 183t101.5 150.5t150 101.5t183.5 37q97 0 183 -37t150.5 -101.5t101.5 -150.5t37 -183q0 -98 -37.5 -184t-102 -150t-150 -101t-182.5 -37zM500 -55q90 0 169 34t138.5 93.5t93.5 138.5t34 169
t-34 169t-93.5 138.5t-138.5 93.5t-169 34q-91 0 -170 -34.5t-138 -94t-93 -138.5t-34 -168q0 -90 34 -169t93.5 -138.5t138.5 -93.5t169 -34zM557 214l5 63q-17 -19 -42.5 -30.5t-51.5 -11.5q-73 0 -115 52t-42 143q0 46 13.5 82t36 61t51.5 38.5t59 13.5q55 0 99 -48h2
l10 39h81v-509h-106v107zM494 321q17 0 32 7t31 26v159q-32 27 -65 27q-28 0 -50.5 -27t-22.5 -81q0 -111 75 -111z" />
    <glyph glyph-name="cid279" unicode="&#x24e1;" horiz-adv-x="1000" 
d="M500 -92q-98 0 -183.5 37t-150 101.5t-101.5 150t-37 183.5q0 97 37 183t101.5 150.5t150 101.5t183.5 37q97 0 183 -37t150.5 -101.5t101.5 -150.5t37 -183q0 -98 -37.5 -184t-102 -150t-150 -101t-182.5 -37zM500 -55q90 0 169 34t138.5 93.5t93.5 138.5t34 169
t-34 169t-93.5 138.5t-138.5 93.5t-169 34q-91 0 -170 -34.5t-138 -94t-93 -138.5t-34 -168q0 -90 34 -169t93.5 -138.5t138.5 -93.5t169 -34zM398 564h84l9 -65h4q21 38 48.5 56t56.5 18q30 0 46 -7l-18 -92q-8 2 -18.5 4t-21.5 2q-23 0 -45.5 -16t-39.5 -54v-218h-105v372
z" />
    <glyph glyph-name="cid280" unicode="&#x24e2;" horiz-adv-x="1000" 
d="M500 -92q-98 0 -183.5 37t-150 101.5t-101.5 150t-37 183.5q0 97 37 183t101.5 150.5t150 101.5t183.5 37q97 0 183 -37t150.5 -101.5t101.5 -150.5t37 -183q0 -98 -37.5 -184t-102 -150t-150 -101t-182.5 -37zM500 -55q90 0 169 34t138.5 93.5t93.5 138.5t34 169
t-34 169t-93.5 138.5t-138.5 93.5t-169 34q-91 0 -170 -34.5t-138 -94t-93 -138.5t-34 -168q0 -90 34 -169t93.5 -138.5t138.5 -93.5t169 -34zM496 183q-38 0 -76.5 14t-67.5 36l46 67q27 -20 51.5 -30t49.5 -10q26 0 38.5 10t12.5 25q0 20 -23.5 30l-53.5 22
q-19 7 -37 16.5t-32.5 22.5t-23.5 31t-9 42q0 49 37.5 81.5t102.5 32.5q44 0 75.5 -14t55.5 -31l-47 -65q-21 15 -40.5 23.5t-40.5 8.5q-23 0 -34 -9t-11 -23q0 -9 6.5 -16t17.5 -12.5t24.5 -10.5l28.5 -11q17 -6 35 -15t32.5 -21.5t24 -31t9.5 -43.5q0 -51 -39 -85
t-112 -34z" />
    <glyph glyph-name="cid281" unicode="&#x24e3;" horiz-adv-x="1000" 
d="M500 -92q-98 0 -183.5 37t-150 101.5t-101.5 150t-37 183.5q0 97 37 183t101.5 150.5t150 101.5t183.5 37q97 0 183 -37t150.5 -101.5t101.5 -150.5t37 -183q0 -98 -37.5 -184t-102 -150t-150 -101t-182.5 -37zM500 -55q90 0 169 34t138.5 93.5t93.5 138.5t34 169
t-34 169t-93.5 138.5t-138.5 93.5t-169 34q-91 0 -170 -34.5t-138 -94t-93 -138.5t-34 -168q0 -90 34 -169t93.5 -138.5t138.5 -93.5t169 -34zM543 159q-68 0 -97 39.5t-29 103.5v156h-52v79l57 4l13 98h88v-98h92v-83h-92v-154q0 -62 49 -62q17 0 37 6l18 -75
q-16 -5 -37 -9.5t-47 -4.5z" />
    <glyph glyph-name="cid282" unicode="&#x24e4;" horiz-adv-x="1000" 
d="M500 -92q-98 0 -183.5 37t-150 101.5t-101.5 150t-37 183.5q0 97 37 183t101.5 150.5t150 101.5t183.5 37q97 0 183 -37t150.5 -101.5t101.5 -150.5t37 -183q0 -98 -37.5 -184t-102 -150t-150 -101t-182.5 -37zM500 -55q90 0 169 34t138.5 93.5t93.5 138.5t34 169
t-34 169t-93.5 138.5t-138.5 93.5t-169 34q-91 0 -170 -34.5t-138 -94t-93 -138.5t-34 -168q0 -90 34 -169t93.5 -138.5t138.5 -93.5t169 -34zM450 183q-63 0 -90.5 40.5t-27.5 107.5v233h105v-219q0 -37 9.5 -55t43.5 -18t72 39v253h106v-372h-85l-11 48h-3
q-21 -21 -51 -39t-68 -18z" />
    <glyph glyph-name="cid283" unicode="&#x24e5;" horiz-adv-x="1000" 
d="M500 -92q-98 0 -183.5 37t-150 101.5t-101.5 150t-37 183.5q0 97 37 183t101.5 150.5t150 101.5t183.5 37q97 0 183 -37t150.5 -101.5t101.5 -150.5t37 -183q0 -98 -37.5 -184t-102 -150t-150 -101t-182.5 -37zM500 -55q90 0 169 34t138.5 93.5t93.5 138.5t34 169
t-34 169t-93.5 138.5t-138.5 93.5t-169 34q-91 0 -170 -34.5t-138 -94t-93 -138.5t-34 -168q0 -90 34 -169t93.5 -138.5t138.5 -93.5t169 -34zM313 564h104l52 -180l32 -114h3l32 114l51 180h102l-127 -372h-122z" />
    <glyph glyph-name="cid284" unicode="&#x24e6;" horiz-adv-x="1000" 
d="M500 -92q-98 0 -183.5 37t-150 101.5t-101.5 150t-37 183.5q0 97 37 183t101.5 150.5t150 101.5t183.5 37q97 0 183 -37t150.5 -101.5t101.5 -150.5t37 -183q0 -98 -37.5 -184t-102 -150t-150 -101t-182.5 -37zM500 -55q90 0 169 34t138.5 93.5t93.5 138.5t34 169
t-34 169t-93.5 138.5t-138.5 93.5t-169 34q-91 0 -170 -34.5t-138 -94t-93 -138.5t-34 -168q0 -90 34 -169t93.5 -138.5t138.5 -93.5t169 -34zM226 564h106l38 -178l17 -110h4l22 110l46 178h86l49 -178l23 -110h3l19 110l38 178h98l-93 -372h-123l-37 155l-20 103h-3
l-19 -103l-36 -155h-121z" />
    <glyph glyph-name="cid285" unicode="&#x24e7;" horiz-adv-x="1000" 
d="M500 -92q-98 0 -183.5 37t-150 101.5t-101.5 150t-37 183.5q0 97 37 183t101.5 150.5t150 101.5t183.5 37q97 0 183 -37t150.5 -101.5t101.5 -150.5t37 -183q0 -98 -37.5 -184t-102 -150t-150 -101t-182.5 -37zM500 -55q90 0 169 34t138.5 93.5t93.5 138.5t34 169
t-34 169t-93.5 138.5t-138.5 93.5t-169 34q-91 0 -170 -34.5t-138 -94t-93 -138.5t-34 -168q0 -90 34 -169t93.5 -138.5t138.5 -93.5t169 -34zM437 385l-112 179h114l36 -63l32 -57h4l25 57l31 63h109l-110 -190l117 -182h-113l-38 63l-36 60h-5l-32 -60l-32 -63h-110z" />
    <glyph glyph-name="cid286" unicode="&#x24e8;" horiz-adv-x="1000" 
d="M500 -92q-98 0 -183.5 37t-150 101.5t-101.5 150t-37 183.5q0 97 37 183t101.5 150.5t150 101.5t183.5 37q97 0 183 -37t150.5 -101.5t101.5 -150.5t37 -183q0 -98 -37.5 -184t-102 -150t-150 -101t-182.5 -37zM500 -55q90 0 169 34t138.5 93.5t93.5 138.5t34 169
t-34 169t-93.5 138.5t-138.5 93.5t-169 34q-91 0 -170 -34.5t-138 -94t-93 -138.5t-34 -168q0 -90 34 -169t93.5 -138.5t138.5 -93.5t169 -34zM404 101q-17 0 -28.5 1.5t-25.5 5.5l20 79q9 -4 14.5 -5t10.5 -1q28 0 45 15.5t25 38.5l5 19l-146 362h106l57 -165l15 -52
l15 -54h4q6 28 13.5 53.5l15.5 52.5l46 165h101l-130 -377q-13 -34 -27.5 -59.5t-33.5 -43t-44 -26.5t-58 -9z" />
    <glyph glyph-name="cid287" unicode="&#x24e9;" horiz-adv-x="1000" 
d="M500 -92q-98 0 -183.5 37t-150 101.5t-101.5 150t-37 183.5q0 97 37 183t101.5 150.5t150 101.5t183.5 37q97 0 183 -37t150.5 -101.5t101.5 -150.5t37 -183q0 -98 -37.5 -184t-102 -150t-150 -101t-182.5 -37zM500 -55q90 0 169 34t138.5 93.5t93.5 138.5t34 169
t-34 169t-93.5 138.5t-138.5 93.5t-169 34q-91 0 -170 -34.5t-138 -94t-93 -138.5t-34 -168q0 -90 34 -169t93.5 -138.5t138.5 -93.5t169 -34zM354 248l165 234h-145v82h277v-57l-165 -233h170v-82h-302v56z" />
    <glyph glyph-name="cid288" unicode="&#x2592;" horiz-adv-x="1000" 
d="M750 880h50l200 -200v-50zM500 880h50l450 -450v-50zM250 880h50l700 -700v-50zM0 880h50l950 -950v-50zM0 630v50l800 -800h-50zM0 380v50l550 -550h-50zM0 130v50l300 -300h-50zM0 -70l50 -50h-50v50z" />
    <glyph glyph-name="cid289" unicode="&#x25a0;" horiz-adv-x="1000" 
d="M900 780v-800h-800v800h800z" />
    <glyph glyph-name="cid290" unicode="&#x25a1;" horiz-adv-x="1000" 
d="M900 780v-800h-800v800h800zM144 24h712v712h-712v-712z" />
    <glyph glyph-name="cid291" unicode="&#x25a3;" horiz-adv-x="1000" 
d="M900 780v-800h-800v800h800zM144 24h712v712h-712v-712zM319 561h362v-362h-362v362z" />
    <glyph glyph-name="cid292" unicode="&#x25a4;" horiz-adv-x="1000" 
d="M856 24v145h-712v-145h712zM144 358v-145h712v145h-712zM856 402v145h-712v-145h712zM144 736v-145h712v145h-712zM900 780v-800h-800v800h800z" />
    <glyph glyph-name="cid293" unicode="&#x25a5;" horiz-adv-x="1000" 
d="M856 736h-145v-712h145v712zM144 24h145v712h-145v-712zM478 736h-145v-712h145v712zM522 24h145v712h-145v-712zM900 780v-800h-800v800h800z" />
    <glyph glyph-name="cid294" unicode="&#x25a6;" horiz-adv-x="1000" 
d="M856 24v145h-145v-145h145zM144 24h145v145h-145v-145zM144 736v-145h145v145h-145zM856 402v145h-145v-145h145zM711 213h145v145h-145v-145zM667 213v145h-145v-145h145zM522 24h145v145h-145v-145zM333 169v-145h145v145h-145zM333 213h145v145h-145v-145zM144 358
v-145h145v145h-145zM289 547h-145v-145h145v145zM333 547v-145h145v145h-145zM478 736h-145v-145h145v145zM522 547v-145h145v145h-145zM667 591v145h-145v-145h145zM856 736h-145v-145h145v145zM900 780v-800h-800v800h800z" />
    <glyph glyph-name="cid295" unicode="&#x25a7;" horiz-adv-x="1000" 
d="M144 24h111l-111 111v-111zM856 736h-112l112 -112v112zM856 436v124l-176 176h-124zM856 373l-364 363h-128l492 -492v129zM856 54v130l-553 552h-129zM695 24h130l-681 681v-130zM505 24h128l-489 489v-129zM144 196l173 -172h126l-299 299v-127zM900 780v-800h-800
v800h800z" />
    <glyph glyph-name="cid296" unicode="&#x25a8;" horiz-adv-x="1000" 
d="M856 24v106l-107 -106h107zM144 736v-116l116 116h-116zM144 180v-129l686 685h-131zM448 736h-127l-177 -178v-126zM144 370v-128l494 494h-129zM856 571v131l-677 -678h130zM561 24h124l171 170v124zM856 382v128l-486 -486h128zM900 780v-800h-800v800h800z" />
    <glyph glyph-name="cid297" unicode="&#x25a9;" horiz-adv-x="1000" 
d="M856 702l-39 -39l39 -39v78zM856 54v76l-38 -38zM749 24h76l-38 38zM561 24h72l-36 36zM370 24h73l-36 37zM179 24h76l-38 38zM144 51l42 42l-42 42v-84zM144 705v-85l43 43zM260 736h-86l43 -43zM448 736h-84l42 -42zM638 736h-82l41 -41zM787 693l43 43h-86zM755 661
l-65 65l-62 -62l65 -65zM851 566l-66 65l-62 -62l66 -65zM856 436v74l-37 -37zM856 244v74l-37 -37zM786 124l65 65l-62 62l-65 -65zM628 91l62 -62l65 65l-62 62zM597 123l65 65l-64 64l-65 -65zM437 91l64 -64l65 65l-64 64zM407 122l64 64l-65 65l-64 -64zM248 93l65 -65
l63 63l-65 65zM152 188l65 -64l63 63l-65 65zM144 242l41 41l-41 40v-81zM144 432l41 41l-41 40v-81zM217 632l-65 -65l64 -63l65 65zM376 664l-64 63l-64 -65l63 -63zM406 633l-64 -65l64 -64l65 65zM565 663l-64 65l-64 -65l64 -64zM661 567l-65 66l-64 -65l65 -65z
M757 472l-66 65l-64 -64l66 -65zM787 313l64 64l-64 64l-64 -64zM628 282l64 -64l65 65l-64 64zM598 313l64 64l-65 66l-65 -65zM437 282l65 -65l65 65l-65 65zM502 408l65 65l-66 65l-64 -65zM406 313l65 65l-65 65l-65 -65zM246 282l65 -64l64 64l-65 65zM311 409l65 65
l-65 64l-65 -65zM215 442l-64 -65l64 -64l65 65zM900 780v-800h-800v800h800z" />
    <glyph glyph-name="cid298" unicode="&#x25b2;" horiz-adv-x="1000" 
d="M970 12h-940l470 814z" />
    <glyph glyph-name="cid299" unicode="&#x25b3;" horiz-adv-x="1000" 
d="M970 12h-940l470 814zM106 56h788l-394 682z" />
    <glyph glyph-name="cid300" unicode="&#x25b6;" horiz-adv-x="1000" 
d="M122 -93v940l814 -470z" />
    <glyph glyph-name="cid301" unicode="&#x25b7;" horiz-adv-x="1000" 
d="M122 -93v940l814 -470zM166 771v-788l682 394z" />
    <glyph glyph-name="cid302" unicode="&#x25bc;" horiz-adv-x="1000" 
d="M970 748l-470 -814l-470 814h940z" />
    <glyph glyph-name="cid303" unicode="&#x25bd;" horiz-adv-x="1000" 
d="M970 748l-470 -814l-470 814h940zM106 704l394 -682l394 682h-788z" />
    <glyph glyph-name="cid304" unicode="&#x25c0;" horiz-adv-x="1000" 
d="M878 -93l-814 470l814 470v-940z" />
    <glyph glyph-name="cid305" unicode="&#x25c1;" horiz-adv-x="1000" 
d="M878 -93l-814 470l814 470v-940zM834 771l-682 -394l682 -394v788z" />
    <glyph glyph-name="cid306" unicode="&#x25c6;" horiz-adv-x="1000" 
d="M988 380l-488 -488l-488 488l488 488z" />
    <glyph glyph-name="cid307" unicode="&#x25c7;" horiz-adv-x="1000" 
d="M988 380l-488 -488l-488 488l488 488zM75 380l425 -426l426 426l-426 426z" />
    <glyph glyph-name="cid308" unicode="&#x25c8;" horiz-adv-x="1000" 
d="M988 380l-488 -488l-488 488l488 488zM75 380l425 -426l426 426l-426 426zM500 710l330 -330l-330 -330l-330 330z" />
    <glyph glyph-name="cid309" unicode="&#x25cb;" horiz-adv-x="1000" 
d="M500 -70q-93 0 -175 35.5t-143 96.5t-96.5 143t-35.5 175t35.5 175t96.5 143t143 96.5t175 35.5t175 -35.5t143 -96.5t96.5 -143t35.5 -175t-35.5 -175t-96.5 -143t-143 -96.5t-175 -35.5zM94 380q0 -84 32 -158t87 -129t129 -87t158 -32t158 32t129 87t87 129t32 158
t-32 158t-87 129t-129 87t-158 32t-158 -32t-129 -87t-87 -129t-32 -158z" />
    <glyph glyph-name="cid310" unicode="&#x25ce;" horiz-adv-x="1000" 
d="M50 380q0 93 35.5 175t96.5 143t143 96.5t175 35.5t175 -35.5t143 -96.5t96.5 -143t35.5 -175t-35.5 -175t-96.5 -143t-143 -96.5t-175 -35.5t-175 35.5t-143 96.5t-96.5 143t-35.5 175zM906 380q0 84 -32 158t-87 129t-129 87t-158 32t-158 -32t-129 -87t-87 -129
t-32 -158t32 -158t87 -129t129 -87t158 -32t158 32t129 87t87 129t32 158zM206 380q0 61 23 114.5t63 93.5t93.5 63t114.5 23t114.5 -23t93.5 -63t63 -93.5t23 -114.5t-23 -114.5t-63 -93.5t-93.5 -63t-114.5 -23t-114.5 23t-93.5 63t-63 93.5t-23 114.5zM757 380
q0 53 -20 100t-55 82t-82 55t-100 20t-100 -20t-82 -55t-55 -82t-20 -100t20 -100t55 -82t82 -55t100 -20t100 20t82 55t55 82t20 100z" />
    <glyph glyph-name="cid311" unicode="&#x25cf;" horiz-adv-x="1000" 
d="M500 -70q-93 0 -175 35.5t-143 96.5t-96.5 143t-35.5 175t35.5 175t96.5 143t143 96.5t175 35.5t175 -35.5t143 -96.5t96.5 -143t35.5 -175t-35.5 -175t-96.5 -143t-143 -96.5t-175 -35.5z" />
    <glyph glyph-name="cid312" unicode="&#x25d0;" horiz-adv-x="1000" 
d="M940 380q0 -91 -34.5 -171t-94.5 -140t-140 -94.5t-171 -34.5t-171 34.5t-140 94.5t-94.5 140t-34.5 171t34.5 171t94.5 140t140 94.5t171 34.5t171 -34.5t140 -94.5t94.5 -140t34.5 -171zM500 -27q84 0 158.5 32t129.5 87t87 129.5t32 158.5t-32 158.5t-87 129.5
t-129.5 87t-158.5 32v-814z" />
    <glyph glyph-name="cid313" unicode="&#x25d1;" horiz-adv-x="1000" 
d="M940 380q0 -91 -34.5 -171t-94.5 -140t-140 -94.5t-171 -34.5t-171 34.5t-140 94.5t-94.5 140t-34.5 171t34.5 171t94.5 140t140 94.5t171 34.5t171 -34.5t140 -94.5t94.5 -140t34.5 -171zM500 787q-84 0 -158.5 -32t-129.5 -87t-87 -129.5t-32 -158.5t32 -158.5
t87 -129.5t129.5 -87t158.5 -32v814z" />
    <glyph glyph-name="cid314" unicode="&#x2605;" horiz-adv-x="1000" 
d="M962 486v-6l-282 -205l111 -337l-4 -2l-287 208l-287 -208l-4 2l111 337l-282 205v6h349l110 335h6l110 -335h349z" />
    <glyph glyph-name="cid315" unicode="&#x2606;" horiz-adv-x="1000" 
d="M495 821h10l108 -335h348l3 -10l-284 -201l113 -335l-7 -6l-286 210l-286 -210l-7 6l113 335l-284 201l3 10h348zM262 442l-117 7v-2l99 -64l128 -91l-50 -146l-46 -116l2 -2l99 81l123 90l123 -90l99 -81l2 2l-46 116l-50 146l128 91l99 64v2l-117 -7h-157l-51 154
l-29 112h-2l-30 -112l-50 -154h-157z" />
    <glyph glyph-name="cid316" unicode="&#x260e;" horiz-adv-x="1000" 
d="M222 570l41 -106q5 -12 4 -23t-17 -14l-182 -31q-28 -3 -28 28q0 16 1.5 41t7.5 50.5t16.5 48.5t28.5 37q31 24 69 43t86 31.5t109.5 19t141.5 6.5q79 0 141 -6.5t110 -19t85.5 -31.5t69.5 -43q18 -14 28.5 -37t16.5 -48.5t7.5 -50.5t1.5 -41q0 -31 -28 -28l-182 31
q-16 2 -17 13.5t4 23.5l41 106h-107v-64q0 -26 8 -49.5t23.5 -46.5t37.5 -47t50 -51q52 -51 72 -111.5t20 -126.5q0 -24 -10 -35.5t-36 -11.5h-672q-26 0 -36 11.5t-10 35.5q0 66 20 126.5t72 111.5q28 27 50 51t37.5 47t23.5 46.5t8 49.5v64h-107zM415 570v-96h170v96h-170
zM332 250q0 -35 13 -65.5t36 -53.5t53.5 -36t65.5 -13t65.5 13t53.5 36t36 53.5t13 65.5t-13 65.5t-36 53.5t-53.5 36t-65.5 13t-65.5 -13t-53.5 -36t-36 -53.5t-13 -65.5z" />
    <glyph glyph-name="cid317" unicode="&#x260f;" horiz-adv-x="1000" 
d="M682 250q0 -37 -14.5 -70t-39.5 -58t-58 -39.5t-70 -14.5t-70 14.5t-58 39.5t-39.5 58t-14.5 70t14.5 70t39.5 58t58 39.5t70 14.5t70 -14.5t58 -39.5t39.5 -58t14.5 -70zM346 250q0 -32 12 -60t33 -49t49 -33t60 -12t60 12t49 33t33 49t12 60t-12 60t-33 49t-49 33
t-60 12t-60 -12t-49 -33t-33 -49t-12 -60zM401 584h198v-124h-198v124zM429 556v-68h142v68h-142zM202 584h141v-78q0 -28 -9 -53.5t-25 -50t-38.5 -49t-50.5 -51.5q-51 -48 -69.5 -105.5t-18.5 -122.5q0 -19 6.5 -26t25.5 -7h672q19 0 25.5 7t6.5 26q0 65 -18.5 122.5
t-69.5 105.5q-56 54 -89.5 101t-33.5 103v78h141l-48 -125v-1q-7 -15 2 -17l182 -31q7 -1 9.5 2t2.5 12q0 16 -1.5 39.5t-7 47.5t-15 45.5t-25.5 33.5q-31 24 -67 42t-83.5 30t-107.5 18.5t-139 6.5t-139 -6.5t-107.5 -18.5t-83.5 -30t-67 -42q-16 -12 -25.5 -33.5
t-15 -45.5t-7 -47.5t-1.5 -39.5q0 -9 2.5 -12t9.5 -2l181 31q10 1 3 17v1zM242 556l34 -87v1q3 -7 4 -16t-1 -17t-8.5 -14.5t-18.5 -9.5l-182 -31q-19 -2 -31.5 10t-12.5 32q0 16 2 42t8 53t17.5 52.5t31.5 40.5q32 25 71 44.5t88.5 32.5t112.5 19.5t143 6.5t143 -6.5
t112.5 -19.5t88.5 -32.5t71 -44.5q20 -15 31.5 -40.5t17.5 -52.5t8 -53t2 -42q0 -20 -12.5 -32t-31.5 -10l-183 31q-12 3 -18 9.5t-8 14.5t-1 17t4 16v-1l34 87h-73v-50q0 -24 7.5 -46t22 -43.5t36 -44.5t49.5 -50q54 -53 75 -116.5t21 -131.5q0 -28 -14.5 -44.5
t-45.5 -16.5h-672q-31 0 -45.5 16.5t-14.5 44.5q0 68 21 131.5t75 116.5q28 27 49.5 50t36 44.5t22 43.5t7.5 46v50h-73z" />
    <glyph glyph-name="cid318" unicode="&#x261c;" horiz-adv-x="1000" 
d="M269 454q13 0 23 1t18 3q10 2 20 7t17 13q15 16 36 32t35 29q1 1 1 1.5t1 1.5q2 8 0 16q0 3 -3 3l-85.5 -6.5t-86 -7.5t-75 -8t-52.5 -8q-24 -5 -36.5 -10.5t-18.5 -11.5t-7 -11.5t-1 -8.5q0 -12 10.5 -22.5t49.5 -13.5q11 -1 29.5 -1t40 0.5l43.5 1t41 0.5zM301 324
q20 -4 38.5 -4t26.5 2q26 3 49.5 8t45.5 14q14 6 26.5 12.5t20.5 14.5t9.5 15.5t-0.5 15.5q-3 10 -15 7l-33 -9t-36 -10q-18 -4 -33 -5.5t-29 1.5q-17 3 -27.5 11t-18.5 26q-2 5 -7 6t-9 -1q-28 -10 -47 -29q-11 -10 -10.5 -24.5t5.5 -25.5q5 -12 18.5 -17.5t25.5 -7.5z
M392 232q12 0 27 2.5t31.5 8t33 13t30.5 16.5q23 14 33.5 25.5t10.5 25.5t-9 25q-4 3 -9.5 4t-11.5 -3l-29.5 -15t-29.5 -14q-28 -12 -61.5 -19t-71.5 -7h-16t-17 2q-5 0 -5 -5q2 -13 7.5 -26t19.5 -21t31 -10t36 -2zM427 151q31 0 70.5 16t64.5 43q11 11 11.5 22t-1.5 16
q-5 14 -15 13.5t-19 -6.5q-16 -11 -35.5 -20t-39.5 -15.5t-39 -10.5t-32 -4q-9 0 -18.5 0.5t-17.5 1.5q-4 0 -4 -3q6 -27 26 -40q14 -9 28 -11t21 -2zM874 475h-6.5t-6.5 2q-44 19 -88 35t-83 27t-71.5 17.5t-54.5 6.5q-38 0 -61.5 -6.5t-49.5 -23.5l-17.5 -12.5
l-22.5 -16.5t-23 -19t-20 -20q-14 -15 -17.5 -24t-0.5 -14q7 -14 27 -16.5t46 5.5q21 6 44 13.5l42.5 13.5t33.5 11t18 7t9 1t7 -5q8 -11 28 -26.5t52 -32.5t66 -26t64 -9q5 0 11 -3t6 -8t-5 -9.5t-12 -6.5q-28 -8 -56 -9t-66 3q-31 3 -44.5 -15.5t-13.5 -41.5t-5 -42.5
t-15 -32.5q-15 -18 -35.5 -30.5t-40.5 -22.5q-2 0 -1.5 -1.5t1.5 -1.5q26 -2 54.5 -1t58.5 6q55 9 109.5 26.5t114.5 45.5q3 2 6.5 2h6.5l63 -8q5 0 8.5 2.5t3.5 7.5v251q0 8 -10 8zM871 192q-11 1 -21 -3q-112 -52 -220 -68q-23 -4 -45 -5.5t-42 -1.5q-12 0 -26 1
t-27.5 2.5t-24 3.5t-16.5 4h-3q-5 0 -9.5 -0.5t-9.5 -0.5q-11 0 -28.5 3t-35.5 15q-36 23 -39 70q0 3 -2 3q-3 2 -5.5 2.5t-5.5 2.5q-38 23 -41 79q0 6 -4 7q-24 12 -33 31q-11 20 -8 43t18 38q2 2 4 3q2 2 0.5 3.5t-3.5 1.5q-18 0 -37 -0.5t-36.5 -0.5h-32.5t-25 1
q-50 4 -67.5 22.5t-17.5 40.5q0 18 8 30t20.5 19.5t27.5 12t29 7.5q19 3 51 7t71.5 8t83 7.5l84 6.5t75 4.5t56.5 1.5q61 0 146.5 -23t186.5 -66q6 -2 9 -1l74 9q8 1 11.5 -3.5t3.5 -10.5v-301q0 -3 -2 -7q-4 -7 -13 -7z" />
    <glyph glyph-name="cid319" unicode="&#x261e;" horiz-adv-x="1000" 
d="M464 593q22 0 56.5 -1.5t75 -4.5l84 -6.5t83 -7.5t71.5 -8t51 -7q14 -3 29 -7.5t27.5 -12t20.5 -19.5t8 -30q0 -22 -17.5 -40.5t-67.5 -22.5q-10 -1 -25 -1h-32.5t-36.5 0.5t-37 0.5q-2 0 -3.5 -1.5t0.5 -3.5q2 -1 4 -3q15 -15 18 -38t-8 -43q-9 -19 -33 -31q-4 -1 -4 -7
q-3 -56 -41 -79q-3 -2 -5.5 -2.5t-5.5 -2.5q-2 0 -2 -3q-3 -47 -39 -70q-18 -12 -35.5 -15t-28.5 -3q-5 0 -9.5 0.5t-9.5 0.5h-3q-6 -2 -16.5 -4t-24 -3.5t-27.5 -2.5t-26 -1q-20 0 -42 1.5t-45 5.5q-108 16 -220 68q-11 4 -21 3l-79 -9q-9 0 -13 7q-2 4 -2 7v301
q0 6 3.5 10.5t11.5 3.5l74 -9q3 -1 9 1q101 43 186.5 66t146.5 23zM148 219q60 -28 114.5 -45.5t109.5 -26.5q30 -5 58.5 -6t54.5 1q1 0 1.5 1.5t-1.5 1.5q-20 10 -40.5 22.5t-35.5 30.5q-10 13 -15 32.5t-5 42.5t-13.5 41.5t-44.5 15.5q-38 -4 -66 -3t-56 9q-7 2 -12 6.5
t-5 9.5t6 8t11 3q30 0 64 9t66 26t52 32.5t28 26.5q2 4 7 5t9 -1t18 -7t33.5 -11l42.5 -13.5t44 -13.5q26 -8 46 -5.5t27 16.5q3 5 -0.5 14t-17.5 24q-9 10 -20 20t-23 19l-22.5 16.5l-17.5 12.5q-26 17 -49.5 23.5t-61.5 6.5q-22 0 -54.5 -6.5t-71.5 -17.5t-83 -27t-88 -35
q-3 -2 -6.5 -2h-6.5l-54 7q-10 0 -10 -8v-251q0 -5 3.5 -7.5t8.5 -2.5l63 8h6.5t6.5 -2zM571 151q7 0 21 2t28 11q20 13 26 40q0 3 -4 3q-8 -1 -17.5 -1.5t-18.5 -0.5q-14 0 -32.5 4t-38.5 10.5t-39.5 15.5t-35.5 20q-9 6 -19 6.5t-15 -13.5q-2 -5 -1.5 -16t11.5 -22
q25 -27 64.5 -43t70.5 -16zM606 232q19 0 36 2t31 10t19.5 21t7.5 26q0 5 -5 5q-9 -2 -17 -2h-16q-38 0 -71.5 7t-61.5 19q-14 6 -29.5 14l-29.5 15q-6 4 -11.5 3t-9.5 -4q-9 -11 -9 -25t10.5 -25.5t33.5 -25.5q14 -9 30.5 -16.5t33 -13t31.5 -8t27 -2.5zM697 324
q12 2 25.5 7.5t18.5 17.5q5 11 5.5 25.5t-10.5 24.5q-19 19 -47 29q-4 2 -9 1t-7 -6q-8 -18 -18.5 -26t-27.5 -11q-14 -3 -29 -1.5t-33 5.5q-17 5 -36 10l-33 9q-12 3 -15 -7q-2 -8 -0.5 -15.5t9.5 -15.5t20.5 -14.5t26.5 -12.5q22 -9 45.5 -14t49.5 -8q8 -2 26.5 -2t38.5 4
zM729 454q19 0 41 -0.5l43.5 -1t40 -0.5t29.5 1q39 3 49.5 13.5t10.5 22.5q0 3 -1 8.5t-7 11.5t-18.5 11.5t-36.5 10.5q-19 4 -52.5 8t-75 8t-86 7.5l-85.5 6.5q-3 0 -3 -3q-2 -8 0 -16q1 -1 1 -1.5t1 -1.5q14 -13 35 -29t36 -32q7 -8 17 -13t20 -7q8 -2 18 -3t23 -1z" />
    <glyph glyph-name="cid320" unicode="&#x2640;" horiz-adv-x="1000" 
d="M269 589q0 48 18 90t49.5 73.5t73.5 49.5t90 18t90 -18t73.5 -49.5t49.5 -73.5t18 -90q0 -41 -13.5 -78t-37.5 -67t-57 -50.5t-72 -29.5v-82h273v-102h-273v-240h-102v240h-273v102h273v82q-39 9 -72 29.5t-57 50.5t-37.5 67t-13.5 78zM630 589q0 27 -10 50.5t-28 41
t-41.5 27.5t-50.5 10t-50.5 -10t-41 -27.5t-28 -41t-10.5 -50.5t10.5 -50.5t28 -41.5t41 -28t50.5 -10t50.5 10t41.5 28t28 41.5t10 50.5z" />
    <glyph glyph-name="cid321" unicode="&#x2642;" horiz-adv-x="1000" 
d="M574 223q0 -48 -18 -90t-49.5 -73.5t-73.5 -49.5t-90 -18t-90 18t-73.5 49.5t-49.5 73.5t-18 90t18 90t49.5 73.5t73.5 49.5t90 18q66 0 121 -35l238 238h-215v101h391v-391h-101v222l-241 -240q18 -28 28 -59.5t10 -66.5zM213 223q0 -27 10 -50.5t28 -41.5t41.5 -28
t50.5 -10t50.5 10t41 28t28 41.5t10.5 50.5t-10.5 50.5t-28 41t-41 28t-50.5 10.5t-50.5 -10.5t-41.5 -28t-28 -41t-10 -50.5z" />
    <glyph glyph-name="cid322" unicode="&#x2660;" horiz-adv-x="1000" 
d="M727 599l60.5 -58.5t62 -71.5t48 -85t19.5 -100q0 -44 -14.5 -83.5t-40.5 -69.5t-63 -47.5t-82 -17.5q-57 0 -101.5 27t-63.5 70l-7.5 16.5t-8.5 5.5q-5 0 -5.5 -8t-0.5 -10q5 -78 31 -124.5t68 -81.5q8 -8 5.5 -14t-5.5 -6h-258q-3 0 -6 6t6 14q42 35 68 81.5t31 124.5
q0 2 -0.5 10t-5.5 8q-6 0 -8.5 -5.5l-7.5 -16.5q-19 -43 -63.5 -70t-101.5 -27q-45 0 -81.5 17.5t-63 47.5t-41 69.5t-14.5 83.5q0 54 19.5 100t48 85t62 71.5l60.5 58.5l67.5 67.5l65 69.5t54.5 64.5t38 51.5q2 4 4 0q13 -21 37.5 -51.5t55 -64.5l65 -69.5z" />
    <glyph glyph-name="cid323" unicode="&#x2661;" horiz-adv-x="1000" 
d="M503 655q19 43 44.5 71t53.5 44.5t57.5 23t56.5 6.5q43 0 81.5 -18.5t67 -51.5t45.5 -77.5t17 -95.5q0 -56 -20 -104.5t-49.5 -89.5t-64 -75l-62.5 -61q-34 -33 -68.5 -70t-65 -73.5t-55 -69t-38.5 -55.5q-2 -4 -4 0q-14 23 -38.5 55.5t-55 69t-65 73.5t-68.5 70l-63 61
t-63.5 75.5t-49.5 89.5t-20 104q0 51 17 95.5t45.5 77.5t67 51.5t81.5 18.5q27 0 56 -6.5t57.5 -22.5t53.5 -44.5t45 -71.5q2 -6 4 0zM882 557q0 43 -13.5 79.5t-36.5 63t-53.5 41.5t-63.5 15q-63 0 -106 -33t-77 -106q-5 -13 -12.5 -21.5t-18.5 -8.5t-18.5 8.5t-12.5 21.5
q-35 73 -77.5 106t-105.5 33q-33 0 -63.5 -15t-53.5 -41.5t-36.5 -63t-13.5 -79.5q0 -47 19 -90.5t46.5 -81.5t59.5 -70l58 -57q65 -60 116.5 -120.5t79.5 -103.5q2 -4 4 0q14 21 34.5 48t45.5 56t54.5 60t61.5 61l58 57t59.5 69.5t46.5 80.5t19 91z" />
    <glyph glyph-name="cid324" unicode="&#x2663;" horiz-adv-x="1000" 
d="M464 185q-6 0 -7.5 -5.5t-8.5 -16.5q-28 -44 -75.5 -74t-107.5 -30q-42 0 -79 15t-64 42t-42.5 64t-15.5 82q0 43 15 80t42 64.5t64 43.5t81 16q23 0 46 -7t40 -16q1 -1 3 -1t4 3q1 3 0 6q-1 2 -3 3q-26 25 -44 62t-18 82q0 43 16 80.5t44 66t65.5 45t80.5 16.5
t80.5 -16.5t65.5 -44.5t44 -65.5t16 -80.5q0 -45 -18 -82.5t-44 -62.5q-2 -1 -3 -3q-2 -4 0 -6q1 -3 4 -3q1 0 3 1q17 9 40.5 16t44.5 7q45 0 82 -16t64 -43.5t42 -64.5t15 -80q0 -45 -15.5 -82t-42.5 -64t-64 -42t-79 -15q-57 0 -104.5 28t-78.5 76q-7 11 -8.5 16.5
t-7.5 5.5q-5 0 -5.5 -8t-0.5 -10q3 -39 10.5 -69.5t20.5 -55t30 -44t38 -37.5q9 -8 6 -14t-6 -6h-257q-4 0 -6.5 6t5.5 14q42 35 68 81.5t31 124.5q0 2 -0.5 10t-5.5 8z" />
    <glyph glyph-name="cid325" unicode="&#x2664;" horiz-adv-x="1000" 
d="M352 -63q-3 0 -5.5 7t5.5 15q18 18 31 34.5t23 33.5t17.5 37t13.5 45q3 13 5 24.5t1 11.5q-1 -1 -2 -3t-5 -8q-24 -35 -67 -54t-89 -19t-83.5 18t-64 48.5t-41 70.5t-14.5 84q0 55 19.5 102t48.5 86.5t62.5 72.5l61.5 59l69 69l66 70.5t55.5 65t38.5 52.5q2 4 4 0
q14 -22 38.5 -52.5t55.5 -65l66 -70.5l69 -69l61.5 -59t62.5 -72.5t48.5 -86.5t19.5 -102q0 -44 -14.5 -84t-41.5 -70.5t-64.5 -48.5t-82.5 -18q-46 0 -89 19t-67 54q-4 6 -5 8t-2 3q-1 0 1 -11.5t5 -24.5q6 -25 13.5 -45t17.5 -37t23 -33.5t31 -34.5q9 -8 6 -15t-6 -7h-296
zM567 -19q3 0 -1 5t-9 13q-17 25 -30 63.5t-13 89.5q0 10 1 21t4 20t8 15t13 6q11 0 20 -10t21 -25q26 -32 59.5 -53t81.5 -21q36 0 65 14t49.5 38t31.5 56.5t11 69.5q0 47 -18.5 89.5t-45.5 78.5t-57.5 66l-54.5 53l-60.5 59l-57.5 60t-48.5 54.5t-33.5 44.5q-2 4 -4 0
q-12 -19 -34 -44.5l-49 -54.5l-57.5 -60l-60.5 -59l-55 -53t-58 -66t-45.5 -78.5t-18.5 -89.5q0 -37 11 -69.5t31.5 -56.5t49.5 -38t65 -14q48 0 81.5 21t59.5 53q12 15 21 25t20 10q16 0 21 -20.5t5 -41.5q0 -51 -13 -89.5t-30 -63.5q-5 -8 -9 -13t-1 -5h134z" />
    <glyph glyph-name="cid326" unicode="&#x2665;" horiz-adv-x="1000" 
d="M505 636q22 83 79 121.5t128 38.5q43 0 81 -18.5t66.5 -51t45 -76.5t16.5 -95q0 -56 -20 -103.5t-49 -88t-63 -74l-62 -60.5q-34 -33 -68.5 -70t-64.5 -73t-54 -68.5t-38 -54.5q-2 -4 -4 0q-14 22 -38 54.5t-54 68.5t-64.5 73t-68.5 70l-62 60.5t-63 74t-49 88.5t-20 103
q0 51 16.5 95t45 76.5t66.5 51t81 18.5q35 0 67.5 -9.5t60 -29t48 -49.5t31.5 -72q2 -7 5 -7t5 7z" />
    <glyph glyph-name="cid327" unicode="&#x2667;" horiz-adv-x="1000" 
d="M344 412q-15 5 -35 10.5t-46 5.5q-37 0 -66.5 -12.5t-50.5 -35t-32 -52.5t-11 -64q0 -35 13 -65t34.5 -52t50.5 -34.5t61 -12.5q49 0 87.5 22t68.5 60q7 10 15.5 21t21.5 11q16 0 23 -18.5t7 -43.5q0 -51 -10 -85.5t-32 -68.5l-9.5 -12.5t-0.5 -4.5h134q3 0 -0.5 4.5
l-9.5 12.5q-23 34 -32.5 68.5t-9.5 85.5q0 25 7 43.5t23 18.5q13 0 22 -12l18 -24q28 -36 66 -57t87 -21q32 0 61 12.5t50.5 34.5t34.5 52t13 65q0 34 -11 64t-32 52.5t-50.5 35t-66.5 12.5q-26 0 -46 -5.5t-35 -10.5q-41 -14 -53 5q-5 8 -5 16t4 16t10 16t12 17
q13 17 27.5 46.5t14.5 73.5q0 34 -13.5 64t-36 52.5t-52.5 35.5t-64 13t-64 -13t-52.5 -35.5t-36 -52.5t-13.5 -64q0 -44 14.5 -73.5t27.5 -46.5q12 -17 21.5 -33t-0.5 -32q-12 -19 -53 -5zM59 264q0 43 15 81t42 66.5t64.5 44.5t82.5 16q25 0 46.5 -5.5t32.5 -10.5
q2 -1 2.5 -0.5t-1.5 2.5q-18 20 -35.5 57t-17.5 87q0 43 16.5 81t45 66.5t66.5 45t82 16.5q43 0 81.5 -16.5t67 -45t45 -66.5t16.5 -81q0 -50 -17.5 -87t-35.5 -57q-2 -2 -1.5 -2.5t2.5 0.5q11 5 32.5 10.5t46.5 5.5q45 0 82.5 -16t64.5 -44.5t42 -66.5t15 -81
q0 -45 -15.5 -83t-43 -66t-64.5 -43.5t-80 -15.5q-50 0 -96 20.5t-76 60.5q-2 2 -3.5 4.5t-2.5 4.5t-2 3q-1 0 0 -14.5t3 -25.5q6 -26 14 -46t19 -37.5t24.5 -33.5t29.5 -33q8 -8 5.5 -15t-5.5 -7h-296q-3 0 -6 7t6 15q16 17 29.5 33t24.5 33.5t19 37.5t14 46q2 11 3 25.5
t0 14.5q-1 -1 -2 -3t-2.5 -4.5t-3.5 -4.5q-30 -40 -76 -60.5t-96 -20.5q-43 0 -80 15.5t-64.5 43.5t-43 66t-15.5 83z" />
    <glyph glyph-name="cid328" unicode="&#x2668;" horiz-adv-x="1000" 
d="M457 457q-23 39 -33 78.5t-10 68.5q0 57 21.5 106t74.5 87l42 -17q-32 -32 -48 -67t-16 -70q0 -34 11 -72t34 -78q23 -39 33 -78.5t10 -68.5q0 -57 -21.5 -106t-74.5 -87l-42 17q32 32 48 67t16 70q0 70 -45 150zM284 459q-23 35 -32 69.5t-9 60.5q0 22 3.5 45t13.5 45
t27 42.5t43 38.5l40 -17q-33 -29 -44.5 -59.5t-11.5 -59.5t11 -63.5t34 -69.5t32 -69.5t9 -60.5q0 -46 -17.5 -90.5t-69.5 -80.5l-41 17q33 29 45 59.5t12 59.5t-11.5 63.5t-33.5 69.5zM634 459q-22 35 -31.5 69.5t-9.5 60.5q0 45 17.5 90t69.5 81l41 -17q-33 -29 -45 -59.5
t-12 -59.5t11.5 -63.5t33.5 -69.5q23 -35 32 -69.5t9 -60.5q0 -46 -17 -90.5t-69 -80.5l-41 17q33 29 44.5 59.5t11.5 59.5t-11 63.5t-34 69.5zM927 229q0 -54 -33 -99.5t-90.5 -78.5t-135.5 -52t-168 -19t-168 19t-135.5 52t-90.5 78.5t-33 99.5q0 63 39.5 105t106.5 57
l24 -29q-43 -13 -67 -39.5t-24 -66.5q0 -36 26.5 -67t73 -54t110 -36.5t138.5 -13.5t138.5 13.5t110 36.5t73 54t26.5 67q0 40 -24 66.5t-67 39.5l24 29q67 -15 106.5 -57t39.5 -105z" />
    <glyph glyph-name="cid329" unicode="&#x2669;" horiz-adv-x="1000" 
d="M558 840v-750q0 -39 -15 -70.5t-40.5 -53.5t-58.5 -34t-69 -12q-17 0 -34 4.5t-30 14t-21 23.5t-8 32q0 27 15.5 51.5t40 44t55.5 31t62 11.5q17 0 34.5 -3.5t28.5 -9.5v721h40z" />
    <glyph glyph-name="cid330" unicode="&#x266a;" horiz-adv-x="1000" 
d="M511 840q0 -36 9.5 -67.5t25.5 -58.5t37 -50.5t44 -43.5t46 -44.5t41.5 -53t30 -60.5t11.5 -67q0 -63 -24 -124.5t-60 -119.5h-26l19 41t20.5 51.5t16.5 57.5t7 60q0 43 -14 81.5t-38.5 69t-58 51t-72.5 29.5v-502q0 -39 -15 -70.5t-40.5 -53.5t-58.5 -34t-69 -12
q-17 0 -34 4.5t-30 14t-21 23.5t-8 32q0 27 15.5 51.5t40 44t55.5 31t62 11.5q17 0 34.5 -3.5t28.5 -9.5v721h25z" />
    <glyph glyph-name="cid331" unicode="&#x266c;" horiz-adv-x="1000" 
d="M845 855v-652q0 -39 -15 -70.5t-40.5 -53.5t-58.5 -34t-69 -12q-17 0 -34 4.5t-30 14t-21 23.5t-8 32q0 27 15.5 51.5t40 44t55.5 31t62 11.5q17 0 34.5 -3.5t28.5 -9.5v342l-505 -110v-389q0 -39 -15 -70.5t-40.5 -53.5t-58.5 -34t-69 -12q-17 0 -34 4.5t-30 14
t-21 23.5t-8 32q0 27 15.5 51.5t40 44t55.5 31t62 11.5q17 0 34.5 -3.5t28.5 -9.5v623zM805 746l-505 -110v-72l505 110v72z" />
    <glyph glyph-name="cid332" unicode="&#x266d;" horiz-adv-x="1000" 
d="M600 466q33 0 60 -10t46.5 -28t30 -42t10.5 -52q0 -51 -19.5 -89t-52 -69.5t-74 -58.5l-85 -54.5t-86.5 -59t-77 -71.5h-9v897h40v-502q35 62 91 100.5t125 38.5zM384 2q34 40 73.5 75t72.5 70.5t55 75.5t22 91q0 46 -19.5 65t-50.5 19q-35 0 -75.5 -30.5t-77.5 -92.5
v-273z" />
    <glyph glyph-name="cid333" unicode="&#x3000;" horiz-adv-x="1000" 
 />
    <glyph glyph-name="cid334" unicode="&#x3001;" horiz-adv-x="1000" 
d="M255 -69l-49.5 57.5l-54.5 58.5t-56.5 55.5l-54.5 49.5l104 90q27 -22 57 -50l59.5 -58l56 -59t45.5 -52z" />
    <glyph glyph-name="cid335" unicode="&#x3002;" horiz-adv-x="1000" 
d="M193 248q34 0 63.5 -13t51.5 -35t34.5 -51.5t12.5 -62.5t-12.5 -62.5t-34.5 -51.5t-51.5 -35t-63.5 -13q-33 0 -62.5 13t-51 35t-34.5 51.5t-13 62.5t13 62.5t34.5 51.5t51 35t62.5 13zM193 -3q38 0 64 25.5t26 63.5t-26 64t-64 26q-18 0 -34 -7t-28.5 -19t-19.5 -28.5
t-7 -35.5t7 -35t19.5 -28t28.5 -19t34 -7z" />
    <glyph glyph-name="cid336" unicode="&#x3003;" horiz-adv-x="1000" 
d="M496 558l-227 -445l-76 34l165 472zM806 558l-227 -445l-76 34l164 472z" />
    <glyph glyph-name="cid337" unicode="&#x3008;" horiz-adv-x="1000" 
d="M946 -49l-99 -43l-287 472l287 472l99 -43l-261 -429z" />
    <glyph glyph-name="cid338" unicode="&#x3009;" horiz-adv-x="1000" 
d="M54 -49l261 429l-261 429l99 43l287 -472l-287 -472z" />
    <glyph glyph-name="cid339" unicode="&#x300a;" horiz-adv-x="1000" 
d="M800 -66l-83 -26l-199 472l199 472l83 -26l-189 -446zM973 -66l-84 -26l-198 472l198 472l84 -26l-190 -446z" />
    <glyph glyph-name="cid340" unicode="&#x300b;" horiz-adv-x="1000" 
d="M200 -66l189 446l-189 446l83 26l199 -472l-199 -472zM27 -66l190 446l-190 446l84 26l198 -472l-198 -472z" />
    <glyph glyph-name="cid341" unicode="&#x300c;" horiz-adv-x="1000" 
d="M641 852h331v-108h-213v-531h-118v639z" />
    <glyph glyph-name="cid342" unicode="&#x300d;" horiz-adv-x="1000" 
d="M360 -92h-332v108h213v531h119v-639z" />
    <glyph glyph-name="cid343" unicode="&#x300e;" horiz-adv-x="1000" 
d="M792 674v-483h-192v661h372v-178h-180zM644 808v-573h105v483h179v90h-284z" />
    <glyph glyph-name="cid344" unicode="&#x300f;" horiz-adv-x="1000" 
d="M208 86v483h192v-661h-372v178h180zM356 -48v573h-105v-483h-179v-90h284z" />
    <glyph glyph-name="cid345" unicode="&#x3010;" horiz-adv-x="1000" 
d="M972 852v-5q-41 -35 -77 -83.5t-63 -108t-42.5 -129t-15.5 -146.5t15.5 -146.5t42.5 -129t63 -108t77 -83.5v-5h-312v944h312z" />
    <glyph glyph-name="cid346" unicode="&#x3011;" horiz-adv-x="1000" 
d="M340 -92h-312v5q41 35 77 83.5t63 108t42.5 129t15.5 146.5t-15.5 146.5t-42.5 129t-63 108t-77 83.5v5h312v-944z" />
    <glyph glyph-name="cid347" unicode="&#x3013;" horiz-adv-x="1000" 
d="M900 480h-800v300h800v-300zM900 -20h-800v300h800v-300z" />
    <glyph glyph-name="cid348" unicode="&#x3014;" horiz-adv-x="1000" 
d="M693 46v668l234 150l48 -79l-172 -110v-590l172 -110l-48 -79z" />
    <glyph glyph-name="cid349" unicode="&#x3015;" horiz-adv-x="1000" 
d="M73 -104l-48 79l172 110v590l-172 110l48 79l234 -150v-668z" />
    <glyph glyph-name="cid350" unicode="&#x3131;" 
d="M751 627v-496h-130v391h-452v105h582z" />
    <glyph glyph-name="cid351" unicode="&#x3132;" 
d="M448 627v-496h-130v391h-209v105h339zM813 628v-496h-130v390h-192v106h322z" />
    <glyph glyph-name="cid352" unicode="&#x3133;" 
d="M692 469q0 -41 8.5 -79t27.5 -71.5t50.5 -60t76.5 -42.5l-67 -94q-59 23 -97 62t-61 90q-23 -51 -61 -90t-97 -62l-48 67v-58h-130v388h-181v105h311v-400q40 18 67.5 44t44.5 58t24.5 68.5t7.5 74.5v164h124v-164z" />
    <glyph glyph-name="cid353" unicode="&#x3134;" 
d="M761 244v-105h-592v481h133v-376h459z" />
    <glyph glyph-name="cid354" unicode="&#x3135;" 
d="M668 506q0 -46 8 -89.5t26.5 -81t49.5 -67.5t77 -49l-71 -96q-56 26 -93 67.5t-59 94.5q-21 -53 -57 -94t-91 -67l-38 50l3 -25q-59 -14 -117 -17t-132 -3h-52v508h132v-402q42 2 80 6t77 13l3 -21q37 21 61.5 50.5t39.5 65t21.5 75.5t6.5 82v24h-124v106h374v-106h-125
v-24z" />
    <glyph glyph-name="cid355" unicode="&#x3136;" 
d="M250 242q43 2 81.5 6t78.5 13l13 -105q-30 -7 -59 -11t-59 -6t-63 -2.5t-70 -0.5h-52v488h130v-382zM605 212q25 0 41 16.5t16 48.5t-16 48t-41 16t-41 -16t-16 -48t16 -48.5t41 -16.5zM605 442q35 0 66 -12.5t53.5 -34t35.5 -52t13 -66.5t-13 -66.5t-35.5 -52.5
t-53.5 -34.5t-66 -12.5t-66 12.5t-53.5 34.5t-35.5 52.5t-13 66.5t13 66.5t35.5 52t53.5 34t66 12.5zM800 571v-105h-395v105h141v79h127v-79h127z" />
    <glyph glyph-name="cid356" unicode="&#x3137;" 
d="M754 237v-106h-581v499h573v-105h-441v-288h449z" />
    <glyph glyph-name="cid357" unicode="&#x3138;" 
d="M263 245q48 1 89.5 5t86.5 14l12 -108q-32 -7 -63 -11t-62.5 -6t-65.5 -2.5t-73 -0.5h-54v487h302v-105h-172v-273zM791 241v-105h-304v487h299v-105h-169v-277h174z" />
    <glyph glyph-name="cid358" unicode="&#x3139;" 
d="M762 233v-107h-598v310h459v94h-460v104h585v-302h-459v-99h473z" />
    <glyph glyph-name="cid359" unicode="&#x313a;" 
d="M252 236q65 2 119 6.5t112 15.5l11 -105q-37 -8 -72.5 -12t-73 -6.5t-78 -3t-87.5 -0.5h-61v307h186v91h-188v105h318v-302h-186v-96zM791 634v-501h-129v396h-192v105h321z" />
    <glyph glyph-name="cid360" unicode="&#x313b;" 
d="M249 237q54 1 101 5t98 14l11 -105q-35 -7 -67.5 -11t-66.5 -6t-70.5 -2.5t-78.5 -0.5h-57v307h185v90h-187v106h316v-302h-184v-95zM699 530h-103v-292h103v292zM813 635v-502h-332v502h332z" />
    <glyph glyph-name="cid361" unicode="&#x313c;" 
d="M249 236q54 1 101 5.5t97 14.5l12 -105q-35 -7 -68 -11t-66.5 -6.5t-70.5 -3t-79 -0.5h-56v308h185v90h-187v106h316v-302h-184v-96zM690 383h-92v-146h92v146zM812 635v-505h-336v505h122v-145h92v145h122z" />
    <glyph glyph-name="cid362" unicode="&#x313d;" 
d="M699 475q0 -41 8 -79t26 -71.5t47.5 -60t72.5 -43.5l-68 -93q-54 23 -90.5 61t-57.5 88q-21 -50 -57.5 -88t-91.5 -61l-31 43l2 -18q-68 -14 -134 -18t-151 -4h-57v307h184v90h-186v106h316v-302h-184v-95q55 1 102 5.5t98 15.5l2 -23q70 38 98 102t28 138v163h124v-163z
" />
    <glyph glyph-name="cid363" unicode="&#x313e;" 
d="M249 238q56 1 103.5 5t96.5 15l13 -104q-68 -15 -134 -18.5t-152 -3.5h-57v306h185v90h-186v106h316v-302h-185v-94zM807 236v-105h-324v503h316v-105h-187v-92h177v-106h-177v-95h195z" />
    <glyph glyph-name="cid364" unicode="&#x313f;" 
d="M249 237q54 1 99.5 5.5t94.5 15.5l12 -106q-33 -7 -65 -11t-65.5 -6.5t-70 -3t-78.5 -0.5h-56v17h-1v290h176v90h-177v106h307v-302h-176v-95zM620 236h50v292h-50v-292zM830 236v-105h-368v105h44v292h-43v105h365v-105h-44v-292h46z" />
    <glyph glyph-name="cid365" unicode="&#x3140;" 
d="M256 226q51 1 95.5 5.5t92.5 13.5l12 -104q-33 -7 -64.5 -11t-64.5 -6.5t-68.5 -3t-76.5 -0.5h-55v310h159v93h-161v100h291v-293h-160v-104zM647 212q25 0 41 15.5t16 47.5t-16 47.5t-41 15.5t-41.5 -15.5t-16.5 -47.5t16.5 -47.5t41.5 -15.5zM647 439q35 0 66 -12.5
t53.5 -34t35.5 -51.5t13 -66t-13 -66t-35.5 -51.5t-53.5 -34t-66 -12.5t-66 12.5t-53.5 34t-35.5 51.5t-13 66t13 66t35.5 51.5t53.5 34t66 12.5zM837 568v-105h-380v105h132v81h127v-81h121z" />
    <glyph glyph-name="cid366" unicode="&#x3141;" 
d="M754 625v-487h-583v487h583zM301 519v-276h322v276h-322z" />
    <glyph glyph-name="cid367" unicode="&#x3142;" 
d="M302 634v-144h320v144h130v-509h-581v509h131zM302 240h320v134h-320v-134z" />
    <glyph glyph-name="cid368" unicode="&#x3143;" 
d="M256 632v-144h76v144h121v-500h-317v500h120zM256 239h76v142h-76v-142zM601 632v-143h77v143h120v-499h-316v499h119zM601 240h77v142h-77v-142z" />
    <glyph glyph-name="cid369" unicode="&#x3144;" 
d="M332 382h-76v-143h76v143zM708 470q0 -41 8.5 -79.5t27.5 -71.5t50.5 -59.5t76.5 -42.5l-67 -95q-59 23 -97 62t-61 90q-23 -51 -61 -90t-97 -62l-35 50v-40h-317v501h120v-144h76v144h121v-403q73 38 102 101.5t29 138.5v164h124v-164z" />
    <glyph glyph-name="cid370" unicode="&#x3145;" 
d="M528 507q0 -50 15.5 -95.5t48.5 -83t83.5 -65.5t121.5 -43l-62 -104q-100 23 -168 72.5t-105 119.5q-38 -70 -106 -119.5t-167 -72.5l-62 104q70 15 121 43t84 65.5t48.5 83t15.5 95.5v137h132v-137z" />
    <glyph glyph-name="cid371" unicode="&#x3146;" 
d="M706 550q0 -46 8.5 -90.5t28 -84t52 -72t81.5 -53.5l-72 -96q-63 29 -103.5 78t-63.5 112q-22 -65 -62 -117.5t-104 -84.5q-64 32 -103.5 85t-60.5 118q-23 -63 -63 -112.5t-103 -78.5l-73 95q49 22 81.5 55t52.5 73t28.5 84.5t8.5 88.5v65h132v-66q0 -69 22 -140.5
t79 -125.5q28 27 47.5 58.5t31.5 66t17 70.5t5 71v66h133v-65z" />
    <glyph glyph-name="cid372" unicode="&#x3147;" 
d="M461 643q60 0 113.5 -19.5t93.5 -54.5t63 -82.5t23 -104.5t-23 -105t-63 -83t-93.5 -54.5t-113.5 -19.5t-113.5 19.5t-93.5 54.5t-63 83t-23 105t23 104.5t63 82.5t93.5 54.5t113.5 19.5zM461 531q-35 0 -66 -10.5t-53.5 -30t-35.5 -47t-13 -61.5q0 -35 13 -62.5
t35.5 -47t53.5 -30t66 -10.5t65.5 10.5t53 30t35.5 47t13 62.5q0 34 -13 61.5t-35.5 47t-53 30t-65.5 10.5z" />
    <glyph glyph-name="cid373" unicode="&#x3148;" 
d="M529 510q0 -50 15 -96t46.5 -84t79.5 -66.5t115 -43.5l-61 -100q-97 25 -161.5 77t-99.5 125q-35 -73 -99.5 -125t-161.5 -77l-61 100q67 15 115 43.5t79.5 66.5t46.5 84t15 96v24h-225v105h587v-105h-230v-24z" />
    <glyph glyph-name="cid374" unicode="&#x3149;" 
d="M715 537q1 -48 10.5 -93.5t29.5 -86t52.5 -73.5t79.5 -55l-77 -102q-55 26 -92.5 67t-60.5 94q-25 -61 -69 -105t-116 -70q-72 26 -116.5 70t-69.5 106q-23 -54 -60.5 -95t-93.5 -67l-77 102q48 22 80 55t52.5 73t29.5 86t11 94h-121v105h345v-105h-94q1 -48 7 -90.5
t19 -78t34.5 -64t53.5 -48.5q63 40 87.5 112t26.5 169h-96v105h346v-105h-121z" />
    <glyph glyph-name="cid375" unicode="&#x314a;" 
d="M539 422q0 -41 14 -78.5t44 -68.5t77.5 -53.5t114.5 -34.5l-59 -103q-103 21 -170 68.5t-100 117.5q-33 -70 -100 -117.5t-170 -68.5l-58 103q67 12 114.5 34.5t77.5 53.5t43.5 68.5t13.5 78.5v9h-217v108h231v137h132v-137h231v-108h-219v-9z" />
    <glyph glyph-name="cid376" unicode="&#x314b;" 
d="M760 640v-516h-132v191l-453 -31l-15 113l468 19v119h-443v105h575z" />
    <glyph glyph-name="cid377" unicode="&#x314c;" 
d="M759 235v-105h-591v502h583v-105h-451v-90h443v-105h-443v-97h459z" />
    <glyph glyph-name="cid378" unicode="&#x314d;" 
d="M385 228h156v299h-156v-299zM775 228v-105h-625v105h103v299h-89v105h597v-105h-88v-299h102z" />
    <glyph glyph-name="cid379" unicode="&#x314e;" 
d="M464 177q45 0 76 17t31 52t-31 52t-76 17q-46 0 -76.5 -17t-30.5 -52t30.5 -52t76.5 -17zM464 426q52 0 96 -13.5t76.5 -37.5t50.5 -57t18 -72t-18 -72t-50.5 -57t-76.5 -37.5t-96 -13.5t-96.5 13.5t-76.5 37.5t-50.5 57t-18.5 72t18.5 72t50.5 57t76.5 37.5t96.5 13.5z
M766 580v-107h-607v107h239v114h132v-114h236z" />
    <glyph glyph-name="cid380" unicode="&#x314f;" 
d="M686 378h-188v-453h-133v911h133v-349h188v-109z" />
    <glyph glyph-name="cid381" unicode="&#x3150;" 
d="M652 836v-911h-125v459h-119v-425h-122v863h122v-330h119v344h125z" />
    <glyph glyph-name="cid382" unicode="&#x3151;" 
d="M475 496v-151h184v-109h-184v-311h-132v911h132v-231h184v-109h-184z" />
    <glyph glyph-name="cid383" unicode="&#x3152;" 
d="M520 361v155h-111v-155h111zM645 836v-912h-125v328h-111v-295h-123v867h123v-200h111v212h125z" />
    <glyph glyph-name="cid384" unicode="&#x3153;" 
d="M617 837v-913h-132v462h-193v109h193v342h132z" />
    <glyph glyph-name="cid385" unicode="&#x3154;" 
d="M361 819h123v-866h-123v431h-133v109h133v326zM683 836v-912h-126v912h126z" />
    <glyph glyph-name="cid386" unicode="&#x3155;" 
d="M620 836v-912h-132v323h-198v109h198v152h-198v109h198v219h132z" />
    <glyph glyph-name="cid387" unicode="&#x3156;" 
d="M362 820h123v-867h-123v298h-146v107h146v144h-142v108h142v210zM678 836v-912h-125v912h125z" />
    <glyph glyph-name="cid388" unicode="&#x3157;" 
d="M876 261v-107h-832v107h349v353h132v-353h351z" />
    <glyph glyph-name="cid389" unicode="&#x3158;" 
d="M388 249q54 3 105.5 7t101.5 10l11 -95q-69 -12 -142 -19.5t-145 -11t-140 -5t-128 -1.5l-13 107q101 0 220 3v310h130v-305zM887 373h-117v-449h-132v912h132v-354h117v-109z" />
    <glyph glyph-name="cid390" unicode="&#x3159;" 
d="M348 273q42 3 81 5.5t74 7.5l10 -95q-54 -10 -114 -16.5t-120 -10t-116 -4.5t-101 -1l-13 107q38 0 83.5 0.5t95.5 1.5v283h120v-278zM858 836v-911h-125v439h-67v-407h-123v866h123v-351h67v364h125z" />
    <glyph glyph-name="cid391" unicode="&#x315a;" 
d="M441 268q54 3 106 7t101 11l11 -96q-72 -12 -146 -19.5t-146 -11t-140.5 -4.5t-128.5 -1l-17 107h111t119 2v280h130v-275zM827 836v-912h-132v912h132z" />
    <glyph glyph-name="cid392" unicode="&#x315b;" 
d="M878 248v-107h-831v107h187v372h130v-372h197v372h130v-372h187z" />
    <glyph glyph-name="cid393" unicode="&#x315c;" 
d="M878 515h-350v-375h-132v375h-350v106h832v-106z" />
    <glyph glyph-name="cid394" unicode="&#x315d;" 
d="M661 380q-60 -10 -121 -16t-122 -11v-363h-132v356q-57 -2 -110 -3t-103 -1l-17 106q66 0 140 1t150.5 3.5t154 7.5t151.5 14zM849 836v-912h-132v244h-187v102h187v566h132z" />
    <glyph glyph-name="cid395" unicode="&#x315e;" 
d="M524 369q-38 -7 -81 -12t-87 -9v-360h-125v352q-46 -2 -88.5 -3.5t-79.5 -1.5l-12 100q48 0 106.5 1t120.5 3.5t123 7t114 11.5zM558 818h123v-865h-123v216h-138v103h138v546zM864 836v-911h-125v911h125z" />
    <glyph glyph-name="cid396" unicode="&#x315f;" 
d="M672 358q-56 -8 -113 -14t-114 -10v-342h-133v335q-59 -2 -114 -3t-107 -1l-16 105q66 0 139.5 1t149.5 3.5t152.5 7t148.5 12.5zM842 835v-910h-132v910h132z" />
    <glyph glyph-name="cid397" unicode="&#x3160;" 
d="M876 515h-197v-377h-132v377h-180v-377h-132v377h-191v107h832v-107z" />
    <glyph glyph-name="cid398" unicode="&#x3161;" 
d="M876 434v-107h-832v107h832z" />
    <glyph glyph-name="cid399" unicode="&#x3162;" 
d="M835 836v-912h-132v912h132zM68 302q66 0 138 0.5t147 2.5t150.5 7t146.5 13l7 -95q-74 -12 -148.5 -18.5t-148 -10t-144 -4.5t-134.5 -1z" />
    <glyph glyph-name="cid400" unicode="&#x3163;" 
d="M530 836v-911h-133v911h133z" />
    <glyph glyph-name="cid401" unicode="&#x318d;" 
d="M396 381q0 17 7 32.5t19 27.5t28 19.5t34 7.5t34 -7.5t27.5 -19.5t18.5 -27.5t7 -32.5q0 -36 -25.5 -62t-61.5 -26q-18 0 -34 7t-28 19t-19 28t-7 34z" />
    <glyph glyph-name="cid402" unicode="&#x318e;" 
d="M664 838v-917h-132v917h132zM265 387q0 17 7 33t19 28t28 19.5t34 7.5t34 -7.5t27.5 -19.5t18.5 -28t7 -33q0 -18 -7 -34t-18.5 -28t-27.5 -19t-34 -7t-34 7t-28 19t-19 28t-7 34z" />
    <glyph glyph-name="cid403" unicode="&#x3200;" horiz-adv-x="1000" 
d="M749 611v-509h-125v410h-404v99h529zM151 -90q-69 105 -96 219.5t-27 250.5q0 135 27 250t96 220l65 -16q-31 -52 -51 -105t-32 -109.5t-16.5 -116t-4.5 -123.5q-1 -128 20.5 -239.5t83.5 -214.5zM784 -74q31 52 51 107.5t32 113.5t16.5 116.5t4.5 116.5q0 64 -4.5 123.5
t-16.5 116t-32 109.5t-51 105l65 16q69 -105 96 -220t27 -250q0 -136 -27 -250.5t-96 -219.5z" />
    <glyph glyph-name="cid404" unicode="&#x3201;" horiz-adv-x="1000" 
d="M216 834q-31 -52 -51 -105t-32 -109.5t-16.5 -116t-4.5 -123.5q-1 -128 20.5 -239.5t83.5 -214.5l-65 -16q-69 105 -96 219.5t-27 250.5q0 135 27 250t96 220zM385 245h393v-99h-518v501h125v-402zM849 850q69 -105 96 -220t27 -250q0 -136 -27 -250.5t-96 -219.5l-65 16
q31 52 51 107.5t32 113.5t16.5 116.5t4.5 116.5q0 64 -4.5 123.5t-16.5 116t-32 109.5t-51 105z" />
    <glyph glyph-name="cid405" unicode="&#x3202;" horiz-adv-x="1000" 
d="M216 834q-31 -52 -51 -105t-32 -109.5t-16.5 -116t-4.5 -123.5q-1 -128 20.5 -239.5t83.5 -214.5l-65 -16q-69 105 -96 219.5t-27 250.5q0 135 27 250t96 220zM374 234h388v-98h-512v504h502v-99h-378v-307zM849 850q69 -105 96 -220t27 -250q0 -136 -27 -250.5
t-96 -219.5l-65 16q31 52 51 107.5t32 113.5t16.5 116.5t4.5 116.5q0 64 -4.5 123.5t-16.5 116t-32 109.5t-51 105z" />
    <glyph glyph-name="cid406" unicode="&#x3203;" horiz-adv-x="1000" 
d="M216 834q-31 -52 -51 -105t-32 -109.5t-16.5 -116t-4.5 -123.5q-1 -128 20.5 -239.5t83.5 -214.5l-65 -16q-69 105 -96 219.5t-27 250.5q0 135 27 250t96 220zM365 209h405v-102h-522v326h387v126h-388v93h504v-312h-386v-131zM849 850q69 -105 96 -220t27 -250
q0 -136 -27 -250.5t-96 -219.5l-65 16q31 52 51 107.5t32 113.5t16.5 116.5t4.5 116.5q0 64 -4.5 123.5t-16.5 116t-32 109.5t-51 105z" />
    <glyph glyph-name="cid407" unicode="&#x3204;" horiz-adv-x="1000" 
d="M758 620v-483h-506v483h506zM375 521v-285h260v285h-260zM151 -90q-69 105 -96 219.5t-27 250.5q0 135 27 250t96 220l65 -16q-31 -52 -51 -105t-32 -109.5t-16.5 -116t-4.5 -123.5q-1 -128 20.5 -239.5t83.5 -214.5zM784 -74q31 52 51 107.5t32 113.5t16.5 116.5
t4.5 116.5q0 64 -4.5 123.5t-16.5 116t-32 109.5t-51 105l65 16q69 -105 96 -220t27 -250q0 -136 -27 -250.5t-96 -219.5z" />
    <glyph glyph-name="cid408" unicode="&#x3205;" horiz-adv-x="1000" 
d="M371 649v-163h260v163h123v-530h-506v530h123zM371 229h260v148h-260v-148zM151 -90q-69 105 -96 219.5t-27 250.5q0 135 27 250t96 220l65 -16q-31 -52 -51 -105t-32 -109.5t-16.5 -116t-4.5 -123.5q-1 -128 20.5 -239.5t83.5 -214.5zM784 -74q31 52 51 107.5t32 113.5
t16.5 116.5t4.5 116.5q0 64 -4.5 123.5t-16.5 116t-32 109.5t-51 105l65 16q69 -105 96 -220t27 -250q0 -136 -27 -250.5t-96 -219.5z" />
    <glyph glyph-name="cid409" unicode="&#x3206;" horiz-adv-x="1000" 
d="M216 834q-31 -52 -51 -105t-32 -109.5t-16.5 -116t-4.5 -123.5q-1 -128 20.5 -239.5t83.5 -214.5l-65 -16q-69 105 -96 219.5t-27 250.5q0 135 27 250t96 220zM564 522q0 -46 15 -91.5t46 -85t79 -70t113 -47.5l-57 -99q-89 24 -151.5 73.5t-98.5 116.5q-37 -68 -99 -118
t-152 -74l-60 98q66 17 114 48.5t79.5 71t47 85.5t15.5 92v138h109v-138zM849 850q69 -105 96 -220t27 -250q0 -136 -27 -250.5t-96 -219.5l-65 16q31 52 51 107.5t32 113.5t16.5 116.5t4.5 116.5q0 64 -4.5 123.5t-16.5 116t-32 109.5t-51 105z" />
    <glyph glyph-name="cid410" unicode="&#x3207;" horiz-adv-x="1000" 
d="M502 632q57 0 106.5 -18.5t86.5 -51.5t58 -78t21 -99t-21 -99.5t-58 -79t-86.5 -52t-106.5 -18.5t-107 18.5t-86.5 52t-57.5 79t-21 99.5t21 99t57.5 78t86.5 51.5t107 18.5zM502 535q-36 0 -65.5 -11t-51.5 -30.5t-34 -47.5t-12 -61q0 -34 12 -61.5t34 -47.5t51.5 -31
t65.5 -11t65.5 11t51.5 31t34 47.5t12 61.5q0 33 -12 61t-34 47.5t-51.5 30.5t-65.5 11zM151 -90q-69 105 -96 219.5t-27 250.5q0 135 27 250t96 220l65 -16q-31 -52 -51 -105t-32 -109.5t-16.5 -116t-4.5 -123.5q-1 -128 20.5 -239.5t83.5 -214.5zM784 -74q31 52 51 107.5
t32 113.5t16.5 116.5t4.5 116.5q0 64 -4.5 123.5t-16.5 116t-32 109.5t-51 105l65 16q69 -105 96 -220t27 -250q0 -136 -27 -250.5t-96 -219.5z" />
    <glyph glyph-name="cid411" unicode="&#x3208;" horiz-adv-x="1000" 
d="M216 834q-31 -52 -51 -105t-32 -109.5t-16.5 -116t-4.5 -123.5q-1 -128 20.5 -239.5t83.5 -214.5l-65 -16q-69 105 -96 219.5t-27 250.5q0 135 27 250t96 220zM559 495q0 -43 15.5 -85t47 -78t79.5 -64t112 -43l-55 -94q-90 23 -153.5 70t-99.5 112q-36 -65 -98.5 -112
t-150.5 -70l-56 94q64 15 111 43.5t78 64.5t46.5 77.5t15.5 84.5v26h-211v99h531v-99h-212v-26zM849 850q69 -105 96 -220t27 -250q0 -136 -27 -250.5t-96 -219.5l-65 16q31 52 51 107.5t32 113.5t16.5 116.5t4.5 116.5q0 64 -4.5 123.5t-16.5 116t-32 109.5t-51 105z" />
    <glyph glyph-name="cid412" unicode="&#x3209;" horiz-adv-x="1000" 
d="M216 834q-31 -52 -51 -105t-32 -109.5t-16.5 -116t-4.5 -123.5q-1 -128 20.5 -239.5t83.5 -214.5l-65 -16q-69 105 -96 219.5t-27 250.5q0 135 27 250t96 220zM569 437q0 -39 13.5 -75.5t41 -67t71 -53.5t103.5 -35l-54 -91q-88 21 -147 64t-91 104q-32 -61 -93 -104.5
t-152 -64.5l-53 92q62 12 106.5 35t73.5 53.5t42.5 67t13.5 75.5v23h-206v101h206v134h125v-134h199v-101h-199v-23zM849 850q69 -105 96 -220t27 -250q0 -136 -27 -250.5t-96 -219.5l-65 16q31 52 51 107.5t32 113.5t16.5 116.5t4.5 116.5q0 64 -4.5 123.5t-16.5 116
t-32 109.5t-51 105z" />
    <glyph glyph-name="cid413" unicode="&#x320a;" horiz-adv-x="1000" 
d="M216 834q-31 -52 -51 -105t-32 -109.5t-16.5 -116t-4.5 -123.5q-1 -128 20.5 -239.5t83.5 -214.5l-65 -16q-69 105 -96 219.5t-27 250.5q0 135 27 250t96 220zM245 630h513v-517h-124v213l-402 -27l-14 105l416 17v110h-389v99zM849 850q69 -105 96 -220t27 -250
q0 -136 -27 -250.5t-96 -219.5l-65 16q31 52 51 107.5t32 113.5t16.5 116.5t4.5 116.5q0 64 -4.5 123.5t-16.5 116t-32 109.5t-51 105z" />
    <glyph glyph-name="cid414" unicode="&#x320b;" horiz-adv-x="1000" 
d="M216 834q-31 -52 -51 -105t-32 -109.5t-16.5 -116t-4.5 -123.5q-1 -128 20.5 -239.5t83.5 -214.5l-65 -16q-69 105 -96 219.5t-27 250.5q0 135 27 250t96 220zM369 236h399v-99h-512v488h499v-99h-386v-93h380v-99h-380v-98zM849 850q69 -105 96 -220t27 -250
q0 -136 -27 -250.5t-96 -219.5l-65 16q31 52 51 107.5t32 113.5t16.5 116.5t4.5 116.5q0 64 -4.5 123.5t-16.5 116t-32 109.5t-51 105z" />
    <glyph glyph-name="cid415" unicode="&#x320c;" horiz-adv-x="1000" 
d="M570 512h-121v-252h121v252zM325 512h-96v99h550v-99h-85v-252h107v-99h-595v99h119v252zM216 834q-31 -52 -51 -105t-32 -109.5t-16.5 -116t-4.5 -123.5q-1 -128 20.5 -239.5t83.5 -214.5l-65 -16q-69 105 -96 219.5t-27 250.5q0 135 27 250t96 220zM849 850
q69 -105 96 -220t27 -250q0 -136 -27 -250.5t-96 -219.5l-65 16q31 52 51 107.5t32 113.5t16.5 116.5t4.5 116.5q0 64 -4.5 123.5t-16.5 116t-32 109.5t-51 105z" />
    <glyph glyph-name="cid416" unicode="&#x320d;" horiz-adv-x="1000" 
d="M216 834q-31 -52 -51 -105t-32 -109.5t-16.5 -116t-4.5 -123.5q-1 -128 20.5 -239.5t83.5 -214.5l-65 -16q-69 105 -96 219.5t-27 250.5q0 135 27 250t96 220zM501 172q44 0 70 22.5t26 61.5t-26 60.5t-70 21.5q-43 0 -69.5 -21.5t-26.5 -60.5t26.5 -61.5t69.5 -22.5z
M501 438q45 0 84 -13.5t67.5 -37.5t44.5 -57.5t16 -73.5t-16 -73.5t-44.5 -58t-67.5 -38t-84 -13.5t-84 13.5t-67 38t-44 58t-16 73.5t16 73.5t44 57.5t67 37.5t84 13.5zM561 589h205v-103h-532v103h205v107h122v-107zM849 850q69 -105 96 -220t27 -250q0 -136 -27 -250.5
t-96 -219.5l-65 16q31 52 51 107.5t32 113.5t16.5 116.5t4.5 116.5q0 64 -4.5 123.5t-16.5 116t-32 109.5t-51 105z" />
    <glyph glyph-name="cid417" unicode="&#x320e;" horiz-adv-x="1000" 
d="M208 834q-31 -52 -51 -105t-31.5 -109.5t-16.5 -116t-5 -123.5q-1 -129 20.5 -240t83.5 -214l-57 -16q-69 105 -96 219.5t-27 250.5q0 135 27 250t96 220zM539 701q0 -94 -15.5 -178.5t-50.5 -159.5t-92 -140.5t-140 -121.5l-80 87q60 40 104 84.5t74.5 94.5t48 107
t23.5 122h-219v105h347zM754 359v-396h-131v824h131v-323h109v-105h-109zM849 850q69 -105 96 -220t27 -250q0 -136 -27 -250.5t-96 -219.5l-57 16q31 52 51 107.5t32 113.5t16.5 116.5t4.5 116.5q0 64 -4.5 123.5t-16.5 116t-32 109.5t-51 105z" />
    <glyph glyph-name="cid418" unicode="&#x320f;" horiz-adv-x="1000" 
d="M208 834q-31 -52 -51 -105t-31.5 -109.5t-16.5 -116t-5 -123.5q-1 -128 20.5 -239.5t83.5 -214.5l-57 -16q-69 105 -96 219.5t-27 250.5q0 135 27 250t96 220zM306 284q65 2 134 9t144 22l13 -110q-96 -20 -182.5 -26.5t-166.5 -6.5h-67v535h125v-423zM765 363v-400h-131
v824h131v-319h109v-105h-109zM849 850q69 -105 96 -220t27 -250q0 -136 -27 -250.5t-96 -219.5l-57 16q31 52 51 107.5t32 113.5t16.5 116.5t4.5 116.5q0 64 -4.5 123.5t-16.5 116t-32 109.5t-51 105z" />
    <glyph glyph-name="cid419" unicode="&#x3210;" horiz-adv-x="1000" 
d="M208 834q-31 -52 -51 -105t-31.5 -109.5t-16.5 -116t-5 -123.5q-1 -128 20.5 -239.5t83.5 -214.5l-57 -16q-69 105 -96 219.5t-27 250.5q0 135 27 250t96 220zM315 263q72 2 137.5 6.5t137.5 18.5l13 -113q-44 -8 -86 -13t-84 -7.5t-85.5 -3.5t-90.5 -1h-68v562h347v-105
h-221v-344zM774 362v-398h-130v825h130v-322h100v-105h-100zM849 850q69 -105 96 -220t27 -250q0 -136 -27 -250.5t-96 -219.5l-57 16q31 52 51 107.5t32 113.5t16.5 116.5t4.5 116.5q0 64 -4.5 123.5t-16.5 116t-32 109.5t-51 105z" />
    <glyph glyph-name="cid420" unicode="&#x3211;" horiz-adv-x="1000" 
d="M208 834q-31 -52 -51 -105t-31.5 -109.5t-16.5 -116t-5 -123.5q-1 -128 20.5 -239.5t83.5 -214.5l-57 -16q-69 105 -96 219.5t-27 250.5q0 135 27 250t96 220zM323 268q66 2 126.5 6.5t126.5 16.5l12 -110q-42 -8 -82 -13t-80 -7.5t-81.5 -3.5t-86.5 -1h-64v339h199v114
h-201v102h331v-318h-200v-125zM757 361v-398h-130v824h130v-321h104v-105h-104zM849 850q69 -105 96 -220t27 -250q0 -136 -27 -250.5t-96 -219.5l-57 16q31 52 51 107.5t32 113.5t16.5 116.5t4.5 116.5q0 64 -4.5 123.5t-16.5 116t-32 109.5t-51 105z" />
    <glyph glyph-name="cid421" unicode="&#x3212;" horiz-adv-x="1000" 
d="M208 834q-31 -52 -51 -105t-31.5 -109.5t-16.5 -116t-5 -123.5q-1 -128 20.5 -239.5t83.5 -214.5l-57 -16q-69 105 -96 219.5t-27 250.5q0 135 27 250t96 220zM303 274h98v331h-98v-331zM178 710h348v-541h-348v541zM756 360v-397h-131v824h131v-322h107v-105h-107z
M849 850q69 -105 96 -220t27 -250q0 -136 -27 -250.5t-96 -219.5l-57 16q31 52 51 107.5t32 113.5t16.5 116.5t4.5 116.5q0 64 -4.5 123.5t-16.5 116t-32 109.5t-51 105z" />
    <glyph glyph-name="cid422" unicode="&#x3213;" horiz-adv-x="1000" 
d="M208 834q-31 -52 -51 -105t-31.5 -109.5t-16.5 -116t-5 -123.5q-1 -128 20.5 -239.5t83.5 -214.5l-57 -16q-69 105 -96 219.5t-27 250.5q0 135 27 250t96 220zM426 432h-113v-170h113v170zM426 721h124v-569h-361v569h124v-179h113v179zM764 366v-403h-131v824h131v-316
h102v-105h-102zM849 850q69 -105 96 -220t27 -250q0 -136 -27 -250.5t-96 -219.5l-57 16q31 52 51 107.5t32 113.5t16.5 116.5t4.5 116.5q0 64 -4.5 123.5t-16.5 116t-32 109.5t-51 105z" />
    <glyph glyph-name="cid423" unicode="&#x3214;" horiz-adv-x="1000" 
d="M208 834q-31 -52 -51 -105t-31.5 -109.5t-16.5 -116t-5 -123.5q-1 -128 20.5 -239.5t83.5 -214.5l-57 -16q-69 105 -96 219.5t-27 250.5q0 135 27 250t96 220zM439 608q0 -62 8.5 -120t28.5 -108.5t52.5 -90.5t81.5 -66l-83 -96q-60 35 -97.5 90.5t-58.5 127.5
q-21 -72 -59 -127.5t-98 -90.5l-83 96q49 26 82 66t52.5 90.5t28 108.5t8.5 120v119h137v-119zM759 361v-398h-131v824h131v-321h103v-105h-103zM849 850q69 -105 96 -220t27 -250q0 -136 -27 -250.5t-96 -219.5l-57 16q31 52 51 107.5t32 113.5t16.5 116.5t4.5 116.5
q0 64 -4.5 123.5t-16.5 116t-32 109.5t-51 105z" />
    <glyph glyph-name="cid424" unicode="&#x3215;" horiz-adv-x="1000" 
d="M208 834q-31 -52 -51 -105t-31.5 -109.5t-16.5 -116t-5 -123.5q-1 -128 20.5 -239.5t83.5 -214.5l-57 -16q-69 105 -96 219.5t-27 250.5q0 135 27 250t96 220zM358 257q38 0 59 43.5t21 130.5q0 86 -21 129.5t-59 43.5q-37 0 -58 -43.5t-21 -129.5q0 -87 21 -130.5
t58 -43.5zM358 716q46 0 83 -20t63 -56.5t40 -89.5t14 -119t-14 -119t-40 -90t-63 -57t-83 -20t-83 20t-63 57t-40 90t-14 119t14 119t40 89.5t63 56.5t83 20zM761 359v-396h-130v824h130v-323h102v-105h-102zM849 850q69 -105 96 -220t27 -250q0 -136 -27 -250.5
t-96 -219.5l-57 16q31 52 51 107.5t32 113.5t16.5 116.5t4.5 116.5q0 64 -4.5 123.5t-16.5 116t-32 109.5t-51 105z" />
    <glyph glyph-name="cid425" unicode="&#x3216;" horiz-adv-x="1000" 
d="M208 834q-31 -52 -51 -105t-31.5 -109.5t-16.5 -116t-5 -123.5q-1 -129 20.5 -240t83.5 -214l-57 -16q-69 105 -96 219.5t-27 250.5q0 135 27 250t96 220zM441 600q0 -62 8 -120.5t27 -109.5t50.5 -91.5t79.5 -67.5l-79 -93q-60 37 -97 96t-57 135q-20 -76 -57.5 -135
t-97.5 -96l-79 93q48 27 79.5 67.5t50.5 91.5t27 109.5t8 120.5v9h-122v106h381v-106h-122v-9zM763 360v-397h-130v824h130v-322h102v-105h-102zM849 850q69 -105 96 -220t27 -250q0 -136 -27 -250.5t-96 -219.5l-57 16q31 52 51 107.5t32 113.5t16.5 116.5t4.5 116.5
q0 64 -4.5 123.5t-16.5 116t-32 109.5t-51 105z" />
    <glyph glyph-name="cid426" unicode="&#x3217;" horiz-adv-x="1000" 
d="M208 834q-31 -52 -51 -105t-31.5 -109.5t-16.5 -116t-5 -123.5q-1 -129 20.5 -240t83.5 -214l-57 -16q-69 105 -96 219.5t-27 250.5q0 135 27 250t96 220zM436 500q0 -48 9 -93t29.5 -83.5t52.5 -69t78 -49.5l-72 -95q-60 27 -99.5 72t-62.5 105q-23 -60 -63 -105
t-100 -72l-72 95q46 19 78.5 49.5t52.5 69t29.5 83.5t9.5 93v2h-141v105h140v128h129v-128h142v-105h-140v-2zM765 356v-393h-131v824h131v-326h100v-105h-100zM849 850q69 -105 96 -220t27 -250q0 -136 -27 -250.5t-96 -219.5l-57 16q31 52 51 107.5t32 113.5t16.5 116.5
t4.5 116.5q0 64 -4.5 123.5t-16.5 116t-32 109.5t-51 105z" />
    <glyph glyph-name="cid427" unicode="&#x3218;" horiz-adv-x="1000" 
d="M208 834q-31 -52 -51 -105t-31.5 -109.5t-16.5 -116t-5 -123.5q-1 -128 20.5 -239.5t83.5 -214.5l-57 -16q-69 105 -96 219.5t-27 250.5q0 135 27 250t96 220zM545 704q0 -96 -12 -182.5t-44 -164t-87.5 -146t-142.5 -128.5l-81 87q78 54 126 112t75 126l-187 -18
l-15 105l231 13q4 22 6.5 44.5t4.5 46.5h-217v105h343zM759 358v-395h-130v824h130v-324h102v-105h-102zM849 850q69 -105 96 -220t27 -250q0 -136 -27 -250.5t-96 -219.5l-57 16q31 52 51 107.5t32 113.5t16.5 116.5t4.5 116.5q0 64 -4.5 123.5t-16.5 116t-32 109.5
t-51 105z" />
    <glyph glyph-name="cid428" unicode="&#x3219;" horiz-adv-x="1000" 
d="M208 834q-31 -52 -51 -105t-31.5 -109.5t-16.5 -116t-5 -123.5q-1 -128 20.5 -239.5t83.5 -214.5l-57 -16q-69 105 -96 219.5t-27 250.5q0 135 27 250t96 220zM320 263q66 2 127 6t129 15l12 -111q-43 -7 -83.5 -11t-81 -6.5t-82 -3t-86.5 -0.5h-65v557h349v-106h-219
v-109h208v-106h-208v-125zM761 358v-395h-131v824h131v-324h107v-105h-107zM849 850q69 -105 96 -220t27 -250q0 -136 -27 -250.5t-96 -219.5l-57 16q31 52 51 107.5t32 113.5t16.5 116.5t4.5 116.5q0 64 -4.5 123.5t-16.5 116t-32 109.5t-51 105z" />
    <glyph glyph-name="cid429" unicode="&#x321a;" horiz-adv-x="1000" 
d="M208 834q-31 -52 -51 -105t-31.5 -109.5t-16.5 -116t-5 -123.5q-1 -129 20.5 -240t83.5 -214l-57 -16q-69 105 -96 219.5t-27 250.5q0 135 27 250t96 220zM347 242q17 1 35 1.5t36 1.5v361h-71v-364zM537 253q17 2 34 3.5t33 3.5l7 -92q-52 -10 -111.5 -16t-118 -9.5
t-113.5 -4.5t-98 -1l-13 103h71v366h-56v106h415v-106h-50v-353zM775 359v-396h-130v824h130v-323h90v-105h-90zM849 850q69 -105 96 -220t27 -250q0 -136 -27 -250.5t-96 -219.5l-57 16q31 52 51 107.5t32 113.5t16.5 116.5t4.5 116.5q0 64 -4.5 123.5t-16.5 116t-32 109.5
t-51 105z" />
    <glyph glyph-name="cid430" unicode="&#x321b;" horiz-adv-x="1000" 
d="M208 834q-31 -52 -51 -105t-31.5 -109.5t-16.5 -116t-5 -123.5q-1 -129 20.5 -240t83.5 -214l-57 -16q-69 105 -96 219.5t-27 250.5q0 135 27 250t96 220zM373 228q35 0 57 22t22 60q0 40 -22 61.5t-57 21.5t-57 -21.5t-22 -61.5q0 -38 22 -60t57 -22zM373 495
q42 0 77.5 -13.5t62 -38.5t41.5 -59t15 -74t-15 -73.5t-41.5 -58t-62 -38t-77.5 -13.5t-78 13.5t-62 38t-41 58t-15 73.5t15 74t41 59t62 38.5t78 13.5zM437 644h156v-105h-440v105h153v107h131v-107zM773 364v-401h-131v824h131v-323h95v-100h-95zM849 850q69 -105 96 -220
t27 -250q0 -136 -27 -250.5t-96 -219.5l-57 16q31 52 51 107.5t32 113.5t16.5 116.5t4.5 116.5q0 64 -4.5 123.5t-16.5 116t-32 109.5t-51 105z" />
    <glyph glyph-name="cid431" unicode="&#x321c;" horiz-adv-x="1000" 
d="M176 479q111 16 174 60t78 98h-201v107h548v-107h-200q14 -54 77 -98t175 -59l-52 -102q-99 15 -167.5 55t-106.5 97q-37 -57 -105.5 -97t-167.5 -55zM208 834q-31 -52 -51 -105t-31.5 -109.5t-16.5 -116t-5 -123.5q-1 -128 20.5 -239.5t83.5 -214.5l-57 -16
q-69 105 -96 219.5t-27 250.5q0 135 27 250t96 220zM565 229v-271h-129v271h-271v108h671v-108h-271zM849 850q69 -105 96 -220t27 -250q0 -136 -27 -250.5t-96 -219.5l-57 16q31 52 51 107.5t32 113.5t16.5 116.5t4.5 116.5q0 64 -4.5 123.5t-16.5 116t-32 109.5t-51 105z
" />
    <glyph glyph-name="cid432" unicode="&#x3260;" horiz-adv-x="1000" 
d="M724 584v-465h-125v367h-356v98h481zM972 380q0 -98 -37 -183.5t-101.5 -150t-150.5 -101.5t-183 -37q-98 0 -183.5 37t-150 101.5t-101.5 150t-37 183.5q0 97 37 183t101.5 150.5t150 101.5t183.5 37q97 0 183 -37t150.5 -101.5t101.5 -150.5t37 -183zM500 815
q-90 0 -169 -34t-138.5 -93.5t-93.5 -138.5t-34 -169t34 -169t93.5 -138.5t138.5 -93.5t169 -34t169 34t138.5 93.5t93.5 138.5t34 169t-34 169t-93.5 138.5t-138.5 93.5t-169 34z" />
    <glyph glyph-name="cid433" unicode="&#x3261;" horiz-adv-x="1000" 
d="M415 268h347v-99h-472v449h125v-350zM500 -55q90 0 169 34t138.5 93.5t93.5 138.5t34 169t-34 169t-93.5 138.5t-138.5 93.5t-169 34t-169 -34t-138.5 -93.5t-93.5 -138.5t-34 -169t34 -169t93.5 -138.5t138.5 -93.5t169 -34zM500 852q97 0 183 -37t150.5 -101.5
t101.5 -150.5t37 -183q0 -98 -37 -183.5t-101.5 -150t-150.5 -101.5t-183 -37q-98 0 -183.5 37t-150 101.5t-101.5 150t-37 183.5q0 97 37 183t101.5 150.5t150 101.5t183.5 37z" />
    <glyph glyph-name="cid434" unicode="&#x3262;" horiz-adv-x="1000" 
d="M396 236h341v-99h-465v464h456v-98h-332v-267zM500 -55q90 0 169 34t138.5 93.5t93.5 138.5t34 169t-34 169t-93.5 138.5t-138.5 93.5t-169 34t-169 -34t-138.5 -93.5t-93.5 -138.5t-34 -169t34 -169t93.5 -138.5t138.5 -93.5t169 -34zM500 852q97 0 183 -37
t150.5 -101.5t101.5 -150.5t37 -183q0 -98 -37 -183.5t-101.5 -150t-150.5 -101.5t-183 -37q-98 0 -183.5 37t-150 101.5t-101.5 150t-37 183.5q0 97 37 183t101.5 150.5t150 101.5t183.5 37z" />
    <glyph glyph-name="cid435" unicode="&#x3263;" horiz-adv-x="1000" 
d="M388 225h360v-101h-477v305h346v114h-347v86h463v-293h-345v-111zM500 -55q90 0 169 34t138.5 93.5t93.5 138.5t34 169t-34 169t-93.5 138.5t-138.5 93.5t-169 34t-169 -34t-138.5 -93.5t-93.5 -138.5t-34 -169t34 -169t93.5 -138.5t138.5 -93.5t169 -34zM500 852
q97 0 183 -37t150.5 -101.5t101.5 -150.5t37 -183q0 -98 -37 -183.5t-101.5 -150t-150.5 -101.5t-183 -37q-98 0 -183.5 37t-150 101.5t-101.5 150t-37 183.5q0 97 37 183t101.5 150.5t150 101.5t183.5 37z" />
    <glyph glyph-name="cid436" unicode="&#x3264;" horiz-adv-x="1000" 
d="M729 578v-437h-460v437h460zM392 479v-239h214v239h-214zM972 380q0 -98 -37 -183.5t-101.5 -150t-150.5 -101.5t-183 -37q-98 0 -183.5 37t-150 101.5t-101.5 150t-37 183.5q0 97 37 183t101.5 150.5t150 101.5t183.5 37q97 0 183 -37t150.5 -101.5t101.5 -150.5
t37 -183zM500 815q-90 0 -169 -34t-138.5 -93.5t-93.5 -138.5t-34 -169t34 -169t93.5 -138.5t138.5 -93.5t169 -34t169 34t138.5 93.5t93.5 138.5t34 169t-34 169t-93.5 138.5t-138.5 93.5t-169 34z" />
    <glyph glyph-name="cid437" unicode="&#x3265;" horiz-adv-x="1000" 
d="M391 604v-147h215v147h123v-481h-461v481h123zM391 216h215v148h-215v-148zM972 380q0 -98 -37 -183.5t-101.5 -150t-150.5 -101.5t-183 -37q-98 0 -183.5 37t-150 101.5t-101.5 150t-37 183.5q0 97 37 183t101.5 150.5t150 101.5t183.5 37q97 0 183 -37t150.5 -101.5
t101.5 -150.5t37 -183zM500 815q-90 0 -169 -34t-138.5 -93.5t-93.5 -138.5t-34 -169t34 -169t93.5 -138.5t138.5 -93.5t169 -34t169 34t138.5 93.5t93.5 138.5t34 169t-34 169t-93.5 138.5t-138.5 93.5t-169 34z" />
    <glyph glyph-name="cid438" unicode="&#x3266;" horiz-adv-x="1000" 
d="M549 514q0 -42 14.5 -84t44 -79t74.5 -66.5t105 -46.5l-58 -90q-81 23 -139 70t-92 109q-33 -63 -89.5 -110t-137.5 -71l-59 92q60 16 104.5 46t74 67.5t43.5 79.5t14 84v113h101v-114zM500 -55q90 0 169 34t138.5 93.5t93.5 138.5t34 169t-34 169t-93.5 138.5
t-138.5 93.5t-169 34t-169 -34t-138.5 -93.5t-93.5 -138.5t-34 -169t34 -169t93.5 -138.5t138.5 -93.5t169 -34zM500 852q97 0 183 -37t150.5 -101.5t101.5 -150.5t37 -183q0 -98 -37 -183.5t-101.5 -150t-150.5 -101.5t-183 -37q-98 0 -183.5 37t-150 101.5t-101.5 150
t-37 183.5q0 97 37 183t101.5 150.5t150 101.5t183.5 37z" />
    <glyph glyph-name="cid439" unicode="&#x3267;" horiz-adv-x="1000" 
d="M500 589q52 0 97 -17t78 -47t52 -71.5t19 -90.5t-19 -90.5t-52 -71.5t-78 -46.5t-97 -16.5q-53 0 -98 16.5t-78 46.5t-52 71.5t-19 90.5t19 90.5t52 71.5t78 47t98 17zM500 501q-33 0 -60 -10t-46.5 -28t-30 -43.5t-10.5 -56.5q0 -61 40.5 -98.5t106.5 -37.5t106 37.5
t40 98.5q0 62 -40 100t-106 38zM972 380q0 -98 -37 -183.5t-101.5 -150t-150.5 -101.5t-183 -37q-98 0 -183.5 37t-150 101.5t-101.5 150t-37 183.5q0 97 37 183t101.5 150.5t150 101.5t183.5 37q97 0 183 -37t150.5 -101.5t101.5 -150.5t37 -183zM500 815q-90 0 -169 -34
t-138.5 -93.5t-93.5 -138.5t-34 -169t34 -169t93.5 -138.5t138.5 -93.5t169 -34t169 34t138.5 93.5t93.5 138.5t34 169t-34 169t-93.5 138.5t-138.5 93.5t-169 34z" />
    <glyph glyph-name="cid440" unicode="&#x3268;" horiz-adv-x="1000" 
d="M548 486q1 -39 15.5 -75.5t42.5 -67.5t70.5 -54.5t100.5 -36.5l-54 -89q-80 21 -136 61.5t-88 96.5q-32 -56 -88 -96.5t-137 -61.5l-53 89q58 13 100 36.5t70 54.5t42 67.5t16 75.5h-191v99h480v-99h-190zM500 -55q90 0 169 34t138.5 93.5t93.5 138.5t34 169t-34 169
t-93.5 138.5t-138.5 93.5t-169 34t-169 -34t-138.5 -93.5t-93.5 -138.5t-34 -169t34 -169t93.5 -138.5t138.5 -93.5t169 -34zM500 852q97 0 183 -37t150.5 -101.5t101.5 -150.5t37 -183q0 -98 -37 -183.5t-101.5 -150t-150.5 -101.5t-183 -37q-98 0 -183.5 37t-150 101.5
t-101.5 150t-37 183.5q0 97 37 183t101.5 150.5t150 101.5t183.5 37z" />
    <glyph glyph-name="cid441" unicode="&#x3269;" horiz-adv-x="1000" 
d="M564 426q1 -32 14.5 -61t39.5 -54t65.5 -43.5t93.5 -28.5l-51 -90q-81 18 -135.5 54.5t-84.5 87.5q-31 -51 -85.5 -87.5t-135.5 -54.5l-51 90q54 10 93.5 28.5t65.5 43.5t39 54t15 61h-183v99h182v117h118v-117h184v-99h-184zM500 -55q90 0 169 34t138.5 93.5t93.5 138.5
t34 169t-34 169t-93.5 138.5t-138.5 93.5t-169 34t-169 -34t-138.5 -93.5t-93.5 -138.5t-34 -169t34 -169t93.5 -138.5t138.5 -93.5t169 -34zM500 852q97 0 183 -37t150.5 -101.5t101.5 -150.5t37 -183q0 -98 -37 -183.5t-101.5 -150t-150.5 -101.5t-183 -37
q-98 0 -183.5 37t-150 101.5t-101.5 150t-37 183.5q0 97 37 183t101.5 150.5t150 101.5t183.5 37z" />
    <glyph glyph-name="cid442" unicode="&#x326a;" horiz-adv-x="1000" 
d="M262 586h466v-469h-113v194l-354 -25l-14 103l368 15v90h-353v92zM500 -55q90 0 169 34t138.5 93.5t93.5 138.5t34 169t-34 169t-93.5 138.5t-138.5 93.5t-169 34t-169 -34t-138.5 -93.5t-93.5 -138.5t-34 -169t34 -169t93.5 -138.5t138.5 -93.5t169 -34zM500 852
q97 0 183 -37t150.5 -101.5t101.5 -150.5t37 -183q0 -98 -37 -183.5t-101.5 -150t-150.5 -101.5t-183 -37q-98 0 -183.5 37t-150 101.5t-101.5 150t-37 183.5q0 97 37 183t101.5 150.5t150 101.5t183.5 37z" />
    <glyph glyph-name="cid443" unicode="&#x326b;" horiz-adv-x="1000" 
d="M388 242h352v-98h-477v442h469v-99h-344v-73h336v-99h-336v-73zM500 -55q90 0 169 34t138.5 93.5t93.5 138.5t34 169t-34 169t-93.5 138.5t-138.5 93.5t-169 34t-169 -34t-138.5 -93.5t-93.5 -138.5t-34 -169t34 -169t93.5 -138.5t138.5 -93.5t169 -34zM500 852
q97 0 183 -37t150.5 -101.5t101.5 -150.5t37 -183q0 -98 -37 -183.5t-101.5 -150t-150.5 -101.5t-183 -37q-98 0 -183.5 37t-150 101.5t-101.5 150t-37 183.5q0 97 37 183t101.5 150.5t150 101.5t183.5 37z" />
    <glyph glyph-name="cid444" unicode="&#x326c;" horiz-adv-x="1000" 
d="M435 260h133v210h-133v-210zM681 260h89v-99h-542v99h94v210h-75v99h503v-99h-69v-210zM500 -55q90 0 169 34t138.5 93.5t93.5 138.5t34 169t-34 169t-93.5 138.5t-138.5 93.5t-169 34t-169 -34t-138.5 -93.5t-93.5 -138.5t-34 -169t34 -169t93.5 -138.5t138.5 -93.5
t169 -34zM500 852q97 0 183 -37t150.5 -101.5t101.5 -150.5t37 -183q0 -98 -37 -183.5t-101.5 -150t-150.5 -101.5t-183 -37q-98 0 -183.5 37t-150 101.5t-101.5 150t-37 183.5q0 97 37 183t101.5 150.5t150 101.5t183.5 37z" />
    <glyph glyph-name="cid445" unicode="&#x326d;" horiz-adv-x="1000" 
d="M498 165q39 0 63 22t24 60q0 37 -24 59t-63 22q-38 0 -62 -22t-24 -59q0 -38 24 -60t62 -22zM498 414q41 0 76 -12.5t61 -34.5t40.5 -53t14.5 -67q0 -37 -14.5 -67.5t-40.5 -53t-61 -35t-76 -12.5t-76 12.5t-60.5 35t-40 53t-14.5 67.5q0 36 14.5 67t40 53t60.5 34.5
t76 12.5zM558 542h193v-95h-508v95h195v91h120v-91zM500 -55q90 0 169 34t138.5 93.5t93.5 138.5t34 169t-34 169t-93.5 138.5t-138.5 93.5t-169 34t-169 -34t-138.5 -93.5t-93.5 -138.5t-34 -169t34 -169t93.5 -138.5t138.5 -93.5t169 -34zM500 852q97 0 183 -37
t150.5 -101.5t101.5 -150.5t37 -183q0 -98 -37 -183.5t-101.5 -150t-150.5 -101.5t-183 -37q-98 0 -183.5 37t-150 101.5t-101.5 150t-37 183.5q0 97 37 183t101.5 150.5t150 101.5t183.5 37z" />
    <glyph glyph-name="cid446" unicode="&#x326e;" horiz-adv-x="1000" 
d="M512 653q0 -172 -68.5 -297t-224.5 -213l-75 89q112 60 168.5 136.5t70.5 179.5h-187v105h316zM836 464v-105h-111v-335h-130v715h130v-275h111zM500 -55q90 0 169 34t138.5 93.5t93.5 138.5t34 169t-34 169t-93.5 138.5t-138.5 93.5t-169 34t-169 -34t-138.5 -93.5
t-93.5 -138.5t-34 -169t34 -169t93.5 -138.5t138.5 -93.5t169 -34zM500 852q97 0 183 -37t150.5 -101.5t101.5 -150.5t37 -183q0 -98 -37 -183.5t-101.5 -150t-150.5 -101.5t-183 -37q-98 0 -183.5 37t-150 101.5t-101.5 150t-37 183.5q0 97 37 183t101.5 150.5t150 101.5
t183.5 37z" />
    <glyph glyph-name="cid447" unicode="&#x326f;" horiz-adv-x="1000" 
d="M297 285q60 2 123.5 8.5t133.5 20.5l13 -110q-92 -20 -174 -26t-157 -6h-65v472h126v-359zM844 464v-105h-109v-335h-130v715h130v-275h109zM500 -55q90 0 169 34t138.5 93.5t93.5 138.5t34 169t-34 169t-93.5 138.5t-138.5 93.5t-169 34t-169 -34t-138.5 -93.5
t-93.5 -138.5t-34 -169t34 -169t93.5 -138.5t138.5 -93.5t169 -34zM500 852q97 0 183 -37t150.5 -101.5t101.5 -150.5t37 -183q0 -98 -37 -183.5t-101.5 -150t-150.5 -101.5t-183 -37q-98 0 -183.5 37t-150 101.5t-101.5 150t-37 183.5q0 97 37 183t101.5 150.5t150 101.5
t183.5 37z" />
    <glyph glyph-name="cid448" unicode="&#x3270;" horiz-adv-x="1000" 
d="M309 286q63 2 121 6.5t121 15.5l12 -112q-41 -8 -79.5 -12.5t-77 -7t-78 -3t-82.5 -0.5h-63v487h327v-105h-201v-269zM836 457v-105h-105v-328h-129v715h129v-282h105zM500 -55q90 0 169 34t138.5 93.5t93.5 138.5t34 169t-34 169t-93.5 138.5t-138.5 93.5t-169 34
t-169 -34t-138.5 -93.5t-93.5 -138.5t-34 -169t34 -169t93.5 -138.5t138.5 -93.5t169 -34zM500 852q97 0 183 -37t150.5 -101.5t101.5 -150.5t37 -183q0 -98 -37 -183.5t-101.5 -150t-150.5 -101.5t-183 -37q-98 0 -183.5 37t-150 101.5t-101.5 150t-37 183.5q0 97 37 183
t101.5 150.5t150 101.5t183.5 37z" />
    <glyph glyph-name="cid449" unicode="&#x3271;" horiz-adv-x="1000" 
d="M303 272q64 2 123 6.5t124 16.5l11 -108q-41 -8 -80.5 -12.5t-78.5 -7t-80 -3.5t-85 -1h-63v306h194v89h-196v97h326v-283h-195v-100zM836 464v-105h-104v-335h-129v715h129v-275h104zM500 -55q90 0 169 34t138.5 93.5t93.5 138.5t34 169t-34 169t-93.5 138.5
t-138.5 93.5t-169 34t-169 -34t-138.5 -93.5t-93.5 -138.5t-34 -169t34 -169t93.5 -138.5t138.5 -93.5t169 -34zM500 852q97 0 183 -37t150.5 -101.5t101.5 -150.5t37 -183q0 -98 -37 -183.5t-101.5 -150t-150.5 -101.5t-183 -37q-98 0 -183.5 37t-150 101.5t-101.5 150
t-37 183.5q0 97 37 183t101.5 150.5t150 101.5t183.5 37z" />
    <glyph glyph-name="cid450" unicode="&#x3272;" horiz-adv-x="1000" 
d="M298 286h100v274h-100v-274zM178 660h340v-473h-340v473zM841 464v-105h-109v-335h-129v715h129v-275h109zM500 -55q90 0 169 34t138.5 93.5t93.5 138.5t34 169t-34 169t-93.5 138.5t-138.5 93.5t-169 34t-169 -34t-138.5 -93.5t-93.5 -138.5t-34 -169t34 -169
t93.5 -138.5t138.5 -93.5t169 -34zM500 852q97 0 183 -37t150.5 -101.5t101.5 -150.5t37 -183q0 -98 -37 -183.5t-101.5 -150t-150.5 -101.5t-183 -37q-98 0 -183.5 37t-150 101.5t-101.5 150t-37 183.5q0 97 37 183t101.5 150.5t150 101.5t183.5 37z" />
    <glyph glyph-name="cid451" unicode="&#x3273;" horiz-adv-x="1000" 
d="M403 419h-101v-138h101v138zM403 673h119v-503h-339v503h119v-144h101v144zM836 464v-105h-103v-335h-129v715h129v-275h103zM500 -55q90 0 169 34t138.5 93.5t93.5 138.5t34 169t-34 169t-93.5 138.5t-138.5 93.5t-169 34t-169 -34t-138.5 -93.5t-93.5 -138.5t-34 -169
t34 -169t93.5 -138.5t138.5 -93.5t169 -34zM500 852q97 0 183 -37t150.5 -101.5t101.5 -150.5t37 -183q0 -98 -37 -183.5t-101.5 -150t-150.5 -101.5t-183 -37q-98 0 -183.5 37t-150 101.5t-101.5 150t-37 183.5q0 97 37 183t101.5 150.5t150 101.5t183.5 37z" />
    <glyph glyph-name="cid452" unicode="&#x3274;" horiz-adv-x="1000" 
d="M403 646q0 -62 8 -120t27.5 -108t52 -90.5t81.5 -66.5l-81 -93q-57 34 -94 87.5t-58 122.5q-21 -69 -58 -122.5t-94 -87.5l-81 93q49 26 81.5 66.5t52 90.5t27.5 108t8 120v45h128v-45zM836 464v-105h-111v-335h-130v715h130v-275h111zM500 -55q90 0 169 34t138.5 93.5
t93.5 138.5t34 169t-34 169t-93.5 138.5t-138.5 93.5t-169 34t-169 -34t-138.5 -93.5t-93.5 -138.5t-34 -169t34 -169t93.5 -138.5t138.5 -93.5t169 -34zM500 852q97 0 183 -37t150.5 -101.5t101.5 -150.5t37 -183q0 -98 -37 -183.5t-101.5 -150t-150.5 -101.5t-183 -37
q-98 0 -183.5 37t-150 101.5t-101.5 150t-37 183.5q0 97 37 183t101.5 150.5t150 101.5t183.5 37z" />
    <glyph glyph-name="cid453" unicode="&#x3275;" horiz-adv-x="1000" 
d="M339 267q67 0 67 150t-67 150q-68 0 -68 -150t68 -150zM339 677q42 0 76 -18t58 -51.5t37 -82t13 -108.5t-13 -108.5t-37 -82t-58 -51.5t-76 -18q-86 0 -135 69.5t-49 190.5t49 190.5t135 69.5zM834 471v-105h-110v-342h-129v715h129v-268h110zM500 -55q90 0 169 34
t138.5 93.5t93.5 138.5t34 169t-34 169t-93.5 138.5t-138.5 93.5t-169 34t-169 -34t-138.5 -93.5t-93.5 -138.5t-34 -169t34 -169t93.5 -138.5t138.5 -93.5t169 -34zM500 852q97 0 183 -37t150.5 -101.5t101.5 -150.5t37 -183q0 -98 -37 -183.5t-101.5 -150t-150.5 -101.5
t-183 -37q-98 0 -183.5 37t-150 101.5t-101.5 150t-37 183.5q0 97 37 183t101.5 150.5t150 101.5t183.5 37z" />
    <glyph glyph-name="cid454" unicode="&#x3276;" horiz-adv-x="1000" 
d="M416 533q0 -42 8.5 -82.5t27.5 -75t49 -62.5t73 -45l-67 -91q-57 25 -94.5 67t-58.5 97q-21 -55 -58.5 -97t-94.5 -67l-67 91q43 17 73 45t49 62.5t27.5 75t8.5 82.5v14h-117v106h359v-106h-118v-14zM836 464v-105h-107v-335h-129v715h129v-275h107zM500 -55q90 0 169 34
t138.5 93.5t93.5 138.5t34 169t-34 169t-93.5 138.5t-138.5 93.5t-169 34t-169 -34t-138.5 -93.5t-93.5 -138.5t-34 -169t34 -169t93.5 -138.5t138.5 -93.5t169 -34zM500 852q97 0 183 -37t150.5 -101.5t101.5 -150.5t37 -183q0 -98 -37 -183.5t-101.5 -150t-150.5 -101.5
t-183 -37q-98 0 -183.5 37t-150 101.5t-101.5 150t-37 183.5q0 97 37 183t101.5 150.5t150 101.5t183.5 37z" />
    <glyph glyph-name="cid455" unicode="&#x3277;" horiz-adv-x="1000" 
d="M417 492q1 -39 10 -75t28 -66.5t48.5 -55t71.5 -39.5l-67 -95q-58 23 -96 62.5t-59 90.5q-22 -51 -60 -90.5t-96 -62.5l-67 95q42 15 71.5 39.5t48.5 55t28 66.5t10 75h-127v105h126v99h131v-99h120v-105h-121zM838 464v-105h-104v-335h-129v715h129v-275h104zM500 -55
q90 0 169 34t138.5 93.5t93.5 138.5t34 169t-34 169t-93.5 138.5t-138.5 93.5t-169 34t-169 -34t-138.5 -93.5t-93.5 -138.5t-34 -169t34 -169t93.5 -138.5t138.5 -93.5t169 -34zM500 852q97 0 183 -37t150.5 -101.5t101.5 -150.5t37 -183q0 -98 -37 -183.5t-101.5 -150
t-150.5 -101.5t-183 -37q-98 0 -183.5 37t-150 101.5t-101.5 150t-37 183.5q0 97 37 183t101.5 150.5t150 101.5t183.5 37z" />
    <glyph glyph-name="cid456" unicode="&#x3278;" horiz-adv-x="1000" 
d="M522 656q0 -89 -14 -166t-48 -143t-91 -122t-143 -104l-80 82q73 38 121 81t77 93l-179 -17l-16 105l234 13q8 35 12 73h-199v105h326zM838 451v-105h-106v-322h-129v715h129v-288h106zM500 -55q90 0 169 34t138.5 93.5t93.5 138.5t34 169t-34 169t-93.5 138.5
t-138.5 93.5t-169 34t-169 -34t-138.5 -93.5t-93.5 -138.5t-34 -169t34 -169t93.5 -138.5t138.5 -93.5t169 -34zM500 852q97 0 183 -37t150.5 -101.5t101.5 -150.5t37 -183q0 -98 -37 -183.5t-101.5 -150t-150.5 -101.5t-183 -37q-98 0 -183.5 37t-150 101.5t-101.5 150
t-37 183.5q0 97 37 183t101.5 150.5t150 101.5t183.5 37z" />
    <glyph glyph-name="cid457" unicode="&#x3279;" horiz-adv-x="1000" 
d="M307 283q62 2 119.5 5.5t121.5 14.5l12 -110q-83 -14 -158 -17.5t-161 -3.5h-64v496h336v-106h-206v-82h186v-103h-186v-94zM836 464v-105h-104v-335h-129v715h129v-275h104zM500 -55q90 0 169 34t138.5 93.5t93.5 138.5t34 169t-34 169t-93.5 138.5t-138.5 93.5t-169 34
t-169 -34t-138.5 -93.5t-93.5 -138.5t-34 -169t34 -169t93.5 -138.5t138.5 -93.5t169 -34zM500 852q97 0 183 -37t150.5 -101.5t101.5 -150.5t37 -183q0 -98 -37 -183.5t-101.5 -150t-150.5 -101.5t-183 -37q-98 0 -183.5 37t-150 101.5t-101.5 150t-37 183.5q0 97 37 183
t101.5 150.5t150 101.5t183.5 37z" />
    <glyph glyph-name="cid458" unicode="&#x327a;" horiz-adv-x="1000" 
d="M838 464v-105h-99v-335h-129v715h129v-275h99zM327 270l63 3v278h-63v-281zM161 652q-45 -56 -70.5 -125t-25.5 -147q0 -90 34 -169t93.5 -138.5t138.5 -93.5t169 -34t169 34t138.5 93.5t93.5 138.5t34 169t-34 169t-93.5 138.5t-138.5 93.5t-169 34q-102 0 -189 -43
t-147 -116h392v-105h-53v-271q18 2 35.5 3.5t33.5 3.5l7 -91q-51 -10 -108.5 -16t-115.5 -9.5t-111 -5t-95 -1.5l-12 104h77v283h-53v101zM500 852q97 0 183 -37t150.5 -101.5t101.5 -150.5t37 -183q0 -98 -37 -183.5t-101.5 -150t-150.5 -101.5t-183 -37q-98 0 -183.5 37
t-150 101.5t-101.5 150t-37 183.5q0 97 37 183t101.5 150.5t150 101.5t183.5 37z" />
    <glyph glyph-name="cid459" unicode="&#x327b;" horiz-adv-x="1000" 
d="M348 232q29 0 48.5 18t19.5 51t-19.5 51t-48.5 18q-30 0 -49.5 -18t-19.5 -51t19.5 -51t49.5 -18zM348 467q38 0 71 -12.5t57.5 -34.5t38.5 -52.5t14 -66.5t-14 -66.5t-38.5 -52.5t-57.5 -34.5t-71 -12.5q-39 0 -72 12.5t-57 34.5t-38 52.5t-14 66.5t14 66.5t38 52.5
t57 34.5t72 12.5zM412 605h144v-106h-416v106h143v98h129v-98zM838 464v-105h-103v-335h-130v715h130v-275h103zM500 -55q90 0 169 34t138.5 93.5t93.5 138.5t34 169t-34 169t-93.5 138.5t-138.5 93.5t-169 34t-169 -34t-138.5 -93.5t-93.5 -138.5t-34 -169t34 -169
t93.5 -138.5t138.5 -93.5t169 -34zM500 852q97 0 183 -37t150.5 -101.5t101.5 -150.5t37 -183q0 -98 -37 -183.5t-101.5 -150t-150.5 -101.5t-183 -37q-98 0 -183.5 37t-150 101.5t-101.5 150t-37 183.5q0 97 37 183t101.5 150.5t150 101.5t183.5 37z" />
    <glyph glyph-name="cid460" unicode="&#x327f;" horiz-adv-x="1000" 
d="M28 380q0 97 37 183t101.5 150.5t150 101.5t183.5 37q88 0 166.5 -30.5t140.5 -83.5t103 -125.5t55 -156.5h-38q-13 76 -51.5 142t-95 114t-128.5 75.5t-152 27.5q-88 0 -165.5 -32.5t-136 -89t-94 -132t-39.5 -161.5h160v-40h-197v20zM293 647h130v-207h3l165 207h140
l-168 -211l196 -314h-138l-133 225l-65 -72v-153h-130v525zM500 -92q-88 0 -167 30.5t-141 83.5t-103.5 126t-54.5 157h38q13 -77 51.5 -143t95.5 -114t129 -75.5t152 -27.5q87 0 164.5 32.5t136 89t94 132t39.5 162.5h-224v39h262v-20q0 -98 -37.5 -184t-102 -150
t-150 -101t-182.5 -37z" />
    <glyph glyph-name="cid461" unicode="&#x33c2;" horiz-adv-x="1000" 
d="M179 -12q-66 0 -103.5 42.5t-37.5 114.5q0 93 71 143.5t198 70.5q-1 45 -21.5 72t-53.5 27q-29 0 -56.5 -12t-68.5 -35l-54 97q52 31 103 48.5t105 17.5q87 0 139.5 -58t52.5 -173v-343h-118l-12 64h-4q-58 -76 -140 -76zM229 101q22 0 42.5 14.5t35.5 36.5v118
q-73 -15 -100.5 -41t-27.5 -68q0 -33 14.5 -46.5t35.5 -13.5zM517 562h97l11 -70h4q11 36 33.5 59t63.5 23q31 0 51 -23.5t25 -66.5q8 39 32 64.5t59 25.5q45 0 70 -39.5t25 -111.5v-423h-122v397q0 53 -29 53q-15 0 -23 -14t-13 -40v-396h-98v397q0 53 -27 53
q-28 0 -37 -54v-396h-122v562z" />
    <glyph glyph-name="cid462" unicode="&#x33c7;" horiz-adv-x="1000" 
d="M274 -12q-47 0 -89 21t-74.5 66.5t-51.5 117.5t-19 174t19 175.5t51.5 120.5t75 69.5t89.5 22.5q51 0 89.5 -24.5t65.5 -57.5l-84 -92q-15 22 -29.5 34.5t-34.5 12.5t-39 -13.5t-34 -44t-24 -79t-9 -118.5q0 -71 9 -120t24.5 -79.5t36 -44t43.5 -13.5q37 0 65 50l84 -89
q-33 -45 -75 -67t-89 -22zM625 -12q-37 0 -70.5 18t-58.5 54.5t-39.5 91.5t-14.5 129t14.5 129t39.5 91.5t58.5 54.5t70.5 18t70.5 -18t58.5 -54.5t39.5 -91.5t14.5 -129t-14.5 -129t-39.5 -91.5t-58.5 -54.5t-70.5 -18zM625 107q10 0 19 8.5t16 29t10.5 53.5t3.5 83
q0 49 -3.5 83t-10 54t-15.5 29t-20 9q-12 0 -21 -9t-15 -29t-9.5 -54t-3.5 -83q0 -50 3.5 -83t9.5 -53.5t15 -29t21 -8.5zM895 -12q-32 0 -54.5 26.5t-22.5 68.5q0 41 22.5 68.5t54.5 27.5t54.5 -27.5t22.5 -68.5q0 -42 -22.5 -68.5t-54.5 -26.5z" />
    <glyph glyph-name="cid463" unicode="&#x33d8;" horiz-adv-x="1000" 
d="M51 562h118l13 -59h3q24 32 51 51.5t63 19.5q79 0 124 -71.5t45 -212.5q0 -78 -15 -135.5t-39.5 -95t-57 -55.5t-68.5 -18q-24 0 -49 12.5t-46 39.5l4 -90v-145h-146v759zM248 107q13 0 25.5 10t22 31.5t15 55.5t5.5 83q0 87 -15.5 127.5t-44.5 40.5t-59 -58v-256
q13 -20 25.5 -27t25.5 -7zM517 562h97l11 -70h4q11 36 33.5 59t63.5 23q31 0 51 -23.5t25 -66.5q8 39 32 64.5t59 25.5q45 0 70 -39.5t25 -111.5v-423h-122v397q0 53 -29 53q-15 0 -23 -14t-13 -40v-396h-98v397q0 53 -27 53q-28 0 -37 -54v-396h-122v562z" />
    <glyph glyph-name="cid464" unicode="&#xac00;" 
d="M519 741q0 -104 -21 -199.5t-69.5 -180t-127 -157.5t-193.5 -131l-74 101q161 83 247.5 194.5t104.5 265.5h-301v107h434zM893 375h-129v-459h-132v920h132v-352h129v-109z" />
    <glyph glyph-name="cid465" unicode="&#xac01;" 
d="M512 783q0 -185 -111 -307.5t-316 -175.5l-53 103q154 38 238.5 110.5t98.5 164.5h-292v105h435zM154 262h614v-349h-132v244h-482v105zM890 512h-122v-211h-132v534h132v-215h122v-108z" />
    <glyph glyph-name="cid466" unicode="&#xac04;" 
d="M519 766q0 -94 -28.5 -173t-83 -142t-134 -110t-182.5 -77l-55 105q155 42 239.5 118.5t100.5 173.5h-300v105h443zM305 35h494v-105h-626v312h132v-207zM890 578v-108h-123v-294h-132v659h132v-257h123z" />
    <glyph glyph-name="cid467" unicode="&#xac07;" 
d="M512 782q0 -184 -111 -307t-316 -178l-52 104q154 39 238 111.5t98 164.5h-292v105h435zM302 29h490v-104h-621v354h604v-104h-473v-146zM890 632v-109h-122v-201h-132v513h132v-203h122z" />
    <glyph glyph-name="cid468" unicode="&#xac08;" 
d="M518 801q0 -185 -112.5 -296.5t-320.5 -153.5l-47 107q81 15 141 39t100.5 55t63 67.5t28.5 76.5h-288v105h435zM292 27h502v-104h-633v260h477v53h-478v104h608v-255h-476v-58zM890 652v-108h-122v-168h-132v460h132v-184h122z" />
    <glyph glyph-name="cid469" unicode="&#xac09;" 
d="M519 797q0 -187 -109.5 -300t-324.5 -158l-47 108q82 16 142 41t100.5 56.5t62.5 69t28 78.5h-287v105h435zM254 20q47 0 81.5 1t61.5 3t49.5 5.5t45.5 8.5l13 -96q-28 -7 -55.5 -10.5t-63 -5.5t-83.5 -2.5t-115 -0.5h-61v242h180v51h-182v97h309v-238h-180v-55zM472 313
h296v-393h-130v290h-166v103zM890 539h-122v-186h-132v482h132v-188h122v-108z" />
    <glyph glyph-name="cid470" unicode="&#xac0a;" 
d="M519 797q0 -185 -111.5 -296t-322.5 -153l-47 108q82 15 142 39t100.5 54.5t62 67t26.5 75.5h-285v105h435zM240 27q57 1 99.5 3.5t87.5 10.5l10 -98q-30 -6 -58 -9t-59.5 -4.5t-68.5 -2t-84 -0.5h-54v244h173v47h-175v98h302v-236h-173v-53zM574 21h81v199h-81v-199z
M461 316h307v-390h-307v390zM890 540h-122v-184h-132v479h132v-187h122v-108z" />
    <glyph glyph-name="cid471" unicode="&#xac10;" 
d="M513 782q0 -184 -111.5 -306.5t-316.5 -175.5l-52 104q154 38 238 110t98 163h-292v105h436zM300 28h338v153h-338v-153zM171 285h597v-360h-597v360zM890 527h-122v-205h-132v513h132v-200h122v-108z" />
    <glyph glyph-name="cid472" unicode="&#xac11;" 
d="M516 786q0 -185 -109.5 -299.5t-320.5 -161.5l-48 106q159 35 238.5 100.5t92.5 149.5h-283v105h430zM637 111h-339v-81h339v81zM637 300h130v-375h-600v375h131v-88h339v88zM890 529h-123v-193h-132v499h132v-198h123v-108z" />
    <glyph glyph-name="cid473" unicode="&#xac12;" 
d="M515 787q0 -186 -109 -300.5t-320 -162.5l-48 106q158 35 238 102t92 150h-286v105h433zM345 106h-91v-79h91v79zM724 232q0 -33 8 -65t26 -60t46 -51.5t67 -39.5l-68 -98q-52 20 -87 55t-56 80q-22 -44 -56.5 -79t-85.5 -56l-53 77v-68h-332v362h121v-86h91v86h120v-266
q35 18 60 41.5t41.5 50.5t24 56.5t7.5 59.5v69h126v-68zM890 644v-109h-122v-200h-132v501h132v-192h122z" />
    <glyph glyph-name="cid474" unicode="&#xac13;" 
d="M520 767q0 -188 -112 -316.5t-318 -186.5l-54 105q155 42 240.5 118.5t99.5 174.5h-291v105h435zM542 264q0 -39 17.5 -77.5t52.5 -71.5t89 -57.5t127 -36.5l-52 -102q-109 17 -183.5 64t-116.5 113q-42 -66 -117.5 -113t-184.5 -65l-51 103q73 11 127 35.5t89.5 57.5
t53 71.5t17.5 78.5v26h132v-26zM890 599v-108h-114v-263h-132v608h132v-237h114z" />
    <glyph glyph-name="cid475" unicode="&#xac14;" 
d="M35 402q154 39 237 111.5t97 164.5h-287v105h432q0 -92 -28.5 -169.5t-83 -139t-134 -106.5t-182.5 -72zM703 245q0 -37 9.5 -71.5t30 -64.5t53 -53.5t77.5 -38.5l-65 -96q-65 23 -107 63.5t-65 94.5q-23 -54 -63 -97.5t-103 -68.5q-64 24 -104.5 66.5t-63.5 96.5
q-23 -52 -64.5 -92t-104.5 -63l-65 96q45 16 77.5 41t53 55t30 63.5t9.5 68.5v42h128v-42q0 -57 23.5 -112t78.5 -93q57 42 81 97.5t24 107.5v42h130v-42zM890 631v-109h-122v-199h-132v512h132v-204h122z" />
    <glyph glyph-name="cid476" unicode="&#xac15;" 
d="M515 775q0 -187 -110.5 -312.5t-315.5 -182.5l-53 106q152 41 235.5 115t98.5 169h-291v105h436zM469 16q85 0 132 21.5t47 64.5t-47 64.5t-132 21.5t-132 -21.5t-47 -64.5t47 -64.5t132 -21.5zM469 291q70 0 127 -13.5t97.5 -38t62.5 -59.5t22 -78q0 -44 -22 -78.5
t-62.5 -59.5t-97.5 -38t-127 -13t-127 13t-97.5 38t-62.5 59.5t-22 78.5q0 43 22 78t62.5 59.5t97.5 38t127 13.5zM890 620v-109h-122v-208h-132v533h132v-216h122z" />
    <glyph glyph-name="cid477" unicode="&#xac16;" 
d="M516 783q0 -186 -110 -302.5t-320 -167.5l-48 105q79 18 138.5 44.5t100.5 60t64 73t29 82.5h-288v105h434zM544 184q6 -27 25.5 -53.5t53.5 -49.5t83 -40.5t113 -25.5l-47 -100q-110 14 -185.5 55.5t-114.5 100.5q-39 -58 -114.5 -98.5t-186.5 -55.5l-46 100
q65 7 114 24t82.5 39.5t53 49t24.5 54.5h-235v103h616v-103h-236zM890 625v-108h-122v-190h-132v508h132v-210h122z" />
    <glyph glyph-name="cid478" unicode="&#xac17;" 
d="M518 782q0 -184 -111 -296.5t-322 -155.5l-47 107q81 15 141.5 40t101 56t62.5 68t28 76h-287v105h434zM539 171q5 -26 24 -51.5t53 -46.5t84 -36.5t117 -21.5l-45 -98q-110 11 -186 48.5t-116 91.5q-41 -54 -117 -91.5t-185 -48.5l-46 98q67 6 117 21.5t84.5 36.5
t53 46.5t23.5 51.5h-245v103h249v92h132v-92h246v-103h-243zM890 641v-108h-122v-200h-132v502h132v-194h122z" />
    <glyph glyph-name="cid479" unicode="&#xac19;" 
d="M519 774q0 -185 -108.5 -291.5t-319.5 -146.5l-51 105q84 14 144.5 37t100.5 52.5t61 64.5t26 73h-288v106h435zM296 20h495v-96h-626v393h607v-96h-476v-54h466v-92h-466v-55zM890 647v-109h-122v-185h-132v483h132v-189h122z" />
    <glyph glyph-name="cid480" unicode="&#xac1a;" 
d="M519 781q0 -92 -29.5 -166.5t-85 -132t-135.5 -98t-182 -63.5l-50 106q156 33 239 100t96 149h-284v105h431zM407 29h138v165h-138v-165zM675 29h122v-103h-638v103h118v165h-111v104h620v-104h-111v-165zM890 641v-109h-122v-196h-132v498h132v-193h122z" />
    <glyph glyph-name="cid481" unicode="&#xac1b;" 
d="M515 792q0 -188 -106 -298t-324 -155l-47 105q85 16 145 40.5t99.5 55.5t60 68t25.5 78h-291v106h438zM467 6q138 0 138 41q0 42 -138 42q-137 0 -137 -42q0 -41 137 -41zM467 181q122 0 192 -35t70 -99t-70 -99t-192 -35t-191.5 35t-69.5 99t69.5 99t191.5 35zM534 308
h257v-99h-647v99h257v88h133v-88zM890 651v-108h-122v-185h-132v478h132v-185h122z" />
    <glyph glyph-name="cid482" unicode="&#xac1c;" 
d="M441 721q0 -97 -16 -184.5t-54 -165.5t-102.5 -145.5t-160.5 -123.5l-77 92q69 40 119 86t84 98t52.5 111t24.5 127h-233v105h363zM832 835v-921h-126v468h-82v-429h-123v858h123v-323h82v347h126z" />
    <glyph glyph-name="cid483" unicode="&#xac1d;" 
d="M442 771q0 -175 -84 -293t-264 -188l-61 96q129 47 193.5 117t78.5 163h-228v105h365zM190 259h638v-346h-132v240h-506v106zM828 835v-538h-125v219h-79v-216h-123v519h123v-197h79v213h125z" />
    <glyph glyph-name="cid484" unicode="&#xac20;" 
d="M624 174h-123v645h123v-246h79v262h125v-687h-125v319h-79v-293zM439 747q0 -175 -81 -297t-259 -196l-64 96q127 51 190.5 123t77.5 169h-223v105h359zM853 37v-105h-650v295h132v-190h518z" />
    <glyph glyph-name="cid485" unicode="&#xac24;" 
d="M624 381h-123v437h123v-168h79v184h125v-460h-125v170h-79v-163zM438 781q0 -167 -83 -274.5t-255 -167.5l-61 96q124 39 186 99.5t75 142.5h-217v104h355zM857 27v-103h-653v258h494v53h-496v103h626v-252h-494v-59h523z" />
    <glyph glyph-name="cid486" unicode="&#xac2c;" 
d="M443 771q0 -88 -19 -161t-60.5 -133t-105.5 -108t-154 -84l-64 95q129 50 191 120.5t75 165.5h-226v105h363zM334 31h365v134h-365v-134zM204 268h624v-341h-624v341zM828 835v-525h-125v209h-79v-203h-123v503h123v-194h79v210h125z" />
    <glyph glyph-name="cid487" unicode="&#xac2d;" 
d="M440 780q0 -173 -81 -290t-256 -187l-64 96q125 48 187.5 115t76.5 161h-220v105h357zM698 115h-363v-84h363v84zM698 301h130v-373h-623v373h130v-84h363v84zM828 835v-497h-125v188h-79v-182h-123v475h123v-187h79v203h125z" />
    <glyph glyph-name="cid488" unicode="&#xac2f;" 
d="M624 322h-123v496h123v-206h79v223h125v-601h-125v272h-79v-184zM444 757q0 -88 -19.5 -162.5t-61 -137t-105.5 -112.5t-153 -88l-67 95q128 54 192 127.5t78 172.5h-226v105h362zM579 253q0 -38 18 -75t54.5 -69t92 -55.5t129.5 -33.5l-50 -103q-112 17 -190 63
t-120 112q-42 -66 -120 -112t-190 -63l-50 103q75 10 130 33.5t91.5 55.5t54.5 69t18 75v27h132v-27z" />
    <glyph glyph-name="cid489" unicode="&#xac30;" 
d="M624 321h-123v498h123v-200h79v216h125v-517h-125v195h-79v-192zM36 387q127 48 190.5 117t76.5 162h-223v105h362q0 -175 -83 -292.5t-260 -187.5zM720 241q0 -36 9.5 -70t30.5 -63.5t53.5 -53t78.5 -37.5l-65 -96q-65 22 -108 62.5t-66 93.5q-23 -53 -63.5 -96.5
t-103.5 -68.5q-63 23 -103.5 66t-63.5 96q-24 -51 -66 -91t-105 -62l-64 96q45 16 77.5 40t53.5 54t30.5 63t9.5 67v41h128v-41q0 -55 23.5 -109t78.5 -92q57 41 81 95.5t24 105.5v41h130v-41z" />
    <glyph glyph-name="cid490" unicode="&#xac31;" 
d="M624 313h-123v505h123v-200h79v217h125v-553h-125v230h-79v-199zM443 768q0 -176 -82 -298.5t-263 -196.5l-64 96q129 51 193 124t78 170h-222v105h360zM516 18q89 0 138 19.5t49 59.5t-49 60t-138 20t-138 -20t-49 -60t49 -59.5t138 -19.5zM516 277q73 0 132 -12.5
t100.5 -36t64 -56.5t22.5 -75t-22.5 -75t-64 -56.5t-100.5 -36t-132 -12.5t-132 12.5t-100.5 36t-64 56.5t-22.5 75t22.5 75t64 56.5t100.5 36t132 12.5z" />
    <glyph glyph-name="cid491" unicode="&#xac38;" 
d="M519 741q0 -104 -21 -199.5t-69.5 -180.5t-127 -157.5t-193.5 -130.5l-74 101q161 82 247.5 194t104.5 266h-301v107h434zM764 499v-166h128v-109h-128v-309h-132v921h132v-229h128v-108h-128z" />
    <glyph glyph-name="cid492" unicode="&#xac39;" 
d="M512 783q0 -184 -111 -306.5t-316 -176.5l-53 103q155 39 239 111.5t98 163.5h-292v105h435zM154 262h614v-349h-132v244h-482v105zM768 609v-93h122v-105h-122v-110h-132v535h132v-121h122v-106h-122z" />
    <glyph glyph-name="cid493" unicode="&#xac3c;" 
d="M519 766q0 -94 -28.5 -173.5t-83 -142.5t-134 -110t-182.5 -76l-55 104q155 43 239.5 119.5t100.5 173.5h-300v105h443zM305 35h494v-105h-626v311h132v-206zM767 574v-117h123v-107h-123v-174h-132v659h132v-154h123v-107h-123z" />
    <glyph glyph-name="cid494" unicode="&#xac40;" 
d="M518 801q0 -185 -112.5 -296.5t-320.5 -153.5l-47 107q81 15 141 39t100.5 55t63 67.5t28.5 76.5h-288v105h435zM292 27h503v-104h-634v260h477v53h-478v104h608v-255h-476v-58zM768 639v-75h121v-104h-121v-84h-132v460h132v-92h121v-105h-121z" />
    <glyph glyph-name="cid495" unicode="&#xac4b;" 
d="M520 767q0 -94 -28.5 -173t-83.5 -142.5t-135 -111t-183 -77.5l-54 106q155 43 240.5 119t99.5 174h-291v105h435zM542 264q0 -40 17.5 -78.5t53 -71.5t89.5 -57.5t127 -35.5l-52 -103q-109 18 -184 65t-117 113q-41 -67 -117 -114t-185 -65l-51 103q73 11 127 35.5
t89.5 57.5t53 72t17.5 79v25h132v-25zM768 588v-108h120v-107h-120v-145h-132v608h132v-140h120v-108h-120z" />
    <glyph glyph-name="cid496" unicode="&#xac4d;" 
d="M515 775q0 -186 -110.5 -312t-315.5 -183l-53 106q152 41 235.5 115.5t98.5 168.5h-291v105h436zM469 16q85 0 132 21.5t47 64.5t-47 64.5t-132 21.5t-132 -21.5t-47 -64.5t47 -64.5t132 -21.5zM469 291q70 0 127 -13.5t97.5 -38t62.5 -59.5t22 -78q0 -44 -22 -78.5
t-62.5 -59.5t-97.5 -38t-127 -13t-127 13t-97.5 38t-62.5 59.5t-22 78.5q0 43 22 78t62.5 59.5t97.5 38t127 13.5zM768 604v-87h119v-108h-119v-106h-132v533h132v-124h119v-108h-119z" />
    <glyph glyph-name="cid497" unicode="&#xac54;" 
d="M441 721q0 -97 -16 -184.5t-54 -165t-102.5 -145t-160.5 -123.5l-77 92q69 40 119 86t84 97.5t52.5 110.5t24.5 127h-233v105h363zM706 355v152h-82v-152h82zM832 836v-921h-126v335h-82v-296h-123v858h123v-199h82v223h126z" />
    <glyph glyph-name="cid498" unicode="&#xac58;" 
d="M624 567v-113h79v113h-79zM624 174h-123v645h123v-147h79v163h125v-687h-125v201h-79v-175zM439 747q0 -175 -81 -296.5t-259 -195.5l-64 95q127 52 190.5 123.5t77.5 168.5h-223v105h359zM853 37v-105h-650v296h132v-191h518z" />
    <glyph glyph-name="cid499" unicode="&#xac5c;" 
d="M624 630v-71h79v71h-79zM624 381h-123v437h123v-88h79v105h125v-461h-125v85h-79v-78zM438 781q0 -167 -82.5 -275t-255.5 -168l-61 96q124 40 185.5 100.5t75.5 141.5h-217v105h355zM857 25v-103h-653v258h494v55h-496v102h626v-253h-494v-59h523z" />
    <glyph glyph-name="cid500" unicode="&#xac70;" 
d="M509 740q0 -104 -19 -199t-65.5 -179t-125 -156.5t-197.5 -132.5l-70 102q86 43 148 92.5t103 106t63 121.5t29 140h-299v105h433zM813 835v-921h-132v461h-178v107h178v353h132z" />
    <glyph glyph-name="cid501" unicode="&#xac71;" 
d="M519 782q0 -183 -107.5 -305t-310.5 -179l-53 103q150 40 232.5 112t97.5 164h-279v105h420zM185 263h628v-346h-132v241h-496v105zM813 834v-534h-132v204h-154v107h154v223h132z" />
    <glyph glyph-name="cid502" unicode="&#xac74;" 
d="M681 567v268h132v-673h-132v298h-159v107h159zM530 766q0 -93 -28.5 -173.5t-82.5 -146t-132.5 -115t-178.5 -81.5l-54 106q145 45 231.5 124t103.5 181h-287v105h428zM836 35v-105h-625v298h132v-193h493z" />
    <glyph glyph-name="cid503" unicode="&#xac77;" 
d="M681 508h-159v106h159v220h132v-513h-132v187zM517 782q0 -184 -107.5 -307t-311.5 -180l-51 103q149 42 231.5 113.5t97.5 165.5h-279v105h420zM832 29v-104h-624v354h608v-105h-477v-145h493z" />
    <glyph glyph-name="cid504" unicode="&#xac78;" 
d="M681 535h-161v105h161v196h132v-461h-132v160zM510 801q0 -181 -104 -291.5t-308 -158.5l-44 103q151 34 226 97t88 145h-261v105h403zM832 27v-104h-625v260h474v53h-475v104h607v-255h-474v-58h493z" />
    <glyph glyph-name="cid505" unicode="&#xac7a;" 
d="M518 798q0 -182 -106 -294t-311 -158l-46 102q77 16 134.5 41t97 56.5t62 68.5t28.5 79h-274v105h415zM279 24q30 0 55 1t48 3t44.5 4.5t44.5 6.5l11 -98q-30 -6 -59 -9t-61 -4.5t-70 -2t-86 -0.5h-55v99h1v151h180v51h-182v97h309v-240h-180v-59zM618 20h82v208h-82
v-208zM505 323h308v-398h-308v398zM813 836v-475h-132v165h-157v105h157v205h132z" />
    <glyph glyph-name="cid506" unicode="&#xac80;" 
d="M517 782q0 -183 -108 -305t-310 -178l-52 102q149 41 231.5 112.5t98.5 163.5h-280v105h420zM337 28h346v151h-346v-151zM207 283h606v-358h-606v358zM813 834v-513h-132v189h-159v107h159v217h132z" />
    <glyph glyph-name="cid507" unicode="&#xac81;" 
d="M520 783q0 -186 -104 -301.5t-315 -168.5l-50 102q158 38 235.5 106t91.5 157h-279v105h421zM682 108h-349v-79h349v79zM682 296h131v-372h-610v372h130v-86h349v86zM813 835v-498h-132v180h-160v107h160v211h132z" />
    <glyph glyph-name="cid508" unicode="&#xac83;" 
d="M681 484h-159v107h159v244h132v-612h-132v261zM518 766q0 -189 -100.5 -314t-308.5 -190l-54 103q154 46 230.5 121t90.5 174h-274v106h416zM569 261q0 -39 17.5 -77.5t53 -71t89.5 -57t127 -35.5l-52 -103q-109 18 -184 64.5t-117 112.5q-42 -66 -117.5 -113t-184.5 -66
l-51 104q73 11 127 35.5t90 57.5t53.5 71.5t17.5 77.5v30h131v-30z" />
    <glyph glyph-name="cid509" unicode="&#xac84;" 
d="M681 510h-159v107h159v217h132v-513h-132v189zM46 401q149 41 232 112.5t98 163.5h-278v105h419q0 -183 -108.5 -305t-309.5 -179zM719 246q0 -37 9.5 -71.5t30.5 -64.5t53.5 -53.5t78.5 -38.5l-65 -95q-66 23 -108.5 63t-65.5 94q-23 -54 -63.5 -97.5t-103.5 -68.5
q-64 23 -104 66t-63 97q-24 -52 -66 -91.5t-105 -62.5l-65 95q46 16 78.5 41t53.5 55t30.5 63.5t9.5 68.5v42h127v-42q0 -57 24 -111.5t79 -93.5q57 42 81 97.5t24 107.5v42h130v-42z" />
    <glyph glyph-name="cid510" unicode="&#xac85;" 
d="M681 491h-154v107h154v237h132v-526h-132v182zM519 773q0 -190 -104 -310.5t-315 -179.5l-51 104q157 42 235.5 114t91.5 166h-276v106h419zM509 22q85 0 132.5 21t47.5 65q0 43 -47.5 64.5t-132.5 21.5q-86 0 -133.5 -21.5t-47.5 -64.5q0 -44 47.5 -65t133.5 -21z
M509 297q70 0 127 -13t97.5 -38t63 -60t22.5 -78q0 -44 -22.5 -78.5t-63 -59.5t-97.5 -38t-127 -13t-127.5 13t-98 38t-63 59.5t-22.5 78.5q0 43 22.5 78t63 60t98 38t127.5 13z" />
    <glyph glyph-name="cid511" unicode="&#xac86;" 
d="M681 610v224h132v-511h-132v180h-159v107h159zM531 782q0 -185 -113 -302.5t-323 -166.5l-47 105q80 17 140.5 43.5t103 60t66.5 73t30 82.5h-287v105h430zM579 178q5 -26 24 -52t52.5 -48t83.5 -38.5t116 -23.5l-47 -98q-110 12 -185 51t-115 95q-39 -57 -115 -95.5
t-186 -50.5l-47 98q67 7 116.5 23t83.5 38t52.5 48t23.5 53h-235v105h619v-105h-241z" />
    <glyph glyph-name="cid512" unicode="&#xac89;" 
d="M681 517h-158v107h158v212h132v-482h-132v163zM520 792q0 -185 -104.5 -299.5t-314.5 -165.5l-49 103q157 35 235 102.5t91 154.5h-280v105h422zM832 22v-97h-624v392h610v-96h-477v-53h460v-92h-460v-54h491z" />
    <glyph glyph-name="cid513" unicode="&#xac8a;" 
d="M681 506h-160v107h160v221h132v-499h-132v171zM520 782q0 -182 -109 -301t-310 -172l-50 103q149 37 230.5 106.5t97.5 158.5h-280v105h421zM431 31h144v160h-144v-160zM831 31v-104h-654v104h124v160h-114v103h633v-103h-115v-160h126z" />
    </font>
</defs>
</svg>
