<?xml version="1.0" standalone="no"?>
<!DOCTYPE svg PUBLIC "-//W3C//DTD SVG 1.1//EN" "http://www.w3.org/Graphics/SVG/1.1/DTD/svg11.dtd" >
<svg xmlns="http://www.w3.org/2000/svg">
<metadata>
This is a custom SVG font generated by IcoMoon.
<iconset id="monocons" name="monocons" href="http://www.sceditor.com/"></iconset><author name="Sam Clarke" href="http://www.samclarke.com/"></author>
</metadata>
<defs>
<font id="monocons" horiz-adv-x="512" >
<font-face units-per-em="512" ascent="480" descent="-32" />
<missing-glyph horiz-adv-x="512" />
<glyph unicode="&#xe000;" d="M 16.00,464.00
	l 58.016-92.992l0.00-67.008 l 32.992,0.00 l0.00,67.008 l 59.008,92.992L 128.00,464.00 l-36.992-63.008l-36.992,63.008L 16.00,464.00 z M 202.016,423.008c-11.36,0.00-21.728-2.976-31.008-8.00
	c-9.184-5.024-15.968-12.448-20.992-22.016s-7.008-18.784-7.008-28.992c0.00-13.344, 1.984-24.672, 7.008-34.016
	c 5.024-9.248, 12.384-16.192, 22.016-20.992c 9.696-4.80, 20.352-8.00, 31.008-8.00c 17.216,0.00, 30.688,6.496, 42.016,18.016
	c 11.36,11.584, 16.992,25.44, 16.992,43.008c0.00,17.408-4.768,32.64-16.00,44.00C 234.752,417.44, 219.584,423.008, 202.016,423.008z M 278.016,420.00
	l0.00-72.992 c0.00-10.944, 1.248-19.808, 4.00-26.016s 7.808-10.592, 14.016-14.016c 6.176-3.424, 13.184-6.016, 20.992-6.016
	c 7.648,0.00, 15.136,2.432, 22.016,6.016c 6.944,3.552, 11.744,7.808, 16.00,14.016l0.00-16.992 L 384.00,304.00 l0.00,116.00 l-31.008,0.00 l0.00-48.992 c0.00-16.64-0.48-26.688-2.016-31.008
	c-1.536-4.224-4.832-8.096-8.992-11.008c-4.16-2.848-8.736-4.00-14.016-4.00c-4.608,0.00-8.00,0.896-11.008,3.008
	c-3.008,2.176-4.80,5.344-6.016,8.992c-1.088,3.712-2.016,13.664-2.016,30.016l0.00,52.992 L 278.016,420.00 z M 203.008,397.984
	c 8.00,0.00, 14.624-2.88, 20.00-8.992c 5.472-6.112, 8.00-15.616, 8.00-27.008c0.00-11.68-2.528-19.872-8.00-26.016
	c-5.376-6.112-12.00-10.016-20.00-10.016s-15.52,3.872-20.992,10.016s-8.00,14.464-8.00,26.016c0.00,11.52, 2.528,20.864, 8.00,27.008
	C 187.456,395.104, 194.976,397.984, 203.008,397.984z M 259.008,268.00c-57.792,0.00-115.392-0.992-159.008-3.008
	c-21.824-0.992-39.648-1.408-52.992-3.008c-6.656-0.80-12.288-1.76-16.992-3.008c-2.368-0.608-4.096-1.44-7.008-3.008
	c-1.44-0.768-3.968-1.76-6.016-4.00s-4.00-6.944-4.00-12.00l0.00-224.00 c0.00-5.056, 1.952-8.736, 4.00-11.008s 4.544-3.232, 6.016-4.00
	c 2.912-1.568, 4.64-2.368, 7.008-3.008c 4.704-1.216, 10.336-2.176, 16.992-3.008c 13.344-1.60, 31.20-3.008, 52.992-4.00
	c 43.616-2.016, 101.216-3.008, 159.008-3.008s 115.36,0.992, 159.008,3.008c 21.824,0.992, 40.672,2.40, 54.016,4.00
	c 6.688,0.80, 11.296,1.76, 16.00,3.008c 2.368,0.64, 5.088,1.44, 8.00,3.008c 1.44,0.736, 2.944,1.76, 4.992,4.00
	s 4.992,5.952, 4.992,11.008l0.00,224.00 c0.00,5.056-2.944,9.76-4.992,12.00s-3.552,3.232-4.992,4.00c-2.912,1.568-5.632,2.40-8.00,3.008
	c-4.704,1.216-9.312,2.208-16.00,3.008c-13.344,1.60-32.192,1.984-54.016,3.008C 374.368,267.04, 316.768,268.00, 259.008,268.00z
	 M 298.016,224.00l0.00-68.00 c 7.20,6.40, 14.752,11.008, 26.016,11.008c 23.808,0.00, 39.008-19.552, 39.008-59.008c0.00-50.176-22.624-70.016-59.008-70.016
	c-16.384,0.00-31.712,3.136-44.00,8.00l0.00,172.00 L 298.016,224.00z M 42.016,216.00l 112.992,0.00 L 160.00,179.008L 120.992,179.008 l0.00-140.00 L 79.008,39.008 l0.00,140.00 L 42.016,179.008 
	L 42.016,216.00 z M 424.992,167.008c 33.28,0.00, 48.00-26.656, 48.00-63.008c0.00-4.096-0.736-10.688-0.992-12.992l-62.016,0.00 
	c 2.304-17.952, 10.656-26.016, 24.992-26.016c 11.264,0.00, 21.504,2.592, 32.992,8.992l 4.00-26.016c-10.752-6.40-25.344-11.008-43.008-11.008
	c-35.84,0.00-56.00,22.24-56.00,64.992C 372.992,138.88, 391.968,167.008, 424.992,167.008z M 146.016,164.992L 184.00,164.992 l0.00-86.016 
	c0.00-5.376, 2.112-8.992, 8.00-8.992c 4.608,0.00, 9.152,2.144, 14.016,6.016l0.00,88.992 l 36.992,0.00 l0.00-126.016 L 212.00,38.976 l-2.016,12.992
	c-8.96-8.672-20.672-15.008-34.016-15.008c-20.224,0.00-30.016,11.264-30.016,32.00L 145.952,164.992 z M 424.00,141.984c-7.68,0.00-12.704-8.512-14.016-28.992
	l 28.00,0.00 C 437.76,132.192, 432.192,141.984, 424.00,141.984z M 311.008,133.984c-4.384,0.00-8.384-3.168-12.992-7.008l0.00-56.992 
	c 2.816-1.024, 4.672-2.016, 7.008-2.016c 13.056,0.00, 22.016,10.912, 22.016,36.00C 327.008,126.784, 320.224,133.984, 311.008,133.984z"  />
<glyph unicode="&#xe001;" d="M 64.00,352.00 C 98.176,352.00 141.536,352.00 192.00,352.00 L 192.00,288.00 C 147.456,288.00 111.04,288.00 79.008,288.00 C 78.336,285.952 77.632,285.824 76.992,283.008 C 73.824,268.672 72.00,246.24 72.00,224.00 C 72.00,201.76 73.792,179.296 76.992,164.992 C 77.664,161.952 78.304,162.112 79.008,160.00 C 130.24,160.00 168.896,160.00 192.00,160.00 L 192.00,96.00 C 165.824,96.00 128.00,96.00 64.00,96.00 C 44.00,96.00 31.712,110.976 25.984,120.992 C 20.256,131.008 17.376,140.16 14.976,151.008 C 10.144,172.672 7.968,198.24 7.968,224.00 C 7.968,249.76 10.176,275.328 14.976,296.992 C 17.376,307.84 20.256,318.016 25.984,328.00 C 31.712,337.984 44.00,352.00 64.00,352.00 Z M 320.00,352.00 L 448.00,352.00 C 468.00,352.00 480.288,338.016 486.016,328.00 C 491.744,317.984 494.624,307.84 497.024,296.992 C 501.856,275.328 504.032,249.76 504.032,224.00 C 504.032,198.24 501.824,172.704 497.024,151.008 C 494.624,140.16 491.744,130.976 486.016,120.992 C 480.288,111.008 468.00,96.00 448.00,96.00 L 320.00,96.00 L 320.00,160.00 L 432.992,160.00 C 433.696,162.112 434.336,161.952 435.008,164.992 C 438.176,179.328 440.00,201.76 440.00,224.00 C 440.00,246.24 438.208,268.672 435.008,283.008 C 434.368,285.824 433.664,285.952 432.992,288.00 L 320.00,288.00 L 320.00,352.00 Z"  />
<glyph unicode="&#xe002;" d="M 116.00,411.008 L 180.96,411.008 L 180.96,195.008 C 180.96,178.944 182.56,165.632 185.952,154.016 C 189.696,142.752 194.464,133.216 200.96,126.016 C 207.776,118.816 216.096,113.408 224.96,110.016 C 234.176,106.624 244.672,105.024 255.968,105.024 C 267.264,105.024 276.768,106.592 285.984,110.016 C 295.20,113.408 303.488,118.816 309.984,126.016 C 316.80,133.216 321.60,142.752 324.992,154.016 C 328.768,165.632 331.008,178.944 331.008,195.008 L 331.008,411.008 L 396.00,411.008 L 396.00,188.992 C 396.00,168.48 392.832,150.048 387.008,132.992 C 381.536,115.936 373.632,100.64 362.016,88.00 C 350.752,75.392 335.776,66.208 318.016,59.008 C 300.256,52.192 279.264,48.992 255.008,48.992 C 230.752,48.992 210.40,52.192 192.992,59.008 C 175.584,66.176 160.608,75.36 148.992,88.00 C 137.728,100.608 129.472,115.936 124.00,132.992 C 118.528,150.048 116.00,168.48 116.00,188.992 L 116.00,411.008 Z M 64.00,32.00 L 448.00,32.00 L 448.00,0.00 L 64.00,0.00 L 64.00,32.00 Z"  />
<glyph unicode="&#xe003;" d="M 256.00,472.00
	c-136.672,0.00-248.00-111.328-248.00-248.00s 111.328-248.00, 248.00-248.00s 248.00,111.328, 248.00,248.00S 392.672,472.00, 256.00,472.00z M 256.00,424.00
	c 110.752,0.00, 200.00-89.248, 200.00-200.00s-89.248-200.00-200.00-200.00c-110.72,0.00-200.00,89.248-200.00,200.00S 145.28,424.00, 256.00,424.00z M 232.00,368.00l0.00-160.00 
	l0.00-10.016 l 7.008-7.008l 64.00-64.00l 34.016,34.016l-56.992,56.992l0.00,150.016 L 232.00,368.00 z"  />
<glyph unicode="&#xe004;" d="M 112.00,384.00
	c-34.656,0.00-57.344-9.536-68.992-27.008C 31.36,339.552, 32.00,320.00, 32.00,304.00l0.00-160.00 c0.00-16.00-0.64-34.528, 11.008-52.00s 34.336-28.00, 68.992-28.00l 288.00,0.00 
	c 34.688,0.00, 57.376,10.528, 68.992,28.00s 11.008,36.00, 11.008,52.00l0.00,160.00 c0.00,17.568, 0.864,37.728-11.008,55.008s-34.592,24.992-68.992,24.992L 112.00,384.00 z
	 M 112.00,352.00l 72.00,0.00 l0.00-72.00 L 64.00,280.00 l0.00,24.00 c0.00,16.00, 0.64,29.472, 4.992,36.00S 82.656,352.00, 112.00,352.00z M 200.00,352.00l 112.00,0.00 l0.00-72.00 l-112.00,0.00 
	L 200.00,352.00 z M 328.00,352.00l 72.00,0.00 c 29.60,0.00, 38.88-5.056, 43.008-11.008s 4.992-19.424, 4.992-36.992l0.00-24.00 l-120.00,0.00 L 328.00,352.00 z M 64.00,264.00l 120.00,0.00 
	l0.00-80.00 L 64.00,184.00 L 64.00,264.00 z M 200.00,264.00l 112.00,0.00 l0.00-80.00 l-112.00,0.00 L 200.00,264.00 z M 328.00,264.00L 448.00,264.00 l0.00-80.00 l-120.00,0.00 L 328.00,264.00 z M 64.00,168.00l 120.00,0.00 l0.00-72.00 L 112.00,96.00 
	c-29.344,0.00-38.656,6.464-43.008,12.992C 64.64,115.552, 64.00,128.00, 64.00,144.00L 64.00,168.00 z M 200.00,168.00l 112.00,0.00 l0.00-72.00 l-112.00,0.00 L 200.00,168.00 z
	 M 328.00,168.00L 448.00,168.00 l0.00-24.00 c0.00-16.00-0.64-28.448-4.992-35.008c-4.384-6.528-13.696-12.992-43.008-12.992l-72.00,0.00 L 328.00,168.00 z"  />
<glyph unicode="&#xe005;" d="M 415.008,432.00 C 435.328,432.00 451.392,426.944 463.008,415.968 C 474.624,404.992 480.00,391.296 480.00,374.976 C 480.00,365.696 478.368,356.416 475.008,347.968 C 471.712,339.616 466.24,331.136 459.008,321.952 C 454.208,315.84 445.472,306.40 432.992,294.944 C 420.512,283.488 413.344,276.672 409.984,272.928 C 406.688,269.184 404.032,265.472 401.984,261.92 L 480.00,261.92 L 480.00,224.928 L 340.992,224.928 C 342.496,238.816 347.52,251.552 355.008,263.936 C 362.496,276.416 376.896,293.408 399.008,313.952 C 416.80,330.56 427.968,342.048 432.00,347.968 C 437.44,356.128 440.00,364.00 440.00,371.968 C 440.00,380.768 437.76,387.296 432.992,391.968 C 428.288,396.768 422.336,398.976 413.984,398.976 C 405.728,398.976 398.848,396.928 393.984,391.968 C 389.12,387.008 386.72,378.496 385.984,366.976 L 345.984,370.976 C 348.352,392.736 355.616,408.512 368.00,417.984 C 380.384,427.456 396.448,432.00 415.008,432.00 Z M 40.992,358.048 L 125.984,358.048 L 185.984,262.048 L 244.992,358.048 L 324.992,358.048 L 225.984,208.032 C 251.072,175.456 272.96,144.80 289.984,117.024 C 307.008,89.568 320.096,66.848 329.984,48.032 L 245.984,48.032 C 237.344,65.344 227.456,82.40 216.992,100.032 C 206.816,117.984 195.424,136.544 181.984,155.04 C 177.792,149.664 172.576,142.592 165.984,133.024 C 159.712,123.456 153.568,112.768 146.976,102.016 C 140.704,91.264 134.624,80.896 128.96,71.008 C 123.296,61.12 118.656,53.696 115.968,48.00 L 35.968,48.00 C 49.12,72.192 64.64,97.44 81.984,124.00 C 99.616,150.56 119.488,179.104 140.992,208.992 L 40.992,357.984 Z"  />
<glyph unicode="&#xe006;" d="M 40.992,400.032 L 125.984,400.032 L 185.984,303.04 L 244.992,400.032 L 324.992,400.032 L 225.984,249.024 C 251.072,216.448 272.96,186.784 289.984,159.008 C 307.008,131.52 320.096,108.832 329.984,90.016 L 245.984,90.016 C 237.344,107.328 227.456,124.384 216.992,142.016 C 206.816,159.968 195.424,178.528 181.984,197.024 C 177.792,191.648 172.576,183.584 165.984,174.016 C 159.712,164.448 153.568,154.752 146.976,144.00 C 140.704,133.248 134.624,122.88 128.96,112.992 C 123.296,103.104 118.656,95.68 115.968,89.984 L 35.968,89.984 C 49.12,114.176 64.64,139.424 81.984,165.984 C 99.616,192.544 119.488,220.128 140.992,249.984 L 40.992,400.00 Z M 415.008,223.008 C 435.328,223.008 451.392,217.952 463.008,206.976 C 474.624,196.00 480.00,182.304 480.00,165.984 C 480.00,156.704 478.368,147.424 475.008,138.976 C 471.712,130.624 466.24,122.144 459.008,112.96 C 454.208,106.848 445.472,97.408 432.992,85.952 C 420.512,74.496 413.344,67.68 409.984,63.936 C 406.688,60.192 404.032,56.48 401.984,52.928 L 480.00,52.928 L 480.00,15.936 L 340.992,15.936 C 342.496,29.824 347.52,42.56 355.008,54.944 C 362.496,67.424 376.896,84.416 399.008,104.96 C 416.80,121.568 427.968,133.056 432.00,138.976 C 437.44,147.136 440.00,155.008 440.00,162.976 C 440.00,171.776 437.76,178.304 432.992,182.976 C 428.288,187.776 422.336,189.984 413.984,189.984 C 405.728,189.984 398.848,187.904 393.984,182.976 C 389.12,178.016 386.72,169.504 385.984,157.984 L 345.984,161.984 C 348.352,183.744 355.616,199.52 368.00,208.992 C 380.384,218.464 396.448,223.008 415.008,223.008 Z"  />
<glyph unicode="&#xe007;" d="M 264.00,420.992 C 287.552,420.992 308.864,418.432 326.976,412.928 C 345.472,407.872 359.488,402.08 369.984,395.936 L 348.992,339.936 C 336.672,346.816 322.88,352.32 308.00,355.936 C 293.504,359.584 278.592,361.952 263.008,361.952 C 244.512,361.952 230.528,357.568 220.00,349.952 C 209.856,342.336 204.00,331.744 204.00,317.952 C 204.00,309.60 205.728,302.08 208.992,295.936 C 212.64,290.112 217.824,285.632 224.00,280.928 C 230.56,276.224 237.664,271.936 246.016,267.936 C 254.72,263.936 263.872,259.552 274.016,255.936 L 480.00,255.936 L 480.00,191.936 L 372.064,191.936 C 374.56,187.744 377.184,183.616 379.072,178.944 C 384.128,166.624 387.072,151.712 387.072,133.952 C 387.072,99.84 375.392,73.824 351.072,54.944 C 327.104,36.448 291.488,26.944 245.056,26.944 C 229.44,26.944 215.104,27.776 202.048,29.952 C 189.344,31.776 178.176,34.048 168.032,36.96 C 158.208,39.872 149.28,43.04 142.016,45.952 C 134.784,49.184 129.376,52.384 125.024,54.944 L 145.024,110.944 C 154.816,105.504 168.352,100.384 185.024,94.944 C 201.696,89.504 221.44,85.952 245.024,85.952 C 269.696,85.952 287.808,90.592 299.04,98.944 C 310.272,107.296 316.032,118.688 316.032,133.952 C 316.032,143.008 314.016,151.424 310.016,157.952 C 306.40,164.48 301.28,169.888 294.016,174.944 C 287.136,180.384 278.144,185.60 268.00,189.952 C 266.528,190.656 264.544,191.296 263.008,191.968 L 32.00,191.968 L 32.00,255.968 L 149.984,255.968 C 146.816,260.48 143.552,264.864 140.992,269.984 C 135.552,281.60 132.992,295.68 132.992,312.00 C 132.992,346.08 144.416,372.768 168.00,392.00 C 191.584,411.584 223.36,420.992 264.00,420.992 Z"  />
<glyph unicode="&#xe008;" d="M 175.008,352.992 L 209.024,319.04 L 98.016,208.032 L 209.024,97.024 L 175.008,63.008 L 47.008,191.008 L 30.016,208.00 L 47.008,224.992 L 175.008,352.992 Z M 336.992,352.992 L 464.992,224.928 L 481.984,207.936 L 464.992,190.944 L 336.992,62.944 L 302.976,96.96 L 413.984,207.968 L 302.976,318.976 L 336.992,352.992 Z"  />
<glyph unicode="&#xe009;" d="M 400.00,459.008
	l-80.00-107.008l 160.00,0.00 L 400.00,459.008z M 147.008,336.00c-9.696-19.968-18.848-39.936-28.00-60.992c-8.864-20.80-18.592-42.688-28.00-66.016
	c-9.152-23.328-18.304-48.672-28.00-75.008s-20.192-54.944-31.008-86.016l 67.008,0.00 c 3.04,10.016, 6.40,20.48, 10.016,31.008
	c 3.872,10.528, 8.384,20.48, 12.00,31.008l 112.00,0.00 c 3.616-10.528, 7.392-20.48, 11.008-31.008c 3.872-10.528, 6.944-20.992, 10.016-31.008l 70.016,0.00 
	c-10.816,31.072-21.312,59.648-31.008,86.016s-19.552,51.68-28.992,75.008c-9.152,23.296-17.856,45.216-27.008,66.016
	c-9.152,21.088-18.592,41.024-28.00,60.992L 147.008,336.00 z M 320.00,288.00l 80.00-106.016l 80.00,106.016L 320.00,288.00 z M 176.00,271.008
	c 1.664-4.16, 4.224-9.792, 7.008-16.992c 2.752-7.20, 6.40-15.552, 10.016-24.992c 3.872-9.44, 7.84-19.616, 12.00-31.008
	s 8.576-23.488, 12.992-36.00L 136.00,162.016 c 4.448,12.512, 7.84,24.64, 12.00,36.00c 4.448,11.36, 9.376,21.568, 12.992,31.008s 6.208,17.792, 8.992,24.992
	C 172.768,261.184, 174.624,266.848, 176.00,271.008z"  />
<glyph unicode="&#xe00a;" d="M 168.00,417.984 L 282.016,417.984 L 282.016,47.968 L 240.00,47.968 L 240.00,385.984 L 199.008,385.984 L 199.008,48.00 L 156.992,48.00 L 156.992,232.992 C 127.264,236.64 104.192,246.08 88.00,261.984 C 71.808,278.048 64.00,299.04 64.00,324.992 C 64.00,352.704 73.056,375.04 92.00,391.968 C 110.944,408.896 136.64,417.984 168.00,417.984 Z M 432.00,359.008 L 432.00,89.984 L 296.992,224.00 L 432.00,359.008 Z"  />
<glyph unicode="&#xe00b;" d="M 64.00,416.00 L 448.00,416.00 L 448.00,384.00 L 64.00,384.00 L 64.00,416.00 Z M 160.00,352.00 L 448.00,352.00 L 448.00,320.00 L 160.00,320.00 L 160.00,352.00 Z M 64.00,288.00 L 448.00,288.00 L 448.00,256.00 L 64.00,256.00 L 64.00,288.00 Z M 160.00,224.00 L 448.00,224.00 L 448.00,192.00 L 160.00,192.00 L 160.00,224.00 Z M 64.00,160.00 L 448.00,160.00 L 448.00,128.00 L 64.00,128.00 L 64.00,160.00 Z M 160.00,96.00 L 448.00,96.00 L 448.00,64.00 L 160.00,64.00 L 160.00,96.00 Z"  />
<glyph unicode="&#xe00c;" d="M 280.992,416.00
	l-4.00-4.00l-156.00-156.00l-4.00-4.00l-96.00-96.00l-10.016-10.016l 8.00-11.008l 96.00-128.00l 4.992-7.008L 128.00-0.032 l 64.00,0.00 l 7.008,0.00 l 4.00,4.992l 96.00,96.00l 10.016,10.016
	l 150.016,150.016l 10.016,10.016l-8.00,11.008l-96.00,128.00l-4.992,6.016L 352.00,416.032 L 288.00,416.032 L 280.992,416.032 z M 294.016,384.00l 19.008,0.00 l-128.00-128.00L 166.016,256.00 L 294.016,384.00z
	 M 350.016,376.00l 76.992-102.016l-136.992-136.992l-76.992,102.016L 350.016,376.00z"  />
<glyph unicode="&#xe00d;" d="M 256.00,415.584 C 319.936,415.584 378.08,403.36 421.92,379.584 C 465.76,355.808 495.936,318.272 495.936,271.584 C 495.936,237.024 475.68,197.856 435.936,172.576 L 493.952,55.584 C 500.288,43.776 485.024,27.776 472.96,33.568 L 284.96,127.584 C 273.984,126.976 266.976,127.584 255.968,127.584 C 191.264,127.584 132.32,144.64 88.96,170.592 C 45.60,196.544 15.968,232.00 15.968,271.584 C 15.968,318.272 46.144,355.808 89.984,379.584 C 133.824,403.36 192.064,415.584 256.00,415.584 Z"  />
<glyph unicode="&#xe00e;" d="M 112.00,448.00l0.00-96.00 l-96.00,0.00 
	l0.00-256.00 l 64.00,0.00 l0.00,192.00 l 352.00,0.00 l0.00-192.00 l 64.00,0.00 l0.00,256.00 l-96.00,0.00 l0.00,96.00 L 112.00,448.00 z M 144.00,416.00l 224.00,0.00 l0.00-64.00 l-224.00,0.00 L 144.00,416.00 z M 112.00,256.00l0.00-256.00 l 288.00,0.00 l0.00,256.00 L 112.00,256.00 z M 144.00,224.00l 224.00,0.00 l0.00-192.00 l-224.00,0.00 L 144.00,224.00 z
	 M 192.00,192.00l0.00-32.00 l 128.00,0.00 l0.00,32.00 L 192.00,192.00 z M 192.00,128.00l0.00-32.00 l 128.00,0.00 l0.00,32.00 L 192.00,128.00 z"  />
<glyph unicode="&#xe00f;" d="M 155.008,480.00
	c-1.056-0.544-2.08-1.248-3.008-2.016c-0.32,0.00-0.672,0.00-0.992,0.00c-0.352-0.32-0.672-0.672-0.992-0.992
	c-0.352-0.32-0.672-0.672-0.992-0.992c-0.768-0.928-1.44-1.92-2.016-3.008c-0.832-1.216-1.536-2.592-2.016-4.00
	c-0.384-0.64-0.704-1.344-0.992-2.016c0.00-0.32,0.00-0.672,0.00-0.992c-0.032-0.672-0.032-1.344,0.00-2.016l0.00-16.00 L 123.008,447.968 L 32.00,447.968 
	c-8.384,0.00-16.00-7.616-16.00-16.00l0.00-320.00 c0.00-8.384, 7.616-16.00, 16.00-16.00l 176.00,0.00 l0.00-112.00 c0.00-8.832, 7.168-16.00, 16.00-16.00l 256.00,0.00 c 8.832,0.00, 16.00,7.168, 16.00,16.00l0.00,222.016 
	c 0.064,0.672, 0.064,1.312,0.00,2.016c0.00,0.32,0.00,0.672,0.00,0.992c 0.096,0.992, 0.096,2.016,0.00,3.008c-0.288,0.672-0.64,1.344-0.992,2.016
	c-0.576,1.088-1.216,2.08-2.016,3.008c0.00,0.32,0.00,0.672,0.00,0.992c-0.64,0.704-1.28,1.376-2.016,2.016
	c-1.184,1.216-2.496,2.208-4.00,3.008l-88.00,88.00c-1.632,3.552-4.448,6.40-8.00,8.00c-0.32,0.00-0.672,0.00-0.992,0.00
	c-0.32,0.352-0.672,0.672-0.992,0.992c-0.672,0.032-1.312,0.032-2.016,0.00c-0.992,0.096-2.016,0.096-3.008,0.00l-4.992,0.00 L 368.00,320.032 l0.00,112.00 
	c0.00,8.384-7.616,16.00-16.00,16.00L 256.992,448.032 L 256.00,448.032 L 240.00,448.032 l0.00,16.00 c-0.064,3.20-1.12,6.40-3.008,8.992c-1.408,2.496-3.52,4.608-6.016,6.016
	c-1.28,0.512-2.624,0.832-4.00,0.992L 224.992,480.032 c-0.32,0.00-0.672,0.00-0.992,0.00L 160.00,480.032 L 158.016,480.032 c-0.32,0.00-0.672,0.00-0.992,0.00L 155.008,480.032 z M 48.00,416.00l 64.00,0.00 l0.00-16.00 
	c0.00-8.832, 7.168-16.00, 16.00-16.00l 128.00,0.00 c 8.832,0.00, 16.00,7.168, 16.00,16.00l0.00,16.00 l 64.00,0.00 l0.00-96.00 L 224.00,320.00 c-1.664,0.256-3.328,0.256-4.992,0.00
	c-6.848-2.24-11.36-8.80-11.008-16.00l0.00-176.00 l-160.00,0.00 L 48.00,416.00 z M 240.00,288.00l 128.00,0.00 l0.00-80.00 c0.00-0.32,0.00-0.672,0.00-0.992c-0.064-0.672-0.064-1.312,0.00-2.016
	c 0.32-0.352, 0.672-0.672, 0.992-0.992c 0.576-2.176, 1.60-4.256, 3.008-6.016c 2.944-3.648, 7.328-5.888, 12.00-6.016l 80.00,0.00 l0.00-192.00 l-224.00,0.00 L 240.00,288.00 z
	 M 400.00,265.984l 42.016-42.016L 400.00,223.968 L 400.00,265.984 z"  />
<glyph unicode="&#xe010;" d="M 155.008,480.00
	c-1.056-0.544-2.08-1.248-3.008-2.016c-0.32,0.00-0.672,0.00-0.992,0.00c-0.352-0.32-0.672-0.672-0.992-0.992
	c-0.352-0.32-0.672-0.672-0.992-0.992c-0.768-0.928-1.44-1.92-2.016-3.008c-0.832-1.216-1.536-2.592-2.016-4.00
	c-0.384-0.64-0.704-1.344-0.992-2.016c0.00-0.32,0.00-0.672,0.00-0.992c-0.032-0.672-0.032-1.344,0.00-2.016l0.00-16.00 L 123.008,447.968 L 32.00,447.968 
	c-8.384,0.00-16.00-7.616-16.00-16.00l0.00-320.00 c0.00-8.384, 7.616-16.00, 16.00-16.00l 176.00,0.00 l0.00-112.00 c0.00-8.832, 7.168-16.00, 16.00-16.00l 256.00,0.00 c 8.832,0.00, 16.00,7.168, 16.00,16.00l0.00,222.016 
	c 0.064,0.672, 0.064,1.312,0.00,2.016c0.00,0.32,0.00,0.672,0.00,0.992c 0.096,0.992, 0.096,2.016,0.00,3.008c-0.288,0.672-0.64,1.344-0.992,2.016
	c-0.576,1.088-1.216,2.08-2.016,3.008c0.00,0.32,0.00,0.672,0.00,0.992c-0.64,0.704-1.28,1.376-2.016,2.016
	c-1.184,1.216-2.496,2.208-4.00,3.008l-88.00,88.00c-1.632,3.552-4.448,6.40-8.00,8.00c-0.32,0.00-0.672,0.00-0.992,0.00
	c-0.32,0.352-0.672,0.672-0.992,0.992c-0.672,0.032-1.312,0.032-2.016,0.00c-0.992,0.096-2.016,0.096-3.008,0.00l-4.992,0.00 L 368.00,320.032 l0.00,112.00 
	c0.00,8.384-7.616,16.00-16.00,16.00L 256.992,448.032 L 256.00,448.032 L 240.00,448.032 l0.00,16.00 c-0.064,3.20-1.12,6.40-3.008,8.992c-1.408,2.496-3.52,4.608-6.016,6.016
	c-1.28,0.512-2.624,0.832-4.00,0.992L 224.992,480.032 c-0.32,0.00-0.672,0.00-0.992,0.00L 160.00,480.032 L 158.016,480.032 c-0.32,0.00-0.672,0.00-0.992,0.00L 155.008,480.032 z M 48.00,416.00l 64.00,0.00 l0.00-16.00 
	c0.00-8.832, 7.168-16.00, 16.00-16.00l 128.00,0.00 c 8.832,0.00, 16.00,7.168, 16.00,16.00l0.00,16.00 l 64.00,0.00 l0.00-96.00 L 224.00,320.00 c-1.664,0.256-3.328,0.256-4.992,0.00
	c-6.848-2.24-11.36-8.80-11.008-16.00l0.00-176.00 l-160.00,0.00 L 48.00,416.00 z M 240.00,288.00l 128.00,0.00 l0.00-32.00 L 288.00,256.00 l0.00-32.00 l 80.00,0.00 l0.00-16.00 c0.00-0.32,0.00-0.672,0.00-0.992
	c-0.064-0.672-0.064-1.312,0.00-2.016c 0.32-0.352, 0.672-0.672, 0.992-0.992c 0.576-2.176, 1.60-4.256, 3.008-6.016
	c 1.952-2.816, 4.736-4.896, 8.00-6.016L 288.00,191.968 l0.00-32.00 l 128.00,0.00 l0.00,32.00 l 48.00,0.00 l0.00-192.00 l-224.00,0.00 L 240.00,288.00 z M 400.00,265.984l 42.016-42.016L 400.00,223.968 L 400.00,265.984 z M 288.00,128.00l0.00-32.00 l 128.00,0.00 l0.00,32.00 L 288.00,128.00 z
	 M 288.00,64.00l0.00-32.00 l 128.00,0.00 l0.00,32.00 L 288.00,64.00 z"  />
<glyph unicode="&#xe011;" d="M 90.016,464.032 L 104.00,464.032 L 104.00,353.024 L 84.032,353.024 L 84.032,438.016 C 81.152,435.776 77.408,434.112 73.024,432.00 C 68.64,429.856 65.056,427.36 61.024,425.984 L 55.008,440.992 C 61.216,443.456 66.848,446.144 73.024,449.984 C 79.328,453.856 85.216,458.752 90.016,464.00 Z M 192.00,416.00 L 480.00,416.00 L 480.00,384.00 L 192.00,384.00 L 192.00,416.00 Z M 90.016,304.00 C 101.856,304.00 110.464,301.664 116.064,296.00 C 121.728,290.432 125.056,282.688 125.056,272.992 C 125.056,269.152 123.648,264.736 122.048,260.992 C 120.448,257.344 118.592,254.496 116.032,250.976 C 113.60,247.552 110.24,244.288 107.04,240.96 C 103.84,237.728 101.248,234.048 98.048,230.944 C 96.32,229.344 94.176,227.168 92.032,224.928 C 89.888,222.688 87.936,221.152 86.016,218.912 C 84.096,216.672 82.40,214.048 81.024,211.904 C 79.616,209.888 79.104,208.288 79.008,206.912 L 128.00,206.912 L 128.00,190.912 L 57.92,190.912 C 57.824,191.808 56.928,192.736 56.928,193.92 L 56.928,196.928 C 56.928,202.08 58.336,206.688 59.936,210.944 C 61.664,215.328 63.296,219.20 65.952,222.944 C 68.608,226.688 71.616,229.632 74.944,232.96 C 78.272,236.288 81.632,239.776 84.96,242.976 C 87.52,245.44 90.592,247.648 92.96,249.984 C 95.328,252.32 97.28,254.752 98.976,256.992 C 100.80,259.328 101.92,261.664 102.976,264.00 C 104.064,266.464 104.992,269.44 104.992,272.00 C 104.992,277.536 103.20,281.664 100.00,284.00 C 96.80,286.336 92.608,287.008 88.00,287.008 C 85.024,287.008 82.56,286.88 80.00,286.016 C 77.44,285.152 75.008,284.192 72.992,283.008 C 71.072,281.824 69.504,280.288 68.00,279.008 C 66.496,277.824 64.736,276.736 64.00,276.00 L 55.008,289.984 C 59.488,294.272 64.032,297.44 70.016,300.00 C 76.096,302.656 83.072,304.00 90.016,304.00 Z M 192.00,256.00 L 480.00,256.00 L 480.00,224.00 L 192.00,224.00 L 192.00,256.00 Z M 87.008,144.00 C 93.184,144.00 98.528,143.616 103.008,142.112 C 107.488,140.608 111.136,137.856 114.016,135.104 C 117.024,132.448 119.648,129.856 121.024,126.112 C 122.528,122.496 123.04,118.496 123.04,114.112 C 123.04,108.96 121.92,104.16 119.04,100.096 C 116.256,96.032 112.512,93.216 108.032,91.104 C 113.824,89.088 118.304,85.76 122.048,81.088 C 125.92,76.384 128.064,70.432 128.064,63.072 C 128.064,58.144 126.752,53.312 125.056,49.056 C 123.36,44.896 121.568,41.152 118.048,38.048 C 114.528,35.072 109.472,32.864 104.032,31.04 C 98.688,29.344 92.48,28.032 85.024,28.032 C 82.144,28.032 79.136,28.704 76.032,29.024 C 73.056,29.344 69.792,29.376 67.04,30.016 C 64.352,30.592 62.272,31.392 60.032,32.032 C 57.792,32.80 56.224,33.408 55.04,34.048 L 59.04,51.04 C 61.28,49.984 63.776,48.416 68.032,47.04 C 72.288,45.728 77.728,45.024 84.032,45.024 C 92.48,45.024 98.304,46.816 102.048,50.016 C 105.792,53.312 108.064,57.568 108.064,63.008 C 108.064,66.496 107.552,69.664 106.048,72.00 C 104.64,74.336 102.592,75.616 100.032,76.992 C 97.60,78.496 94.368,79.424 91.04,80.00 C 87.808,80.608 84.64,80.992 81.024,80.992 L 74.016,80.992 L 74.016,96.992 L 82.016,96.992 C 84.48,96.992 87.552,97.664 90.016,97.984 C 92.576,98.56 95.008,98.816 97.024,100.00 C 99.04,101.28 100.704,103.008 102.016,104.992 C 103.328,106.976 104.032,109.792 104.032,112.992 C 104.032,115.552 102.976,118.176 102.016,120.00 C 101.056,121.824 99.616,122.816 98.016,124.00 C 96.512,125.184 95.072,126.432 93.024,127.008 C 90.976,127.584 89.248,127.008 87.008,127.008 C 82.208,127.008 77.76,126.496 74.016,124.992 C 70.272,123.616 66.88,121.824 64.00,120.00 L 57.024,134.976 C 58.528,135.968 59.872,136.928 62.016,137.984 C 64.16,139.04 66.464,140.032 69.024,140.992 C 71.68,141.984 75.04,142.432 78.016,143.008 C 80.992,143.616 83.68,144.00 87.008,144.00 Z M 192.00,96.00 L 480.992,96.00 L 480.992,64.00 L 192.00,64.00 L 192.00,96.00 Z"  />
<glyph unicode="&#xe012;" d="M 334.016,417.984 L 448.00,417.984 L 448.00,47.968 L 405.984,47.968 L 405.984,385.984 L 364.992,385.984 L 364.992,47.968 L 324.00,47.968 L 324.00,232.96 C 294.272,236.608 271.20,246.048 255.008,261.952 C 238.816,278.016 230.016,299.008 230.016,324.96 C 230.016,352.672 240.064,375.04 259.008,391.968 C 277.952,408.896 302.656,417.984 334.016,417.984 Z M 64.00,359.008 L 199.008,224.032 L 64.00,90.016 L 64.00,359.008 Z"  />
<glyph unicode="&#xe013;" d="M 64.00,352.00 C 98.176,352.00 141.536,352.00 192.00,352.00 L 192.00,288.00 C 147.456,288.00 111.04,288.00 79.008,288.00 C 78.336,285.952 77.632,285.824 76.992,283.008 C 73.824,268.672 72.00,246.24 72.00,224.00 C 72.00,201.76 73.792,179.296 76.992,164.992 C 77.664,161.952 78.304,162.112 79.008,160.00 C 130.24,160.00 168.896,160.00 192.00,160.00 L 192.00,96.00 C 165.824,96.00 128.00,96.00 64.00,96.00 C 44.00,96.00 31.712,110.976 25.984,120.992 C 20.256,131.008 17.376,140.16 14.976,151.008 C 10.144,172.672 7.968,198.24 7.968,224.00 C 7.968,249.76 10.176,275.328 14.976,296.992 C 17.376,307.84 20.256,318.016 25.984,328.00 C 31.712,337.984 44.00,352.00 64.00,352.00 Z M 320.00,352.00 L 448.00,352.00 C 468.00,352.00 480.288,338.016 486.016,328.00 C 491.744,317.984 494.624,307.84 497.024,296.992 C 501.856,275.328 504.032,249.76 504.032,224.00 C 504.032,198.24 501.824,172.704 497.024,151.008 C 494.624,140.16 491.744,130.976 486.016,120.992 C 480.288,111.008 468.00,96.00 448.00,96.00 L 320.00,96.00 L 320.00,160.00 L 432.992,160.00 C 433.696,162.112 434.336,161.92 435.008,164.992 C 438.176,179.328 440.00,201.76 440.00,224.00 C 440.00,246.24 438.208,268.672 435.008,283.008 C 434.368,285.824 433.664,285.952 432.992,288.00 L 320.00,288.00 L 320.00,352.00 Z M 183.008,256.00 L 185.984,256.00 C 188.00,256.32 189.984,256.32 192.00,256.00 L 320.00,256.00 C 336.896,256.224 352.00,240.896 352.00,224.00 C 352.00,207.104 336.896,191.68 320.00,192.00 L 192.00,192.00 C 175.264,189.632 157.376,203.264 155.008,220.00 C 152.64,236.736 166.272,253.632 183.008,256.00 Z"  />
<glyph unicode="&#xe014;" d="M 64.00,416.00 L 448.00,416.00 L 448.00,384.00 L 64.00,384.00 L 64.00,416.00 Z M 64.00,352.00 L 352.00,352.00 L 352.00,320.00 L 64.00,320.00 L 64.00,352.00 Z M 64.00,288.00 L 448.00,288.00 L 448.00,256.00 L 64.00,256.00 L 64.00,288.00 Z M 64.00,224.00 L 352.00,224.00 L 352.00,192.00 L 64.00,192.00 L 64.00,224.00 Z M 64.00,160.00 L 448.00,160.00 L 448.00,128.00 L 64.00,128.00 L 64.00,160.00 Z M 64.00,96.00 L 352.00,96.00 L 352.00,64.00 L 64.00,64.00 L 64.00,96.00 Z"  />
<glyph unicode="&#xe015;" d="M 64.00,416.00 L 448.00,416.00 L 448.00,384.00 L 64.00,384.00 L 64.00,416.00 Z M 64.00,352.00 L 448.00,352.00 L 448.00,320.00 L 64.00,320.00 L 64.00,352.00 Z M 64.00,288.00 L 448.00,288.00 L 448.00,256.00 L 64.00,256.00 L 64.00,288.00 Z M 64.00,224.00 L 448.00,224.00 L 448.00,192.00 L 64.00,192.00 L 64.00,224.00 Z M 64.00,160.00 L 448.00,160.00 L 448.00,128.00 L 64.00,128.00 L 64.00,160.00 Z M 64.00,96.00 L 448.00,96.00 L 448.00,64.00 L 64.00,64.00 L 64.00,96.00 Z"  />
<glyph unicode="&#xe016;" d="M 296.992,416.00
	c-11.264,0.00-22.112-3.808-31.008-12.00c-8.544-8.192-12.00-18.368-12.00-31.008c0.00-10.912, 3.168-19.552, 10.016-24.992
	c 6.816-5.472, 14.784-8.00, 24.00-8.00c 11.264,0.00, 21.12,4.128, 30.016,12.00c 8.864,8.192, 14.016,18.368, 14.016,31.008
	c0.00,10.912-3.808,19.52-11.008,24.992C 314.176,413.792, 306.208,416.00, 296.992,416.00z M 244.00,300.00l-64.00-268.00l 62.016,0.00 l 64.00,268.00L 244.00,300.00 z"  />
<glyph unicode="&#xe017;" d="M 16.00,384.00l0.00-16.00 l0.00-256.00 
	l0.00-64.00 l0.00-16.00 L 32.00,32.00 l 448.00,0.00 l 16.00,0.00 l0.00,16.00 l0.00,96.00 l0.00,224.00 l0.00,16.00 L 480.00,384.00 L 32.00,384.00 L 16.00,384.00 z M 48.00,352.00l 416.00,0.00 l0.00-170.016 l-100.992,100.992c-3.488,3.776-8.864,5.728-14.016,4.992
	c-3.072-0.832-5.92-2.592-8.00-4.992l-124.00-124.00l-168.992-28.00L 48.00,352.00 z M 144.00,304.00c-26.528,0.00-48.00-21.472-48.00-48.00
	s 21.472-48.00, 48.00-48.00s 48.00,21.472, 48.00,48.00S 170.528,304.00, 144.00,304.00z"  />
<glyph unicode="&#xe018;" d="M 64.00,416.00 L 448.00,416.00 L 448.00,384.00 L 64.00,384.00 L 64.00,416.00 Z M 64.00,352.00 L 352.00,352.00 L 352.00,320.00 L 64.00,320.00 L 64.00,352.00 Z M 64.00,288.00 L 448.00,288.00 L 448.00,256.00 L 64.00,256.00 L 64.00,288.00 Z M 64.00,224.00 L 448.00,224.00 L 448.00,160.00 L 64.00,160.00 L 64.00,224.00 Z"  />
<glyph unicode="&#xe019;" d="M 468.992,315.008 L 491.008,292.992 L 171.008-27.008 L 148.992-4.992 L 468.992,315.008 Z M 468.992,219.008 L 491.008,196.992 L 267.008-27.008 L 244.992-4.992 L 468.992,219.008 Z M 468.992,123.008 L 491.008,100.992 L 363.008-27.008 L 340.992-4.992 L 468.992,123.008 Z"  />
<glyph unicode="&#xe01a;" d="M 254.496,168.00l-129.92,0.00 c-4.192-12.128-8.416-24.32-12.64-36.512S 103.808,107.424, 100.16,96.00L 22.40,96.00 c 12.512,35.808, 24.384,68.928, 35.616,99.36
	c 11.232,30.40, 22.208,59.072, 32.992,85.952c 10.752,26.88, 21.344,52.384, 31.776,76.576c 10.432,24.128, 21.248,47.744, 32.512,70.784l 70.976,0.00 
	c 10.944-23.04, 21.728-46.656, 32.32-70.784c 10.592-24.192, 21.28-49.696, 32.032-76.576c 10.784-26.88, 3.36-10.816, 14.656-41.216
	S 258.72,155.936, 254.496,168.00z M 189.184,353.312C 187.52,348.48, 185.056,341.888, 181.856,333.60c-3.20-8.32-6.88-17.92-10.976-28.832
	C 166.752,293.856, 162.144,281.856, 157.088,268.768C 152.00,255.68, 146.848,241.92, 141.60,227.552l 95.104,0.00 c-5.088,14.40-9.984,28.224-14.752,41.344
	C 217.184,282.016, 212.64,294.048, 208.352,304.96c-4.32,10.88-8.064,20.512-11.328,28.80C 193.824,342.08, 191.20,348.576, 189.184,353.312z M 411.552,31.968
	c-3.456,10.752-7.20,21.92-11.20,33.184c-3.936,11.328-7.936,22.752-11.872,34.016L 267.264,99.168 c-3.904-11.328-7.84-22.688-11.776-34.048
	S 247.872,42.688, 244.48,32.00L 171.936,32.00 c 11.68,33.44, 22.752,64.32, 33.248,92.672C 215.68,153.024, 225.92,179.808, 235.968,204.864
	c 10.016,25.152, 19.936,48.96, 29.664,71.52c 9.76,22.56, 19.84,44.576, 30.336,66.08l 66.208,0.00 c 10.176-21.504, 20.288-43.52, 30.112-66.08
	c 9.952-22.56, 19.872-46.368, 29.952-71.52c 10.048-25.056, 20.352-51.808, 30.848-80.192c 10.464-28.416, 21.632-59.296, 33.312-92.672L 411.552,31.968
	L 411.552,31.968z M 327.552,272.096c-1.568-4.512-3.776-10.656-6.816-18.432c-3.008-7.744-6.40-16.672-10.208-26.88
	C 306.656,216.64, 302.40,205.408, 297.664,193.152c-4.704-12.224-9.568-25.056-14.40-38.432l 88.704,0.00 c-4.704,13.44-9.312,26.304-13.856,38.56
	c-4.448,12.256-8.672,23.52-12.672,33.696c-4.00,10.144-7.456,19.136-10.56,26.88C 331.904,261.632, 329.472,267.712, 327.552,272.096z"  />
<glyph unicode="&#xe01b;" d="M 256.00,448.00C 141.312,448.00, 48.00,354.688, 48.00,240.00S 141.312,32.00, 256.00,32.00s 208.00,93.312, 208.00,208.00S 370.688,448.00, 256.00,448.00z M 256.00,416.00c 97.376,0.00, 176.00-78.624, 176.00-176.00
	S 353.376,64.00, 256.00,64.00s-176.00,78.624-176.00,176.00S 158.624,416.00, 256.00,416.00z M 192.00,352.00C 174.528,352.00, 160.00,337.472, 160.00,320.00s 14.528-32.00, 32.00-32.00s 32.00,14.528, 32.00,32.00S 209.472,352.00, 192.00,352.00z M 320.00,352.00
	C 302.496,352.00, 288.00,337.472, 288.00,320.00s 14.496-32.00, 32.00-32.00s 32.00,14.528, 32.00,32.00S 337.504,352.00, 320.00,352.00z M 144.00,208.00c0.00,0.00-0.064-20.864, 15.008-40.992C 174.08,146.912, 204.448,128.00, 256.00,128.00
	c 51.552,0.00, 81.952,18.912, 96.992,39.008C 368.032,187.136, 368.00,208.00, 368.00,208.00l-32.00,0.00 c0.00,0.00-0.064-10.048-8.992-22.016S 300.448,159.968, 256.00,159.968
	c-44.448,0.00-62.08,14.08-71.008,26.016C 176.064,197.952, 176.00,208.00, 176.00,208.00L 144.00,208.00 z"  />
<glyph unicode="&#xe01c;" d="M 96.00,376.00
	c-40.00,0.00-66.144-23.296-76.992-44.992s-11.008-43.008-11.008-43.008l0.00-160.00 c0.00,0.00, 0.128-20.288, 11.008-42.016s 36.992-46.016, 76.992-46.016l 320.00,0.00 
	c 39.872,0.00, 66.048,23.52, 76.992,44.992s 11.008,42.016, 11.008,42.016l0.00,160.992 c0.00,0.00-0.128,21.28-11.008,43.008s-36.992,44.992-76.992,44.992L 96.00,375.968 z
	 M 128.992,328.00l 254.016,0.00 L 256.00,221.984L 128.992,328.00z M 67.008,319.008l 174.016-144.992L 256.00,160.992l 15.008,12.992l 174.016,144.992
	c 2.592-2.688, 4.256-5.504, 6.016-8.992c 5.12-10.272, 4.992-22.016, 4.992-22.016l0.00-160.992 c0.00,0.00, 0.064-10.048-4.992-20.00
	s-10.88-19.008-35.008-19.008L 96.00,87.968 c-24.00,0.00-29.856,8.704-35.008,19.008s-4.992,20.992-4.992,20.992l0.00,160.00 c0.00,0.00-0.128,11.712, 4.992,22.016
	C 62.752,313.504, 64.416,316.288, 67.008,319.008z"  />
<glyph unicode="&#xe01d;" d="M 42.016,448.00l0.00-16.00 
	l0.00-96.00 l0.00-16.00 l0.00-304.00 l0.00-16.00 l 16.00,0.00 l 403.008,0.00 l 16.00,0.00 l0.00,16.00 l0.00,304.00 l0.00,16.00 l0.00,96.00 l0.00,16.00 l-16.00,0.00 l-58.016,0.00 l-16.00,0.00 l0.00-16.00 l0.00-48.00 l-54.016,0.00 l0.00,48.00 l0.00,16.00 l-16.00,0.00 L 202.016,448.00 l-16.00,0.00 l0.00-16.00 l0.00-48.00 L 131.008,384.00 
	l0.00,48.00 l0.00,16.00 l-16.00,0.00 L 58.016,448.00 L 42.016,448.00 z M 74.016,320.00l 371.008,0.00 l0.00-288.00 L 74.016,32.00 L 74.016,320.00 z M 320.992,277.984c-11.424,0.00-21.952-2.40-32.00-7.008
	c-9.92-4.448-18.496-11.008-26.016-18.016l 19.008-26.016c 1.184,1.184, 2.624,2.112, 4.992,4.00c 2.368,2.048, 4.736,4.096, 8.00,6.016
	c 3.392,2.048, 7.072,3.616, 11.008,4.992c 4.096,1.536, 8.384,3.008, 12.992,3.008c 6.304,0.00, 11.744-1.92, 16.00-4.992s 7.008-8.48, 7.008-16.00
	c0.00-3.392-1.472-6.592-3.008-10.016c-1.536-3.264-3.264-6.592-6.016-10.016c-2.752-3.264-5.44-6.432-8.992-10.016
	c-3.552-3.392-7.904-7.072-12.00-11.008c-5.312-5.12-10.528-10.88-16.00-16.00c-5.312-5.12-9.76-10.016-14.016-16.00
	c-4.256-5.824-8.256-12.192-11.008-19.008c-2.56-6.816-4.00-14.816-4.00-23.008l0.00-6.016 c0.00-2.912, 0.672-5.12, 0.992-7.008l 118.016,0.00 l0.00,32.00 L 310.016,127.872 
	c 0.512,1.696, 1.952,3.424, 4.00,6.016c 2.208,2.752, 4.256,5.952, 7.008,8.992s 5.088,6.08, 8.00,8.992
	c 3.072,3.072, 6.432,5.60, 8.992,8.00c 4.928,4.64, 9.888,9.888, 15.008,15.008s 9.92,10.528, 14.016,16.00
	c 4.096,5.632, 7.424,11.04, 10.016,16.992s 4.00,12.512, 4.00,19.008c0.00,7.84-1.632,14.848-4.00,20.992c-2.208,6.304-6.048,11.744-11.008,16.00
	c-4.768,4.448-10.496,7.584-18.016,10.016S 331.392,277.984, 320.992,277.984z M 184.992,272.992c-3.744-3.936-8.224-7.424-12.992-11.008
	c-4.608-3.392-9.888-6.752-15.008-10.016c-5.12-3.072-10.528-6.272-16.00-8.992c-5.312-2.56-10.048-3.968-15.008-6.016l 12.00-30.016
	c 5.984,2.048, 11.68,4.288, 18.016,7.008c 6.304,2.912, 11.872,6.592, 16.992,10.016l0.00-128.00 l 38.016,0.00 l0.00,176.992 L 184.992,272.96 z"  />
<glyph unicode="&#xe01e;" d="M 96.00,464.00
	c0.00-93.952, 120.768-247.392, 126.016-254.016l-58.016-91.008c-10.88,5.568-23.008,8.992-36.00,8.992c-44.00,0.00-80.00-36.00-80.00-80.00s 36.00-80.00, 80.00-80.00
	s 80.00,36.00, 80.00,80.00c0.00,14.208-4.416,27.392-11.008,39.008L 256.00,164.992l 59.008-78.016c-6.56-11.584-11.008-24.768-11.008-39.008
	c0.00-44.00, 36.00-80.00, 80.00-80.00s 80.00,36.00, 80.00,80.00s-36.00,80.00-80.00,80.00c-12.992,0.00-25.12-3.424-36.00-8.992l-58.016,91.008
	c 5.248,6.592, 126.016,160.032, 126.016,254.016l-32.00,0.00 l-128.00-200.992l-128.00,200.992L 96.00,464.00 z M 128.00,96.00c 26.688,0.00, 48.00-21.312, 48.00-48.00s-21.312-48.00-48.00-48.00
	s-48.00,21.312-48.00,48.00S 101.312,96.00, 128.00,96.00z M 384.00,96.00c 26.688,0.00, 48.00-21.312, 48.00-48.00s-21.312-48.00-48.00-48.00s-48.00,21.312-48.00,48.00
	S 357.312,96.00, 384.00,96.00z"  />
<glyph unicode="&#xe01f;" d="M 27.008,480.00
	c-6.624-2.176-11.328-9.056-11.008-16.00l0.00-320.00 c0.00-8.384, 7.616-16.00, 16.00-16.00l 176.00,0.00 l0.00-144.00 c0.00-8.832, 7.168-16.00, 16.00-16.00l 256.00,0.00 c 8.832,0.00, 16.00,7.168, 16.00,16.00
	l0.00,222.016 c 0.064,0.672, 0.064,1.312,0.00,2.016c0.00,0.32,0.00,0.672,0.00,0.992c 0.096,0.992, 0.096,2.016,0.00,3.008
	c-0.288,0.672-0.64,1.344-0.992,2.016c-0.576,1.088-1.216,2.08-2.016,3.008c0.00,0.32,0.00,0.672,0.00,0.992
	c-0.64,0.704-1.28,1.376-2.016,2.016c-1.184,1.216-2.496,2.208-4.00,3.008l-88.00,88.00c-1.632,3.552-4.448,6.40-8.00,8.00
	c-0.32,0.00-0.672,0.00-0.992,0.00c-0.32,0.352-0.672,0.672-0.992,0.992c-0.672,0.032-1.312,0.032-2.016,0.00c-0.992,0.096-2.016,0.096-3.008,0.00
	l-4.992,0.00 L 304.00,320.064 l0.00,46.016 c 0.064,0.672, 0.064,1.344,0.00,2.016c0.00,0.32,0.00,0.672,0.00,0.992c 0.096,0.992, 0.096,2.016,0.00,3.008
	c-0.288,0.672-0.64,1.344-0.992,2.016c-0.576,1.088-1.216,2.08-2.016,3.008c0.00,0.32,0.00,0.672,0.00,0.992
	c-0.64,0.704-1.28,1.376-2.016,2.016c-1.184,1.216-2.496,2.24-4.00,3.008l-88.00,88.00c-1.60,3.52-4.48,6.40-8.00,8.00
	c-0.32,0.00-0.672,0.00-0.992,0.00c-0.32,0.352-0.672,0.672-0.992,0.992L 195.008,480.128 L 192.00,480.128 L 187.008,480.128 L 32.00,480.128 C 30.336,480.32, 28.672,480.32, 27.008,480.00z
	 M 48.00,448.00l 128.00,0.00 l0.00-80.00 c0.00-0.32,0.00-0.672,0.00-0.992c-0.032-0.672-0.032-1.344,0.00-2.016c 0.32-0.352, 0.672-0.672, 0.992-0.992
	c 0.576-2.176, 1.60-4.224, 3.008-6.016c 2.88-3.616, 7.392-5.856, 12.00-6.016l 80.00,0.00 l0.00-32.00 L 224.00,319.968 c-1.664,0.256-3.328,0.256-4.992,0.00
	c-6.848-2.24-11.36-8.80-11.008-16.00l0.00-144.00 l-160.00,0.00 L 48.00,448.00 z M 208.00,425.984l 42.016-42.016L 208.00,383.968 L 208.00,425.984 z M 240.00,288.00l 128.00,0.00 l0.00-80.00 
	c0.00-0.32,0.00-0.672,0.00-0.992c-0.064-0.672-0.064-1.312,0.00-2.016c 0.32-0.352, 0.672-0.672, 0.992-0.992c 0.576-2.176, 1.60-4.256, 3.008-6.016
	c 2.944-3.648, 7.328-5.888, 12.00-6.016l 80.00,0.00 l0.00-192.00 l-224.00,0.00 L 240.00,288.00 z M 400.00,265.984l 42.016-42.016L 400.00,223.968 L 400.00,265.984 z"  />
<glyph unicode="&#xe020;" d="M 231.008,384.00
	c-9.696-20.512-18.848-40.928-28.00-62.016s-18.592-43.712-28.00-67.008c-9.152-23.296-18.304-47.936-28.00-74.016s-20.192-54.208-31.008-84.992
	l 54.016,0.00 c 3.872,11.104, 8.128,21.92, 12.00,32.992c 4.16,11.36, 8.128,23.328, 12.00,35.008l 120.992,0.00 c 3.872-11.648, 8.832-22.912, 12.992-34.016
	s 8.128-22.624, 12.00-34.016l 56.00,0.00 c-10.816,30.784-20.992,58.944-31.008,84.992c-9.696,26.048-19.552,50.688-28.992,74.016
	c-9.152,23.296-17.856,45.92-27.008,67.008s-18.304,41.472-28.00,62.016L 231.008,383.968 z M 255.008,328.992c 6.08-14.144, 12.672-32.64, 20.992-54.016
	s 17.12-44.32, 26.016-68.992L 207.008,205.984 c 8.864,24.672, 17.952,47.936, 26.016,68.992C 241.312,296.064, 248.64,314.304, 255.008,328.992z M 64.00,64.00l0.00-64.00 l 384.00,0.00 
	l0.00,64.00 L 64.00,64.00 z"  />
<glyph unicode="&#xe021;" d="M 91.008,448.00
	c-6.848-2.24-11.36-8.80-11.008-16.00l0.00-416.00 c0.00-8.832, 7.168-16.00, 16.00-16.00l 320.00,0.00 c 8.832,0.00, 16.00,7.168, 16.00,16.00l0.00,318.016 
	c 0.064,0.672, 0.064,1.344,0.00,2.016c0.00,0.32,0.00,0.672,0.00,0.992c 0.096,0.992, 0.096,2.016,0.00,3.008c-0.288,0.672-0.64,1.344-0.992,2.016
	c-0.576,1.088-1.216,2.08-2.016,3.008c0.00,0.32,0.00,0.672,0.00,0.992c-0.64,0.704-1.28,1.376-2.016,2.016
	c-1.184,1.216-2.496,2.208-4.00,3.008l-88.00,88.00c-1.632,3.552-4.448,6.40-8.00,8.00c-0.32,0.00-0.672,0.00-0.992,0.00
	c-0.32,0.352-0.672,0.672-0.992,0.992c-0.672,0.032-1.312,0.032-2.016,0.00c-0.992,0.096-2.016,0.096-3.008,0.00L 315.008,448.064 L 96.00,448.064 
	C 94.336,448.256, 92.672,448.256, 91.008,448.00z M 112.00,416.00l 192.00,0.00 l0.00-80.00 c0.00-0.32,0.00-0.672,0.00-0.992c-0.064-0.672-0.064-1.344,0.00-2.016
	c 0.32-0.352, 0.672-0.672, 0.992-0.992c 0.576-2.176, 1.60-4.224, 3.008-6.016c 2.944-3.648, 7.328-5.856, 12.00-6.016l 80.00,0.00 l0.00-288.00 l-288.00,0.00 L 112.00,416.00 z
	 M 336.00,393.984l 42.016-42.016L 336.00,351.968 L 336.00,393.984 z M 210.016,287.008l-64.00-64.00l-14.016-15.008l 14.016-14.016l 64.00-64.00l 28.00,28.992l-50.016,48.992l 50.016,50.016
	L 210.016,287.008z M 302.016,287.008l-28.00-28.992l 50.016-50.016l-50.016-48.992l 28.00-28.992l 64.00,64.00l 14.016,14.016l-14.016,15.008L 302.016,287.008z
	"  />
<glyph unicode="&#xe022;" d="M 64.00,416.00 L 448.00,416.00 L 448.00,384.00 L 64.00,384.00 L 64.00,416.00 Z M 128.00,352.00 L 384.00,352.00 L 384.00,320.00 L 128.00,320.00 L 128.00,352.00 Z M 64.00,288.00 L 448.00,288.00 L 448.00,256.00 L 64.00,256.00 L 64.00,288.00 Z M 128.00,224.00 L 384.00,224.00 L 384.00,192.00 L 128.00,192.00 L 128.00,224.00 Z M 64.00,160.00 L 448.00,160.00 L 448.00,128.00 L 64.00,128.00 L 64.00,160.00 Z M 128.00,96.00 L 384.00,96.00 L 384.00,64.00 L 128.00,64.00 L 128.00,96.00 Z"  />
<glyph unicode="&#xe023;" d="M 80.00,448.00 C 106.528,448.00 128.00,426.528 128.00,400.00 C 128.00,373.472 106.528,352.00 80.00,352.00 C 53.472,352.00 32.00,373.472 32.00,400.00 C 32.00,426.528 53.472,448.00 80.00,448.00 Z M 192.00,416.00 L 480.00,416.00 L 480.00,384.00 L 192.00,384.00 L 192.00,416.00 Z M 80.00,288.00 C 106.528,288.00 128.00,266.528 128.00,240.00 C 128.00,213.472 106.528,192.00 80.00,192.00 C 53.472,192.00 32.00,213.472 32.00,240.00 C 32.00,266.528 53.472,288.00 80.00,288.00 Z M 192.00,256.00 L 480.00,256.00 L 480.00,224.00 L 192.00,224.00 L 192.00,256.00 Z M 80.00,128.00 C 106.528,128.00 128.00,106.496 128.00,80.00 C 128.00,53.504 106.528,32.00 80.00,32.00 C 53.472,32.00 32.00,53.504 32.00,80.00 C 32.00,106.496 53.472,128.00 80.00,128.00 Z M 192.00,96.00 L 480.00,96.00 L 480.00,64.00 L 192.00,64.00 L 192.00,96.00 Z"  />
<glyph unicode="&#xe024;" d="M 198.016,404.992
	c-8.544-0.352-17.12-1.344-26.016-2.016s-18.464-1.632-27.008-3.008c-8.544-1.024-16.48-1.632-24.00-3.008l0.00-344.992 
	c 14.336-3.744, 31.904-5.984, 51.008-7.008c 19.104-1.376, 37.216-2.016, 56.00-2.016c 54.944,0.00, 96.384,8.896, 123.008,27.008
	c 26.624,18.432, 40.00,45.504, 40.00,82.016c0.00,21.504-5.76,40.00-16.00,54.016s-25.504,23.84-47.008,31.008c 14.304,7.168, 25.152,17.056, 32.992,28.992
	c 8.192,11.936, 12.00,26.272, 12.00,43.008c0.00,18.08-3.488,33.728-11.008,46.016s-18.336,21.472-32.00,28.992c-13.312,7.52-28.576,12.928-47.008,16.00
	c-18.432,3.424-38.496,4.992-60.00,4.992C 215.168,404.992, 206.88,405.344, 198.016,404.992z M 231.008,352.992
	c 23.20,0.00, 41.664-3.84, 56.00-11.008c 14.688-7.168, 22.016-19.936, 22.016-36.992c0.00-18.08-7.008-29.824-20.992-36.992
	c-14.016-6.816-33.408-11.008-58.016-11.008L 184.992,256.992 l0.00,92.992 c 5.472,0.672, 11.488,1.664, 19.008,2.016
	C 211.84,352.192, 221.088,352.992, 231.008,352.992z M 184.992,207.008l 56.992,0.00 c 25.952,0.00, 46.304-4.16, 60.992-12.00s 22.016-21.888, 22.016-42.016
	c0.00-11.264-2.88-20.80-8.00-28.00c-4.768-7.20-11.456-12.576-20.00-16.992c-8.192-4.096-18.368-7.328-30.016-8.992
	c-11.264-1.696-23.68-2.016-36.992-2.016c-6.816,0.00-13.824-0.352-22.016,0.00s-15.84,1.312-23.008,2.016L 184.96,207.008 z"  />
<glyph class="hidden" unicode="&#xf000;" d="M0,480L 512 -32L0 -32 z" horiz-adv-x="0" />
</font>
</defs>
</svg>
