<?xml version="1.0" standalone="no"?>
    <!--
 Remix Icon v3.0.0
 https://remixicon.com
 https://github.com/Remix-Design/RemixIcon

 Copyright RemixIcon.com
 Released under the Apache License Version 2.0

 Date: 2023-04-01
-->
<!DOCTYPE svg PUBLIC "-//W3C//DTD SVG 1.1//EN" "http://www.w3.org/Graphics/SVG/1.1/DTD/svg11.dtd" >
<svg xmlns="http://www.w3.org/2000/svg">
<defs>
  <font id="remixicon" horiz-adv-x="1200">
    <font-face font-family="remixicon"
      units-per-em="1200" ascent="1020"
      descent="180" />
    <missing-glyph horiz-adv-x="0" />
    <glyph glyph-name="24-hours-fill"
      unicode="&#xEA01;"
      horiz-adv-x="1200" d="M600.0005000000001 370.0007500000001C682.8405000000001 370.0007500000001 750.0005000000001 302.8407500000001 750.0005000000001 220.0007500000001C750.0005000000001 177.54075 732.3605000000001 139.20575 704.0105000000001 111.91575L608.5055000000001 20.0207499999999L750.0005000000001 20.00075V-79.99925H449.9995000000002L449.9545000000001 6.22075L634.6705000000001 183.97075C644.1255000000001 193.0807500000001 650.0005000000001 205.8557500000001 650.0005000000001 220.0007500000001C650.0005000000001 247.6157500000001 627.6155000000001 270.0007500000001 600.0005000000001 270.0007500000001C572.3855000000001 270.0007500000001 550.0005000000001 247.6157500000001 550.0005000000001 220.0007500000001H449.9995000000002C449.9995000000002 302.8407500000001 517.1555000000002 370.0007500000001 600.0005000000001 370.0007500000001zM900.0005000000001 370.0007500000001V170.0007500000001H1000.0005000000002V370.0007500000001H1100.0004999999999V-79.99925H1000.0005000000002V70.00075H800.0005000000001V370.0007500000001H900.0005000000001zM199.9995000000001 420.0007500000001C199.9995000000001 293.67075 258.5615 181.02075 350.0190000000001 107.7157500000001L350.0005000000001 -13.1092499999999C200.5495000000001 73.3407500000001 99.9995000000001 234.93075 99.9995000000001 420.0007500000001H199.9995000000001zM600.0005000000001 919.99925C859.2655000000001 919.99925 1072.4405000000002 722.6682500000001 1097.5305 470.00575L996.9055000000002 469.99575C972.3005000000002 667.31375 803.9805 819.99925 600.0005000000001 819.99925C476.8065 819.99925 366.6210000000001 764.30775 293.2455000000001 676.72775L399.9995000000002 569.9992500000001H99.9995000000001V869.99925L222.3275000000001 747.67525C314.0010000000001 853.24475 449.2045000000001 919.99925 600.0005000000001 919.99925z" />
    <glyph glyph-name="24-hours-line"
      unicode="&#xEA02;"
      horiz-adv-x="1200" d="M600.0005000000001 370.0007500000001C682.8405000000001 370.0007500000001 750.0005000000001 302.8407500000001 750.0005000000001 220.0007500000001C750.0005000000001 177.54075 732.3605000000001 139.20575 704.0105000000001 111.91575L608.5055000000001 20.0207499999999L750.0005000000001 20.00075V-79.99925H449.9995000000002L449.9545000000001 6.22075L634.6705000000001 183.97075C644.1255000000001 193.0807500000001 650.0005000000001 205.8557500000001 650.0005000000001 220.0007500000001C650.0005000000001 247.6157500000001 627.6155000000001 270.0007500000001 600.0005000000001 270.0007500000001C572.3855000000001 270.0007500000001 550.0005000000001 247.6157500000001 550.0005000000001 220.0007500000001H449.9995000000002C449.9995000000002 302.8407500000001 517.1555000000002 370.0007500000001 600.0005000000001 370.0007500000001zM900.0005000000001 370.0007500000001V170.0007500000001H1000.0005000000002V370.0007500000001H1100.0004999999999V-79.99925H1000.0005000000002V70.00075H800.0005000000001V370.0007500000001H900.0005000000001zM199.9995000000001 420.0007500000001C199.9995000000001 293.67075 258.5615 181.02075 350.0190000000001 107.7157500000001L350.0005000000001 -13.1092499999999C200.5495000000001 73.3407500000001 99.9995000000001 234.93075 99.9995000000001 420.0007500000001H199.9995000000001zM600.0005000000001 919.99925C859.2655000000001 919.99925 1072.4405000000002 722.6682500000001 1097.5305 470.00575L996.9055000000002 469.99575C972.3005000000002 667.31375 803.9805 819.99925 600.0005000000001 819.99925C462.5105000000001 819.99925 341.2230000000001 750.63225 269.2255000000001 644.98725L399.9995000000002 644.99925V544.9992500000001H99.9995000000001V844.99925H199.9995000000001L199.9940000000001 720.04025C291.2165000000001 841.46175 436.4365 919.99925 600.0005000000001 919.99925z" />
    <glyph glyph-name="4k-fill"
      unicode="&#xEA03;"
      horiz-adv-x="1200" d="M150 870H1050C1077.615 870 1100 847.614 1100 820V20C1100 -7.615 1077.615 -30 1050 -30H150C122.386 -30 100 -7.615 100 20V820C100 847.614 122.386 870 150 870zM575 345V420H525V570H450V420H375V570H300V345H450V270H525V345H575zM900 270L787.5 420L900 570H812.5L725 457.5V570H650V270H725V382.5L812.5 270H900z" />
    <glyph glyph-name="4k-line"
      unicode="&#xEA04;"
      horiz-adv-x="1200" d="M200 770V70H1000V770H200zM150 870H1050C1077.615 870 1100 847.614 1100 820V20C1100 -7.615 1077.615 -30 1050 -30H150C122.386 -30 100 -7.615 100 20V820C100 847.614 122.386 870 150 870zM575 345H525V270H450V345H300V570H375V420H450V570H525V420H575V345zM900 270H812.5L725 382.5V270H650V570H725V457.5L812.5 570H900L787.5 420L900 270z" />
    <glyph glyph-name="a-b"
      unicode="&#xEA05;"
      horiz-adv-x="1200" d="M215 270V170C215 117.28 262.5 70 315 70H465V-30H315C204.543 -30 115 59.5450000000001 115 170V270H215zM865 520L1085 -30H977.25L917.2 120H712.7L652.75 -30H545.0500000000001L765 520H865zM815 375.74L752.65 220H877.25L815 375.74zM115 870H415C497.845 870 565 802.8425 565 720C565 681.561 550.5400000000001 646.499 526.765 619.9559999999999C550.56 593.4580000000001 565 558.4155 565 520C565 437.155 497.845 370 415 370H115V870zM415 570H215V470H415C442.614 470 465 492.385 465 520C465 547.5 442.5000000000001 570 415 570zM815 870C925.455 870 1015 780.457 1015 670V570H915V670C915 725.2284999999999 870.23 770 815 770H665V870H815zM415 770H215V670H415C442.614 670 465 692.386 465 720C465 747.5 442.5000000000001 770 415 770z" />
    <glyph glyph-name="account-box-fill"
      unicode="&#xEA06;"
      horiz-adv-x="1200" d="M150 770.2455C150 825.3385000000001 194.631 870 249.7545 870H950.245C1005.34 870 1050 825.369 1050 770.2455V69.755C1050 14.66 1005.3699999999998 -30 950.245 -30H249.7545C194.6615 -30 150 14.6300000000001 150 69.755V770.2455zM317.8435 120H892.375C829.125 210.6750000000001 724.045 270 605.11 270C486.172 270 381.091 210.6750000000001 317.8435 120zM600 370C696.65 370 775 448.35 775 545C775 641.65 696.65 720 600 720C503.35 720 425 641.65 425 545C425 448.35 503.35 370 600 370z" />
    <glyph glyph-name="account-box-line"
      unicode="&#xEA07;"
      horiz-adv-x="1200" d="M150 770.2455C150 825.3385000000001 194.631 870 249.7545 870H950.245C1005.34 870 1050 825.369 1050 770.2455V69.755C1050 14.66 1005.3699999999998 -30 950.245 -30H249.7545C194.6615 -30 150 14.6300000000001 150 69.755V770.2455zM250 770V70H950V770H250zM398.608 110.9599999999999C367.6735 124.355 338.3595000000001 140.7850000000001 311.0415000000001 159.88C373.3865 256.235 481.801 320 605.11 320C725.075 320 830.945 259.645 894.0049999999999 167.64C867.19 147.8200000000001 838.32 130.615 807.775 116.41C762.36 179.17 688.5 220 605.11 220C519.325 220 443.6355 176.795 398.608 110.9599999999999zM600 370C503.35 370 425 448.35 425 545C425 641.65 503.35 720 600 720C696.65 720 775 641.65 775 545C775 448.35 696.65 370 600 370zM600 470C641.42 470 675 503.58 675 545C675 586.4215 641.42 620 600 620C558.58 620 525 586.4215 525 545C525 503.58 558.58 470 600 470z" />
    <glyph glyph-name="account-circle-fill"
      unicode="&#xEA08;"
      horiz-adv-x="1200" d="M600 920C876 920 1100 696 1100 420C1100 144 876 -80 600 -80C324 -80 100 144 100 420C100 696 324 920 600 920zM301.166 249.1850000000001C374.5415 139.655 484.7555 70 607.985 70C731.215 70 841.4300000000001 139.655 914.805 249.1850000000001C834.4250000000001 324.14 726.5600000000001 370 607.985 370C489.4105 370 381.5475 324.14 301.166 249.1850000000001zM600 470C682.845 470 750 537.1575 750 620C750 702.8425 682.845 770 600 770C517.155 770 450 702.8425 450 620C450 537.1575 517.155 470 600 470z" />
    <glyph glyph-name="account-circle-line"
      unicode="&#xEA09;"
      horiz-adv-x="1200" d="M600 920C876.14 920 1100 696.1424999999999 1100 420C1100 143.86 876.14 -80 600 -80C323.8575 -80 100 143.86 100 420C100 696.1424999999999 323.8575 920 600 920zM607.985 220C506.215 220 414.591 176.565 350.6380000000001 107.2199999999999C419.0195 52.63 505.7 20 600 20C698.475 20 788.635 55.585 858.3299999999999 114.595C794.78 179.6299999999999 706.095 220 607.985 220zM600 820C379.086 820 200 640.914 200 420C200 329.4699999999999 230.075 245.9649999999999 280.7785 178.93C362.8195 265.7950000000001 479.072 320 607.985 320C732.205 320 844.665 269.67 926.09 188.29C972.63 253.665 1000 333.635 1000 420C1000 640.914 820.915 820 600 820zM600 770C710.4549999999999 770 800 680.457 800 570C800 459.5450000000001 710.4549999999999 370 600 370C489.543 370 400 459.5450000000001 400 570C400 680.457 489.543 770 600 770zM600 670C544.77 670 500 625.2284999999999 500 570C500 514.77 544.77 470 600 470C655.23 470 700 514.77 700 570C700 625.2284999999999 655.23 670 600 670z" />
    <glyph glyph-name="account-pin-box-fill"
      unicode="&#xEA0A;"
      horiz-adv-x="1200" d="M700 20L600 -80L500 20H249.7545C194.6615 20 150 64.6300000000001 150 119.755V820.2455C150 875.3385000000001 194.631 920 249.7545 920H950.245C1005.34 920 1050 875.369 1050 820.2455V119.755C1050 64.66 1005.3699999999998 20 950.245 20H700zM317.8435 170H892.375C829.125 260.6750000000001 724.045 320 605.11 320C486.172 320 381.091 260.6750000000001 317.8435 170zM600 420C696.65 420 775 498.35 775 595C775 691.65 696.65 770 600 770C503.35 770 425 691.65 425 595C425 498.35 503.35 420 600 420z" />
    <glyph glyph-name="account-pin-box-line"
      unicode="&#xEA0B;"
      horiz-adv-x="1200" d="M700 20L600 -80L500 20H249.7545C194.6615 20 150 64.6300000000001 150 119.755V820.2455C150 875.3385000000001 194.631 920 249.7545 920H950.245C1005.34 920 1050 875.369 1050 820.2455V119.755C1050 64.66 1005.3699999999998 20 950.245 20H700zM950 120V820H250V120H541.42L600 61.42L658.58 120H950zM398.608 160.9599999999999C367.6735 174.355 338.3595000000001 190.7850000000001 311.0415000000001 209.88C373.3865 306.235 481.801 370 605.11 370C725.075 370 830.945 309.645 894.0049999999999 217.64C867.19 197.8200000000001 838.32 180.615 807.775 166.41C762.36 229.17 688.5 270 605.11 270C519.325 270 443.6355 226.795 398.608 160.9599999999999zM600 420C503.35 420 425 498.35 425 595C425 691.65 503.35 770 600 770C696.65 770 775 691.65 775 595C775 498.35 696.65 420 600 420zM600 520C641.42 520 675 553.58 675 595C675 636.4215 641.42 670 600 670C558.58 670 525 636.4215 525 595C525 553.58 558.58 520 600 520z" />
    <glyph glyph-name="account-pin-circle-fill"
      unicode="&#xEA0C;"
      horiz-adv-x="1200" d="M712.7900000000001 -17.21L600 -130L487.208 -17.21C265.4705 33.98 100 232.7850000000001 100 470C100 746 324 970 600 970C876 970 1100 746 1100 470C1100 232.7850000000001 934.53 33.98 712.7900000000001 -17.21zM301.166 299.1850000000001C374.5415 189.655 484.7555 120 607.985 120C731.215 120 841.4300000000001 189.655 914.805 299.1850000000001C834.4250000000001 374.14 726.5600000000001 420 607.985 420C489.4105 420 381.5475 374.14 301.166 299.1850000000001zM600 520C682.845 520 750 587.1575 750 670C750 752.8425 682.845 820 600 820C517.155 820 450 752.8425 450 670C450 587.1575 517.155 520 600 520z" />
    <glyph glyph-name="account-pin-circle-line"
      unicode="&#xEA0D;"
      horiz-adv-x="1200" d="M487.231 -17.23C265.399 33.905 100 232.635 100 470C100 746.1424999999999 323.8575 970 600 970C876.14 970 1100 746.1424999999999 1100 470C1100 232.635 934.6 33.905 712.77 -17.23L600 -130L487.231 -17.23zM350.5865 157.1650000000001C396.2235 120.6999999999999 450.2165 93.9250000000001 509.6949999999999 80.215L537.655 73.7699999999999L600 11.4199999999998L662.345 73.7699999999999L690.3050000000001 80.215C753.725 94.835 810.915 124.305 858.38 164.545C794.8249999999999 229.61 706.125 270 607.985 270C506.1899999999999 270 414.5415 226.5400000000001 350.5865 157.1650000000001zM280.781 228.93C362.822 315.7950000000001 479.073 370 607.985 370C732.2 370 844.655 319.675 926.08 238.3C972.815 304.0750000000001 1000 384.295 1000 470C1000 690.914 820.915 870 600 870C379.086 870 200 690.914 200 470C200 380.18 229.854 296.39 280.781 228.93zM600 420C489.543 420 400 509.5450000000001 400 620C400 730.457 489.543 820 600 820C710.4549999999999 820 800 730.457 800 620C800 509.5450000000001 710.4549999999999 420 600 420zM600 520C655.23 520 700 564.77 700 620C700 675.2284999999999 655.23 720 600 720C544.77 720 500 675.2284999999999 500 620C500 564.77 544.77 520 600 520z" />
    <glyph glyph-name="add-box-fill"
      unicode="&#xEA0E;"
      horiz-adv-x="1200" d="M200 870H1000C1027.615 870 1050 847.614 1050 820V20C1050 -7.615 1027.615 -30 1000 -30H200C172.386 -30 150 -7.615 150 20V820C150 847.614 172.386 870 200 870zM550 470H350V370H550V170H650V370H850V470H650V670H550V470z" />
    <glyph glyph-name="add-box-line"
      unicode="&#xEA0F;"
      horiz-adv-x="1200" d="M200 870H1000C1027.615 870 1050 847.614 1050 820V20C1050 -7.615 1027.615 -30 1000 -30H200C172.386 -30 150 -7.615 150 20V820C150 847.614 172.386 870 200 870zM250 770V70H950V770H250zM550 470V670H650V470H850V370H650V170H550V370H350V470H550z" />
    <glyph glyph-name="add-circle-fill"
      unicode="&#xEA10;"
      horiz-adv-x="1200" d="M600 -80C323.8575 -80 100 143.86 100 420C100 696.1424999999999 323.8575 920 600 920C876.14 920 1100 696.1424999999999 1100 420C1100 143.86 876.14 -80 600 -80zM550 470H350V370H550V170H650V370H850V470H650V670H550V470z" />
    <glyph glyph-name="add-circle-line"
      unicode="&#xEA11;"
      horiz-adv-x="1200" d="M550 470V670H650V470H850V370H650V170H550V370H350V470H550zM600 -80C323.8575 -80 100 143.86 100 420C100 696.1424999999999 323.8575 920 600 920C876.14 920 1100 696.1424999999999 1100 420C1100 143.86 876.14 -80 600 -80zM600 20C820.915 20 1000 199.085 1000 420C1000 640.914 820.915 820 600 820C379.086 820 200 640.914 200 420C200 199.085 379.086 20 600 20z" />
    <glyph glyph-name="add-fill"
      unicode="&#xEA12;"
      horiz-adv-x="1200" d="M550 470V770H650V470H950V370H650V70H550V370H250V470H550z" />
    <glyph glyph-name="add-line"
      unicode="&#xEA13;"
      horiz-adv-x="1200" d="M550 470V770H650V470H950V370H650V70H550V370H250V470H550z" />
    <glyph glyph-name="admin-fill"
      unicode="&#xEA14;"
      horiz-adv-x="1200" d="M550 295V-105H150C150 115.915 329.086 295 550 295zM550 345C384.25 345 250 479.25 250 645C250 810.75 384.25 945 550 945C715.75 945 850 810.75 850 645C850 479.25 715.75 345 550 345zM1000 145H1050V-105H650V145H700V195C700 277.8450000000001 767.155 345 850 345C932.845 345 1000 277.8450000000001 1000 195V145zM900 145V195C900 222.615 877.6149999999999 245 850 245C822.3850000000001 245 800 222.615 800 195V145H900z" />
    <glyph glyph-name="admin-line"
      unicode="&#xEA15;"
      horiz-adv-x="1200" d="M550 295V195C384.3145 195 250 60.6850000000001 250 -105H150C150 115.915 329.086 295 550 295zM550 345C384.25 345 250 479.25 250 645C250 810.75 384.25 945 550 945C715.75 945 850 810.75 850 645C850 479.25 715.75 345 550 345zM550 445C660.5 445 750 534.5 750 645C750 755.5 660.5 845 550 845C439.5 845 350 755.5 350 645C350 534.5 439.5 445 550 445zM1000 145H1050V-105H650V145H700V195C700 277.8450000000001 767.155 345 850 345C932.845 345 1000 277.8450000000001 1000 195V145zM900 145V195C900 222.615 877.6149999999999 245 850 245C822.3850000000001 245 800 222.615 800 195V145H900z" />
    <glyph glyph-name="advertisement-fill"
      unicode="&#xEA16;"
      horiz-adv-x="1200" d="M377.5985 370L419.9485 475.74L462.199 370H377.5985zM800 420H850V320H800C772.385 320 750 342.385 750 370C750 397.615 772.385 420 800 420zM1050 870H150C122.386 870 100 847.614 100 820V20C100 -7.615 122.386 -30 150 -30H1050C1077.615 -30 1100 -7.615 1100 20V820C1100 847.614 1077.615 870 1050 870zM629.9000000000001 220H522.15L502.15 270H337.6485L317.6485 220H209.9485L269.8985 369.9L269.9485 370L369.9485 620H469.9485L629.9000000000001 220zM850 620H950V220H800C717.155 220 650 287.155 650 370C650 452.845 717.155 520 800 520H850V620z" />
    <glyph glyph-name="advertisement-line"
      unicode="&#xEA17;"
      horiz-adv-x="1200" d="M629.9000000000001 220L469.9465 620H369.9465L269.9465 370L269.8975 369.9L209.9485 220H317.6515L337.6465 270H502.15L522.15 220H629.9000000000001zM377.6 370L419.9465 475.745L462.201 370H377.6zM850 620H950V220H800C717.155 220 650 287.155 650 370C650 452.845 717.155 520 800 520H850V620zM800 420C772.3900000000001 420 750 397.6099999999999 750 370C750 342.3900000000001 772.3900000000001 320 800 320H850V420H800zM1050 870H150C122.3875 870 100 847.6125 100 820V20C100 -7.6099999999999 122.3875 -30 150 -30H1050C1077.61 -30 1100 -7.6099999999999 1100 20V820C1100 847.6125 1077.61 870 1050 870zM200 70V770H1000V70H200z" />
    <glyph glyph-name="airplay-fill"
      unicode="&#xEA18;"
      horiz-adv-x="1200" d="M620 343.3349999999999L869.9999999999999 10C878.285 -1.045 876.0450000000001 -16.7150000000001 865 -25C860.675 -28.2449999999999 855.41 -30 850 -30H350C336.193 -30 325 -18.8050000000001 325 -5C325 0.41 326.7545 5.675 330 10L580 343.3349999999999C588.2850000000001 354.38 603.955 356.62 615 348.3350000000001C616.895 346.91 618.58 345.23 620 343.3349999999999zM900 70V170H1000V770H200V170H300V70H149.59C122.2025 70 100 92.23 100 120.0450000000001V819.9565C100 847.5945 122.7655 870 149.59 870H1050.4099999999999C1077.8 870 1100 847.7685 1100 819.9565V120.0450000000001C1100 92.405 1077.235 70 1050.4099999999999 70H900z" />
    <glyph glyph-name="airplay-line"
      unicode="&#xEA19;"
      horiz-adv-x="1200" d="M620 343.3349999999999L869.9999999999999 10C878.285 -1.045 876.0450000000001 -16.7150000000001 865 -25C860.675 -28.2449999999999 855.41 -30 850 -30H350C336.193 -30 325 -18.8050000000001 325 -5C325 0.41 326.7545 5.675 330 10L580 343.3349999999999C588.2850000000001 354.38 603.955 356.62 615 348.3350000000001C616.895 346.91 618.58 345.23 620 343.3349999999999zM600 203.5000000000001L500 70H700L600 203.5000000000001zM900 70V170H1000V770H200V170H300V70H149.59C122.2025 70 100 92.23 100 120.0450000000001V819.9565C100 847.5945 122.7655 870 149.59 870H1050.4099999999999C1077.8 870 1100 847.7685 1100 819.9565V120.0450000000001C1100 92.405 1077.235 70 1050.4099999999999 70H900z" />
    <glyph glyph-name="alarm-fill"
      unicode="&#xEA1A;"
      horiz-adv-x="1200" d="M599.9977500000001 -61.32575C351.4717500000001 -61.32575 149.99975 140.1442499999998 149.99975 388.6742499999999C149.99975 637.2012499999998 351.4717500000001 838.6732499999999 599.9977500000001 838.6732499999999C848.5277500000001 838.6732499999999 1049.99775 637.2012499999998 1049.99775 388.6742499999999C1049.99775 140.1442499999998 848.5277500000001 -61.32575 599.9977500000001 -61.32575zM649.9977500000001 388.6742499999999V638.6732499999998H549.9977500000001V288.6742499999999H799.9977500000001V388.6742499999999H649.9977500000001zM87.34725 724.5492499999999L264.1242500000001 901.32575L334.83475 830.61525L158.0582500000001 653.8382499999999L87.34725 724.5492499999999zM935.87775 901.32575L1112.65275 724.5492499999999L1041.9427500000002 653.8382499999999L865.16275 830.61525L935.87775 901.32575z" />
    <glyph glyph-name="alarm-line"
      unicode="&#xEA1B;"
      horiz-adv-x="1200" d="M599.9977500000001 -61.32575C351.4717500000001 -61.32575 149.99975 140.1442499999998 149.99975 388.6742499999999C149.99975 637.2012499999998 351.4717500000001 838.6732499999999 599.9977500000001 838.6732499999999C848.5277500000001 838.6732499999999 1049.99775 637.2012499999998 1049.99775 388.6742499999999C1049.99775 140.1442499999998 848.5277500000001 -61.32575 599.9977500000001 -61.32575zM599.9977500000001 38.6742499999999C793.2977500000001 38.6742499999999 949.99775 195.37425 949.99775 388.6742499999999C949.99775 581.97325 793.2977500000001 738.6732499999999 599.9977500000001 738.6732499999999C406.7002500000001 738.6732499999999 249.9997500000001 581.97325 249.9997500000001 388.6742499999999C249.9997500000001 195.37425 406.7002500000001 38.6742499999999 599.9977500000001 38.6742499999999zM649.9977500000001 388.6742499999999H799.9977500000001V288.6742499999999H549.9977500000001V638.6732499999998H649.9977500000001V388.6742499999999zM87.34725 724.5492499999999L264.1242500000001 901.32575L334.83475 830.61525L158.0582500000001 653.8382499999999L87.34725 724.5492499999999zM935.87775 901.32575L1112.65275 724.5492499999999L1041.9427500000002 653.8382499999999L865.16275 830.61525L935.87775 901.32575z" />
    <glyph glyph-name="alarm-warning-fill"
      unicode="&#xEA1C;"
      horiz-adv-x="1200" d="M199.9992499999999 20V320C199.9992499999999 540.914 379.0852499999999 720 600.0002499999998 720C820.91525 720 1000.00025 540.914 1000.00025 320V20H1050.0002499999998V-80H149.9992499999999V20H199.9992499999999zM299.99925 320H399.99925C399.99925 430.455 489.54225 520 600.0002499999998 520V620C434.3137499999999 620 299.99925 485.6850000000001 299.99925 320zM550.0002499999998 920H650.0002499999998V770H550.0002499999998V920zM988.91025 779.6195L1059.62025 708.9085L953.5552499999998 602.8425L882.84025 673.5535L988.91025 779.6195zM140.37975 708.9085L211.0907499999999 779.6195L317.15675 673.5535L246.4457499999999 602.8425L140.37975 708.9085z" />
    <glyph glyph-name="alarm-warning-line"
      unicode="&#xEA1D;"
      horiz-adv-x="1200" d="M199.9992499999999 20V320C199.9992499999999 540.914 379.0852499999999 720 600.0002499999998 720C820.91525 720 1000.00025 540.914 1000.00025 320V20H1050.0002499999998V-80H149.9992499999999V20H199.9992499999999zM299.99925 20H900.00025V320C900.00025 485.6850000000001 765.68525 620 600.0002499999998 620C434.3137499999999 620 299.99925 485.6850000000001 299.99925 320V20zM550.0002499999998 920H650.0002499999998V770H550.0002499999998V920zM988.91025 779.6195L1059.62025 708.9085L953.5552499999998 602.8425L882.84025 673.5535L988.91025 779.6195zM140.37975 708.9085L211.0907499999999 779.6195L317.15675 673.5535L246.4457499999999 602.8425L140.37975 708.9085zM349.99925 320C349.99925 458.0700000000001 461.92825 570 600.0002499999998 570V470C517.1552499999998 470 449.99925 402.8450000000001 449.99925 320H349.99925z" />
    <glyph glyph-name="album-fill"
      unicode="&#xEA1E;"
      horiz-adv-x="1200" d="M600 920C876 920 1100 696 1100 420C1100 144 876 -80 600 -80C324 -80 100 144 100 420C100 696 324 920 600 920zM600 220C710.665 220 800 309.3350000000001 800 420C800 530.6664999999999 710.665 620 600 620C489.3335000000001 620 400 530.6664999999999 400 420C400 309.3350000000001 489.3335000000001 220 600 220zM600 470C627.5 470 650 447.5 650 420C650 392.5 627.5 370 600 370C572.5 370 550 392.5 550 420C550 447.5 572.5 470 600 470z" />
    <glyph glyph-name="album-line"
      unicode="&#xEA1F;"
      horiz-adv-x="1200" d="M600 20C820.915 20 1000 199.085 1000 420C1000 640.914 820.915 820 600 820C379.086 820 200 640.914 200 420C200 199.085 379.086 20 600 20zM600 -80C323.8575 -80 100 143.86 100 420C100 696.1424999999999 323.8575 920 600 920C876.14 920 1100 696.1424999999999 1100 420C1100 143.86 876.14 -80 600 -80zM600 320C655.23 320 700 364.77 700 420C700 475.23 655.23 520 600 520C544.77 520 500 475.23 500 420C500 364.77 544.77 320 600 320zM600 220C489.543 220 400 309.5450000000001 400 420C400 530.457 489.543 620 600 620C710.4549999999999 620 800 530.457 800 420C800 309.5450000000001 710.4549999999999 220 600 220z" />
    <glyph glyph-name="alert-fill"
      unicode="&#xEA20;"
      horiz-adv-x="1200" d="M643.29911905392 857.4964760368797L1119.6091190539203 32.4949760368797C1133.4191190539202 8.5799760368797 1125.22411905392 -22.0000239631202 1101.30911905392 -35.8050239631202C1093.7091190539202 -40.1950239631203 1085.08911905392 -42.5050239631203 1076.30911905392 -42.5050239631203H123.68211905392C96.06761905392 -42.5050239631203 73.68211905392 -20.1200239631203 73.68211905392 7.4949760368797C73.68211905392 16.2749760368797 75.99211905392 24.8949760368797 80.38061905392 32.4949760368797L556.69411905392 857.4964760368797C570.50411905392 881.4114760368798 601.07911905392 889.6049760368797 624.99411905392 875.7979760368797C632.5991190539199 871.4094760368797 638.90911905392 865.0974760368797 643.29911905392 857.4964760368797zM549.99411905392 207.4949760368797V107.4949760368797H649.99411905392V207.4949760368797H549.99411905392zM549.99411905392 557.4964760368797V307.4949760368798H649.99411905392V557.4964760368797H549.99411905392z" />
    <glyph glyph-name="alert-line"
      unicode="&#xEA21;"
      horiz-adv-x="1200" d="M643.29911905392 857.4964760368797L1119.6091190539203 32.4949760368797C1133.4191190539202 8.5799760368797 1125.22411905392 -22.0000239631202 1101.30911905392 -35.8050239631202C1093.7091190539202 -40.1950239631203 1085.08911905392 -42.5050239631203 1076.30911905392 -42.5050239631203H123.68211905392C96.06761905392 -42.5050239631203 73.68211905392 -20.1200239631203 73.68211905392 7.4949760368797C73.68211905392 16.2749760368797 75.99211905392 24.8949760368797 80.38061905392 32.4949760368797L556.69411905392 857.4964760368797C570.50411905392 881.4114760368798 601.07911905392 889.6049760368797 624.99411905392 875.7979760368797C632.5991190539199 871.4094760368797 638.90911905392 865.0974760368797 643.29911905392 857.4964760368797zM210.2846190539201 57.4949760368797H989.70911905392L599.99411905392 732.4964760368798L210.2846190539201 57.4949760368797zM549.99411905392 207.4949760368797H649.99411905392V107.4949760368797H549.99411905392V207.4949760368797zM549.99411905392 557.4964760368797H649.99411905392V307.4949760368798H549.99411905392V557.4964760368797z" />
    <glyph glyph-name="aliens-fill"
      unicode="&#xEA22;"
      horiz-adv-x="1200" d="M600 932.5C834.72 932.5 1025 742.221 1025 507.5C1025 182.5 750 -92.5 600 -92.5C450 -92.5 175 182.5 175 507.5C175 742.221 365.279 932.5 600 932.5zM875 432.5C750.735 432.5 650 331.765 650 207.5C650 199.485 650.42 191.5700000000001 651.26 183.74C659.0600000000001 182.9200000000001 666.98 182.5 675 182.5C799.265 182.5 900 283.235 900 407.5C900 415.52 899.5799999999999 423.44 898.7299999999999 431.265C890.93 432.0800000000001 883.015 432.5 875 432.5zM325 432.5C316.9815 432.5 309.0605 432.0800000000001 301.2375 431.24C300.4195000000001 423.44 300 415.52 300 407.5C300 283.235 400.7360000000001 182.5 525 182.5C533.015 182.5 540.93 182.9200000000001 548.765 183.7700000000001C549.58 191.5700000000001 550 199.485 550 207.5C550 331.765 449.264 432.5 325 432.5z" />
    <glyph glyph-name="aliens-line"
      unicode="&#xEA23;"
      horiz-adv-x="1200" d="M600 932.5C834.72 932.5 1025 742.221 1025 507.5C1025 182.5 750 -92.5 600 -92.5C450 -92.5 175 182.5 175 507.5C175 742.221 365.279 932.5 600 932.5zM600 832.5C420.5075 832.5 275 686.9925000000001 275 507.5C275 267.8100000000001 483.2499999999999 7.5 600 7.5C716.75 7.5 925 267.8100000000001 925 507.5C925 686.9925000000001 779.495 832.5 600 832.5zM875 482.5C883.015 482.5 890.93 482.08 898.7299999999999 481.265C899.5799999999999 473.4399999999999 900 465.52 900 457.5C900 333.235 799.265 232.5 675 232.5C666.98 232.5 659.0600000000001 232.92 651.26 233.74C650.42 241.5700000000001 650 249.485 650 257.5C650 381.765 750.735 482.5 875 482.5zM325 482.5C449.264 482.5 550 381.765 550 257.5C550 249.485 549.58 241.5700000000001 548.765 233.77C540.93 232.92 533.015 232.5 525 232.5C400.7360000000001 232.5 300 333.235 300 457.5C300 465.52 300.4195000000001 473.4399999999999 301.2375 481.24C309.0605 482.08 316.9815 482.5 325 482.5z" />
    <glyph glyph-name="align-bottom"
      unicode="&#xEA24;"
      horiz-adv-x="1200" d="M150 70H1050V-30H150V70zM400 370H550L350 170L150 370H300V870H400V370zM900 370H1050L850 170L650 370H800V870H900V370z" />
    <glyph glyph-name="align-center"
      unicode="&#xEA25;"
      horiz-adv-x="1200" d="M150 845H1050V745H150V845zM250 95H950V-5H250V95zM150 345H1050V245H150V345zM250 595H950V495H250V595z" />
    <glyph glyph-name="align-justify"
      unicode="&#xEA26;"
      horiz-adv-x="1200" d="M150 845H1050V745H150V845zM150 95H1050V-5H150V95zM150 345H1050V245H150V345zM150 595H1050V495H150V595z" />
    <glyph glyph-name="align-left"
      unicode="&#xEA27;"
      horiz-adv-x="1200" d="M150 845H1050V745H150V845zM150 95H850V-5H150V95zM150 345H1050V245H150V345zM150 595H850V495H150V595z" />
    <glyph glyph-name="align-right"
      unicode="&#xEA28;"
      horiz-adv-x="1200" d="M150 845H1050V745H150V845zM350 95H1050V-5H350V95zM150 345H1050V245H150V345zM350 595H1050V495H350V595z" />
    <glyph glyph-name="align-top"
      unicode="&#xEA29;"
      horiz-adv-x="1200" d="M150 870H1050V770H150V870zM400 470V-30H300V470H150L350 670L550 470H400zM900 470V-30H800V470H650L850 670L1050 470H900z" />
    <glyph glyph-name="align-vertically"
      unicode="&#xEA2A;"
      horiz-adv-x="1200" d="M150 470H1050V370H150V470zM900 120V-30H800V120H650L850 320L1050 120H900zM400 120V-30H300V120H150L350 320L550 120H400zM900 720H1050L850 520L650 720H800V870H900V720zM400 720H550L350 520L150 720H300V870H400V720z" />
    <glyph glyph-name="alipay-fill"
      unicode="&#xEA2B;"
      horiz-adv-x="1200" d="M1071.12 252.12C879.645 309.76 768.335 344.12 737.2 355.2000000000001C765.6 404 788.4000000000001 460 803.2 521.1999999999999H640V576.4H840V610.4H640V702.8H563.1999999999999C549.2 702.8 547.6 690.4000000000001 547.6 690.4000000000001V610.8H360V576.8H547.6V521.6H394V490.8000000000001H705.1999999999999C694 452 678.8000000000001 415.2000000000001 660.8 382C590.4 405.2000000000001 551.1999999999999 421.2 465.2 429.2C302.4 444.8000000000001 264.8 355.2000000000001 258.8 300.4C250 216.8 324 148.8000000000001 434.4000000000001 148.8000000000001C544.8000000000001 148.8000000000001 618.4 200.0000000000001 688.4000000000001 284.8C746.73 256.905 855.295 208.5350000000001 1014.095 139.69C924.175 7.115 772.26 -80 600 -80C323.8575 -80 100 143.86 100 420C100 696.1424999999999 323.8575 920 600 920C876.14 920 1100 696.1424999999999 1100 420C1100 361.11 1089.82 304.5950000000001 1071.12 252.12zM421.6 201.6C304.8 201.6 286.4 275.6 292.4 306.4C298.4 337.2 332.4 377.2000000000001 397.6 377.2000000000001C472.4 377.2000000000001 539.2 358 619.6 319.2000000000001C562.8 245.2 493.6 201.6 421.6 201.6z" />
    <glyph glyph-name="alipay-line"
      unicode="&#xEA2C;"
      horiz-adv-x="1200" d="M920.395 180.4850000000001C811.765 228.01 734.4350000000001 262.7850000000001 688.4000000000001 284.8C618.4 200.0000000000001 544.8000000000001 148.8000000000001 434.4000000000001 148.8000000000001C324 148.8000000000001 250 216.8 258.8 300.4C264.8 355.2000000000001 302.4 444.8000000000001 465.2 429.2C551.1999999999999 421.2 590.4 405.2000000000001 660.8 382C678.8000000000001 415.2000000000001 694 452 705.1999999999999 490.8000000000001H394V521.6H547.6V576.8H360V610.8H547.6V690.4000000000001C547.6 690.4000000000001 549.2 702.8 563.1999999999999 702.8H640V610.4H840V576.4H640V521.1999999999999H803.2C788.4000000000001 460 765.6 404 737.2 355.2000000000001C762.715 346.12 842.0500000000001 321.41 975.215 281.0750000000001C991.245 324.35 1000 371.15 1000 420C1000 640.914 820.915 820 600 820C379.086 820 200 640.914 200 420C200 199.085 379.086 20 600 20C731.085 20 847.4399999999999 83.055 920.395 180.4850000000001zM600 -80C323.8575 -80 100 143.86 100 420C100 696.1424999999999 323.8575 920 600 920C876.14 920 1100 696.1424999999999 1100 420C1100 143.86 876.14 -80 600 -80zM421.6 201.6C493.6 201.6 562.8 245.2 619.6 319.2000000000001C539.2 358 472.4 377.2000000000001 397.6 377.2000000000001C332.4 377.2000000000001 298.4 337.2 292.4 306.4C286.4 275.6 304.8 201.6 421.6 201.6z" />
    <glyph glyph-name="amazon-fill"
      unicode="&#xEA2D;"
      horiz-adv-x="1200" d="M1099.924942307457 133.9500000000001C1099.924942307457 97.56 1079.6699423074572 27.5650000000001 1034.1899423074572 -10.8950000000001C1025.0849423074571 -17.9150000000001 1015.9799423074572 -13.9300000000002 1019.969942307457 -3.7300000000001C1033.1999423074571 28.66 1063.5449423074572 103.64 1049.3249423074571 120.86C1039.269942307457 133.9500000000001 997.774942307457 132.995 962.384942307457 129.9599999999999C946.2249423074568 127.9149999999999 932.039942307457 126.9249999999999 921.029942307457 124.74C910.834942307457 123.895 908.754942307457 132.8549999999999 918.9499423074571 139.8749999999999C932.039942307457 149.12 946.2249423074568 156.145 962.489942307457 161.26C1019.969942307457 178.48 1086.4199423074572 168.115 1095.9349423074573 157.13C1097.7749423074572 155.005 1099.924942307457 149.12 1099.924942307457 133.9500000000001zM1003.844942307457 69.1999999999999C990.754942307457 59.11 976.5699423074572 49.9 962.384942307457 41.75C856.249942307457 -22.045 718.814942307457 -55.42 599.449942307457 -55.42C407.3274423074571 -55.42 235.4574423074571 15.43 105.0819423074571 133.9500000000001C93.8969423074571 143.05 103.141442307457 156.2850000000001 116.2319423074571 149.12C256.698442307457 67.12 430.614942307457 17.5100000000001 610.634942307457 17.5100000000001C723.934942307457 17.5100000000001 846.049942307457 38.7149999999999 962.384942307457 84.34C970.499942307457 87.3749999999999 979.604942307457 91.5 987.579942307457 94.3950000000001C1005.924942307457 102.685 1022.049942307457 82.295 1003.844942307457 69.1999999999999zM695.329942307457 620.6775C695.3699423074571 672.7875 697.434942307457 703.4350000000001 680.1699423074571 729.7405C664.849942307457 751.3794999999999 638.5299423074571 764.356 601.749942307457 762.323C561.839942307457 760.1165 518.994942307457 733.9525 508.049942307457 686.0079999999999C505.944942307457 675.0645 499.502442307457 664.245 486.2464423074571 661.85L364.4644423074571 677.3359999999999C355.750942307457 679.4005 342.5359423074571 686.0079999999999 346.8724423074571 703.4350000000001C373.0124423074571 841.033 490.623442307457 888.978 601.749942307457 895.42H627.8899423074571C688.884942307457 895.42 767.264942307457 877.9929999999999 817.439942307457 832.196C878.2699423074571 775.4139999999999 871.7849423074571 699.0989999999999 871.7849423074571 616.1764999999999V419.8549999999999C871.7849423074571 360.9649999999999 895.6549423074571 334.8699999999999 919.689942307457 304.185C926.174942307457 293.24 928.404942307457 280.315 917.459942307457 271.435C893.4249423074571 249.675 847.749942307457 210.485 821.6099423074571 188.7199999999999C812.899942307457 182.0749999999999 797.194942307457 181.365 791.134942307457 186.4499999999999C752.644942307457 218.74 743.229942307457 236.625 719.359942307457 269.375C677.8999423074571 225.8050000000001 643.0449423074571 201.7699999999999 601.584942307457 188.7199999999999C575.444942307457 182.0749999999999 547.2399423074571 177.9 512.384942307457 177.9C407.866442307457 177.9 325.109442307457 243.065 325.109442307457 371.95C325.109442307457 474.365 379.6199423074571 544.04 460.1059423074571 576.9865C540.589942307457 609.935 657.599942307457 620.4915 695.329942307457 620.6775zM671.459942307457 361.13C697.434942307457 404.7000000000001 695.329942307457 440.44 695.329942307457 520.37C662.744942307457 520.37 629.999942307457 518.0999999999999 601.749942307457 511.49C549.509942307457 496.3349999999999 508.049942307457 463.425 508.049942307457 393.7149999999999C508.049942307457 339.205 536.4199423074571 302.12 584.324942307457 302.12C590.929942307457 302.12 596.714942307457 302.945 601.749942307457 304.3499999999999C635.214942307457 313.69 656.139942307457 330.4899999999999 671.459942307457 361.13z" />
    <glyph glyph-name="amazon-line"
      unicode="&#xEA2E;"
      horiz-adv-x="1200" d="M768.0748826564909 336.92C712.7198826564909 255.99 631.6448826564908 217.7149999999999 536.7998826564908 217.7149999999999C421.5943826564909 217.7149999999999 322.9798826564908 306.35 337.1588826564908 423.905C352.8888826564908 554.325 454.1303826564908 610.4415 622.5648826564908 631.0595C652.6198826564909 634.7385 665.0648826564909 635.773 729.9098826564908 640.5765C732.3448826564909 640.757 734.6398826564908 640.928 736.8148826564908 641.0924999999999C736.8048826564908 644.65 736.7998826564908 648.2294999999999 736.7998826564908 651.83C736.7998826564908 741.6245 683.4048826564908 802.92 611.7998826564908 802.92C539.9548826564909 802.92 489.7798826564908 765.5524999999999 459.0608826564907 676.5994999999999L364.5378826564908 709.2399999999999C408.9088826564908 837.7334999999999 496.4398826564908 902.92 611.7998826564908 902.92C741.9348826564909 902.92 836.7998826564908 794.0205 836.7998826564908 651.83C836.7998826564908 519.39 844.9648826564909 414.045 860.9648826564909 373.95C878.7648826564908 329.3499999999999 885.2548826564908 318.125 905.1498826564908 293.32L827.1398826564908 230.755C800.979882656491 263.3699999999999 789.5098826564908 283.2 768.0848826564909 336.885L768.0748826564909 336.92zM1049.6248826564909 40.66C1036.0848826564907 30.66 1012.5498826564906 36.6049999999999 1023.2048826564908 62.6849999999998C1036.4348826564908 95.0749999999999 1050.5398826564908 133.065 1036.3198826564908 150.285C1025.7998826564908 163.025 1012.9398826564908 169.3649999999999 984.9498826564908 169.3649999999999C961.9698826564908 169.3649999999999 950.4298826564908 166.395 935.2048826564908 165.38C924.9948826564907 164.6999999999999 920.5298826564908 180.235 930.639882656491 187.3749999999999C943.7298826564908 196.62 957.8448826564908 203.865 974.1798826564908 208.76C1031.6598826564907 225.975 1099.4148826564908 216.54 1107.6248826564909 204.63C1125.8948826564906 178.125 1097.709882656491 76.17 1049.6248826564909 40.66zM990.5348826564908 94.88C977.444882656491 82.0999999999999 963.259882656491 70.4399999999999 949.0748826564908 60.12C842.9398826564908 -20.6550000000001 705.5048826564908 -62.92 586.1398826564908 -62.92C394.0173826564908 -62.92 222.1473826564908 26.7900000000001 91.7718826564908 176.8649999999999C80.5868826564908 188.39 89.8313826564908 205.1450000000001 102.9218826564908 196.0750000000001C243.3883826564908 92.2449999999999 417.3048826564908 29.4249999999998 597.3248826564908 29.4249999999998C710.6248826564909 29.4249999999998 832.7398826564907 56.2799999999999 949.0748826564908 114.045C957.1898826564908 117.89 966.2948826564908 123.1149999999999 974.2698826564908 126.7799999999999C992.6148826564907 137.28 1008.7398826564907 111.4549999999999 990.5348826564908 94.88zM737.2998826564908 540.85C674.3748826564909 536.1899999999999 662.4998826564909 535.2 634.7148826564908 531.8C507.0748826564908 516.175 444.8523826564908 481.6849999999999 436.4393826564908 411.935C430.1463826564908 359.76 476.9253826564908 317.7150000000001 536.7998826564908 317.7150000000001C638.7498826564909 317.7150000000001 712.6598826564908 379.1 737.8998826564908 540.895C737.6998826564909 540.88 737.4998826564909 540.8649999999999 737.2998826564908 540.85z" />
    <glyph glyph-name="anchor-fill"
      unicode="&#xEA2F;"
      horiz-adv-x="1200" d="M650 526.301V23.5999999999999C830.9350000000001 46.2750000000001 974.345 190.3849999999999 996.905 372.2100000000001H850L1035.21 670C1076.45 596.934 1100 512.46 1100 422.455C1100 144.9549999999999 876.14 -80 600 -80C323.8575 -80 100 144.9549999999999 100 422.455C100 512.46 123.5485 596.934 164.791 670L350 372.2100000000001H203.0945C225.657 190.3849999999999 369.064 46.2750000000001 550 23.5999999999999V526.301C463.7385 548.5029999999999 400 626.808 400 720C400 830.457 489.543 920 600 920C710.4549999999999 920 800 830.457 800 720C800 626.808 736.26 548.5029999999999 650 526.301zM600 620C655.23 620 700 664.7715000000001 700 720C700 775.2284999999999 655.23 820 600 820C544.77 820 500 775.2284999999999 500 720C500 664.7715000000001 544.77 620 600 620z" />
    <glyph glyph-name="anchor-line"
      unicode="&#xEA30;"
      horiz-adv-x="1200" d="M102.469 470H350V370H203.0945C225.657 189.065 369.064 45.6550000000001 550 23.095V526.301C463.7385 548.5029999999999 400 626.808 400 720C400 830.457 489.543 920 600 920C710.4549999999999 920 800 830.457 800 720C800 626.808 736.26 548.5029999999999 650 526.301V23.095C830.9350000000001 45.6550000000001 974.345 189.065 996.905 370H850V470H1097.53C1099.165 453.5549999999999 1100 436.875 1100 420C1100 143.86 876.14 -80 600 -80C323.8575 -80 100 143.86 100 420C100 436.875 100.836 453.5549999999999 102.469 470zM600 620C655.23 620 700 664.7715000000001 700 720C700 775.2284999999999 655.23 820 600 820C544.77 820 500 775.2284999999999 500 720C500 664.7715000000001 544.77 620 600 620z" />
    <glyph glyph-name="ancient-gate-fill"
      unicode="&#xEA31;"
      horiz-adv-x="1200" d="M348.205 870H851.7950000000001C864.22 783.9 938.0100000000002 720 1025 720C1041.6100000000001 720 1058.13 722.3645 1074.075 727.0219999999999C1064.86 637.807 989.69 570 900 570H300C210.311 570 135.14 637.807 125.926 727.0215000000001C141.868 722.3645 158.3915 720 175 720C261.9925 720 335.7775000000001 783.9 348.205 870zM1148.93 464.4300000000001C1127.1100000000001 452.045 1101.88 444.975 1075 444.975C1019.48 444.975 971.0050000000002 475.14 945.065 519.9749999999999H254.9325C228.997 475.14 180.521 444.975 125 444.975C98.1185 444.975 72.889 452.045 51.069 464.4300000000001C50.3625 458.045 50 451.55 50 444.975C50 375.1650000000001 90.8765 314.905 150 286.815V-30H450V70C450 152.845 517.16 220 600 220C682.845 220 750 152.845 750 70V-30H1050V286.815C1109.125 314.905 1150 375.1650000000001 1150 444.975C1150 451.55 1149.635 458.045 1148.93 464.4300000000001z" />
    <glyph glyph-name="ancient-gate-line"
      unicode="&#xEA32;"
      horiz-adv-x="1200" d="M348.2035 870H851.79C864.22 783.8995 938.0050000000002 720 1025 720C1041.605 720 1058.13 722.364 1074.07 727.0215000000001C1064.86 637.807 989.685 570 900 570H299.9985000000001C210.3095 570 135.139 637.807 125.9245 727.0215000000001C141.8665 722.364 158.3905 720 174.9985 720C261.991 720 335.776 783.8995 348.2035 870zM844.97 687.1195C816.9549999999999 711.38 795.0999999999999 739.0070000000001 779.4050000000001 770H420.592C404.8965 739.0070000000001 383.0420000000001 711.38 355.0285 687.1195C347.9550000000001 680.9935 340.725 675.287 333.339 670H866.6550000000001C859.2750000000001 675.287 852.0450000000001 680.9935 844.97 687.1195zM1075 444.975C1101.88 444.975 1127.1100000000001 452.045 1148.93 464.4300000000001C1149.635 458.045 1150 451.55 1150 444.975C1150 375.1650000000001 1109.125 314.905 1050 286.815V-30H700V70C700 125.23 655.23 170 600 170C544.77 170 500 125.23 500 70V-30H150V286.815C90.8765 314.905 50 375.1650000000001 50 444.975C50 451.55 50.3625 458.045 51.069 464.4300000000001C72.889 452.045 98.1185 444.975 125 444.975C180.521 444.975 228.997 475.14 254.9325 519.9749999999999H945.065C971.0050000000002 475.14 1019.48 444.975 1075 444.975zM948.16 379.515C928.78 390.94 911.48 404.425 896.26 419.975H303.7395C288.521 404.425 271.2215 390.94 251.8415 379.515C241.7 373.535 231.3415 368.3349999999999 220.766 363.91L250 350.02V70H400C400 125.23 419.526 172.37 458.5785 211.42C497.631 250.475 544.77 270 600 270C655.23 270 702.37 250.475 741.42 211.42C780.475 172.37 800 125.23 800 70H950V350.02L979.2350000000002 363.91C968.66 368.3349999999999 958.3 373.535 948.16 379.515z" />
    <glyph glyph-name="ancient-pavilion-fill"
      unicode="&#xEA33;"
      horiz-adv-x="1200" d="M75.7905 601.1935000000001C83.9955 503.5440000000001 154.4575 422.4325 250.0005 400.6575000000001V44.9675H150.0005V-55.0325H1050.0045V44.9675H950.0045V400.6575000000001C1045.5444999999997 422.4325 1116.0095 503.5440000000001 1124.2095 601.1935000000001C1099.6895 597.0935 1074.8645 595.0325 1050.0045 595.0325C859.2995 595.0325 689.3045 715.2365 625.7395 895.0325H574.2645C510.6995 715.2365 340.7029999999999 595.0325 150.0005 595.0325C125.1365 595.0325 100.3145 597.0935 75.7905 601.1935000000001zM850.0045 44.9675H350.0005V395.0325000000001H850.0045V44.9675z" />
    <glyph glyph-name="ancient-pavilion-line"
      unicode="&#xEA34;"
      horiz-adv-x="1200" d="M75.7905 601.1935000000001C83.9955 503.5440000000001 154.4575 422.4325 250.0005 400.6575000000001V44.9675H150.0005V-55.0325H1050.0045V44.9675H950.0045V400.6575000000001C1045.5444999999997 422.4325 1116.0095 503.5440000000001 1124.2095 601.1935000000001C1099.6895 597.0935 1074.8645 595.0325 1050.0045 595.0325C859.2995 595.0325 689.3045 715.2365 625.7395 895.0325H574.2645C510.6995 715.2365 340.7029999999999 595.0325 150.0005 595.0325C125.1365 595.0325 100.3145 597.0935 75.7905 601.1935000000001zM850.0045 44.9675H350.0005V395.0325000000001H850.0045V44.9675zM927.7795 498.158L914.0645 495.0325H285.936L272.223 498.158C265.4195 499.7085 258.902 501.7355 252.6695 504.239C329.5034999999999 518.423 401.128 548.9965000000001 467.5435 595.9594999999999C520.3745 633.317 564.5295 677.2385 600.0045 727.725C635.4745 677.2385 679.6295 633.317 732.4594999999999 595.9594999999999C798.8745 548.9965000000001 870.4995 518.423 947.3345 504.239C941.0995 501.7355 934.5795 499.7085 927.7795 498.158z" />
    <glyph glyph-name="android-fill"
      unicode="&#xEA35;"
      horiz-adv-x="1200" d="M319.1155 821.595C396.0995 883.1765 493.7495 920 600 920C706.25 920 803.9 883.1765 880.885 821.595L953.555 894.264L1024.2649999999999 823.5535L951.595 750.8845C1013.175 673.9005 1050 576.2505 1050 470V420H150V470C150 576.2505 186.8235 673.9005 248.405 750.8845L175.736 823.5535L246.4465 894.264L319.1155 821.595zM150 320H1050V-30C1050 -57.615 1027.615 -80 1000 -80H200C172.386 -80 150 -57.615 150 -30V320zM450 570C477.614 570 500 592.386 500 620C500 647.614 477.614 670 450 670C422.386 670 400 647.614 400 620C400 592.386 422.386 570 450 570zM750 570C777.615 570 800 592.386 800 620C800 647.614 777.615 670 750 670C722.385 670 700 647.614 700 620C700 592.386 722.385 570 750 570z" />
    <glyph glyph-name="android-line"
      unicode="&#xEA36;"
      horiz-adv-x="1200" d="M950 370H250V20H950V370zM950 470C950 663.2995000000001 793.3 820 600 820C406.7005 820 250 663.2995000000001 250 470H950zM319.1155 821.595C396.0995 883.1765 493.7495 920 600 920C706.25 920 803.9 883.1765 880.885 821.595L953.555 894.264L1024.2649999999999 823.5535L951.595 750.8845C1013.175 673.9005 1050 576.2505 1050 470V-30C1050 -57.615 1027.615 -80 1000 -80H200C172.386 -80 150 -57.615 150 -30V470C150 576.2505 186.8235 673.9005 248.405 750.8845L175.736 823.5535L246.4465 894.264L319.1155 821.595zM450 570C422.386 570 400 592.386 400 620C400 647.614 422.386 670 450 670C477.614 670 500 647.614 500 620C500 592.386 477.614 570 450 570zM750 570C722.385 570 700 592.386 700 620C700 647.614 722.385 670 750 670C777.615 670 800 647.614 800 620C800 592.386 777.615 570 750 570z" />
    <glyph glyph-name="angularjs-fill"
      unicode="&#xEA37;"
      horiz-adv-x="1200" d="M600 920L1065 754L994.075 138.5L600 -80L205.9235 138.5L135 754L600 920zM600 809.5L309.3125 156.9999999999999H417.6960000000001L476.1329999999999 303H722.87L781.3050000000001 156.9999999999999H889.69L600 809.5zM684.91 393H515.09L600 597.5L684.91 393z" />
    <glyph glyph-name="angularjs-line"
      unicode="&#xEA38;"
      horiz-adv-x="1200" d="M876.165 187.4649999999999L900.62 201.025L956.565 686.5295L600 813.819L243.436 686.5295L299.3805 201.025L323.073 187.8900000000001L600 809.5L876.165 187.4649999999999zM821.2200000000001 156.9999999999999H781.3050000000001L722.87 303H476.1329999999999L417.6960000000001 156.9999999999999H378.781L600 34.3449999999999L821.2200000000001 156.9999999999999zM600 920L1065 754L994.075 138.5L600 -80L205.9235 138.5L135 754L600 920zM684.91 393L600 597.5L515.09 393H684.91z" />
    <glyph glyph-name="anticlockwise-2-fill"
      unicode="&#xEA39;"
      horiz-adv-x="1200" d="M700 795H800C938.07 795 1050 683.071 1050 545V345H950V545C950 627.8425 882.845 695 800 695H700V545L450 745L700 945V795zM750 445V-55C750 -82.615 727.615 -105 700 -105H200C172.386 -105 150 -82.615 150 -55V445C150 472.615 172.386 495 200 495H700C727.615 495 750 472.615 750 445z" />
    <glyph glyph-name="anticlockwise-2-line"
      unicode="&#xEA3A;"
      horiz-adv-x="1200" d="M670.7099999999999 688.9350999999999L762.13 597.5136L691.42 526.8026L479.2895 738.9350999999999L691.42 951.0669L762.13 880.3561L670.7099999999999 788.9350999999999H800C938.07 788.9350999999999 1050 677.0061 1050 538.9350999999999V338.9331H950V538.9350999999999C950 621.7775999999999 882.845 688.9350999999999 800 688.9350999999999H670.7099999999999zM750 438.9331V-61.0669C750 -88.6768999999999 727.615 -111.0669 700 -111.0669H200C172.386 -111.0669 150 -88.6768999999999 150 -61.0669V438.9331C150 466.5481 172.386 488.9350999999999 200 488.9350999999999H700C727.615 488.9350999999999 750 466.5481 750 438.9331zM650 388.9331H250V-11.0669H650V388.9331z" />
    <glyph glyph-name="anticlockwise-fill"
      unicode="&#xEA3B;"
      horiz-adv-x="1200" d="M325 520H475L275 270L75 520H225V620C225 758.071 336.929 870 475 870H675V770H475C392.1575 770 325 702.8425 325 620V520zM575 570H1075C1102.615 570 1125 547.614 1125 520V20C1125 -7.615 1102.615 -30 1075 -30H575C547.385 -30 525 -7.615 525 20V520C525 547.614 547.385 570 575 570z" />
    <glyph glyph-name="anticlockwise-line"
      unicode="&#xEA3C;"
      horiz-adv-x="1200" d="M581.0672000000001 570H1081.0672C1108.6772 570 1131.0672 547.614 1131.0672 520V20C1131.0672 -7.615 1108.6772 -30 1081.0672 -30H581.0672000000001C553.4522000000001 -30 531.0672000000001 -7.615 531.0672000000001 20V520C531.0672000000001 547.614 553.4522000000001 570 581.0672000000001 570zM631.0672000000001 470V70H1031.0672V470H631.0672000000001zM331.0647 490.7099999999999L422.4862000000001 582.1320000000001L493.1967000000001 511.42L281.0647 299.2900000000001L68.9328 511.42L139.6437000000001 582.1320000000001L231.0647 490.7099999999999V620C231.0647 758.071 342.9937000000001 870 481.0647000000001 870H681.0672000000001V770H481.0647000000001C398.2222000000001 770 331.0647 702.8425 331.0647 620V490.7099999999999z" />
    <glyph glyph-name="app-store-fill"
      unicode="&#xEA3D;"
      horiz-adv-x="1200" d="M600 920C876.14 920 1100 696.1424999999999 1100 420C1100 143.86 876.14 -80 600 -80C323.8575 -80 100 143.86 100 420C100 696.1424999999999 323.8575 920 600 920zM441.129 252.865C421.402 276.685 396.865 285.2150000000001 367.2005 278.3000000000001L359.6775 276.25L330.242 225.4450000000001C318.9515 205.685 325.605 180.4850000000001 345.363 169.1949999999999C363.4745000000001 158.845 386.1600000000001 163.5700000000001 398.5115 179.6500000000001L401.6130000000001 184.3150000000001L441.129 252.865zM660.485 586.9355C636.09 566.774 611.49 507.0949999999999 645.97 447.62L797.985 184.3150000000001C809.4749999999999 164.5550000000001 834.4749999999999 157.905 854.2350000000001 169.1949999999999C872.345 179.73 879.4449999999999 201.615 871.805 220.4050000000001L869.355 225.4450000000001L829.2350000000001 295H888.71C911.49 295 929.8400000000001 313.3449999999999 929.8400000000001 336.13C929.8400000000001 357.16 914.205 374.4100000000001 893.8800000000001 376.94L888.71 377.26H781.6550000000001L672 567.1295L660.485 586.9355zM674.395 739.153C656.285 749.5025 633.6 744.7745 621.245 728.6959999999999L618.145 724.0325L599.8000000000001 692.379L581.855 724.0325C570.365 743.7905000000001 545.365 750.4435 525.605 739.153C507.495 728.619 500.395 706.7339999999999 508.03 687.941L510.485 682.903L552.4200000000001 610.121L418.145 377.4600000000001H313.3065000000001C290.524 377.4600000000001 272.1775 359.115 272.1775 336.33C272.1775 315.3000000000001 287.81 298.05 308.134 295.52L313.3065000000001 295.2H687.3000000000001C704.345 327.1900000000001 684.27 372.64 646.7850000000001 377.105L640.725 377.4600000000001H513.105L689.515 682.903C700.805 702.6614999999999 694.1550000000001 727.863 674.395 739.153z" />
    <glyph glyph-name="app-store-line"
      unicode="&#xEA3E;"
      horiz-adv-x="1200" d="M600 920C876.14 920 1100 696.1424999999999 1100 420C1100 143.86 876.14 -80 600 -80C323.8575 -80 100 143.86 100 420C100 696.1424999999999 323.8575 920 600 920zM600 820C379.086 820 200 640.914 200 420C200 199.085 379.086 20 600 20C820.915 20 1000 199.085 1000 420C1000 640.914 820.915 820 600 820zM441.129 252.865L401.6130000000001 184.3150000000001C390.3225 164.5550000000001 365.121 157.905 345.363 169.1949999999999C325.605 180.4850000000001 318.9515 205.685 330.242 225.4450000000001L359.6775 276.25C392.742 286.53 419.7580000000001 278.6700000000001 441.129 252.865zM660.485 586.9355L781.6550000000001 377.26H888.71C911.49 377.26 929.8400000000001 358.91 929.8400000000001 336.13C929.8400000000001 313.3449999999999 911.49 295 888.71 295H829.2350000000001L869.355 225.4450000000001C880.645 205.685 873.99 180.685 854.2350000000001 169.1949999999999C834.4749999999999 157.905 809.4749999999999 164.5550000000001 797.985 184.3150000000001L645.97 447.62C611.49 507.0949999999999 636.09 566.774 660.485 586.9355zM674.395 739.153C694.1550000000001 727.863 700.805 702.6614999999999 689.515 682.903L513.105 377.4600000000001H640.725C682.055 377.4600000000001 705.24 328.87 687.3000000000001 295.2H313.3065000000001C290.524 295.2 272.1775 313.5500000000001 272.1775 336.33C272.1775 359.115 290.524 377.4600000000001 313.3065000000001 377.4600000000001H418.145L552.4200000000001 610.121L510.485 682.903C499.1935 702.6614999999999 505.845 727.6614999999999 525.605 739.153C545.365 750.4435 570.365 743.7905000000001 581.855 724.0325L599.8000000000001 692.379L618.145 724.0325C629.435 743.7905000000001 654.635 750.4435 674.395 739.153z" />
    <glyph glyph-name="apple-fill"
      unicode="&#xEA3F;"
      horiz-adv-x="1200" d="M607.0349483164694 655.8278016585983C563.2349483164692 655.8278016585983 495.4339483164692 705.6278016585983 424.0339483164692 703.8278016585983C329.8339483164692 702.6278016585983 243.4339483164692 649.2278016585984 194.8339483164692 564.6278016585984C97.0339483164692 394.8278016585984 169.6339483164692 144.0278016585983 265.0339483164693 6.0278016585984C311.8339483164692 -61.1721983414016 367.0339483164692 -136.7721983414018 440.2339483164692 -134.3721983414017C510.4339483164692 -131.3721983414017 536.8349483164691 -88.7721983414015 622.0349483164691 -88.7721983414015C706.6349483164693 -88.7721983414015 730.6349483164693 -134.3721983414017 805.0349483164691 -132.5721983414017C880.6349483164693 -131.3721983414017 928.6349483164691 -64.1721983414016 974.834948316469 3.6278016585983C1028.2349483164692 81.6278016585984 1050.4349483164692 157.2278016585985 1051.6349483164693 161.4278016585984C1049.8349483164693 162.0278016585984 904.6349483164691 217.8278016585984 902.8349483164694 385.8278016585984C901.6349483164691 526.2278016585984 1017.4349483164692 593.4278016585984 1022.8349483164694 596.4278016585984C956.8349483164694 693.0278016585984 855.4349483164692 703.8278016585983 820.0349483164694 706.2278016585984C727.6349483164693 713.4278016585984 650.2349483164692 655.8278016585983 607.0349483164694 655.8278016585983zM763.0349483164691 797.4278016585984C802.0349483164691 844.2278016585984 827.8349483164693 909.6278016585982 820.6349483164693 974.4279016585984C764.8349483164693 972.0279016585984 697.6349483164693 937.2278016585984 657.4349483164692 890.4278016585984C621.4349483164692 849.0278016585984 590.2349483164692 782.4278016585984 598.6349483164693 718.8278016585983C660.4349483164692 714.0278016585984 724.0349483164694 750.6278016585983 763.0349483164691 797.4278016585984z" />
    <glyph glyph-name="apple-line"
      unicode="&#xEA40;"
      horiz-adv-x="1200" d="M812.2649483164691 606.5303016585983C788.6299483164692 608.3718016585985 763.2349483164692 602.7098016585985 724.3499483164692 587.8933016585984C727.6149483164693 589.1383016585985 687.2399483164693 573.3403016585985 675.9199483164691 569.3883016585985C650.8349483164693 560.6303016585985 630.1849483164692 555.8278016585984 607.0349483164694 555.8278016585984C584.1199483164692 555.8278016585984 562.9899483164693 560.4058016585984 538.7549483164692 568.5853016585984C530.9849483164692 571.2063016585985 523.1729483164693 574.1068016585984 513.5064483164692 577.8818016585985C509.3614483164692 579.5008016585984 494.3634483164692 585.4533016585983 491.0849483164693 586.7373016585984C458.6779483164692 599.4288016585983 440.4419483164692 604.2098016585985 425.3074483164692 603.8358016585985C367.6779483164692 603.1018016585986 313.1434483164693 569.8218016585984 281.4879483164692 514.7178016585985C216.8834483164692 402.5528016585984 252.6564483164692 199.7878016585984 347.0944483164693 63.1778016585984C397.3749483164692 -9.0221983414017 424.8959483164693 -34.8221983414017 435.9644483164692 -34.4671983414015C447.0799483164692 -33.9871983414017 455.2534483164692 -31.6371983414015 475.1484483164692 -23.2021983414016C479.1074483164692 -21.5171983414014 479.1074483164692 -21.5171983414014 483.4649483164692 -19.6571983414015C533.7499483164693 1.7678016585984 568.9549483164692 11.2278016585984 622.0349483164691 11.2278016585984C673.0849483164693 11.2278016585984 707.1799483164691 1.9378016585984 755.4449483164692 -18.8671983414015C759.8749483164693 -20.7821983414017 759.8749483164693 -20.7821983414017 763.8499483164692 -22.4921983414015C783.7349483164692 -31.0121983414015 790.9099483164691 -32.8821983414016 803.4449483164692 -32.5821983414017C821.3199483164692 -32.3021983414015 843.3799483164694 -11.7021983414016 892.3199483164692 60.1178016585985C905.719948316469 79.6928016585983 917.5649483164694 100.2628016585983 927.8399483164692 121.0878016585985C921.2299483164692 126.5428016585984 914.6649483164692 132.3428016585984 908.2399483164692 138.4628016585984C843.7949483164691 199.8878016585983 803.9349483164692 282.7028016585984 802.8399483164692 384.9728016585984C802.1449483164693 465.9928016585984 828.6499483164691 536.1833016585983 873.3149483164691 594.0278016585985C854.8299483164692 601.2168016585983 834.4449483164692 605.0243016585985 812.2649483164691 606.5303016585983zM820.0349483164694 706.2278016585985C855.4349483164692 703.8278016585984 956.8349483164694 693.0278016585985 1022.8349483164694 596.4278016585984C1017.4349483164692 593.4278016585984 901.6349483164691 526.2278016585985 902.8349483164694 385.8278016585984C904.6349483164691 217.8278016585984 1049.8349483164693 162.0278016585984 1051.6349483164693 161.4278016585984C1050.4349483164692 157.2278016585985 1028.2349483164692 81.6278016585985 974.834948316469 3.6278016585983C928.6349483164691 -64.1721983414016 880.6349483164693 -131.3721983414016 805.0349483164691 -132.5721983414017C730.6349483164693 -134.3721983414016 706.6349483164693 -88.7721983414015 622.0349483164691 -88.7721983414015C536.8349483164691 -88.7721983414015 510.4339483164692 -131.3721983414016 440.2339483164692 -134.3721983414016C367.0339483164692 -136.7721983414017 311.8339483164692 -61.1721983414016 265.0339483164693 6.0278016585984C169.6339483164692 144.0278016585983 97.0339483164692 394.8278016585984 194.8339483164692 564.6278016585984C243.4339483164692 649.2278016585985 329.8339483164692 702.6278016585984 424.0339483164692 703.8278016585984C495.4339483164692 705.6278016585984 563.2349483164692 655.8278016585984 607.0349483164694 655.8278016585984C650.2349483164692 655.8278016585984 727.6349483164693 713.4278016585984 820.0349483164694 706.2278016585985zM763.0349483164691 797.4278016585984C724.0349483164694 750.6278016585984 660.4349483164692 714.0278016585985 598.6349483164693 718.8278016585984C590.2349483164692 782.4278016585984 621.4349483164692 849.0278016585985 657.4349483164692 890.4278016585984C697.6349483164693 937.2278016585984 764.8349483164693 972.0279016585984 820.6349483164693 974.4279016585984C827.8349483164693 909.6278016585984 802.0349483164691 844.2278016585985 763.0349483164691 797.4278016585984z" />
    <glyph glyph-name="apps-2-fill"
      unicode="&#xEA41;"
      horiz-adv-x="1200" d="M350 445C225.736 445 125 545.7360000000001 125 670C125 794.264 225.736 895 350 895C474.264 895 575 794.264 575 670C575 545.7360000000001 474.264 445 350 445zM350 -55C225.736 -55 125 45.735 125 170C125 294.265 225.736 395 350 395C474.264 395 575 294.265 575 170C575 45.735 474.264 -55 350 -55zM850 445C725.735 445 625 545.7360000000001 625 670C625 794.264 725.735 895 850 895C974.265 895 1075 794.264 1075 670C1075 545.7360000000001 974.265 445 850 445zM850 -55C725.735 -55 625 45.735 625 170C625 294.265 725.735 395 850 395C974.265 395 1075 294.265 1075 170C1075 45.735 974.265 -55 850 -55z" />
    <glyph glyph-name="apps-2-line"
      unicode="&#xEA42;"
      horiz-adv-x="1200" d="M350 445C225.736 445 125 545.7360000000001 125 670C125 794.264 225.736 895 350 895C474.264 895 575 794.264 575 670C575 545.7360000000001 474.264 445 350 445zM350 -55C225.736 -55 125 45.735 125 170C125 294.265 225.736 395 350 395C474.264 395 575 294.265 575 170C575 45.735 474.264 -55 350 -55zM850 445C725.735 445 625 545.7360000000001 625 670C625 794.264 725.735 895 850 895C974.265 895 1075 794.264 1075 670C1075 545.7360000000001 974.265 445 850 445zM850 -55C725.735 -55 625 45.735 625 170C625 294.265 725.735 395 850 395C974.265 395 1075 294.265 1075 170C1075 45.735 974.265 -55 850 -55zM350 545C419.0355 545 475 600.9645 475 670C475 739.0355 419.0355 795 350 795C280.9645000000001 795 225 739.0355 225 670C225 600.9645 280.9645000000001 545 350 545zM350 45C419.0355 45 475 100.9649999999999 475 170C475 239.035 419.0355 295 350 295C280.9645000000001 295 225 239.035 225 170C225 100.9649999999999 280.9645000000001 45 350 45zM850 545C919.035 545 975 600.9645 975 670C975 739.0355 919.035 795 850 795C780.9649999999999 795 725 739.0355 725 670C725 600.9645 780.9649999999999 545 850 545zM850 45C919.035 45 975 100.9649999999999 975 170C975 239.035 919.035 295 850 295C780.9649999999999 295 725 239.035 725 170C725 100.9649999999999 780.9649999999999 45 850 45z" />
    <glyph glyph-name="apps-fill"
      unicode="&#xEA43;"
      horiz-adv-x="1200" d="M337.5 895C454.8605 895 550 799.8605 550 682.5V470H337.5C220.1395 470 125 565.1395 125 682.5C125 799.8605 220.1395 895 337.5 895zM337.5 370H550V157.5C550 40.14 454.8605 -55 337.5 -55C220.1395 -55 125 40.14 125 157.5C125 274.86 220.1395 370 337.5 370zM862.5 895C979.86 895 1075 799.8605 1075 682.5C1075 565.1395 979.86 470 862.5 470H650V682.5C650 799.8605 745.14 895 862.5 895zM650 370H862.5C979.86 370 1075 274.86 1075 157.5C1075 40.14 979.86 -55 862.5 -55C745.14 -55 650 40.14 650 157.5V370z" />
    <glyph glyph-name="apps-line"
      unicode="&#xEA44;"
      horiz-adv-x="1200" d="M337.5 895C454.8605 895 550 799.8605 550 682.5V470H337.5C220.1395 470 125 565.1395 125 682.5C125 799.8605 220.1395 895 337.5 895zM450 570V682.5C450 744.6320000000001 399.632 795 337.5 795C275.368 795 225 744.6320000000001 225 682.5C225 620.3679999999999 275.368 570 337.5 570H450zM337.5 370H550V157.5C550 40.14 454.8605 -55 337.5 -55C220.1395 -55 125 40.14 125 157.5C125 274.86 220.1395 370 337.5 370zM337.5 270C275.368 270 225 219.63 225 157.5C225 95.37 275.368 45 337.5 45C399.632 45 450 95.37 450 157.5V270H337.5zM862.5 895C979.86 895 1075 799.8605 1075 682.5C1075 565.1395 979.86 470 862.5 470H650V682.5C650 799.8605 745.14 895 862.5 895zM862.5 570C924.63 570 975 620.3679999999999 975 682.5C975 744.6320000000001 924.63 795 862.5 795C800.37 795 750 744.6320000000001 750 682.5V570H862.5zM650 370H862.5C979.86 370 1075 274.86 1075 157.5C1075 40.14 979.86 -55 862.5 -55C745.14 -55 650 40.14 650 157.5V370zM750 270V157.5C750 95.37 800.37 45 862.5 45C924.63 45 975 95.37 975 157.5C975 219.63 924.63 270 862.5 270H750z" />
    <glyph glyph-name="archive-drawer-fill"
      unicode="&#xEA45;"
      horiz-adv-x="1200" d="M150 370H1050V-30.125C1050 -57.6700000000001 1027.7549999999999 -80 1000.33 -80H199.67C172.238 -80 150 -57.6849999999999 150 -30.125V370zM150 870.123C150 897.669 172.2475 920 199.67 920H1000.33C1027.76 920 1050 897.6845 1050 870.123V470H150V870.123zM450 770V670H750V770H450zM450 220V120H750V220H450z" />
    <glyph glyph-name="archive-drawer-line"
      unicode="&#xEA46;"
      horiz-adv-x="1200" d="M150 870.41C150 897.7975 172.2475 920 199.67 920H1000.33C1027.76 920 1050 897.2345 1050 870.41V-30.4099999999999C1050 -57.7999999999999 1027.7549999999999 -80 1000.33 -80H199.67C172.238 -80 150 -57.2349999999999 150 -30.4099999999999V870.41zM950 470V820H250V470H950zM950 370H250V20H950V370zM450 720H750V620H450V720zM450 270H750V170H450V270z" />
    <glyph glyph-name="archive-fill"
      unicode="&#xEA47;"
      horiz-adv-x="1200" d="M150 520H1050V19.78C1050 -7.7150000000001 1027.7549999999999 -30 1000.33 -30H199.67C172.238 -30 150 -7.76 150 19.78V520zM450 420V320H750V420H450zM100 820.0095C100 847.6185 122.7655 870 149.59 870H1050.4099999999999C1077.8 870 1100 847.814 1100 820.0095V620H100V820.0095z" />
    <glyph glyph-name="archive-line"
      unicode="&#xEA48;"
      horiz-adv-x="1200" d="M150 520H100V819.8534999999999C100 847.5485 122.7655 870 149.59 870H1050.4099999999999C1077.8 870 1100 848.106 1100 819.8534999999999V520H1050V19.925C1050 -7.6500000000001 1027.7549999999999 -30 1000.33 -30H199.67C172.238 -30 150 -7.625 150 19.925V520zM950 520H250V70H950V520zM200 770V620H1000V770H200zM450 420H750V320H450V420z" />
    <glyph glyph-name="arrow-down-circle-fill"
      unicode="&#xEA49;"
      horiz-adv-x="1200" d="M600 920C876 920 1100 696 1100 420C1100 144 876 -80 600 -80C324 -80 100 144 100 420C100 696 324 920 600 920zM650 420V620H550V420H400L600 220L800 420H650z" />
    <glyph glyph-name="arrow-down-circle-line"
      unicode="&#xEA4A;"
      horiz-adv-x="1200" d="M600 920C876 920 1100 696 1100 420C1100 144 876 -80 600 -80C324 -80 100 144 100 420C100 696 324 920 600 920zM600 20C821.0000000000001 20 1000 198.9999999999999 1000 420C1000 641 821.0000000000001 820 600 820C379 820 200 641 200 420C200 198.9999999999999 379 20 600 20zM650 420H800L600 220L400 420H550V620H650V420z" />
    <glyph glyph-name="arrow-down-fill"
      unicode="&#xEA4B;"
      horiz-adv-x="1200" d="M650 420H1000L600 20L200 420H550V820H650V420z" />
    <glyph glyph-name="arrow-down-line"
      unicode="&#xEA4C;"
      horiz-adv-x="1200" d="M650.0029999999999 211.42L918.198 479.62L988.908 408.91L600.0029999999999 20L211.092 408.91L281.8025 479.62L550.0029999999999 211.42V820H650.0029999999999V211.42z" />
    <glyph glyph-name="arrow-down-s-fill"
      unicode="&#xEA4D;"
      horiz-adv-x="1200" d="M600 270L300 570H900L600 270z" />
    <glyph glyph-name="arrow-down-s-line"
      unicode="&#xEA4E;"
      horiz-adv-x="1200" d="M599.999 366.9695L847.489 614.4555L918.199 543.745L599.999 225.5445L281.801 543.745L352.512 614.4555L599.999 366.9695z" />
    <glyph glyph-name="arrow-drop-down-fill"
      unicode="&#xEA4F;"
      horiz-adv-x="1200" d="M600 320L400 520H800L600 320z" />
    <glyph glyph-name="arrow-drop-down-line"
      unicode="&#xEA50;"
      horiz-adv-x="1200" d="M600.002 278.57875L387.868 490.70875L458.579 561.42125L600.002 419.99875L741.422 561.42125L812.1320000000001 490.70875L600.002 278.57875z" />
    <glyph glyph-name="arrow-drop-left-fill"
      unicode="&#xEA51;"
      horiz-adv-x="1200" d="M500 420L700 620V220L500 420z" />
    <glyph glyph-name="arrow-drop-left-line"
      unicode="&#xEA52;"
      horiz-adv-x="1200" d="M599.9975 419.99775L741.4225 278.5777499999999L670.7075 207.86775L458.5775 419.99775L670.7075 632.13225L741.4225 561.42125L599.9975 419.99775z" />
    <glyph glyph-name="arrow-drop-right-fill"
      unicode="&#xEA53;"
      horiz-adv-x="1200" d="M700 420L500 220V620L700 420z" />
    <glyph glyph-name="arrow-drop-right-line"
      unicode="&#xEA54;"
      horiz-adv-x="1200" d="M600.001 419.99775L458.579 561.42125L529.2909999999999 632.13225L741.421 419.99775L529.2909999999999 207.86775L458.579 278.5777499999999L600.001 419.99775z" />
    <glyph glyph-name="arrow-drop-up-fill"
      unicode="&#xEA55;"
      horiz-adv-x="1200" d="M600 520L800 320H400L600 520z" />
    <glyph glyph-name="arrow-drop-up-line"
      unicode="&#xEA56;"
      horiz-adv-x="1200" d="M600.002 420.0025000000001L458.579 278.5775L387.868 349.2925L600.002 561.4225L812.1320000000001 349.2925L741.422 278.5775L600.002 420.0025000000001z" />
    <glyph glyph-name="arrow-go-back-fill"
      unicode="&#xEA57;"
      horiz-adv-x="1200" d="M425 620V420L125 670L425 920V720H675C895.915 720 1075 540.914 1075 320C1075 99.085 895.915 -80 675 -80H225V20H675C840.6850000000001 20 975 154.315 975 320C975 485.6855 840.6850000000001 620 675 620H425z" />
    <glyph glyph-name="arrow-go-back-line"
      unicode="&#xEA58;"
      horiz-adv-x="1200" d="M316.4215 621.2575L443.1980000000001 494.4805L372.4875 423.7700000000001L125 671.2575L372.4875 918.745L443.1980000000001 848.034L316.4215 721.2575H675C895.915 721.2575 1075 542.1715 1075 321.2550000000001C1075 100.345 895.915 -78.745 675 -78.745H225V21.255H675C840.6850000000001 21.255 975 155.5699999999999 975 321.2550000000001C975 486.943 840.6850000000001 621.2575 675 621.2575H316.4215z" />
    <glyph glyph-name="arrow-go-forward-fill"
      unicode="&#xEA59;"
      horiz-adv-x="1200" d="M775 620H525C359.3145 620 225 485.6855 225 320C225 154.315 359.3145 20 525 20H975V-80H525C304.086 -80 125 99.085 125 320C125 540.914 304.086 720 525 720H775V920L1075 670L775 420V620z" />
    <glyph glyph-name="arrow-go-forward-line"
      unicode="&#xEA5A;"
      horiz-adv-x="1200" d="M883.58 621.2575H525C359.3145 621.2575 225 486.943 225 321.2550000000001C225 155.5699999999999 359.3145 21.255 525 21.255H975V-78.745H525C304.086 -78.745 125 100.345 125 321.2550000000001C125 542.1715 304.086 721.2575 525 721.2575H883.58L756.8 848.034L827.515 918.745L1075 671.2575L827.515 423.7700000000001L756.8 494.4805L883.58 621.2575z" />
    <glyph glyph-name="arrow-left-circle-fill"
      unicode="&#xEA5B;"
      horiz-adv-x="1200" d="M600 920C876 920 1100 696 1100 420C1100 144 876 -80 600 -80C324 -80 100 144 100 420C100 696 324 920 600 920zM600 470V620L400 420L600 220V370H800V470H600z" />
    <glyph glyph-name="arrow-left-circle-line"
      unicode="&#xEA5C;"
      horiz-adv-x="1200" d="M600 920C876 920 1100 696 1100 420C1100 144 876 -80 600 -80C324 -80 100 144 100 420C100 696 324 920 600 920zM600 20C821.0000000000001 20 1000 198.9999999999999 1000 420C1000 641 821.0000000000001 820 600 820C379 820 200 641 200 420C200 198.9999999999999 379 20 600 20zM600 470H800V370H600V220L400 420L600 620V470z" />
    <glyph glyph-name="arrow-left-down-fill"
      unicode="&#xEA5D;"
      horiz-adv-x="1200" d="M617.6757500000001 366.96925L865.1657499999999 119.47925H299.47925V685.1652500000001L546.9657500000001 437.67925L829.8107499999999 720.52075L900.5207500000001 649.8102500000001L617.6757500000001 366.96925z" />
    <glyph glyph-name="arrow-left-down-line"
      unicode="&#xEA5E;"
      horiz-adv-x="1200" d="M399.48 290.1905L829.81 720.5195L900.52 649.8085L470.1899999999999 219.4805H849.48V119.4805H299.48V669.4784999999999H399.48V290.1905z" />
    <glyph glyph-name="arrow-left-fill"
      unicode="&#xEA5F;"
      horiz-adv-x="1200" d="M600 370V20L200 420L600 820V470H1000V370H600z" />
    <glyph glyph-name="arrow-left-line"
      unicode="&#xEA60;"
      horiz-adv-x="1200" d="M391.4215 469.997H1000V369.997H391.4215L659.62 101.802L588.91 31.092L200 419.997L588.91 808.9079999999999L659.62 738.1975L391.4215 469.997z" />
    <glyph glyph-name="arrow-left-right-fill"
      unicode="&#xEA61;"
      horiz-adv-x="1200" d="M800 220V420L1050 170L800 -80V120H200V220H800zM400 920V720.05L1000 720V620H400V420L150 670L400 920z" />
    <glyph glyph-name="arrow-left-right-line"
      unicode="&#xEA62;"
      horiz-adv-x="1200" d="M802.515 417.4875000000001L1050 169.9975000000001L802.515 -77.4875000000001L731.8 -6.7775L858.6 120.0375000000001L200 119.9975000000001V219.9975000000002L858.6 220.0375000000001L731.8 346.7775000000001L802.515 417.4875000000001zM397.4875 917.4875L468.198 846.7765L341.4000000000001 720.0375L1000 720.0000000000001V620.0000000000001L341.4000000000001 620.0375L468.198 493.2225000000001L397.4875 422.5125000000002L150 670.0000000000001L397.4875 917.4875z" />
    <glyph glyph-name="arrow-left-s-fill"
      unicode="&#xEA63;"
      horiz-adv-x="1200" d="M450 420L750 720V120L450 420z" />
    <glyph glyph-name="arrow-left-s-line"
      unicode="&#xEA64;"
      horiz-adv-x="1200" d="M546.9649999999999 419.9980000000001L794.4549999999999 172.5130000000002L723.7450000000001 101.803L405.545 419.9980000000001L723.7450000000001 738.197L794.4549999999999 667.4865000000001L546.9649999999999 419.9980000000001z" />
    <glyph glyph-name="arrow-left-up-fill"
      unicode="&#xEA65;"
      horiz-adv-x="1200" d="M617.6757500000001 473.03425L900.5207500000001 190.1892500000001L829.8107499999999 119.4792499999999L546.9657500000001 402.32425L299.47925 154.8342500000001V720.5207500000001H865.1657499999999L617.6757500000001 473.03425z" />
    <glyph glyph-name="arrow-left-up-line"
      unicode="&#xEA66;"
      horiz-adv-x="1200" d="M470.1905 620.52L900.52 190.19L829.81 119.48L399.48 549.8095000000001V170.5200000000001H299.48V720.52H849.48V620.52H470.1905z" />
    <glyph glyph-name="arrow-right-circle-fill"
      unicode="&#xEA67;"
      horiz-adv-x="1200" d="M600 920C876 920 1100 696 1100 420C1100 144 876 -80 600 -80C324 -80 100 144 100 420C100 696 324 920 600 920zM600 470H400V370H600V220L800 420L600 620V470z" />
    <glyph glyph-name="arrow-right-circle-line"
      unicode="&#xEA68;"
      horiz-adv-x="1200" d="M600 470V620L800 420L600 220V370H400V470H600zM600 920C876 920 1100 696 1100 420C1100 144 876 -80 600 -80C324 -80 100 144 100 420C100 696 324 920 600 920zM600 20C821.0000000000001 20 1000 198.9999999999999 1000 420C1000 641 821.0000000000001 820 600 820C379 820 200 641 200 420C200 198.9999999999999 379 20 600 20z" />
    <glyph glyph-name="arrow-right-down-fill"
      unicode="&#xEA69;"
      horiz-adv-x="1200" d="M582.32025 366.96925L299.47975 649.8102500000001L370.19075 720.52075L653.0352499999999 437.67925L900.52025 685.1652500000001V119.47925H334.8352500000001L582.32025 366.96925z" />
    <glyph glyph-name="arrow-right-down-line"
      unicode="&#xEA6A;"
      horiz-adv-x="1200" d="M729.8097499999999 219.4805000000001L299.4802500000001 649.8085000000001L370.1907500000001 720.5194999999999L800.5197499999999 290.1905V669.4784999999999H900.5197499999999V119.4805000000001H350.5212500000001V219.4805000000001H729.8097499999999z" />
    <glyph glyph-name="arrow-right-fill"
      unicode="&#xEA6B;"
      horiz-adv-x="1200" d="M600 370H200V470H600V820L1000 420L600 20V370z" />
    <glyph glyph-name="arrow-right-line"
      unicode="&#xEA6C;"
      horiz-adv-x="1200" d="M808.58 469.997L540.38 738.1975L611.09 808.9079999999999L1000 419.997L611.09 31.092L540.38 101.802L808.58 369.997H200V469.997H808.58z" />
    <glyph glyph-name="arrow-right-s-fill"
      unicode="&#xEA6D;"
      horiz-adv-x="1200" d="M750 420L450 120V720L750 420z" />
    <glyph glyph-name="arrow-right-s-line"
      unicode="&#xEA6E;"
      horiz-adv-x="1200" d="M653.0305000000001 419.9980000000001L405.5445 667.4865000000001L476.255 738.197L794.4555 419.9980000000001L476.255 101.803L405.5445 172.5130000000002L653.0305000000001 419.9980000000001z" />
    <glyph glyph-name="arrow-right-up-fill"
      unicode="&#xEA6F;"
      horiz-adv-x="1200" d="M653.0352499999999 402.32425L370.19075 119.4792499999999L299.47975 190.1892500000001L582.32025 473.03425L334.8352500000001 720.5207500000001H900.52025V154.8342500000001L653.0352499999999 402.32425z" />
    <glyph glyph-name="arrow-right-up-line"
      unicode="&#xEA70;"
      horiz-adv-x="1200" d="M800.5197499999999 549.8095000000001L370.1907500000001 119.48L299.4802500000001 190.19L729.8097499999999 620.52H350.5212500000001V720.52H900.5197499999999V170.5200000000001H800.5197499999999V549.8095000000001z" />
    <glyph glyph-name="arrow-up-circle-fill"
      unicode="&#xEA71;"
      horiz-adv-x="1200" d="M600 920C876 920 1100 696 1100 420C1100 144 876 -80 600 -80C324 -80 100 144 100 420C100 696 324 920 600 920zM650 420H800L600 620L400 420H550V220H650V420z" />
    <glyph glyph-name="arrow-up-circle-line"
      unicode="&#xEA72;"
      horiz-adv-x="1200" d="M600 920C876 920 1100 696 1100 420C1100 144 876 -80 600 -80C324 -80 100 144 100 420C100 696 324 920 600 920zM600 20C821.0000000000001 20 1000 198.9999999999999 1000 420C1000 641 821.0000000000001 820 600 820C379 820 200 641 200 420C200 198.9999999999999 379 20 600 20zM650 420V220H550V420H400L600 620L800 420H650z" />
    <glyph glyph-name="arrow-up-down-fill"
      unicode="&#xEA73;"
      horiz-adv-x="1200" d="M600 620H400.05L400 20H300V620H100L350 870L600 620zM1100 220L850 -30L600 220H800V820H900V220H1100z" />
    <glyph glyph-name="arrow-up-down-line"
      unicode="&#xEA74;"
      horiz-adv-x="1200" d="M597.48775 622.5125L526.77775 551.8019999999999L400.0372500000001 678.5999999999999L399.99975 20H299.99975L300.0372500000001 678.5999999999999L173.22325 551.8019999999999L102.51225 622.5125L349.99975 870L597.48775 622.5125zM1097.48775 217.485L849.99775 -30L602.51275 217.485L673.2227499999999 288.2000000000001L800.0377500000001 161.4L799.99775 820H899.99775L900.0377500000001 161.4L1026.77775 288.2000000000001L1097.48775 217.485z" />
    <glyph glyph-name="arrow-up-fill"
      unicode="&#xEA75;"
      horiz-adv-x="1200" d="M650 420V20H550V420H200L600 820L1000 420H650z" />
    <glyph glyph-name="arrow-up-line"
      unicode="&#xEA76;"
      horiz-adv-x="1200" d="M650.0029999999999 628.5785000000001V20H550.0029999999999V628.5785000000001L281.8025 360.38L211.092 431.0900000000001L600.0029999999999 820L988.908 431.0900000000001L918.198 360.38L650.0029999999999 628.5785000000001z" />
    <glyph glyph-name="arrow-up-s-fill"
      unicode="&#xEA77;"
      horiz-adv-x="1200" d="M600 570L900 270H300L600 570z" />
    <glyph glyph-name="arrow-up-s-line"
      unicode="&#xEA78;"
      horiz-adv-x="1200" d="M599.999 473.035L352.512 225.545L281.801 296.255L599.999 614.4549999999999L918.199 296.255L847.489 225.545L599.999 473.035z" />
    <glyph glyph-name="artboard-2-fill"
      unicode="&#xEA79;"
      horiz-adv-x="1200" d="M300 720H900V120H300V720zM300 920H400V770H300V920zM300 70H400V-80H300V70zM100 720H250V620H100V720zM100 220H250V120H100V220zM950 720H1100V620H950V720zM950 220H1100V120H950V220zM800 920H900V770H800V920zM800 70H900V-80H800V70z" />
    <glyph glyph-name="artboard-2-line"
      unicode="&#xEA7A;"
      horiz-adv-x="1200" d="M400 620V220H800V620H400zM300 720H900V120H300V720zM300 920H400V770H300V920zM300 70H400V-80H300V70zM100 720H250V620H100V720zM100 220H250V120H100V220zM950 720H1100V620H950V720zM950 220H1100V120H950V220zM800 920H900V770H800V920zM800 70H900V-80H800V70z" />
    <glyph glyph-name="artboard-fill"
      unicode="&#xEA7B;"
      horiz-adv-x="1200" d="M429.2895 186.4225H150V286.4225H1050V186.4225H770.7099999999999L932.845 24.2925L862.13 -46.4225L650 165.7125V36.4225H550V165.7125L337.868 -46.4225L267.1575 24.2925L429.2895 186.4225zM250 886.4225H950C977.6149999999998 886.4225 1000 864.0365 1000 836.4225V336.4225H200V836.4225C200 864.0365 222.386 886.4225 250 886.4225z" />
    <glyph glyph-name="artboard-line"
      unicode="&#xEA7C;"
      horiz-adv-x="1200" d="M429.2895 186.4225H150V286.4225H1050V186.4225H770.7099999999999L932.845 24.2925L862.13 -46.4225L650 165.7125V36.4225H550V165.7125L337.868 -46.4225L267.1575 24.2925L429.2895 186.4225zM250 886.4225H950C977.6149999999998 886.4225 1000 864.0365 1000 836.4225V336.4225H200V836.4225C200 864.0365 222.386 886.4225 250 886.4225zM300 786.4225V436.4225H900V786.4225H300z" />
    <glyph glyph-name="article-fill"
      unicode="&#xEA7D;"
      horiz-adv-x="1200" d="M1000 -80H200C172.386 -80 150 -57.615 150 -30V870C150 897.614 172.386 920 200 920H1000C1027.615 920 1050 897.614 1050 870V-30C1050 -57.615 1027.615 -80 1000 -80zM350 720V520H550V720H350zM350 420V320H850V420H350zM350 220V120H850V220H350zM650 670V570H850V670H650z" />
    <glyph glyph-name="article-line"
      unicode="&#xEA7E;"
      horiz-adv-x="1200" d="M1000 -80H200C172.386 -80 150 -57.615 150 -30V870C150 897.614 172.386 920 200 920H1000C1027.615 920 1050 897.614 1050 870V-30C1050 -57.615 1027.615 -80 1000 -80zM950 20V820H250V20H950zM350 720H550V520H350V720zM350 420H850V320H350V420zM350 220H850V120H350V220zM650 670H850V570H650V670z" />
    <glyph glyph-name="aspect-ratio-fill"
      unicode="&#xEA7F;"
      horiz-adv-x="1200" d="M1050 870C1077.615 870 1100 847.614 1100 820V20C1100 -7.615 1077.615 -30 1050 -30H150C122.386 -30 100 -7.615 100 20V820C100 847.614 122.386 870 150 870H1050zM900 420H800V270H650V170H900V420zM550 670H300V420H400V570H550V670z" />
    <glyph glyph-name="aspect-ratio-line"
      unicode="&#xEA80;"
      horiz-adv-x="1200" d="M1050 870C1077.615 870 1100 847.614 1100 820V20C1100 -7.615 1077.615 -30 1050 -30H150C122.386 -30 100 -7.615 100 20V820C100 847.614 122.386 870 150 870H1050zM1000 770H200V70H1000V770zM650 170V270H800V420H900V170H650zM550 670V570H400V420H300V670H550z" />
    <glyph glyph-name="asterisk"
      unicode="&#xEA81;"
      horiz-adv-x="1200" d="M650.0005 870L649.9905 506.65L964.7105 688.3015L1014.7105 601.699L700.0405 420.05L1014.7105 238.3L964.7105 151.7000000000001L649.9905 333.4000000000001L650.0005 -30H550.0005L549.9905 333.4000000000001L235.2895 151.7000000000001L185.2895 238.3L499.9395 420L185.2895 601.699L235.2895 688.3015L549.9905 506.65L550.0005 870H650.0005z" />
    <glyph glyph-name="at-fill"
      unicode="&#xEA82;"
      horiz-adv-x="1200" d="M600 -80C323.8575 -80 100 143.86 100 420C100 696.1424999999999 323.8575 920 600 920C876.14 920 1100 696.1424999999999 1100 420C1100 143.86 876.14 -80 600 -80zM1000 420C1000 640.914 820.915 820 600 820C379.086 820 200 640.914 200 420C200 199.085 379.086 20 600 20C673.51 20 742.39 39.8299999999999 801.58 74.43L751.185 160.8250000000001C706.795 134.87 655.135 120 600 120C434.3145 120 300 254.315 300 420C300 585.6855 434.3145 720 600 720C765.6850000000001 720 900 585.6855 900 420V370C900 342.385 877.6149999999999 320 850 320C822.3850000000001 320 800 342.385 800 370V570H732.29C697.035 601.118 650.72 620 600 620C489.543 620 400 530.457 400 420C400 309.5450000000001 489.543 220 600 220C652.325 220 699.955 240.0900000000001 735.595 272.98C763.11 240.5700000000001 804.1550000000001 220 850 220C932.845 220 1000 287.155 1000 370V420zM600 520C655.23 520 700 475.23 700 420C700 364.77 655.23 320 600 320C544.77 320 500 364.77 500 420C500 475.23 544.77 520 600 520z" />
    <glyph glyph-name="at-line"
      unicode="&#xEA83;"
      horiz-adv-x="1200" d="M1000 420C1000 640.914 820.915 820 600 820C379.086 820 200 640.914 200 420C200 199.085 379.086 20 600 20C682.09 20 758.4050000000001 44.7299999999999 821.905 87.145L877.38 3.93C798.01 -49.0899999999999 702.615 -80 600 -80C323.8575 -80 100 143.86 100 420C100 696.1424999999999 323.8575 920 600 920C876.14 920 1100 696.1424999999999 1100 420V345C1100 248.35 1021.65 170 925 170C864.79 170 811.68 200.41 780.1899999999999 246.7050000000001C734.71 199.425 670.7900000000001 170 600 170C461.929 170 350 281.93 350 420C350 558.0709999999999 461.929 670 600 670C656.29 670 708.235 651.3955 750.025 620H850V345C850 303.5800000000001 883.58 270 925 270C966.42 270 1000 303.5800000000001 1000 345V420zM600 570C517.155 570 450 502.845 450 420C450 337.155 517.155 270 600 270C682.845 270 750 337.155 750 420C750 502.845 682.845 570 600 570z" />
    <glyph glyph-name="attachment-2"
      unicode="&#xEA84;"
      horiz-adv-x="1200" d="M757.3248125 611.42175L474.4798125 328.57675C454.9533125 309.0517500000001 454.9533125 277.39675 474.4798125 257.8667500000001C494.0058125 238.3417500000001 525.6648125 238.3417500000001 545.1898125000001 257.8667500000001L828.0348125 540.7112500000001C886.6098125000001 599.2897500000001 886.6098125000001 694.26425 828.0348125 752.8432500000001C769.4548125000001 811.42175 674.4798125 811.42175 615.8998125 752.8432500000001L333.0583125000001 470.00175C235.4273125000001 372.3717500000001 235.4273125000001 214.07675 333.0583125000001 116.44675C430.6893125000001 18.81675 588.9798125000001 18.81675 686.6098125000001 116.44675L969.4548125000002 399.2917500000001L1040.1648125 328.57675L757.3248125 45.73675C620.6398125000001 -90.94825 399.0313125 -90.94825 262.3478125000001 45.73675C125.6643125000001 182.4217500000002 125.6643125000001 404.0267500000001 262.3478125000001 540.7112500000001L545.1898125000001 823.55375C642.8198125000001 921.1847500000002 801.1148125000001 921.1847500000002 898.7448125000001 823.55375C996.3748125 725.92275 996.3748125 567.6312500000001 898.7448125000001 470.00175L615.8998125 187.1567500000001C557.3248125 128.57675 462.3478125 128.57675 403.7693125000001 187.1567500000001C345.1903125000001 245.7367500000001 345.1903125000001 340.71175 403.7693125000001 399.2917500000001L686.6098125000001 682.1322500000001L757.3248125 611.42175z" />
    <glyph glyph-name="attachment-fill"
      unicode="&#xEA85;"
      horiz-adv-x="1200" d="M1049.855 870.41L1049.995 -30.4099999999999C1049.995 -57.2349999999999 1027.7649999999999 -80 1000.335 -80H199.675C172.2525 -80 150.005 -57.7999999999999 150.005 -30.4099999999999V870.41C150.005 897.2345 172.239 920 199.666 920H1000.185C1027.6 920 1049.85 897.7975 1049.855 870.41zM450.005 370V570C450.005 597.614 472.391 620 500.005 620C527.62 620 550.005 597.614 550.005 570V370C550.005 342.385 572.39 320 600.005 320C627.62 320 650.005 342.385 650.005 370V570C650.005 652.8425 582.85 720 500.005 720C417.1625 720 350.005 652.8425 350.005 570V370C350.005 231.93 461.934 120 600.005 120C738.075 120 850.005 231.93 850.005 370V620H750.005V370C750.005 287.155 682.85 220 600.005 220C517.16 220 450.005 287.155 450.005 370z" />
    <glyph glyph-name="attachment-line"
      unicode="&#xEA86;"
      horiz-adv-x="1200" d="M675 345V620C675 730.457 585.4549999999999 820 475 820C364.543 820 275 730.457 275 620V345C275 165.505 420.5075 20 600 20C779.495 20 925 165.505 925 345V820H1025V345C1025 110.28 834.72 -80 600 -80C365.279 -80 175 110.28 175 345V620C175 785.6855 309.3145 920 475 920C640.6850000000001 920 775 785.6855 775 620V345C775 248.35 696.65 170 600 170C503.35 170 425 248.35 425 345V620H525V345C525 303.5800000000001 558.58 270 600 270C641.42 270 675 303.5800000000001 675 345z" />
    <glyph glyph-name="auction-fill"
      unicode="&#xEA87;"
      horiz-adv-x="1200" d="M673.223 -12.8433749999999V-112.8433749999999H73.222V-12.8433749999999H673.223zM702.5129999999999 952.843375L1091.4180000000001 563.9346250000001L1020.708 493.2241250000001L967.6779999999998 510.9016250000001L843.933 387.1566250000001L1126.778 104.3166250000001L1056.063 33.6066250000001L773.223 316.4466250000001L653.0129999999999 196.2416250000001L667.1579999999999 139.6716250000001L596.443 68.9616250000001L207.5365 457.8666250000001L278.2475 528.579125L334.8160000000001 514.437125L649.478 829.0996250000001L631.803 882.1326250000001L702.5129999999999 952.843375z" />
    <glyph glyph-name="auction-line"
      unicode="&#xEA88;"
      horiz-adv-x="1200" d="M673.223 -12.8433749999999V-112.8433749999999H73.222V-12.8433749999999H673.223zM702.5129999999999 952.843375L1091.4180000000001 563.9346250000001L1020.708 493.2241250000001L967.6779999999998 510.9016250000001L843.933 387.1566250000001L1126.778 104.3166250000001L1056.063 33.6066250000001L773.223 316.4466250000001L653.0129999999999 196.2416250000001L667.1579999999999 139.6716250000001L596.443 68.9616250000001L207.5365 457.8666250000001L278.2475 528.579125L334.8160000000001 514.437125L649.478 829.0996250000001L631.803 882.1326250000001L702.5129999999999 952.843375zM737.8679999999999 776.066625L384.3135 422.5116250000001L561.088 245.7366250000001L914.643 599.290125L737.8679999999999 776.066625z" />
    <glyph glyph-name="award-fill"
      unicode="&#xEA89;"
      horiz-adv-x="1200" d="M850 248.1550000000001V-95.42C850 -109.225 838.805 -120.4250000000001 825 -120.4250000000001C820.47 -120.4250000000001 816.025 -119.1899999999999 812.14 -116.86L600 10.4250000000001L387.8625 -116.86C376.023 -123.9599999999999 360.6665 -120.12 353.5625 -108.2849999999997C351.2315 -104.3949999999999 350 -99.9499999999999 350 -95.42V248.1550000000001C258.5535 321.4600000000002 200 434.105 200 560.4250000000001C200 781.339 379.086 960.425 600 960.425C820.915 960.425 1000 781.339 1000 560.4250000000001C1000 434.105 941.445 321.4600000000002 850 248.1550000000001zM600 260.4250000000001C765.6850000000001 260.4250000000001 900 394.74 900 560.4250000000001C900 726.1105000000001 765.6850000000001 860.4250000000001 600 860.4250000000001C434.3145 860.4250000000001 300 726.1105000000001 300 560.4250000000001C300 394.74 434.3145 260.4250000000001 600 260.4250000000001zM600 360.4250000000001C489.543 360.4250000000001 400 449.9700000000002 400 560.4250000000001C400 670.8820000000001 489.543 760.4250000000001 600 760.4250000000001C710.4549999999999 760.4250000000001 800 670.8820000000001 800 560.4250000000001C800 449.9700000000002 710.4549999999999 360.4250000000001 600 360.4250000000001z" />
    <glyph glyph-name="award-line"
      unicode="&#xEA8A;"
      horiz-adv-x="1200" d="M850 248.1550000000001V-95.42C850 -109.225 838.805 -120.4250000000001 825 -120.4250000000001C820.47 -120.4250000000001 816.025 -119.1899999999999 812.14 -116.86L600 10.4250000000001L387.8625 -116.86C376.023 -123.9599999999999 360.6665 -120.12 353.5625 -108.2849999999997C351.2315 -104.3949999999999 350 -99.9499999999999 350 -95.42V248.1550000000001C258.5535 321.4600000000002 200 434.105 200 560.4250000000001C200 781.339 379.086 960.425 600 960.425C820.915 960.425 1000 781.339 1000 560.4250000000001C1000 434.105 941.445 321.4600000000002 850 248.1550000000001zM450 189.5V37.0450000000001L600 127.0450000000001L750 37.0450000000001V189.5C703.6800000000001 170.75 653.045 160.4250000000001 600 160.4250000000001C546.955 160.4250000000001 496.3215 170.75 450 189.5zM600 260.4250000000001C765.6850000000001 260.4250000000001 900 394.74 900 560.4250000000001C900 726.1105000000001 765.6850000000001 860.4250000000001 600 860.4250000000001C434.3145 860.4250000000001 300 726.1105000000001 300 560.4250000000001C300 394.74 434.3145 260.4250000000001 600 260.4250000000001z" />
    <glyph glyph-name="baidu-fill"
      unicode="&#xEA8B;"
      horiz-adv-x="1200" d="M296.4099784564254 394.4584202574478C399.5524784564255 416.6084202574478 385.4994784564253 539.8684202574477 382.4124784564255 566.8089202574477C377.3609784564254 608.3424202574477 328.5099784564254 680.9394202574476 262.1729784564255 675.1969202574477C178.6959784564254 667.7064202574477 166.4994784564254 547.1214202574477 166.4994784564254 547.1214202574477C155.2094784564254 491.3834202574477 193.5264784564254 372.2884202574477 296.4099784564254 394.4584202574478zM405.9424784564254 180.0584202574477C402.9199784564254 171.3984202574477 396.1849784564254 149.2284202574478 402.0134784564254 129.9334202574478C413.5194784564253 86.6284202574477 451.1024784564254 84.6834202574477 451.1024784564254 84.6834202574477H505.1119784564254V216.7134202574477H447.2814784564254C421.2904784564254 208.9634202574478 408.7484784564255 188.7334202574476 405.9424784564254 180.0584202574477zM487.8434784564254 601.1539202574477C544.8119784564253 601.1539202574477 590.8569784564254 666.7134202574478 590.8569784564254 747.7724202574477C590.8569784564254 828.7454202574477 544.8119784564253 894.2834202574477 487.8434784564254 894.2834202574477C430.9614784564255 894.2834202574477 384.8084784564254 828.7454202574477 384.8084784564254 747.7724202574477C384.8084784564254 666.7134202574478 430.9834784564254 601.1539202574477 487.8434784564254 601.1539202574477zM733.2019784564254 591.4614202574477C809.3369784564253 581.5744202574476 858.2969784564254 662.8279202574477 868.0319784564253 724.4154202574477C877.9619784564255 785.9169202574477 828.8319784564254 857.3479202574476 774.9269784564254 869.6309202574477C720.9169784564253 882.0219202574477 653.4819784564254 795.5014202574476 647.3269784564254 739.0944202574476C639.9869784564254 670.1459202574476 657.1919784564254 601.2399202574477 733.2019784564254 591.4614202574477zM733.1769784564254 419.0884202574478C639.9669784564254 564.3264202574477 507.5519784564254 505.2234202574476 463.2559784564254 431.3484202574478C419.1534784564255 357.5034202574477 350.4204784564254 310.7884202574477 340.6634784564253 298.4184202574477C330.7549784564254 286.2434202574477 198.3619784564254 214.7684202574477 227.7634784564254 84.2334202574476C257.1434784564254 -46.2165797425523 360.3724784564254 -43.7365797425523 360.3724784564254 -43.7365797425523C360.3724784564254 -43.7365797425523 436.4449784564254 -51.2265797425523 524.6919784564254 -31.4765797425523C612.9819784564254 -11.8965797425524 688.9919784564254 -36.3515797425523 688.9919784564254 -36.3515797425523C688.9919784564254 -36.3515797425523 895.2119784564254 -105.4115797425522 951.6419784564254 27.5234202574477C1008.0019784564254 160.4984202574477 919.7569784564254 229.4484202574478 919.7569784564254 229.4484202574478C919.7569784564254 229.4484202574478 801.9569784564253 320.5884202574477 733.1769784564254 419.0884202574478zM432.8399784564255 31.6034202574477C374.9434784564254 43.1534202574477 351.8884784564254 82.6584202574476 348.9744784564254 89.3934202574477C346.1249784564254 96.2334202574477 329.6754784564254 127.9884202574476 338.3749784564253 182.0184202574477C363.3944784564254 262.9734202574477 434.7394784564254 268.7784202574477 434.7394784564254 268.7784202574477H506.1069784564254V356.5084202574477L566.8969784564254 355.5784202574477V31.6034202574477H432.8399784564255zM662.3319784564254 32.5334202574477C602.5369784564253 47.9434202574477 599.7519784564254 90.4284202574477 599.7519784564254 90.4284202574477V261.0284202574477L662.3319784564254 262.0434202574477V108.7134202574476C666.1519784564254 92.3484202574477 686.4669784564254 89.3934202574477 686.4669784564254 89.3934202574477H750.0369784564255V261.0284202574477H816.6119784564255V32.5334202574477H662.3319784564254zM1035.0069784564253 488.0384202574477C1035.0069784564253 517.5034202574477 1010.5269784564254 606.2269202574478 919.7569784564254 606.2269202574478C828.8319784564254 606.2269202574478 816.6769784564254 522.4909202574477 816.6769784564254 463.2984202574477C816.6769784564254 406.8084202574477 821.4469784564254 327.9484202574477 934.3919784564254 330.4534202574477C1047.3769784564251 332.9584202574478 1035.0069784564253 458.4184202574477 1035.0069784564253 488.0384202574477z" />
    <glyph glyph-name="baidu-line"
      unicode="&#xEA8C;"
      horiz-adv-x="1200" d="M378.2556164143108 64.4066089898279C386.7586164143108 64.0166089898279 396.5821164143108 63.8666089898279 407.4536164143109 64.081608989828C438.7296164143108 64.701608989828 471.2851164143108 68.1616089898281 503.0401164143108 75.266608989828C553.6701164143108 86.4966089898279 603.9451164143109 87.6816089898281 652.0651164143108 81.8066089898281C679.4101164143108 78.4666089898281 701.3251164143107 73.551608989828 716.4651164143108 68.941608989828C770.3501164143108 55.2066089898281 847.0201164143109 57.8016089898281 866.7451164143108 89.4866089898282C881.2801164143107 112.8316089898281 879.3701164143108 128.8166089898281 865.4451164143106 149.3816089898279C862.4201164143108 153.8516089898281 859.1351164143109 157.8716089898281 856.0151164143108 161.171608989828C855.5751164143107 161.641608989828 855.1701164143108 162.0516089898281 854.8151164143108 162.411608989828C851.5001164143107 165.046608989828 849.6751164143109 166.511608989828 846.6001164143108 169.0066089898281C837.8101164143109 176.1516089898281 828.0851164143107 184.281608989828 817.6551164143107 193.2966089898279C787.8851164143109 219.021608989828 758.1001164143108 246.916608989828 730.0251164143108 276.266608989828C699.7351164143108 307.921608989828 673.1401164143108 339.511608989828 651.1851164143109 370.9516089898281L649.3951164143109 373.6066089898279C612.2951164143108 430.541608989828 571.4901164143109 426.946608989828 549.2751164143108 389.4716089898281C535.1851164143109 365.6966089898281 519.1951164143109 343.5966089898281 501.5401164143108 322.871608989828C481.0166164143108 298.776608989828 460.0311164143108 278.391608989828 436.2641164143108 258.061608989828C430.1181164143108 252.801608989828 411.1331164143108 237.051608989828 415.6756164143108 240.8466089898281C415.4911164143109 240.6916089898281 414.8321164143108 240.0916089898281 418.2226164143108 244.411608989828C413.3106164143108 238.3766089898281 370.7191164143108 200.5266089898279 358.1786164143108 186.3116089898281C332.4531164143108 157.156608989828 322.0971164143108 132.276608989828 325.9526164143108 112.2766089898281C329.5726164143108 93.5066089898279 336.9016164143108 82.9516089898281 348.4671164143108 75.061608989828C354.3476164143108 71.0516089898281 361.1441164143108 67.966608989828 367.9071164143108 65.926608989828C369.6356164143108 65.4066089898281 371.1666164143108 65.0116089898279 372.4271164143108 64.7366089898281C374.0936164143108 64.6216089898279 376.0421164143108 64.511608989828 378.2556164143108 64.4066089898279zM733.1751164143109 428.2016089898281C801.9551164143106 329.701608989828 919.7551164143108 238.5616089898281 919.7551164143108 238.5616089898281C919.7551164143108 238.5616089898281 1022.9351164143108 151.1616089898281 951.6401164143108 36.636608989828C880.3401164143108 -77.8883910101718 688.9901164143107 -27.238391010172 688.9901164143107 -27.238391010172C688.9901164143107 -27.238391010172 612.9801164143107 -2.783391010172 524.6901164143108 -22.363391010172C436.4431164143108 -42.113391010172 360.3706164143108 -34.623391010172 360.3706164143108 -34.623391010172C360.3706164143108 -34.623391010172 250.0721164143108 -22.363391010172 227.7616164143108 93.346608989828C205.4506164143108 209.051608989828 330.7531164143108 295.3566089898281 340.6616164143108 307.531608989828C350.4186164143108 319.901608989828 416.2581164143108 361.186608989828 463.2541164143108 440.4616089898281C510.2501164143108 519.741608989828 642.4451164143109 567.442108989828 733.1751164143109 428.2016089898281zM1010.1001164143108 499.166608989828C1010.1001164143108 476.3216089898281 1019.6401164143108 379.536608989828 932.4801164143108 377.6066089898279C845.3551164143107 375.6766089898281 841.6751164143109 436.506608989828 841.6751164143109 480.0866089898279C841.6751164143109 525.7466089898279 851.0501164143109 590.3401089898281 921.1901164143108 590.3401089898281C991.2151164143108 590.3401089898281 1010.1001164143108 521.896608989828 1010.1001164143108 499.166608989828zM738.6451164143109 638.0621089898281C679.6401164143108 645.6536089898281 666.2801164143109 699.147108989828 671.9801164143107 752.673608989828C676.7551164143108 796.463608989828 729.1101164143108 863.631608989828 771.0401164143109 854.012108989828C812.8851164143109 844.476608989828 851.0301164143107 789.022608989828 843.3201164143109 741.2776089898281C835.7601164143107 693.465608989828 797.7551164143108 630.386608989828 738.6451164143109 638.0621089898281zM487.8391164143108 656.398608989828C444.7766164143108 656.398608989828 409.8066164143109 706.0491089898279 409.8066164143109 767.438608989828C409.8066164143109 828.762108989828 444.7601164143108 878.396608989828 487.8391164143108 878.396608989828C530.9851164143108 878.396608989828 565.8551164143107 828.762108989828 565.8551164143107 767.438608989828C565.8551164143107 706.0491089898279 530.9851164143108 656.398608989828 487.8391164143108 656.398608989828zM298.1831164143108 428.0916089898281C213.4266164143108 409.8266089898281 181.8611164143108 507.941608989828 191.1621164143108 553.857608989828C191.1621164143108 553.857608989828 201.2096164143108 653.1961089898281 269.9781164143108 659.367108989828C324.6271164143108 664.0971089898279 364.8711164143108 604.291608989828 369.0321164143108 570.076108989828C371.5756164143108 547.882108989828 383.1526164143108 446.3366089898281 298.1831164143108 428.0916089898281z" />
    <glyph glyph-name="ball-pen-fill"
      unicode="&#xEA8D;"
      horiz-adv-x="1200" d="M875.518125 412.6780625L840.163125 448.0330624999999L345.190125 -46.9419375H133.058125V165.1880625L698.7431250000001 730.8760625L981.5881250000002 448.0330624999999C1001.113125 428.5080625000001 1001.113125 396.8480625 981.5881250000002 377.3230625L628.033125 23.7680624999999L557.323125 94.4780625L875.518125 412.6780625zM910.873125 872.2970625L1052.298125 730.8760625C1071.8231250000001 711.3495625 1071.8231250000001 679.6915624999999 1052.298125 660.1650625L981.5881250000002 589.4545625000001L769.453125 801.5865625L840.163125 872.2970625C859.6931249999999 891.8235625 891.3481250000001 891.8235625 910.873125 872.2970625z" />
    </font>
</defs>
</svg>
