<?xml version="1.0" standalone="no"?>
<!DOCTYPE svg PUBLIC "-//W3C//DTD SVG 1.1//EN" "http://www.w3.org/Graphics/SVG/1.1/DTD/svg11.dtd" >
<svg xmlns="http://www.w3.org/2000/svg" xmlns:xlink="http://www.w3.org/1999/xlink" version="1.1">
<metadata>
Created by FontForge 20161003 at Wed May 24 19:58:25 2017
 By www-data
(c) 2017 Microsoft Corporation. All Rights Reserved.
</metadata>
<defs>
<font id="SegoeMDL2Assets" horiz-adv-x="2048" >
  <font-face 
    font-family="Segoe MDL2 Assets"
    font-weight="400"
    font-stretch="normal"
    units-per-em="2048"
    panose-1="5 10 1 2 1 1 1 1 1 1"
    ascent="2048"
    descent="0"
    bbox="-1 -1.33333 5240 2048"
    underline-thickness="119"
    underline-position="-237"
    unicode-range="U+000D-F1CC"
  />
<missing-glyph horiz-adv-x="1322" 
d="M166 0v1398h990v-1398h-990zM314 148h694v1102h-694v-1102z" />
    <glyph glyph-name=".notdef" horiz-adv-x="1322" 
d="M166 0v1398h990v-1398h-990zM314 148h694v1102h-694v-1102z" />
    <glyph glyph-name="uni000D" unicode="&#xd;" horiz-adv-x="0" 
 />
    <glyph glyph-name="space" unicode=" " horiz-adv-x="561" 
 />
    <glyph glyph-name="glyph3" horiz-adv-x="0" 
 />
    <glyph glyph-name="uniE700" unicode="&#xe700;" 
d="M2048 1408h-2048v128h2048v-128v0zM2048 384h-2048v128h2048v-128v0zM2048 897h-2048v127h2048v-127v0z" />
    <glyph glyph-name="uniE011" unicode="&#xe011;" 
d="M1024 666l915 915l90 -90l-1005 -1005l-1005 1005l90 90l915 -915v0z" />
    <glyph glyph-name="uniE011" unicode="&#xe70d;" 
d="M1024 666l915 915l90 -90l-1005 -1005l-1005 1005l90 90l915 -915v0z" />
    <glyph glyph-name="uniE011" unicode="&#xe0e5;" 
d="M1024 666l915 915l90 -90l-1005 -1005l-1005 1005l90 90l915 -915v0z" />
    <glyph glyph-name="uniE011" unicode="&#xe0a1;" 
d="M1024 666l915 915l90 -90l-1005 -1005l-1005 1005l90 90l915 -915v0z" />
    <glyph glyph-name="uniE011" unicode="&#xe09d;" 
d="M1024 666l915 915l90 -90l-1005 -1005l-1005 1005l90 90l915 -915v0z" />
    <glyph glyph-name="uniE011" unicode="&#xe099;" 
d="M1024 666l915 915l90 -90l-1005 -1005l-1005 1005l90 90l915 -915v0z" />
    <glyph glyph-name="uniE011" unicode="&#xe019;" 
d="M1024 666l915 915l90 -90l-1005 -1005l-1005 1005l90 90l915 -915v0z" />
    <glyph glyph-name="uniE011" unicode="&#xe015;" 
d="M1024 666l915 915l90 -90l-1005 -1005l-1005 1005l90 90l915 -915v0z" />
    <glyph glyph-name="uniE109" unicode="&#xe109;" 
d="M2048 1088v-128h-960v-960h-128v960h-960v128h960v960h128v-960h960z" />
    <glyph glyph-name="uniE109" unicode="&#xe710;" 
d="M2048 1088v-128h-960v-960h-128v960h-960v128h960v960h128v-960h960z" />
    <glyph glyph-name="uniE10A" unicode="&#xe10a;" 
d="M1805 1715l-690 -691l690 -691l-90 -90l-691 690l-691 -690l-90 90l690 691l-690 691l90 90l691 -690l691 690l90 -90v0z" />
    <glyph glyph-name="uniE10A" unicode="&#xe711;" 
d="M1805 1715l-690 -691l690 -691l-90 -90l-691 690l-691 -690l-90 90l690 691l-690 691l90 90l691 -690l691 690l90 -90v0z" />
    <glyph glyph-name="uniE115" unicode="&#xe115;" 
d="M1783 1060q0 -9 0.5 -18t0.5 -18t-0.5 -18t-0.5 -18l259 -161l-159 -383l-297 68q-24 -26 -50 -50l68 -297l-383 -159l-161 259q-9 0 -18 -0.5t-18 -0.5t-18 0.5t-18 0.5l-161 -259l-383 159l68 297q-26 24 -50 50l-297 -68l-159 383l259 161q0 9 -0.5 18t-0.5 18t0.5 18
t0.5 18l-259 161l159 383l297 -68q24 26 50 50l-68 297l383 159l161 -259q9 0 18 0.5t18 0.5t18 -0.5t18 -0.5l161 259l383 -159l-68 -297q26 -24 50 -50l297 68l159 -383zM1666 930q2 24 4 47.5t2 47.5q0 23 -2 47t-4 47l236 147l-86 208l-271 -63q-31 38 -63.5 70
t-70.5 64l63 271l-208 86l-148 -236q-23 2 -47 4t-47 2q-24 0 -47.5 -2t-47.5 -4l-147 236l-208 -86l63 -271q-38 -31 -70 -63.5t-64 -70.5l-271 63l-86 -208l236 -148q-2 -24 -4 -47.5t-2 -47.5q0 -23 2 -47t4 -47l-236 -147l86 -208l271 63q31 -38 63.5 -70t70.5 -64
l-63 -271l208 -86l148 236q23 -2 47 -4t47 -2q24 0 47.5 2t47.5 4l147 -236l208 86l-63 271q38 31 70 63.5t64 70.5l271 -63l86 208zM1024 1400q78 0 146.5 -29.5t119.5 -80.5t80.5 -119.5t29.5 -146.5t-29.5 -146.5t-80.5 -119.5t-119.5 -80.5t-146.5 -29.5t-146.5 29.5
t-119.5 80.5t-80.5 119.5t-29.5 146.5t29.5 146.5t80.5 119.5t119.5 80.5t146.5 29.5zM1024 760q55 0 103 20.5t84 56.5t56.5 84t20.5 103t-20.5 103t-56.5 84t-84 56.5t-103 20.5t-103 -20.5t-84 -56.5t-56.5 -84t-20.5 -103t20.5 -103t56.5 -84t84 -56.5t103 -20.5z" />
    <glyph glyph-name="uniE115" unicode="&#xe713;" 
d="M1783 1060q0 -9 0.5 -18t0.5 -18t-0.5 -18t-0.5 -18l259 -161l-159 -383l-297 68q-24 -26 -50 -50l68 -297l-383 -159l-161 259q-9 0 -18 -0.5t-18 -0.5t-18 0.5t-18 0.5l-161 -259l-383 159l68 297q-26 24 -50 50l-297 -68l-159 383l259 161q0 9 -0.5 18t-0.5 18t0.5 18
t0.5 18l-259 161l159 383l297 -68q24 26 50 50l-68 297l383 159l161 -259q9 0 18 0.5t18 0.5t18 -0.5t18 -0.5l161 259l383 -159l-68 -297q26 -24 50 -50l297 68l159 -383zM1666 930q2 24 4 47.5t2 47.5q0 23 -2 47t-4 47l236 147l-86 208l-271 -63q-31 38 -63.5 70
t-70.5 64l63 271l-208 86l-148 -236q-23 2 -47 4t-47 2q-24 0 -47.5 -2t-47.5 -4l-147 236l-208 -86l63 -271q-38 -31 -70 -63.5t-64 -70.5l-271 63l-86 -208l236 -148q-2 -24 -4 -47.5t-2 -47.5q0 -23 2 -47t4 -47l-236 -147l86 -208l271 63q31 -38 63.5 -70t70.5 -64
l-63 -271l208 -86l148 236q23 -2 47 -4t47 -2q24 0 47.5 2t47.5 4l147 -236l208 86l-63 271q38 31 70 63.5t64 70.5l271 -63l86 208zM1024 1400q78 0 146.5 -29.5t119.5 -80.5t80.5 -119.5t29.5 -146.5t-29.5 -146.5t-80.5 -119.5t-119.5 -80.5t-146.5 -29.5t-146.5 29.5
t-119.5 80.5t-80.5 119.5t-29.5 146.5t29.5 146.5t80.5 119.5t119.5 80.5t146.5 29.5zM1024 760q55 0 103 20.5t84 56.5t56.5 84t20.5 103t-20.5 103t-56.5 84t-84 56.5t-103 20.5t-103 -20.5t-84 -56.5t-56.5 -84t-20.5 -103t20.5 -103t56.5 -84t84 -56.5t103 -20.5z" />
    <glyph glyph-name="uniE119" unicode="&#xe119;" 
d="M0 1664h2048v-1280h-2048v1280zM1905 1536h-1762l881 -441zM128 512h1792v888l-896 -447l-896 447v-888z" />
    <glyph glyph-name="uniE119" unicode="&#xe715;" 
d="M0 1664h2048v-1280h-2048v1280zM1905 1536h-1762l881 -441zM128 512h1792v888l-896 -447l-896 447v-888z" />
    <glyph glyph-name="uniE141" unicode="&#xe141;" 
d="M2048 1536v-896h-64q-78 0 -143 33.5t-112 94.5h-494q-28 -59 -70 -106.5t-94.5 -80.5t-113 -51t-125.5 -18h-64v512h-640l-128 64l128 64h640v512h64q65 0 125.5 -18t113 -51t94.5 -80.5t70 -106.5h494q47 61 112 94.5t143 33.5h64zM1920 1397q-24 -8 -41 -20
t-30.5 -26.5t-25 -32.5t-23.5 -38h-653l-15 43q-28 79 -91 134t-145 72v-882q82 17 145 72t91 134l15 43h653q12 -20 23.5 -38t25 -32.5t30.5 -26.5t41 -20v618z" />
    <glyph glyph-name="uniE141" unicode="&#xe718;" 
d="M2048 1536v-896h-64q-78 0 -143 33.5t-112 94.5h-494q-28 -59 -70 -106.5t-94.5 -80.5t-113 -51t-125.5 -18h-64v512h-640l-128 64l128 64h640v512h64q65 0 125.5 -18t113 -51t94.5 -80.5t70 -106.5h494q47 61 112 94.5t143 33.5h64zM1920 1397q-24 -8 -41 -20
t-30.5 -26.5t-25 -32.5t-23.5 -38h-653l-15 43q-28 79 -91 134t-145 72v-882q82 17 145 72t91 134l15 43h653q12 -20 23.5 -38t25 -32.5t30.5 -26.5t41 -20v618z" />
    <glyph glyph-name="uniE16E" unicode="&#xe16e;" 
d="M0 1920h2048v-219l-768 -768v-805h-512v805l-768 768v219zM1920 1755v37h-1792v-37l768 -768v-731h256v731z" />
    <glyph glyph-name="uniE16E" unicode="&#xe71c;" 
d="M0 1920h2048v-219l-768 -768v-805h-512v805l-768 768v219zM1920 1755v37h-1792v-37l768 -768v-731h256v731z" />
    <glyph glyph-name="uniE72D" unicode="&#xe72d;" 
d="M1408 512l128 128v-384h-1536v1280h128v-1152h1280v128zM1280 1024q-128 0 -250.5 -25.5t-236.5 -75t-217.5 -121t-191.5 -162.5v128q0 124 32 238.5t90.5 214t140 181t181 140t214 90.5t238.5 32v384l704 -704l-704 -704v384zM1408 1536q-61 0 -114 -0.5t-103.5 -5.5
t-101.5 -17.5t-108 -36.5q-87 -36 -161.5 -92t-133 -127.5t-99 -155t-59.5 -175.5q168 112 359 169t393 57h128v-203l395 395l-395 395v-203z" />
    <glyph glyph-name="uniE108" unicode="&#xe108;" 
d="M2048 960h-2048v128h2048v-128v0z" />
    <glyph glyph-name="uniE108" unicode="&#xe738;" 
d="M2048 960h-2048v128h2048v-128v0z" />
    <glyph glyph-name="uniE741" unicode="&#xe741;" 
d="M1664 1024h128v-768h-768v128h549l-1298 1299l90 90l1299 -1298v549v0z" />
    <glyph glyph-name="uniE742" unicode="&#xe742;" 
d="M1773 365l-90 -90l-1299 1301v-552h-128v768h768v-128h-548l1297 -1299v0z" />
    <glyph glyph-name="uniE743" unicode="&#xe743;" 
d="M0 2048h2048v-2048h-2048v2048zM1920 128v1792h-1792v-1280h512v-512h1280z" />
    <glyph glyph-name="uniE744" unicode="&#xe744;" 
d="M0 2048h2048v-2048h-2048v2048zM1920 128v1792h-1792v-896h896v-896h896z" />
    <glyph glyph-name="uniE745" unicode="&#xe745;" 
d="M0 2048h2048v-2048h-2048v2048zM128 1024h1792v896h-1792v-896z" />
    <glyph glyph-name="uniE746" unicode="&#xe746;" 
d="M0 2048h2048v-2048h-2048v2048zM1920 128v1792h-896v-1792h896z" />
    <glyph glyph-name="uniE747" unicode="&#xe747;" 
d="M0 2048h2048v-2048h-2048v2048v0z" />
    <glyph glyph-name="uniE748" unicode="&#xe748;" 
d="M1195 939l236 -235l-236 -235l-86 86l85 85h-554v128h554l-85 85zM854 384h554v-128h-554l85 -85l-86 -86l-236 235l236 235l86 -86zM1262 1363q91 -37 165 -97.5t126.5 -138.5t81.5 -169.5t29 -189.5h-128q0 105 -40.5 198.5t-110 163t-163 110t-198.5 40.5
t-198.5 -40.5t-163 -110t-110 -163t-40.5 -198.5h-128q0 98 29 189.5t81.5 169.5t126.5 138.5t165 97.5q-69 54 -107.5 133.5t-38.5 167.5q0 79 30.5 149t82.5 122t122 82.5t149 30.5t149 -30.5t122 -82.5t82.5 -122t30.5 -149q0 -88 -38.5 -167.5t-107.5 -133.5zM768 1664
q0 -53 20.5 -99.5t55 -81t81 -55t99.5 -20.5q52 0 99 20.5t81.5 55t55 81t20.5 99.5q0 52 -20.5 99t-55 81.5t-81.5 55t-99 20.5q-53 0 -99.5 -20.5t-81 -55t-55 -81.5t-20.5 -99z" />
    <glyph glyph-name="uniE2F6" unicode="&#xe2f6;" 
d="M1920 1280q26 0 49.5 -10t41 -27.5t27.5 -41t10 -49.5v-896h-512v-256h-1024v256h-512v896q0 26 10 49.5t27.5 41t41 27.5t49.5 10h384v768h1024v-768h384zM640 1280h768v640h-768v-640zM1408 640h-768v-512h768v512zM1920 1152h-1792v-768h384v384h1024v-384h384v768z
M320 1024q26 0 45 -19t19 -45t-19 -45t-45 -19t-45 19t-19 45t19 45t45 19z" />
    <glyph glyph-name="uniE2F6" unicode="&#xe749;" 
d="M1920 1280q26 0 49.5 -10t41 -27.5t27.5 -41t10 -49.5v-896h-512v-256h-1024v256h-512v896q0 26 10 49.5t27.5 41t41 27.5t49.5 10h384v768h1024v-768h384zM640 1280h768v640h-768v-640zM1408 640h-768v-512h768v512zM1920 1152h-1792v-768h384v384h1024v-384h384v768z
M320 1024q26 0 45 -19t19 -45t-19 -45t-45 -19t-45 19t-19 45t19 45t45 19z" />
    <glyph glyph-name="uniE750" unicode="&#xe750;" 
d="M1005 659l-90 90l274 275l-274 275l90 90l275 -274l275 274l90 -90l-274 -275l274 -275l-90 -90l-275 274zM768 1792h1280v-1536h-1280l-768 768zM1920 384v1280h-1099l-640 -640l640 -640h1099z" />
    <glyph glyph-name="uniE751" unicode="&#xe751;" 
d="M1792 1664v-768h-1317l466 -467l-90 -90l-621 621l621 621l90 -90l-466 -467h1189v640h128v0z" />
    <glyph glyph-name="uniE752" unicode="&#xe752;" 
d="M1709 1197l-90 -90l-467 466v-1317h-128v1317l-467 -466l-90 90l621 621l621 -621v0z" />
    <glyph glyph-name="uniE75D" unicode="&#xe75d;" 
d="M1792 768h-1536v512h128v-384h1280v384h128v-512v0z" />
    <glyph glyph-name="uniE760" unicode="&#xe760;" 
d="M1029 1920q123 0 236.5 -32t212.5 -90t180.5 -139.5t139.5 -180.5t90 -212.5t32 -236.5t-32 -236.5t-90 -212.5t-139.5 -180.5t-180.5 -139.5t-212.5 -90t-236.5 -32t-236.5 32t-212.5 90t-180.5 139.5t-139.5 180.5t-90 212.5t-32 236.5t32 236.5t90 212.5t139.5 180.5
t180.5 139.5t212.5 90t236.5 32zM1029 266q105 0 202.5 27.5t182.5 77t154.5 119t119 154.5t77 182.5t27.5 202.5t-27.5 202.5t-77 182t-119.5 154.5t-154.5 119.5t-182 77t-202.5 27.5t-202.5 -27.5t-182.5 -77t-154.5 -119t-119 -154.5t-77 -182.5t-27.5 -202.5
t27.5 -202.5t77 -182.5t119 -154.5t154.5 -119t182.5 -77t202.5 -27.5zM1229 1395l-370 -371l370 -371l-90 -90l-462 461l462 461z" />
    <glyph glyph-name="uniE761" unicode="&#xe761;" 
d="M1029 1792q-105 0 -202.5 -27.5t-182.5 -77t-154.5 -119t-119 -154.5t-77 -182.5t-27.5 -202.5t27.5 -202.5t77 -182.5t119 -154.5t154.5 -119t182.5 -77t202.5 -27.5t202.5 27.5t182.5 77t154.5 119t119 154.5t77 182.5t27.5 202.5t-27.5 202.5t-77 182t-119.5 154.5
t-154.5 119.5t-182 77t-202.5 27.5zM1029 1920q123 0 236.5 -32t212.5 -90t180.5 -139.5t139.5 -180.5t90 -212.5t32 -236.5t-32 -236.5t-90 -212.5t-139.5 -180.5t-180.5 -139.5t-212.5 -90t-236.5 -32t-236.5 32t-212.5 90t-180.5 139.5t-139.5 180.5t-90 212.5t-32 236.5
t32 236.5t90 212.5t139.5 180.5t180.5 139.5t212.5 90t236.5 32zM941 563l-90 90l370 371l-370 371l90 90l461 -461z" />
    <glyph glyph-name="uniE763" unicode="&#xe763;" 
d="M1783 1664q30 0 55 -12t43 -31.5t28.5 -46t10.5 -54.5v-864q0 -29 -10.5 -55t-28.5 -45.5t-43 -31.5t-55 -12h-1646q-30 0 -55 12t-43 31.5t-28.5 45.5t-10.5 55v864q0 28 10.5 54.5t28.5 46t43 31.5t55 12h1646zM1792 1520q0 11 -9 16h-1646q-9 -5 -9 -16v-864
q0 -11 9 -16h1646q9 5 9 16v864zM256 1152h256v-128h-256v128zM256 896h256v-128h-256v128zM640 896h384v-128h-384v128zM640 1152h128v-128h-128v128zM640 1280h-128v128h128v-128zM384 1280h-128v128h128v-128z" />
    <glyph glyph-name="uniE764" unicode="&#xe764;" 
d="M1783 1664q30 0 55 -12t43 -31.5t28.5 -46t10.5 -54.5v-864q0 -29 -10.5 -55t-28.5 -45.5t-43 -31.5t-55 -12h-1646q-30 0 -55 12t-43 31.5t-28.5 45.5t-10.5 55v864q0 28 10.5 54.5t28.5 46t43 31.5t55 12h1646zM1792 1520q0 11 -9 16h-1646q-9 -5 -9 -16v-864
q0 -11 9 -16h1646q9 5 9 16v864zM1408 1152h256v-128h-256v128zM1408 896h256v-128h-256v128zM896 896h384v-128h-384v128zM1152 1152h128v-128h-128v128zM1408 1280h-128v128h128v-128zM1536 1408h128v-128h-128v128z" />
    <glyph glyph-name="uniE144" unicode="&#xe144;" 
d="M1783 1664q30 0 55 -12t43 -31.5t28.5 -46t10.5 -54.5v-864q0 -29 -10.5 -55t-28.5 -45.5t-43 -31.5t-55 -12h-1646q-30 0 -55 12t-43 31.5t-28.5 45.5t-10.5 55v864q0 28 10.5 54.5t28.5 46t43 31.5t55 12h1646zM1792 1520q0 11 -9 16h-1646q-9 -5 -9 -16v-864
q0 -11 9 -16h1646q9 5 9 16v864zM384 1280h-128v128h128v-128zM256 1152h256v-128h-256v128zM1408 1152h256v-128h-256v128zM1408 896h256v-128h-256v128zM256 896h256v-128h-256v128zM640 896h640v-128h-640v128zM640 1280h-128v128h128v-128zM640 1152h128v-128h-128v128z
M896 1152h128v-128h-128v128zM1152 1152h128v-128h-128v128zM896 1280h-128v128h128v-128zM1152 1280h-128v128h128v-128zM1408 1280h-128v128h128v-128zM1536 1408h128v-128h-128v128z" />
    <glyph glyph-name="uniE144" unicode="&#xe765;" 
d="M1783 1664q30 0 55 -12t43 -31.5t28.5 -46t10.5 -54.5v-864q0 -29 -10.5 -55t-28.5 -45.5t-43 -31.5t-55 -12h-1646q-30 0 -55 12t-43 31.5t-28.5 45.5t-10.5 55v864q0 28 10.5 54.5t28.5 46t43 31.5t55 12h1646zM1792 1520q0 11 -9 16h-1646q-9 -5 -9 -16v-864
q0 -11 9 -16h1646q9 5 9 16v864zM384 1280h-128v128h128v-128zM256 1152h256v-128h-256v128zM1408 1152h256v-128h-256v128zM1408 896h256v-128h-256v128zM256 896h256v-128h-256v128zM640 896h640v-128h-640v128zM640 1280h-128v128h128v-128zM640 1152h128v-128h-128v128z
M896 1152h128v-128h-128v128zM1152 1152h128v-128h-128v128zM896 1280h-128v128h128v-128zM1152 1280h-128v128h128v-128zM1408 1280h-128v128h128v-128zM1536 1408h128v-128h-128v128z" />
    <glyph glyph-name="uniE08F" unicode="&#xe08f;" 
d="M1783 1664q30 0 55 -11.5t43 -31.5t28.5 -46t10.5 -55v-864q0 -29 -10.5 -55t-28.5 -46t-43 -31.5t-55 -11.5h-1646q-30 0 -55 11.5t-43 31.5t-28.5 46t-10.5 55v864q0 29 10.5 55t28.5 46t43 31.5t55 11.5h1646zM1792 1520q0 3 -2 9.5t-7 6.5h-1646q-5 0 -7 -6.5
t-2 -9.5v-864q0 -3 2 -9.5t7 -6.5h1646q5 0 7 6.5t2 9.5v864zM256 1408h128v-128h-128v128zM1536 896h128v-128h-128v128zM256 896h128v-128h-128v128zM512 896h256v-128h-256v128zM1152 896h256v-128h-256v128zM640 1280h-128v128h128v-128zM256 1152h128v-128h-128v128z
M640 1024h-128v128h128v-128zM1280 1152h128v-128h-128v128zM1536 1152h128v-128h-128v128zM1280 1408h128v-128h-128v128zM1536 1408h128v-128h-128v128z" />
    <glyph glyph-name="uniE08F" unicode="&#xe766;" 
d="M1783 1664q30 0 55 -11.5t43 -31.5t28.5 -46t10.5 -55v-864q0 -29 -10.5 -55t-28.5 -46t-43 -31.5t-55 -11.5h-1646q-30 0 -55 11.5t-43 31.5t-28.5 46t-10.5 55v864q0 29 10.5 55t28.5 46t43 31.5t55 11.5h1646zM1792 1520q0 3 -2 9.5t-7 6.5h-1646q-5 0 -7 -6.5
t-2 -9.5v-864q0 -3 2 -9.5t7 -6.5h1646q5 0 7 6.5t2 9.5v864zM256 1408h128v-128h-128v128zM1536 896h128v-128h-128v128zM256 896h128v-128h-128v128zM512 896h256v-128h-256v128zM1152 896h256v-128h-256v128zM640 1280h-128v128h128v-128zM256 1152h128v-128h-128v128z
M640 1024h-128v128h128v-128zM1280 1152h128v-128h-128v128zM1536 1152h128v-128h-128v128zM1280 1408h128v-128h-128v128zM1536 1408h128v-128h-128v128z" />
    <glyph glyph-name="uniE170" unicode="&#xe170;" 
d="M640 1152q-27 0 -50 10t-40.5 27.5t-27.5 40.5t-10 50t10 50t27.5 40.5t40.5 27.5t50 10t50 -10t40.5 -27.5t27.5 -40.5t10 -50t-10 -50t-27.5 -40.5t-40.5 -27.5t-50 -10zM1408 1152q-27 0 -50 10t-40.5 27.5t-27.5 40.5t-10 50t10 50t27.5 40.5t40.5 27.5t50 10t50 -10
t40.5 -27.5t27.5 -40.5t10 -50t-10 -50t-27.5 -40.5t-40.5 -27.5t-50 -10zM1024 2048q141 0 272 -36.5t245 -103t207.5 -160t160 -207.5t103 -245t36.5 -272t-36.5 -272t-103 -245t-160 -207.5t-207.5 -160t-245 -103t-272 -36.5t-272 36.5t-245 103t-207.5 160t-160 207.5
t-103 244.5t-36.5 272.5q0 141 36.5 272t103 245t160 207.5t207.5 160t244.5 103t272.5 36.5zM1024 128q123 0 237.5 32t214 90.5t181.5 140.5t140.5 181.5t90.5 213.5t32 238q0 123 -32 237.5t-90.5 214t-140.5 181.5t-181.5 140.5t-214 90.5t-237.5 32t-237.5 -32
t-214 -90.5t-181.5 -140.5t-140.5 -181.5t-90.5 -214t-32 -237.5t32 -237.5t90.5 -214t140.5 -181.5t181.5 -140.5t213.5 -90.5t238 -32zM1024 512q73 0 141.5 20t127.5 57t106.5 90t80.5 118l115 -58q-41 -81 -101 -147t-134 -112t-159.5 -71t-176.5 -25q-92 0 -177 25
t-159 71t-134 112t-101 147l115 58q33 -65 80.5 -118t106.5 -90t127 -57t142 -20z" />
    <glyph glyph-name="uniE170" unicode="&#xe76e;" 
d="M640 1152q-27 0 -50 10t-40.5 27.5t-27.5 40.5t-10 50t10 50t27.5 40.5t40.5 27.5t50 10t50 -10t40.5 -27.5t27.5 -40.5t10 -50t-10 -50t-27.5 -40.5t-40.5 -27.5t-50 -10zM1408 1152q-27 0 -50 10t-40.5 27.5t-27.5 40.5t-10 50t10 50t27.5 40.5t40.5 27.5t50 10t50 -10
t40.5 -27.5t27.5 -40.5t10 -50t-10 -50t-27.5 -40.5t-40.5 -27.5t-50 -10zM1024 2048q141 0 272 -36.5t245 -103t207.5 -160t160 -207.5t103 -245t36.5 -272t-36.5 -272t-103 -245t-160 -207.5t-207.5 -160t-245 -103t-272 -36.5t-272 36.5t-245 103t-207.5 160t-160 207.5
t-103 244.5t-36.5 272.5q0 141 36.5 272t103 245t160 207.5t207.5 160t244.5 103t272.5 36.5zM1024 128q123 0 237.5 32t214 90.5t181.5 140.5t140.5 181.5t90.5 213.5t32 238q0 123 -32 237.5t-90.5 214t-140.5 181.5t-181.5 140.5t-214 90.5t-237.5 32t-237.5 -32
t-214 -90.5t-181.5 -140.5t-140.5 -181.5t-90.5 -214t-32 -237.5t32 -237.5t90.5 -214t140.5 -181.5t181.5 -140.5t213.5 -90.5t238 -32zM1024 512q73 0 141.5 20t127.5 57t106.5 90t80.5 118l115 -58q-41 -81 -101 -147t-134 -112t-159.5 -71t-176.5 -25q-92 0 -177 25
t-159 71t-134 112t-101 147l115 58q33 -65 80.5 -118t106.5 -90t127 -57t142 -20z" />
    <glyph glyph-name="uniE206" unicode="&#xe206;" 
d="M0 1920h2048v-1408h-1317l-475 -475v475h-256v1408zM1920 640v1152h-1792v-1152h256v-293l293 293h1243z" />
    <glyph glyph-name="uniE802" unicode="&#xe802;" 
d="M1363 1544l90 -91l-429 -429l-429 429l90 91l276 -275v523h126v-523zM1024 2048q141 0 271.5 -36.5t244.5 -103.5t207.5 -160.5t160.5 -207.5t103.5 -244.5t36.5 -271.5t-36.5 -271.5t-103.5 -244.5t-160.5 -207.5t-207.5 -160.5t-244.5 -103.5t-271.5 -36.5t-271.5 36.5
t-244.5 103.5t-207.5 160.5t-160.5 207.5t-103.5 244.5t-36.5 271.5t36.5 271.5t103.5 244.5t160.5 207.5t207.5 160.5t244.5 103.5t271.5 36.5zM165 768q10 -33 22.5 -64.5t26.5 -62.5h972l-23 127h-998zM814 512l-42 -127h462l-24 127h-396zM679 512h-390
q59 -84 134.5 -152.5t165.5 -118.5zM1024 128q129 0 251 36l-17 92h-529l-23 -70q77 -29 157 -43.5t161 -14.5zM1397 209q109 50 201 127t161 176h-418zM1834 641q14 31 26.5 62.5t22.5 64.5h-590l24 -127h517zM1911 897q9 63 9 127q0 123 -32 237.5t-90.5 214t-140.5 181.5
t-181.5 140.5t-214 90.5t-237.5 32t-237.5 -32t-214 -90.5t-181.5 -140.5t-140.5 -181.5t-90.5 -214t-32 -237.5q0 -64 9 -127h1774z" />
    <glyph glyph-name="uniE803" unicode="&#xe803;" 
d="M685 1280l-90 91l429 429l429 -429l-90 -91l-276 275v-531h-126v531zM1024 2048q141 0 271.5 -36.5t244.5 -103.5t207.5 -160.5t160.5 -207.5t103.5 -244.5t36.5 -271.5t-36.5 -271.5t-103.5 -244.5t-160.5 -207.5t-207.5 -160.5t-244.5 -103.5t-271.5 -36.5t-271.5 36.5
t-244.5 103.5t-207.5 160.5t-160.5 207.5t-103.5 244.5t-36.5 271.5t36.5 271.5t103.5 244.5t160.5 207.5t207.5 160.5t244.5 103.5t271.5 36.5zM1024 1920q-123 0 -237.5 -32t-214 -90.5t-181.5 -140.5t-140.5 -181.5t-90.5 -214t-32 -237.5q0 -65 9 -128h1774q9 63 9 128
q0 123 -32 237.5t-90.5 214t-140.5 181.5t-181.5 140.5t-214 90.5t-237.5 32zM1210 512h-396l-43 -128h463zM1187 640l-24 128h-998q19 -65 50 -128h972zM1317 640h516q31 63 50 128h-590zM289 512q59 -84 134.5 -152.5t165.5 -118.5l90 271h-390zM706 186q77 -29 157 -43.5
t161 -14.5q129 0 251 36l-17 92h-529zM1397 209q109 50 201 127t161 176h-418z" />
    <glyph glyph-name="uniE809" unicode="&#xe809;" 
d="M1728 1792l320 -1536h-2048l320 1536h1408zM832 1283l-26 -390h436l-26 390h-384zM684 893l26 390h-372l-81 -390h427zM840 1405h368l-17 265h-334zM1791 893l-81 390h-372l26 -390h427zM1249 771h-450l-26 -393h502zM1371 771l26 -393h501l-82 393h-445zM1684 1405
l-55 265h-316l17 -265h354zM735 1670h-316l-55 -265h354zM232 771l-82 -393h501l26 393h-445z" />
    <glyph glyph-name="uniE80A" unicode="&#xe80a;" 
d="M0 2048h2048v-2048h-2048v2048zM1920 1408v512h-512v-512h512zM768 768h512v512h-512v-512zM1280 640h-512v-512h512v512zM640 768v512h-512v-512h512zM768 1408h512v512h-512v-512zM1408 1280v-512h512v512h-512zM640 1920h-512v-512h512v512zM128 640v-512h512v512
h-512zM1408 128h512v512h-512v-512z" />
    <glyph glyph-name="uniE814" unicode="&#xe814;" 
d="M1920 0h-1920l960 1920zM1024 384h-128v-128h128v128zM1024 512v640h-128v-640h128z" />
    <glyph glyph-name="uniE1D2" unicode="&#xe1d2;" 
d="M1024 1920q123 0 237.5 -32t214 -90.5t181.5 -140.5t140.5 -181.5t90.5 -214t32 -237.5t-32 -237.5t-90.5 -214t-140.5 -181.5t-181.5 -140.5t-214 -90.5t-237.5 -32t-237.5 32t-214 90.5t-181.5 140.5t-140.5 181.5t-90.5 213.5t-32 238q0 123 32 237.5t90.5 214
t140.5 181.5t181.5 140.5t213.5 90.5t238 32zM1024 256q106 0 204 27.5t183.5 77.5t155.5 120t120 155.5t77.5 183.5t27.5 204t-27.5 204t-77.5 183.5t-120 155.5t-155.5 120t-183.5 77.5t-204 27.5t-204 -27.5t-183.5 -77.5t-155.5 -120t-120 -155.5t-77.5 -183.5
t-27.5 -204t27.5 -204t77.5 -183.5t120 -155.5t155.5 -120t183.5 -77.5t204 -27.5zM1024 1408q79 0 149 -30.5t122 -82.5t82.5 -122t30.5 -149t-30.5 -149t-82.5 -122t-122 -82.5t-149 -30.5t-149 30.5t-122 82.5t-82.5 122t-30.5 149t30.5 149t82.5 122t122 82.5t149 30.5z
" />
    <glyph glyph-name="uniE1D2" unicode="&#xe81d;" 
d="M1024 1920q123 0 237.5 -32t214 -90.5t181.5 -140.5t140.5 -181.5t90.5 -214t32 -237.5t-32 -237.5t-90.5 -214t-140.5 -181.5t-181.5 -140.5t-214 -90.5t-237.5 -32t-237.5 32t-214 90.5t-181.5 140.5t-140.5 181.5t-90.5 213.5t-32 238q0 123 32 237.5t90.5 214
t140.5 181.5t181.5 140.5t213.5 90.5t238 32zM1024 256q106 0 204 27.5t183.5 77.5t155.5 120t120 155.5t77.5 183.5t27.5 204t-27.5 204t-77.5 183.5t-120 155.5t-155.5 120t-183.5 77.5t-204 27.5t-204 -27.5t-183.5 -77.5t-155.5 -120t-120 -155.5t-77.5 -183.5
t-27.5 -204t27.5 -204t77.5 -183.5t120 -155.5t155.5 -120t183.5 -77.5t204 -27.5zM1024 1408q79 0 149 -30.5t122 -82.5t82.5 -122t30.5 -149t-30.5 -149t-82.5 -122t-122 -82.5t-149 -30.5t-149 30.5t-122 82.5t-82.5 122t-30.5 149t30.5 149t82.5 122t122 82.5t149 30.5z
" />
    <glyph glyph-name="uniE81E" unicode="&#xe81e;" 
d="M1664 1216l384 -192l-384 -192l384 -192l-1024 -512l-1024 512l384 192l-384 192l384 192l-384 192l1024 512l1024 -512zM286 1408l738 -369l738 369l-738 369zM1762 640l-241 120l-497 -248l-497 248l-241 -120l738 -369zM1024 655l738 369l-241 120l-497 -248l-497 248
l-241 -120z" />
    <glyph glyph-name="uniE826" unicode="&#xe826;" 
d="M1792 1024v-549l163 162l90 -90l-317 -317l-317 317l90 90l163 -162v549h128zM1408 128h640v-128h-640v128zM1664 1152v402l-384 -128v-1152l-704 235l-576 -192v1244l576 192l640 -214l576 192v-579h-128zM128 1469v-975l384 128v975zM1152 451v975l-512 171v-975z" />
    <glyph glyph-name="uniE850" unicode="&#xe850;" 
d="M1792 960h64v-128h-64v-320h-1536v768h1536v-320zM1728 576v640h-1408v-640h1408z" />
    <glyph glyph-name="uniE851" unicode="&#xe851;" 
d="M1792 960h64v-128h-64v-320h-1536v768h1536v-320zM1728 576v640h-1408v-640h1408zM512 1152v-512h-128v512h128z" />
    <glyph glyph-name="uniE852" unicode="&#xe852;" 
d="M1792 960h64v-128h-64v-320h-1536v768h1536v-320zM1728 576v640h-1408v-640h1408zM640 1152v-512h-256v512h256z" />
    <glyph glyph-name="uniE853" unicode="&#xe853;" 
d="M1792 960h64v-128h-64v-320h-1536v768h1536v-320zM1728 576v640h-1408v-640h1408zM768 1152v-512h-384v512h384z" />
    <glyph glyph-name="uniE854" unicode="&#xe854;" 
d="M1792 960h64v-128h-64v-320h-1536v768h1536v-320zM1728 576v640h-1408v-640h1408zM896 1152v-512h-512v512h512z" />
    <glyph glyph-name="uniE855" unicode="&#xe855;" 
d="M1792 960h64v-128h-64v-320h-1536v768h1536v-320zM1728 576v640h-1408v-640h1408zM1024 1152v-512h-640v512h640z" />
    <glyph glyph-name="uniE856" unicode="&#xe856;" 
d="M1792 960h64v-128h-64v-320h-1536v768h1536v-320zM1728 576v640h-1408v-640h1408zM1152 1152v-512h-768v512h768z" />
    <glyph glyph-name="uniE857" unicode="&#xe857;" 
d="M1792 960h64v-128h-64v-320h-1536v768h1536v-320zM1728 576v640h-1408v-640h1408zM1280 1152v-512h-896v512h896z" />
    <glyph glyph-name="uniE858" unicode="&#xe858;" 
d="M1792 960h64v-128h-64v-320h-1536v768h1536v-320zM1728 576v640h-1408v-640h1408zM1408 1152v-512h-1024v512h1024z" />
    <glyph glyph-name="uniE859" unicode="&#xe859;" 
d="M1792 960h64v-128h-64v-320h-1536v768h1536v-320zM1728 576v640h-1408v-640h1408zM1536 1152v-512h-1152v512h1152z" />
    <glyph glyph-name="uniE85A" unicode="&#xe85a;" 
d="M1856 960v-128h-64v-320h-1408v64h1344v640h-1216v64h1280v-320h64zM448 1120q0 -28 -9.5 -54t-26.5 -47t-40.5 -35.5t-51.5 -20.5v-451h-64v451q-28 6 -51.5 20.5t-40.5 35.5t-26.5 47t-9.5 54v160h64v128h64v-128h64v128h64v-128h64v-160zM192 1120q0 -40 28 -68
t68 -28t68 28t28 68v96h-192v-96z" />
    <glyph glyph-name="uniE85B" unicode="&#xe85b;" 
d="M1856 960v-128h-64v-320h-1408v64h1344v640h-1216v64h1280v-320h64zM448 1120q0 -28 -9.5 -54t-26.5 -47t-40.5 -35.5t-51.5 -20.5v-451h-64v451q-28 6 -51.5 20.5t-40.5 35.5t-26.5 47t-9.5 54v160h64v128h64v-128h64v128h64v-128h64v-160zM192 1120q0 -40 28 -68
t68 -28t68 28t28 68v96h-192v-96zM384 918q58 28 93 82.5t35 119.5v-480h-128v278z" />
    <glyph glyph-name="uniE85C" unicode="&#xe85c;" 
d="M1856 960v-128h-64v-320h-1408v64h1344v640h-1216v64h1280v-320h64zM448 1120q0 -28 -9.5 -54t-26.5 -47t-40.5 -35.5t-51.5 -20.5v-451h-64v451q-28 6 -51.5 20.5t-40.5 35.5t-26.5 47t-9.5 54v160h64v128h64v-128h64v128h64v-128h64v-160zM192 1120q0 -40 28 -68
t68 -28t68 28t28 68v96h-192v-96zM384 918q58 28 93 82.5t35 119.5v32h128v-512h-256v278z" />
    <glyph glyph-name="uniE85D" unicode="&#xe85d;" 
d="M1856 960v-128h-64v-320h-1408v64h1344v640h-1216v64h1280v-320h64zM448 1120q0 -28 -9.5 -54t-26.5 -47t-40.5 -35.5t-51.5 -20.5v-451h-64v451q-28 6 -51.5 20.5t-40.5 35.5t-26.5 47t-9.5 54v160h64v128h64v-128h64v128h64v-128h64v-160zM192 1120q0 -40 28 -68
t68 -28t68 28t28 68v96h-192v-96zM384 918q58 28 93 82.5t35 119.5v32h256v-512h-384v278z" />
    <glyph glyph-name="uniE85E" unicode="&#xe85e;" 
d="M1856 960v-128h-64v-320h-1408v64h1344v640h-1216v64h1280v-320h64zM448 1120q0 -28 -9.5 -54t-26.5 -47t-40.5 -35.5t-51.5 -20.5v-451h-64v451q-28 6 -51.5 20.5t-40.5 35.5t-26.5 47t-9.5 54v160h64v128h64v-128h64v128h64v-128h64v-160zM192 1120q0 -40 28 -68
t68 -28t68 28t28 68v96h-192v-96zM384 918q58 28 93 82.5t35 119.5v32h384v-512h-512v278z" />
    <glyph glyph-name="uniE85F" unicode="&#xe85f;" 
d="M1856 960v-128h-64v-320h-1408v64h1344v640h-1216v64h1280v-320h64zM448 1120q0 -28 -9.5 -54t-26.5 -47t-40.5 -35.5t-51.5 -20.5v-451h-64v451q-28 6 -51.5 20.5t-40.5 35.5t-26.5 47t-9.5 54v160h64v128h64v-128h64v128h64v-128h64v-160zM192 1120q0 -40 28 -68
t68 -28t68 28t28 68v96h-192v-96zM384 918q58 28 93 82.5t35 119.5v32h512v-512h-640v278z" />
    <glyph glyph-name="uniE860" unicode="&#xe860;" 
d="M1856 960v-128h-64v-320h-1408v64h1344v640h-1216v64h1280v-320h64zM448 1120q0 -28 -9.5 -54t-26.5 -47t-40.5 -35.5t-51.5 -20.5v-451h-64v451q-28 6 -51.5 20.5t-40.5 35.5t-26.5 47t-9.5 54v160h64v128h64v-128h64v128h64v-128h64v-160zM192 1120q0 -40 28 -68
t68 -28t68 28t28 68v96h-192v-96zM384 918q58 28 93 82.5t35 119.5v32h640v-512h-768v278z" />
    <glyph glyph-name="uniE861" unicode="&#xe861;" 
d="M1856 960v-128h-64v-320h-1408v64h1344v640h-1216v64h1280v-320h64zM448 1120q0 -28 -9.5 -54t-26.5 -47t-40.5 -35.5t-51.5 -20.5v-451h-64v451q-28 6 -51.5 20.5t-40.5 35.5t-26.5 47t-9.5 54v160h64v128h64v-128h64v128h64v-128h64v-160zM192 1120q0 -40 28 -68
t68 -28t68 28t28 68v96h-192v-96zM384 918q58 28 93 82.5t35 119.5v32h768v-512h-896v278z" />
    <glyph glyph-name="uniE862" unicode="&#xe862;" 
d="M1856 960v-128h-64v-320h-1408v64h1344v640h-1216v64h1280v-320h64zM448 1120q0 -28 -9.5 -54t-26.5 -47t-40.5 -35.5t-51.5 -20.5v-451h-64v451q-28 6 -51.5 20.5t-40.5 35.5t-26.5 47t-9.5 54v160h64v128h64v-128h64v128h64v-128h64v-160zM192 1120q0 -40 28 -68
t68 -28t68 28t28 68v96h-192v-96zM384 918q58 28 93 82.5t35 119.5v32h896v-512h-1024v278z" />
    <glyph glyph-name="uniE863" unicode="&#xe863;" 
d="M1856 960v-128h-64v-320h-1408v64h1344v640h-1239q-8 19 -19 32.5t-24 29.5l-1 2h1347v-320h64zM447 1120q0 -28 -9.5 -54t-26.5 -47t-40 -36t-51 -20v-451h-64v451q-28 5 -51.5 20t-40.5 36t-26.5 47t-9.5 54q0 32 12 61t35 52l113 113l113 -113q23 -23 34.5 -52
t11.5 -61zM192 1120q0 -30 17.5 -55.5t46.5 -34.5v122h64v-122q29 9 46.5 34.5t17.5 55.5q0 40 -28 68l-68 68l-68 -68q-28 -28 -28 -68z" />
    <glyph glyph-name="uniE864" unicode="&#xe864;" 
d="M1856 960v-128h-64v-320h-1408v64h1344v640h-1239q-8 19 -19 32.5t-24 29.5l-1 2h1347v-320h64zM447 1120q0 -28 -9.5 -54t-26.5 -47t-40 -36t-51 -20v-451h-64v451q-28 5 -51.5 20t-40.5 36t-26.5 47t-9.5 54q0 32 12 61t35 52l113 113l113 -113q23 -23 34.5 -52
t11.5 -61zM192 1120q0 -30 17.5 -55.5t46.5 -34.5v122h64v-122q29 9 46.5 34.5t17.5 55.5q0 40 -28 68l-68 68l-68 -68q-28 -28 -28 -68zM384 918q58 28 93 82.5t35 119.5v-480h-128v278z" />
    <glyph glyph-name="uniE865" unicode="&#xe865;" 
d="M1856 960v-128h-64v-320h-1408v64h1344v640h-1239q-8 19 -19 32.5t-24 29.5l-1 2h1347v-320h64zM447 1120q0 -28 -9.5 -54t-26.5 -47t-40 -36t-51 -20v-451h-64v451q-28 5 -51.5 20t-40.5 36t-26.5 47t-9.5 54q0 32 12 61t35 52l113 113l113 -113q23 -23 34.5 -52
t11.5 -61zM192 1120q0 -30 17.5 -55.5t46.5 -34.5v122h64v-122q29 9 46.5 34.5t17.5 55.5q0 40 -28 68l-68 68l-68 -68q-28 -28 -28 -68zM384 918q58 28 93 82.5t35 119.5v32h128v-512h-256v278z" />
    <glyph glyph-name="uniE866" unicode="&#xe866;" 
d="M1856 960v-128h-64v-320h-1408v64h1344v640h-1239q-8 19 -19 32.5t-24 29.5l-1 2h1347v-320h64zM447 1120q0 -28 -9.5 -54t-26.5 -47t-40 -36t-51 -20v-451h-64v451q-28 5 -51.5 20t-40.5 36t-26.5 47t-9.5 54q0 32 12 61t35 52l113 113l113 -113q23 -23 34.5 -52
t11.5 -61zM192 1120q0 -30 17.5 -55.5t46.5 -34.5v122h64v-122q29 9 46.5 34.5t17.5 55.5q0 40 -28 68l-68 68l-68 -68q-28 -28 -28 -68zM384 918q58 28 93 82.5t35 119.5v32h256v-512h-384v278z" />
    <glyph glyph-name="uniE867" unicode="&#xe867;" 
d="M1856 960v-128h-64v-320h-1408v64h1344v640h-1239q-8 19 -19 32.5t-24 29.5l-1 2h1347v-320h64zM447 1120q0 -28 -9.5 -54t-26.5 -47t-40 -36t-51 -20v-451h-64v451q-28 5 -51.5 20t-40.5 36t-26.5 47t-9.5 54q0 32 12 61t35 52l113 113l113 -113q23 -23 34.5 -52
t11.5 -61zM192 1120q0 -30 17.5 -55.5t46.5 -34.5v122h64v-122q29 9 46.5 34.5t17.5 55.5q0 40 -28 68l-68 68l-68 -68q-28 -28 -28 -68zM384 918q58 28 93 82.5t35 119.5v32h384v-512h-512v278z" />
    <glyph glyph-name="uniE868" unicode="&#xe868;" 
d="M1856 960v-128h-64v-320h-1408v64h1344v640h-1239q-8 19 -19 32.5t-24 29.5l-1 2h1347v-320h64zM447 1120q0 -28 -9.5 -54t-26.5 -47t-40 -36t-51 -20v-451h-64v451q-28 5 -51.5 20t-40.5 36t-26.5 47t-9.5 54q0 32 12 61t35 52l113 113l113 -113q23 -23 34.5 -52
t11.5 -61zM192 1120q0 -30 17.5 -55.5t46.5 -34.5v122h64v-122q29 9 46.5 34.5t17.5 55.5q0 40 -28 68l-68 68l-68 -68q-28 -28 -28 -68zM384 918q58 28 93 82.5t35 119.5v32h512v-512h-640v278z" />
    <glyph glyph-name="uniE869" unicode="&#xe869;" 
d="M1856 960v-128h-64v-320h-1408v64h1344v640h-1239q-8 19 -19 32.5t-24 29.5l-1 2h1347v-320h64zM447 1120q0 -28 -9.5 -54t-26.5 -47t-40 -36t-51 -20v-451h-64v451q-28 5 -51.5 20t-40.5 36t-26.5 47t-9.5 54q0 32 12 61t35 52l113 113l113 -113q23 -23 34.5 -52
t11.5 -61zM192 1120q0 -30 17.5 -55.5t46.5 -34.5v122h64v-122q29 9 46.5 34.5t17.5 55.5q0 40 -28 68l-68 68l-68 -68q-28 -28 -28 -68zM384 918q58 28 93 82.5t35 119.5v32h640v-512h-768v278z" />
    <glyph glyph-name="uniE86A" unicode="&#xe86a;" 
d="M1856 960v-128h-64v-320h-1408v64h1344v640h-1239q-8 19 -19 32.5t-24 29.5l-1 2h1347v-320h64zM447 1120q0 -28 -9.5 -54t-26.5 -47t-40 -36t-51 -20v-451h-64v451q-28 5 -51.5 20t-40.5 36t-26.5 47t-9.5 54q0 32 12 61t35 52l113 113l113 -113q23 -23 34.5 -52
t11.5 -61zM192 1120q0 -30 17.5 -55.5t46.5 -34.5v122h64v-122q29 9 46.5 34.5t17.5 55.5q0 40 -28 68l-68 68l-68 -68q-28 -28 -28 -68zM384 918q58 28 93 82.5t35 119.5v32h768v-512h-896v278z" />
    <glyph glyph-name="uniE86B" unicode="&#xe86b;" 
d="M1856 960v-128h-64v-320h-1408v64h1344v640h-1239q-8 19 -19 32.5t-24 29.5l-1 2h1347v-320h64zM447 1120q0 -28 -9.5 -54t-26.5 -47t-40 -36t-51 -20v-451h-64v451q-28 5 -51.5 20t-40.5 36t-26.5 47t-9.5 54q0 32 12 61t35 52l113 113l113 -113q23 -23 34.5 -52
t11.5 -61zM192 1120q0 -30 17.5 -55.5t46.5 -34.5v122h64v-122q29 9 46.5 34.5t17.5 55.5q0 40 -28 68l-68 68l-68 -68q-28 -28 -28 -68zM384 918q58 28 93 82.5t35 119.5v32h896v-512h-1024v278z" />
    <glyph glyph-name="uniE86C" unicode="&#xe86c;" 
d="M384 0h-256v256h256v-256v0z" />
    <glyph glyph-name="uniE86D" unicode="&#xe86d;" 
d="M384 0h-256v256h256v-256v0zM768 0h-256v512h256v-512v0z" />
    <glyph glyph-name="uniE86E" unicode="&#xe86e;" 
d="M384 0h-256v256h256v-256v0zM768 0h-256v512h256v-512v0zM1152 0h-256v768h256v-768v0z" />
    <glyph glyph-name="uniE86F" unicode="&#xe86f;" 
d="M384 0h-256v256h256v-256v0zM768 0h-256v512h256v-512v0zM1152 0h-256v768h256v-768v0zM1536 0h-256v1024h256v-1024v0z" />
    <glyph glyph-name="uniE870" unicode="&#xe870;" 
d="M384 0h-256v256h256v-256v0zM768 0h-256v512h256v-512v0zM1152 0h-256v768h256v-768v0zM1536 0h-256v1024h256v-1024v0zM1920 0h-256v1280h256v-1280v0z" />
    <glyph glyph-name="uniE871" unicode="&#xe871;" 
d="M1472 1152q119 0 224 -45.5t183 -123.5t123.5 -183t45.5 -224t-45.5 -224t-123.5 -183t-183 -123.5t-224 -45.5t-224 45.5t-183 123.5t-123.5 183t-45.5 224t45.5 224t123.5 183t183 123.5t224 45.5zM1024 576q0 -93 35.5 -174.5t96 -142t142 -96t174.5 -35.5
q72 0 141 22.5t127 66.5l-627 627q-44 -58 -66.5 -127t-22.5 -141zM1831 308q44 58 66.5 127t22.5 141q0 93 -35.5 174.5t-96 142t-142 96t-174.5 35.5q-72 0 -141 -22.5t-127 -66.5z" />
    <glyph glyph-name="uniE872" unicode="&#xe872;" 
d="M1792 192q0 -40 -15 -75t-41 -61t-61 -41t-75 -15t-75 15t-61 41t-41 61t-15 75t15 75t41 61t61 41t75 15t75 -15t61 -41t41 -61t15 -75z" />
    <glyph glyph-name="uniE873" unicode="&#xe873;" 
d="M1024 0q0 106 27.5 204t77.5 183.5t120 155.5t155.5 120t183.5 77.5t204 27.5v-128q-88 0 -170 -23t-153 -64.5t-129.5 -100t-100 -129.5t-64.5 -153t-23 -170h-128zM1600 384q40 0 75 -15t61 -41t41 -61t15 -75t-15 -75t-41 -61t-61 -41t-75 -15t-75 15t-61 41t-41 61
t-15 75t15 75t41 61t61 41t75 15z" />
    <glyph glyph-name="uniE874" unicode="&#xe874;" 
d="M1024 0q0 106 27.5 204t77.5 183.5t120 155.5t155.5 120t183.5 77.5t204 27.5v-128q-88 0 -170 -23t-153 -64.5t-129.5 -100t-100 -129.5t-64.5 -153t-23 -170h-128zM640 0q0 159 41 306.5t116 275.5t180 233t233 180t275.5 116t306.5 41v-128q-141 0 -271.5 -36.5
t-244.5 -103.5t-207.5 -160.5t-160.5 -207.5t-103.5 -244.5t-36.5 -271.5h-128zM1600 384q40 0 75 -15t61 -41t41 -61t15 -75t-15 -75t-41 -61t-61 -41t-75 -15t-75 15t-61 41t-41 61t-15 75t15 75t41 61t61 41t75 15z" />
    <glyph glyph-name="uniE875" unicode="&#xe875;" 
d="M640 384h256v-128h-256q-26 0 -49.5 10t-41 27.5t-27.5 41t-10 49.5v1280q0 27 10 50t27.5 40.5t40.5 27.5t50 10h859l293 -293v-184q-29 26 -61 47.5t-67 36.5v46l-219 219h-805v-1280zM1920 896v-640h-896v640h128v64q0 66 25 124t68.5 101.5t102 69t124.5 25.5
t124 -25.5t101.5 -69t69 -101.5t25.5 -124v-64h128zM1280 896h384v64q0 40 -15 75t-41 61t-61 41t-75 15t-75 -15t-61 -41t-41 -61t-15 -75v-64zM1792 768h-640v-384h640v384z" />
    <glyph glyph-name="uniE876" unicode="&#xe876;" 
d="M1472 1152q93 0 174.5 -35t142.5 -96t96 -142.5t35 -174.5t-35 -174.5t-96 -142.5t-142.5 -96t-174.5 -35t-174.5 35t-142.5 96t-96 142.5t-35 174.5t35 174.5t96 142.5t142.5 96t174.5 35zM1152 704q0 -66 25 -124.5t68.5 -102t102 -68.5t124.5 -25q47 0 92 13.5
t84 39.5l-443 443q-26 -39 -39.5 -84t-13.5 -92zM1739 528q26 39 39.5 84t13.5 92q0 66 -25.5 124t-69 101.5t-101.5 69t-124 25.5q-47 0 -92 -13.5t-84 -39.5zM957 384q23 -35 49.5 -67.5t57.5 -60.5h-424q-27 0 -50 10t-40.5 27.5t-27.5 40.5t-10 50v1280q0 27 10 50
t27.5 40.5t40.5 27.5t50 10h859l293 -293v-280q-30 19 -62 34.5t-66 26.5v165l-219 219h-805v-1280h317z" />
    <glyph glyph-name="uniE877" unicode="&#xe877;" 
d="M1243 1024h-512l-302 -301l-90 90l338 339h512l302 301l90 -90zM1747 1069l90 -90l-338 -339h-512l-302 -301l-90 90l338 339h512zM987 1408h-512l-302 -301l-90 90l338 339h512l302 301l90 -90z" />
    <glyph glyph-name="uniE878" unicode="&#xe878;" 
d="M1024 1638l717 -1433h-1434l717 1433v0z" />
    <glyph glyph-name="uniE879" unicode="&#xe879;" 
d="M1024 1638l717 -1433h-1434zM1024 1409l-551 -1102h1102z" />
    <glyph glyph-name="uniE87A" unicode="&#xe87a;" 
d="M0 256l768 1536l768 -1536h-1536zM1581 1837l365 -365l-365 -365l-90 90l210 211h-549v128h549l-210 211z" />
    <glyph glyph-name="uniE87B" unicode="&#xe87b;" 
d="M0 256l768 1536l768 -1536h-1536zM207 384h1122l-561 1122zM1581 1837l365 -365l-365 -365l-90 90l210 211h-549v128h549l-210 211z" />
    <glyph glyph-name="uniE87C" unicode="&#xe87c;" 
d="M1792 768h-750q71 -85 154.5 -155.5t178 -121.5t199.5 -79t218 -28v-128q-124 0 -240 29.5t-221 83.5t-198.5 129.5t-172.5 168.5q-80 -93 -173 -168.5t-198 -129.5t-221 -83.5t-240 -29.5v128q113 0 218 28t199.5 79t178 121.5t154.5 155.5h-750v128h256v384h512v128
h128v-128h512v-384h256v-128zM512 896h384v256h-384v-256zM1408 1152h-384v-256h384v256zM640 1536h-384v128h384v256h128v-256h384v256h128v-256h384v-128h-384v-128h-128v128h-384v-128h-128v128z" />
    <glyph glyph-name="uniE87D" unicode="&#xe87d;" 
d="M1024 1152h384v-256h-384v256zM1920 2048v-1920h-1920v1920h1920zM256 1536h384v-128h128v128h384v-128h128v128h384v128h-384v256h-128v-256h-384v256h-128v-256h-384v-128zM1792 896h-256v384h-512v128h-128v-128h-512v-384h-256v-128h748q-71 -85 -154.5 -155.5
t-178 -121.5t-199 -79t-216.5 -28v-128q124 0 240 29.5t221 83t198 129t173 168.5q79 -93 172.5 -168.5t198.5 -129t221 -83t240 -29.5v128q-113 0 -217.5 28t-199 79t-178 121.5t-153.5 155.5h748v128zM512 1152h384v-256h-384v256z" />
    <glyph glyph-name="uniE87E" unicode="&#xe87e;" 
d="M2048 1536v-128h-256v-128h-128v128h-384v-128h-128v128h-256v128h256v128h128v-128h384v128h128v-128h256zM1553 640q47 -56 102 -103t117.5 -81t131.5 -53t144 -19v-128q-86 0 -166 20.5t-152.5 57.5t-137.5 89t-120 115q-55 -63 -120 -115t-137.5 -89t-153 -57.5
t-165.5 -20.5v128q75 0 144 19t131.5 53t117.5 81t102 103h-495v128h128v384h384v128h128v-128h384v-384h128v-128h-495zM1536 768h256v256h-256v-256zM1152 768h256v256h-256v-256zM449 1690l444 -445l-90 -90l-291 291v-1190h-128v1189l-291 -290l-90 90z" />
    <glyph glyph-name="uniE87F" unicode="&#xe87f;" 
d="M0 2048h1920v-1920h-1920v1920zM1443 1155l90 90l-573 573l-573 -573l90 -90l419 418v-1317h128v1317z" />
    <glyph glyph-name="uniE880" unicode="&#xe880;" 
d="M509 1629l-90 -90l-291 290v-165h-128v384h384v-128h-165l290 -291v0z" />
    <glyph glyph-name="uniE881" unicode="&#xe881;" 
d="M1107 1491l-339 338v-165h-128v384h384v-128h-165l338 -339zM256 2048q53 0 99.5 -20t81.5 -55t55 -81.5t20 -99.5v-384h-512v384q0 53 20 99.5t55 81.5t81.5 55t99.5 20zM400 1792q0 30 -11.5 56t-31 45.5t-45.5 31t-56 11.5t-56 -11.5t-45.5 -31t-31 -45.5t-11.5 -56
h288z" />
    <glyph glyph-name="uniE882" unicode="&#xe882;" 
d="M165 1562q-6 -6 -10.5 -12.5t-9.5 -13.5h239v-128h-384v64q0 52 19 94t47.5 77t61.5 64t61.5 54t47.5 48t19 47q0 26 -19 45t-45 19t-45 -19t-19 -45h-128q0 40 15 75t41 61t61 41t75 15t75 -15t61 -41t41 -61t15 -75q0 -38 -15 -73.5t-41 -62.5h-1z" />
    <glyph glyph-name="uniE883" unicode="&#xe883;" 
d="M768 2048q53 0 99.5 -20t81.5 -55t55 -81.5t20 -99.5v-384h-512v384q0 53 20 99.5t55 81.5t81.5 55t99.5 20zM768 1936q-30 0 -56 -11.5t-45.5 -31t-31 -45.5t-11.5 -56h288q0 30 -11.5 56t-31 45.5t-45.5 31t-56 11.5zM165 1562q-6 -6 -10.5 -12.5t-9.5 -13.5h239v-128
h-384v64q0 52 19 94t47.5 77t61.5 64t61.5 54t47.5 48t19 47q0 26 -19 45t-45 19t-45 -19t-19 -45h-128q0 40 15 75t41 61t61 41t75 15t75 -15t61 -41t41 -61t15 -75q0 -38 -15 -73.5t-41 -62.5h-1z" />
    <glyph glyph-name="uniE884" unicode="&#xe884;" 
d="M256 2048v-640h-128v458q-30 -13 -62.5 -19t-65.5 -6v128q53 0 91.5 20.5t73.5 58.5h91z" />
    <glyph glyph-name="uniE885" unicode="&#xe885;" 
d="M0 1969q53 0 91.5 20.5t73.5 58.5h91v-640h-128v458q-30 -13 -62.5 -19t-65.5 -6v128zM640 2048q53 0 99.5 -20t81.5 -55t55 -81.5t20 -99.5v-384h-512v384q0 53 20 99.5t55 81.5t81.5 55t99.5 20zM640 1936q-30 0 -56 -11.5t-45.5 -31t-31 -45.5t-11.5 -56h288
q0 30 -11.5 56t-31 45.5t-45.5 31t-56 11.5z" />
    <glyph glyph-name="uniE886" unicode="&#xe886;" 
d="M0 2048h896v-91l-384 -384v-165h-128v165l-384 384v91zM384 1755v165h-165zM512 1755l165 165h-165v-165z" />
    <glyph glyph-name="uniE887" unicode="&#xe887;" 
d="M514 1644q22 0 37 -15l74 -74q15 -15 15 -37q0 -21 -15 -36l-32 -32t-29 -23t-33 -14t-44 -5q-52 0 -108.5 21.5t-110.5 58.5t-102.5 85.5t-85.5 102.5t-58.5 110.5t-21.5 108.5q0 26 5 44t14 33t23 29l32 32q15 15 36 15q22 0 37 -15l74 -74q15 -15 15 -37
q0 -18 -10.5 -31t-23.5 -24t-23.5 -24t-10.5 -31q0 -20 16 -36l184 -184q16 -16 36 -16q18 0 31 10.5t24 23.5t24 23.5t31 10.5z" />
    <glyph glyph-name="uniE888" unicode="&#xe888;" 
d="M1280 2048q53 0 99.5 -20t81.5 -55t55 -81.5t20 -99.5v-384h-512v384q0 53 20 99.5t55 81.5t81.5 55t99.5 20zM1280 1936q-30 0 -56 -11.5t-45.5 -31t-31 -45.5t-11.5 -56h288q0 30 -11.5 56t-31 45.5t-45.5 31t-56 11.5zM0 2048h896v-91l-384 -384v-165h-128v165
l-384 384v91zM512 1755l165 165h-165v-165zM219 1920l165 -165v165h-165z" />
    <glyph glyph-name="uniE889" unicode="&#xe889;" 
d="M256 2048q53 0 99.5 -20t81.5 -55t55 -81.5t20 -99.5v-384h-512v384q0 53 20 99.5t55 81.5t81.5 55t99.5 20zM256 1936q-30 0 -56 -11.5t-45.5 -31t-31 -45.5t-11.5 -56h288q0 30 -11.5 56t-31 45.5t-45.5 31t-56 11.5z" />
    <glyph glyph-name="uniE88A" unicode="&#xe88a;" 
d="M896 1408h128v-1408h-128v1408zM372 1804q-58 -58 -103.5 -126.5t-76.5 -143.5t-47.5 -155.5t-16.5 -162.5t16.5 -162.5t47.5 -155.5t76.5 -143.5t103.5 -126.5l-91 -91q-136 137 -208.5 311.5t-72.5 367.5t72.5 367.5t208.5 311.5zM1639 1895q136 -137 208.5 -311.5
t72.5 -367.5t-72.5 -367.5t-208.5 -311.5l-91 91q58 58 103.5 126.5t76.5 143.5t47.5 155.5t16.5 162.5t-16.5 162.5t-47.5 155.5t-76.5 143.5t-103.5 126.5zM1367 1623q81 -81 125 -186.5t44 -220.5t-44 -220.5t-125 -186.5l-90 90q63 63 96.5 145.5t33.5 171.5
t-33.5 171.5t-96.5 145.5zM643 1533q-63 -63 -97 -145.5t-34 -171.5t34 -171.5t97 -145.5l-90 -90q-81 81 -125 186.5t-44 220.5t44 220.5t125 186.5z" />
    <glyph glyph-name="uniE88B" unicode="&#xe88b;" 
d="M1152 1664h-896v128h384v256h128v-256h384v-128zM1792 1536v-128h-256v-768h-128v1280h128v-384h256zM768 384h896v-128h-1024v512h128v-384zM1024 1217q0 -69 -24.5 -127.5t-67 -101.5t-101 -67.5t-127.5 -24.5q-70 0 -128.5 24t-101 66.5t-66.5 101.5t-24 129t24 128.5
t66.5 101t101.5 66t128 23.5t128 -23.5t101.5 -66t66.5 -101t24 -128.5zM512 1217q0 -43 14 -78.5t39 -61t60.5 -39.5t78.5 -14t78 14.5t60.5 40t39.5 61t14 77.5q0 43 -14 78t-39.5 60t-60.5 39t-78 14t-78 -14t-60.5 -39t-39.5 -60t-14 -78z" />
    <glyph glyph-name="uniE88C" unicode="&#xe88c;" 
d="M701 1428q-76 26 -158 43l35 72q39 -8 77.5 -18.5t76.5 -24.5zM1037 1539q97 76 175.5 170.5t141.5 200.5l93 -33q-17 -32 -37.5 -63t-42.5 -60h493v-92h-118q-26 -106 -74 -205t-125 -178q78 -51 164.5 -86.5t175.5 -61.5l-45 -90q-96 32 -187 74.5t-174 99.5
q-80 -59 -170 -100t-184 -70l-49 82q40 12 84 27t87 33.5t83.5 41t73.5 48.5q-51 45 -92.5 97.5t-79.5 109.5l75 49q35 -55 76.5 -104.5t87.5 -94.5q35 32 62.5 70.5t48.5 80.5t37 87t28 90h-342q-47 -51 -95 -100.5t-101 -94.5zM697 1215q-42 14 -84 25.5t-86 17.5l29 76
q45 -6 88 -18.5t86 -26.5zM1318 414q142 -39 278 -90.5t268 -117.5l-65 -86q-127 69 -263.5 119t-273.5 94zM959 1342q-2 -32 -3 -65.5t-7 -65.5h53v-86h-59q-9 -42 -25 -69t-40 -42.5t-56 -21.5t-72 -6h-28.5t-28.5 2l-33 86q18 -2 36.5 -3t37.5 -1q16 0 32 2.5t30 8.5
t24.5 16.5t15.5 27.5h-571l43 217h-156v84h166l35 213h616q1 -11 1 -23v-24q0 -42 -2 -83t-5 -83h105v-84h-109zM849 1211q5 32 7.5 65t2.5 66h-449l-24 -131h463zM867 1549h-424l-18 -123h442v123zM1596 527q-137 -13 -271.5 -23t-271.5 -18v-231q0 -48 -24 -85t-75 -45
q-20 -3 -43 -4t-47 -0.5t-47.5 1t-43.5 0.5l-35 100q15 -1 42.5 -1.5t57 0t55 2t36.5 6.5q17 7 21.5 20t4.5 30v201q-173 -11 -344 -16t-344 -7l-20 99q171 35 338 81.5t331 108.5q-134 -4 -267 -6t-267 -2l-13 90q176 23 342.5 75t323.5 134l76 -68q-110 -48 -223.5 -85
t-231.5 -58q79 0 157.5 2t157.5 6q46 2 94 3t93 8q7 1 25 8.5t41.5 19t50 24.5t50.5 25t42.5 21.5t25.5 13.5l76 -74q-478 -247 -1007 -342q263 11 523.5 25.5t522.5 42.5q-28 24 -56.5 48t-58.5 46l78 64q86 -64 163 -138t149 -153l-82 -66zM140 208q136 38 268 86.5
t256 117.5l64 -77q-127 -68 -258.5 -120.5t-268.5 -94.5zM435 1740q-63 -57 -130 -108t-142 -93l-70 76q111 57 206.5 133t174.5 172l90 -39q-5 -15 -15 -27.5t-22 -23.5h563v-90h-655z" />
    <glyph glyph-name="uniE88D" unicode="&#xe88d;" 
d="M366 1664q-63 -77 -140 -138t-162 -110l-64 112q71 40 140 93.5t123 119t87.5 142.5t33.5 165h128q0 -67 -16 -131.5t-47 -124.5h575v-128h-293l178 -179l-90 -90l-270 269h-183zM2048 1664h-293l178 -179l-90 -90l-270 269h-183q-63 -77 -140 -138t-162 -110l-64 112
q71 40 140 93.5t123 119t87.5 142.5t33.5 165h128q0 -67 -16 -131.5t-47 -124.5h575v-128zM256 1152h128v-1152h-128v1152zM640 1024h640v-896h-640v896zM1152 256v256h-384v-256h384zM768 896v-256h384v256h-384zM896 1280h896v-1088q0 -40 -15 -75t-41 -61t-61 -41
t-75 -15h-192v128h192q26 0 45 19t19 45v960h-768v128zM653 1229l-90 -90l-288 288l90 90z" />
    <glyph glyph-name="uniE701" unicode="&#xe701;" 
d="M1024 0q0 106 27.5 204t77.5 183.5t120 155.5t155.5 120t183.5 77.5t204 27.5v-128q-88 0 -170 -23t-153 -64.5t-129.5 -100t-100 -129.5t-64.5 -153t-23 -170h-128zM640 0q0 159 41 306.5t116 275.5t180 233t233 180t275.5 116t306.5 41v-128q-141 0 -271.5 -36.5
t-244.5 -103.5t-207.5 -160.5t-160.5 -207.5t-103.5 -244.5t-36.5 -271.5h-128zM256 0q0 212 55 408t155 367t240 311t311 240t367 155t408 55v-128q-194 0 -373.5 -50.5t-336 -142t-285.5 -220.5t-220.5 -285.5t-142 -336t-50.5 -373.5h-128zM1600 384q40 0 75 -15t61 -41
t41 -61t15 -75t-15 -75t-41 -61t-61 -41t-75 -15t-75 15t-61 41t-41 61t-15 75t15 75t41 61t61 41t75 15z" />
    <glyph glyph-name="uniE702" unicode="&#xe702;" 
d="M1024 37v768l-339 -338l-90 90l402 403l-402 403l90 90l339 -338v768l538 -539l-384 -384l384 -384l-538 -539v0zM1152 805v-458l229 229l-229 229v0zM1152 1573v-458l229 229l-229 229v0z" />
    <glyph glyph-name="uniE703" unicode="&#xe703;" 
d="M512 384v-128h-256v128h256zM2048 256h-896v-128h256v-128h-1408v1152h128v384h1920v-1280zM661 107v938h-554v-938h554zM1024 128v128h-256v-128h256zM768 384h1152v1024h-1664v-256h512v-768z" />
    <glyph glyph-name="uniE704" unicode="&#xe704;" 
d="M896 1408h128v-1408h-128v1408zM372 1804q-58 -58 -103.5 -126.5t-76.5 -143.5t-47.5 -155.5t-16.5 -162.5t16.5 -162.5t47.5 -155.5t76.5 -143.5t103.5 -126.5l-91 -91q-136 137 -208.5 311.5t-72.5 367.5t72.5 367.5t208.5 311.5zM1639 1895q136 -137 208.5 -311.5
t72.5 -367.5t-72.5 -367.5t-208.5 -311.5l-91 91q58 58 103.5 126.5t76.5 143.5t47.5 155.5t16.5 162.5t-16.5 162.5t-47.5 155.5t-76.5 143.5t-103.5 126.5zM1367 1623q81 -81 125 -186.5t44 -220.5t-44 -220.5t-125 -186.5l-90 90q63 63 96.5 145.5t33.5 171.5
t-33.5 171.5t-96.5 145.5zM643 1533q-63 -63 -97 -145.5t-34 -171.5t34 -171.5t97 -145.5l-90 -90q-81 81 -125 186.5t-44 220.5t44 220.5t125 186.5z" />
    <glyph glyph-name="uniE705" unicode="&#xe705;" 
d="M779 1029l-142 142q-9 -59 -37 -109.5t-70.5 -87.5t-96 -57.5t-113.5 -20.5q-66 0 -124.5 25t-102 68.5t-68.5 102t-25 124.5t25 124.5t68.5 102t102 68.5t124.5 25q64 0 122.5 -24t103.5 -70h1l322 -323zM320 1024q40 0 75 15t61 41t41 61t15 75t-15 75t-41 61t-61 41
t-75 15t-75 -15t-61 -41t-41 -61t-15 -75t15 -75t41 -61t61 -41t75 -15zM1600 1536q66 0 124.5 -25t102 -68.5t68.5 -102t25 -124.5t-25 -124.5t-68.5 -102t-102 -68.5t-124.5 -25q-47 0 -83.5 10t-68 28t-60 43.5t-59.5 57.5l90 91q21 -21 39.5 -40t39.5 -32.5t45.5 -21.5
t56.5 -8q40 0 75 15t61 41t41 61t15 75t-15 75t-41 61t-61 41t-75 15q-38 0 -73.5 -14.5t-62.5 -41.5l-640 -640q-27 -27 -41.5 -62.5t-14.5 -73.5q0 -40 15 -75t41 -61t61 -41t75 -15t75 15t61 41t41 61t15 75q0 32 -8 56.5t-21.5 45.5t-32.5 39.5t-40 39.5l91 90
q31 -31 57 -59.5t44 -60t28 -68t10 -83.5q0 -66 -25 -124.5t-68.5 -102t-102 -68.5t-124.5 -25t-124.5 25t-102 68.5t-68.5 102t-25 124.5t24 123t70 103l640 640q46 46 103 70t123 24zM960 1254l-283 282h182l101 -102l101 102h182z" />
    <glyph glyph-name="uniE706" unicode="&#xe706;" 
d="M960 1536q93 0 174.5 -35t142.5 -96t96 -142.5t35 -174.5t-35 -174.5t-96 -142.5t-142.5 -96t-174.5 -35t-174.5 35t-142.5 96t-96 142.5t-35 174.5t35 174.5t96 142.5t142.5 96t174.5 35zM960 768q66 0 124 25t101.5 68.5t69 102t25.5 124.5t-25.5 124t-69 101.5
t-101.5 69t-124 25.5t-124.5 -25.5t-102 -69t-68.5 -101.5t-25 -124t25 -124.5t68.5 -102t102 -68.5t124.5 -25zM1024 1664h-128v384h128v-384zM896 512h128v-384h-128v384zM1920 1152v-128h-384v128h384zM384 1024h-384v128h384v-128zM507 1450l-271 272l90 90l272 -271z
M1413 726l271 -272l-90 -90l-272 271zM1413 1450l-91 91l272 271l90 -90zM507 726l91 -91l-272 -271l-90 90z" />
    <glyph glyph-name="uniE1C4" unicode="&#xe1c4;" 
d="M1920 0h-1920l384 1152h512v262q-56 12 -103 41t-81 70.5t-53 93.5t-19 109q0 66 25 124t68.5 101.5t102 69t124.5 25.5t124 -25.5t101.5 -69t69 -101.5t25.5 -124q0 -57 -19 -109t-53 -93.5t-81 -70.5t-103 -41v-262h512zM768 1728q0 -40 15 -75t41 -61t61 -41t75 -15
t75 15t61 41t41 61t15 75t-15 75t-41 61t-61 41t-75 15t-75 -15t-61 -41t-41 -61t-15 -75zM178 128h1564l-298 896h-420v-480q0 -9 -7.5 -15.5t-18 -10t-21 -5t-17.5 -1.5t-17.5 1.5t-21 5t-18 10t-7.5 15.5v480h-420z" />
    <glyph glyph-name="uniE1C4" unicode="&#xe707;" 
d="M1920 0h-1920l384 1152h512v262q-56 12 -103 41t-81 70.5t-53 93.5t-19 109q0 66 25 124t68.5 101.5t102 69t124.5 25.5t124 -25.5t101.5 -69t69 -101.5t25.5 -124q0 -57 -19 -109t-53 -93.5t-81 -70.5t-103 -41v-262h512zM768 1728q0 -40 15 -75t41 -61t61 -41t75 -15
t75 15t61 41t41 61t15 75t-15 75t-41 61t-61 41t-75 15t-75 -15t-61 -41t-41 -61t-15 -75zM178 128h1564l-298 896h-420v-480q0 -9 -7.5 -15.5t-18 -10t-21 -5t-17.5 -1.5t-17.5 1.5t-21 5t-18 10t-7.5 15.5v480h-420z" />
    <glyph glyph-name="uniE708" unicode="&#xe708;" 
d="M128 512q141 0 272 36.5t244.5 103.5t207 160.5t160.5 207t103.5 244.5t36.5 272q0 133 -34 261t-99 243q128 -16 245 -61t217 -115t181 -161.5t138.5 -199t88.5 -229t31 -250.5q0 -141 -36.5 -272t-103.5 -244.5t-160.5 -207t-207 -160.5t-244.5 -103.5t-272 -36.5
q-138 0 -269 36t-246.5 103.5t-211.5 164t-164 216.5q31 -4 61.5 -6t61.5 -2zM896 128q124 0 238.5 32t214 90.5t181 140t140 181t90.5 214t32 238.5q0 136 -40 263.5t-112.5 236t-175.5 193.5t-229 136q45 -155 45 -317q0 -146 -35 -282.5t-100 -258t-157 -225t-205 -182
t-244.5 -129t-276.5 -67.5q128 -128 290.5 -196t343.5 -68z" />
    <glyph glyph-name="uniE709" unicode="&#xe709;" 
d="M1792 1280q52 0 99 -20.5t81.5 -55t55 -81.5t20.5 -99q0 -53 -20.5 -99.5t-55 -81t-81.5 -55t-99 -20.5h-448l-384 -768h-448l256 768h-256l-64 -128h-448l128 384l-128 384h448l64 -128h256l-256 768h448l384 -768h448zM1792 896q27 0 50 10t40.5 27.5t27.5 40.5t10 50
t-10 50t-27.5 40.5t-40.5 27.5t-50 10h-527q-99 192 -193 383.5t-191 384.5h-191q64 -193 127 -384.5t129 -383.5h-513l-64 128h-191q21 -64 41.5 -128t43.5 -128q-23 -64 -43.5 -128t-41.5 -128h191l64 128h513q-66 -192 -129 -383.5t-127 -384.5h191q97 193 191 384.5
t193 383.5h527z" />
    <glyph glyph-name="uniE70A" unicode="&#xe70a;" 
d="M1888 1536q33 0 62 -12.5t51 -34.5t34.5 -51t12.5 -62v-1216q0 -33 -12.5 -62t-34.5 -51t-51 -34.5t-62 -12.5h-1728q-33 0 -62 12.5t-51 34.5t-34.5 51t-12.5 62v1216q0 33 12.5 62t34.5 51t51 34.5t62 12.5h1728zM1920 1376q0 14 -9 23t-23 9h-1728q-14 0 -23 -9
t-9 -23v-1216q0 -14 9 -23t23 -9h1728q14 0 23 9t9 23v1216zM896 384h256v-128h-256v128z" />
    <glyph glyph-name="uniE70B" unicode="&#xe70b;" 
d="M128 1920h1792v-1792h-1280l-512 512v1280zM309 640l331 -331v331h-331zM1792 256v1536h-1536v-1024h512v-512h1024z" />
    <glyph glyph-name="uniE70C" unicode="&#xe70c;" 
d="M1792 1664v-1024h-2l-126 412v484h-1408v-384h256v-384h938l-40 -128h-386v-256h-384v128h256v128h-384v-256h-512v768h128v512h1664zM384 1024h-256v-512h256v512zM1600 194l-266 -194l101 314l-266 197h335l97 310l95 -310h335l-266 -197l102 -313z" />
    <glyph glyph-name="uniE010" unicode="&#xe010;" 
d="M1955 515l-931 930l-931 -930l-90 90l1021 1022l1021 -1022l-90 -90v0z" />
    <glyph glyph-name="uniE010" unicode="&#xe70e;" 
d="M1955 515l-931 930l-931 -930l-90 90l1021 1022l1021 -1022l-90 -90v0z" />
    <glyph glyph-name="uniE010" unicode="&#xe0e4;" 
d="M1955 515l-931 930l-931 -930l-90 90l1021 1022l1021 -1022l-90 -90v0z" />
    <glyph glyph-name="uniE010" unicode="&#xe0a0;" 
d="M1955 515l-931 930l-931 -930l-90 90l1021 1022l1021 -1022l-90 -90v0z" />
    <glyph glyph-name="uniE010" unicode="&#xe09c;" 
d="M1955 515l-931 930l-931 -930l-90 90l1021 1022l1021 -1022l-90 -90v0z" />
    <glyph glyph-name="uniE010" unicode="&#xe098;" 
d="M1955 515l-931 930l-931 -930l-90 90l1021 1022l1021 -1022l-90 -90v0z" />
    <glyph glyph-name="uniE010" unicode="&#xe018;" 
d="M1955 515l-931 930l-931 -930l-90 90l1021 1022l1021 -1022l-90 -90v0z" />
    <glyph glyph-name="uniE010" unicode="&#xe014;" 
d="M1955 515l-931 930l-931 -930l-90 90l1021 1022l1021 -1022l-90 -90v0z" />
    <glyph glyph-name="uniE10C" unicode="&#xe10c;" 
d="M256 1152q27 0 50 -10t40.5 -27.5t27.5 -40.5t10 -50t-10 -50t-27.5 -40.5t-40.5 -27.5t-50 -10t-50 10t-40.5 27.5t-27.5 40.5t-10 50t10 50t27.5 40.5t40.5 27.5t50 10zM1024 1152q27 0 50 -10t40.5 -27.5t27.5 -40.5t10 -50t-10 -50t-27.5 -40.5t-40.5 -27.5t-50 -10
t-50 10t-40.5 27.5t-27.5 40.5t-10 50t10 50t27.5 40.5t40.5 27.5t50 10zM1792 1152q27 0 50 -10t40.5 -27.5t27.5 -40.5t10 -50t-10 -50t-27.5 -40.5t-40.5 -27.5t-50 -10t-50 10t-40.5 27.5t-27.5 40.5t-10 50t10 50t27.5 40.5t40.5 27.5t50 10z" />
    <glyph glyph-name="uniE10C" unicode="&#xe712;" 
d="M256 1152q27 0 50 -10t40.5 -27.5t27.5 -40.5t10 -50t-10 -50t-27.5 -40.5t-40.5 -27.5t-50 -10t-50 10t-40.5 27.5t-27.5 40.5t-10 50t10 50t27.5 40.5t40.5 27.5t50 10zM1024 1152q27 0 50 -10t40.5 -27.5t27.5 -40.5t10 -50t-10 -50t-27.5 -40.5t-40.5 -27.5t-50 -10
t-50 10t-40.5 27.5t-27.5 40.5t-10 50t10 50t27.5 40.5t40.5 27.5t50 10zM1792 1152q27 0 50 -10t40.5 -27.5t27.5 -40.5t10 -50t-10 -50t-27.5 -40.5t-40.5 -27.5t-50 -10t-50 10t-40.5 27.5t-27.5 40.5t-10 50t10 50t27.5 40.5t40.5 27.5t50 10z" />
    <glyph glyph-name="uniE116" unicode="&#xe116;" 
d="M2048 1544v-1040l-512 256v-248h-1536v1024h1536v-248zM1408 640v768h-1280v-768h1280zM1920 711v626l-384 -193v-240z" />
    <glyph glyph-name="uniE116" unicode="&#xe714;" 
d="M2048 1544v-1040l-512 256v-248h-1536v1024h1536v-248zM1408 640v768h-1280v-768h1280zM1920 711v626l-384 -193v-240z" />
    <glyph glyph-name="uniE116" unicode="&#xe20a;" 
d="M2048 1544v-1040l-512 256v-248h-1536v1024h1536v-248zM1408 640v768h-1280v-768h1280zM1920 711v626l-384 -193v-240z" />
    <glyph glyph-name="uniE13A" unicode="&#xe13a;" 
d="M1607 835q44 0 84.5 -16.5t71.5 -47.5l220 -220q31 -31 47.5 -71.5t16.5 -84.5t-16.5 -84.5t-47.5 -71.5q-57 -58 -104 -102.5t-97 -75t-111 -46t-147 -15.5q-125 0 -257 39t-262.5 108t-256 164t-237 207.5t-205.5 238t-162 256t-106 260.5t-38 252q0 86 15.5 146.5
t46 111t75 97t102.5 103.5q31 31 71 48t85 17q44 0 84.5 -17t71.5 -48l220 -220q31 -31 47.5 -71.5t16.5 -84.5t-15 -78.5t-37 -62.5t-48.5 -51t-48.5 -45t-37 -44.5t-15 -48.5q0 -38 27 -65l551 -551q27 -27 65 -27q26 0 48.5 15t44.5 37t45 48.5t51 48.5t62.5 37t78.5 15z
M1524 128q72 0 120.5 13.5t87.5 39t76 63.5t85 86q27 27 27 65q0 18 -14.5 42.5t-37.5 51.5t-51.5 55.5t-56 54t-51 47t-36.5 34.5q-27 27 -66 27q-26 0 -48 -15t-44 -37t-45.5 -48.5t-51.5 -48.5t-62.5 -37t-78.5 -15t-84.5 16.5t-71.5 47.5l-551 551q-31 31 -47.5 71.5
t-16.5 84.5t15 78.5t37 62.5t48.5 51.5t48.5 45.5t37 44t15 48q0 39 -27 66q-13 13 -34.5 36.5t-47 51t-54 56t-55.5 51.5t-51.5 37.5t-42.5 14.5q-38 0 -65 -27q-48 -48 -85.5 -85t-64 -76t-40 -87.5t-13.5 -119.5q0 -112 36.5 -231t101 -238t152.5 -234.5t192 -218.5
t219.5 -190t234 -150.5t236 -99t225.5 -35.5z" />
    <glyph glyph-name="uniE13A" unicode="&#xe717;" 
d="M1607 835q44 0 84.5 -16.5t71.5 -47.5l220 -220q31 -31 47.5 -71.5t16.5 -84.5t-16.5 -84.5t-47.5 -71.5q-57 -58 -104 -102.5t-97 -75t-111 -46t-147 -15.5q-125 0 -257 39t-262.5 108t-256 164t-237 207.5t-205.5 238t-162 256t-106 260.5t-38 252q0 86 15.5 146.5
t46 111t75 97t102.5 103.5q31 31 71 48t85 17q44 0 84.5 -17t71.5 -48l220 -220q31 -31 47.5 -71.5t16.5 -84.5t-15 -78.5t-37 -62.5t-48.5 -51t-48.5 -45t-37 -44.5t-15 -48.5q0 -38 27 -65l551 -551q27 -27 65 -27q26 0 48.5 15t44.5 37t45 48.5t51 48.5t62.5 37t78.5 15z
M1524 128q72 0 120.5 13.5t87.5 39t76 63.5t85 86q27 27 27 65q0 18 -14.5 42.5t-37.5 51.5t-51.5 55.5t-56 54t-51 47t-36.5 34.5q-27 27 -66 27q-26 0 -48 -15t-44 -37t-45.5 -48.5t-51.5 -48.5t-62.5 -37t-78.5 -15t-84.5 16.5t-71.5 47.5l-551 551q-31 31 -47.5 71.5
t-16.5 84.5t15 78.5t37 62.5t48.5 51.5t48.5 45.5t37 44t15 48q0 39 -27 66q-13 13 -34.5 36.5t-47 51t-54 56t-55.5 51.5t-51.5 37.5t-42.5 14.5q-38 0 -65 -27q-48 -48 -85.5 -85t-64 -76t-40 -87.5t-13.5 -119.5q0 -112 36.5 -231t101 -238t152.5 -234.5t192 -218.5
t219.5 -190t234 -150.5t236 -99t225.5 -35.5z" />
    <glyph glyph-name="uniE15B" unicode="&#xe15b;" 
d="M128 1920h1792v-1792h-1792v1792zM1792 256v1536h-1536v-1536h1536z" />
    <glyph glyph-name="uniE15B" unicode="&#xe71a;" 
d="M128 1920h1792v-1792h-1792v1792zM1792 256v1536h-1536v-1536h1536z" />
    <glyph glyph-name="uniE167" unicode="&#xe167;" 
d="M1536 1280v-128q76 0 145.5 -17.5t122.5 -56t84.5 -99t31.5 -147.5q0 -66 -25.5 -124t-69 -101.5t-101.5 -69t-124 -25.5h-512q-66 0 -124 25.5t-101.5 69t-69 101.5t-25.5 124q0 87 31.5 147.5t84.5 99t122.5 56t145.5 17.5v128h-64q-93 0 -174.5 -35.5t-142 -96
t-96 -142t-35.5 -174.5t35.5 -174.5t96 -142t142 -96t174.5 -35.5h512q93 0 174.5 35.5t142 96t96 142t35.5 174.5t-35.5 174.5t-96 142t-142 96t-174.5 35.5h-64zM896 768v128q76 0 145.5 17.5t122.5 56t84.5 99t31.5 147.5q0 66 -25.5 124t-69 101.5t-101.5 69t-124 25.5
h-512q-66 0 -124 -25.5t-101.5 -69t-69 -101.5t-25.5 -124q0 -87 31.5 -147.5t84.5 -99t122.5 -56t145.5 -17.5v-128h-64q-93 0 -174.5 35.5t-142 96t-96 142t-35.5 174.5t35.5 174.5t96 142t142 96t174.5 35.5h512q93 0 174.5 -35.5t142 -96t96 -142t35.5 -174.5
t-35.5 -174.5t-96 -142t-142 -96t-174.5 -35.5h-64z" />
    <glyph glyph-name="uniE167" unicode="&#xe71b;" 
d="M1536 1280v-128q76 0 145.5 -17.5t122.5 -56t84.5 -99t31.5 -147.5q0 -66 -25.5 -124t-69 -101.5t-101.5 -69t-124 -25.5h-512q-66 0 -124 25.5t-101.5 69t-69 101.5t-25.5 124q0 87 31.5 147.5t84.5 99t122.5 56t145.5 17.5v128h-64q-93 0 -174.5 -35.5t-142 -96
t-96 -142t-35.5 -174.5t35.5 -174.5t96 -142t142 -96t174.5 -35.5h512q93 0 174.5 35.5t142 96t96 142t35.5 174.5t-35.5 174.5t-96 142t-142 96t-174.5 35.5h-64zM896 768v128q76 0 145.5 17.5t122.5 56t84.5 99t31.5 147.5q0 66 -25.5 124t-69 101.5t-101.5 69t-124 25.5
h-512q-66 0 -124 -25.5t-101.5 -69t-69 -101.5t-25.5 -124q0 -87 31.5 -147.5t84.5 -99t122.5 -56t145.5 -17.5v-128h-64q-93 0 -174.5 35.5t-142 96t-96 142t-35.5 174.5t35.5 174.5t96 142t142 96t174.5 35.5h512q93 0 174.5 -35.5t142 -96t96 -142t35.5 -174.5
t-35.5 -174.5t-96 -142t-142 -96t-174.5 -35.5h-64z" />
    <glyph glyph-name="uniE179" unicode="&#xe179;" 
d="M0 640v384h384v-384h-384zM128 896v-128h128v128h-128zM0 1152v384h384v-384h-384zM128 1408v-128h128v128h-128zM0 1664v384h384v-384h-384zM128 1920v-128h128v128h-128zM640 1280v128h1152v-128h-1152zM1536 896v-128h-896v128h896zM640 1920h1408v-128h-1408v128z
M0 128v384h384v-384h-384zM128 384v-128h128v128h-128zM640 256v128h1152v-128h-1152z" />
    <glyph glyph-name="uniE179" unicode="&#xe71d;" 
d="M0 640v384h384v-384h-384zM128 896v-128h128v128h-128zM0 1152v384h384v-384h-384zM128 1408v-128h128v128h-128zM0 1664v384h384v-384h-384zM128 1920v-128h128v128h-128zM640 1280v128h1152v-128h-1152zM1536 896v-128h-896v128h896zM640 1920h1408v-128h-1408v128z
M0 128v384h384v-384h-384zM128 384v-128h128v128h-128zM640 256v128h1152v-128h-1152z" />
    <glyph glyph-name="uniE1A3" unicode="&#xe1a3;" 
d="M2048 70q0 -28 -17 -49t-47 -21q-26 0 -45 19l-785 784q-96 -79 -210.5 -121t-239.5 -42q-97 0 -187 25t-168 71t-142.5 110.5t-110.5 142.5t-71 168t-25 187t25 187t71 168t110.5 142.5t142.5 110.5t168 71t187 25t187 -25t168 -71t142.5 -110.5t110.5 -142.5t71 -168
t25 -187q0 -125 -42 -239.5t-121 -210.5q15 -15 57.5 -57t102 -100t130 -127.5t142 -141t138.5 -139.5t119 -123t83 -91.5t31 -44.5zM704 768q119 0 224 45.5t183 123.5t123.5 183t45.5 224t-45.5 224t-123.5 183t-183 123.5t-224 45.5t-224 -45.5t-183 -123.5t-123.5 -183
t-45.5 -224t45.5 -224t123.5 -183t183 -123.5t224 -45.5z" />
    <glyph glyph-name="uniE1A3" unicode="&#xe71e;" 
d="M2048 70q0 -28 -17 -49t-47 -21q-26 0 -45 19l-785 784q-96 -79 -210.5 -121t-239.5 -42q-97 0 -187 25t-168 71t-142.5 110.5t-110.5 142.5t-71 168t-25 187t25 187t71 168t110.5 142.5t142.5 110.5t168 71t187 25t187 -25t168 -71t142.5 -110.5t110.5 -142.5t71 -168
t25 -187q0 -125 -42 -239.5t-121 -210.5q15 -15 57.5 -57t102 -100t130 -127.5t142 -141t138.5 -139.5t119 -123t83 -91.5t31 -44.5zM704 768q119 0 224 45.5t183 123.5t123.5 183t45.5 224t-45.5 224t-123.5 183t-183 123.5t-224 45.5t-224 -45.5t-183 -123.5t-123.5 -183
t-45.5 -224t45.5 -224t123.5 -183t183 -123.5t224 -45.5z" />
    <glyph glyph-name="uniE1A4" unicode="&#xe1a4;" 
d="M2048 70q0 -28 -17 -49t-47 -21q-26 0 -45 19l-785 784q-96 -79 -210.5 -121t-239.5 -42q-97 0 -187 25t-168 71t-142.5 110.5t-110.5 142.5t-71 168t-25 187t25 187t71 168t110.5 142.5t142.5 110.5t168 71t187 25t187 -25t168 -71t142.5 -110.5t110.5 -142.5t71 -168
t25 -187q0 -125 -42 -239.5t-121 -210.5q15 -15 57.5 -57t102 -100t130 -127.5t142 -141t138.5 -139.5t119 -123t83 -91.5t31 -44.5zM704 768q119 0 224 45.5t183 123.5t123.5 183t45.5 224t-45.5 224t-123.5 183t-183 123.5t-224 45.5t-224 -45.5t-183 -123.5t-123.5 -183
t-45.5 -224t45.5 -224t123.5 -183t183 -123.5t224 -45.5zM384 1408h640v-128h-640v128z" />
    <glyph glyph-name="uniE1A4" unicode="&#xe71f;" 
d="M2048 70q0 -28 -17 -49t-47 -21q-26 0 -45 19l-785 784q-96 -79 -210.5 -121t-239.5 -42q-97 0 -187 25t-168 71t-142.5 110.5t-110.5 142.5t-71 168t-25 187t25 187t71 168t110.5 142.5t142.5 110.5t168 71t187 25t187 -25t168 -71t142.5 -110.5t110.5 -142.5t71 -168
t25 -187q0 -125 -42 -239.5t-121 -210.5q15 -15 57.5 -57t102 -100t130 -127.5t142 -141t138.5 -139.5t119 -123t83 -91.5t31 -44.5zM704 768q119 0 224 45.5t183 123.5t123.5 183t45.5 224t-45.5 224t-123.5 183t-183 123.5t-224 45.5t-224 -45.5t-183 -123.5t-123.5 -183
t-45.5 -224t45.5 -224t123.5 -183t183 -123.5t224 -45.5zM384 1408h640v-128h-640v128z" />
    <glyph glyph-name="uniE1D6" unicode="&#xe1d6;" 
d="M704 512q-40 0 -75 15t-61 41t-41 61t-15 75v1152q0 40 15 75t41 61t61 41t75 15h512q40 0 75 -15t61 -41t41 -61t15 -75v-1152q0 -40 -15 -75t-41 -61t-61 -41t-75 -15h-512zM640 704q0 -26 19 -45t45 -19h512q26 0 45 19t19 45v1152q0 26 -19 45t-45 19h-512
q-26 0 -45 -19t-19 -45v-1152zM1664 1024v-362q0 -84 -32 -158t-87 -129t-129 -87t-158 -32h-234v-128h256v-128h-640v128h256v128h-234q-84 0 -158 32t-129 87t-87 129t-32 158v362h128q0 -55 -3.5 -124t-1.5 -140.5t13.5 -139t42.5 -120t85.5 -84.5t141.5 -32h596
q87 0 141.5 32t85.5 84.5t42.5 120t13.5 139t-1.5 140t-3.5 124.5h128z" />
    <glyph glyph-name="uniE1D6" unicode="&#xe720;" 
d="M704 512q-40 0 -75 15t-61 41t-41 61t-15 75v1152q0 40 15 75t41 61t61 41t75 15h512q40 0 75 -15t61 -41t41 -61t15 -75v-1152q0 -40 -15 -75t-41 -61t-61 -41t-75 -15h-512zM640 704q0 -26 19 -45t45 -19h512q26 0 45 19t19 45v1152q0 26 -19 45t-45 19h-512
q-26 0 -45 -19t-19 -45v-1152zM1664 1024v-362q0 -84 -32 -158t-87 -129t-129 -87t-158 -32h-234v-128h256v-128h-640v128h256v128h-234q-84 0 -158 32t-129 87t-87 129t-32 158v362h128q0 -55 -3.5 -124t-1.5 -140.5t13.5 -139t42.5 -120t85.5 -84.5t141.5 -32h596
q87 0 141.5 32t85.5 84.5t42.5 120t13.5 139t-1.5 140t-3.5 124.5h128z" />
    <glyph glyph-name="uniE725" unicode="&#xe725;" 
d="M2042 1088l-2031 -677l204 613h937l256 64l-256 64h-937l-204 613l2031 -677v0z" />
    <glyph glyph-name="uniE727" unicode="&#xe727;" 
d="M0 1920h2048v-1664h-2048v1664zM1920 1604v188h-188zM1920 964v444h-444zM1348 1536h504l-256 256h-504zM1212 1536l-256 256h-498l256 -256h498zM128 1792v-256h450l-256 256h-194zM1084 384l-956 956v-504l452 -452h504zM196 1408l1024 -1024h510l-1024 1024h-510z
M128 700v-316h316zM1866 384h54v444l-580 580h-498z" />
    <glyph glyph-name="uniE728" unicode="&#xe728;" 
d="M2048 1280v-128h-878q-36 118 -72.5 233.5t-73.5 233.5q-37 -118 -73.5 -233.5t-72.5 -233.5h-502q102 -78 202 -156t203 -155q-40 -124 -78 -246.5t-76 -246.5q100 77 198.5 153t198.5 153v-162l-640 -492l248 794l-632 486h784l240 768l240 -768h784zM1152 896h896
v-128h-896v128zM1152 512h896v-128h-896v128zM1152 128h896v-128h-896v128z" />
    <glyph glyph-name="uniE132" unicode="&#xe132;" 
d="M1755 1536h-475v475zM1792 1408v-1408h-1664v2048h1024v-640h640z" />
    <glyph glyph-name="uniE132" unicode="&#xe729;" 
d="M1755 1536h-475v475zM1792 1408v-1408h-1664v2048h1024v-640h640z" />
    <glyph glyph-name="uniE0AB" unicode="&#xe0ab;" 
d="M1101 1965l941 -941l-941 -941l-90 90l787 787h-1798v128h1798l-787 787l90 90v0z" />
    <glyph glyph-name="uniE0AB" unicode="&#xe72a;" 
d="M1101 1965l941 -941l-941 -941l-90 90l787 787h-1798v128h1798l-787 787l90 90v0z" />
    <glyph glyph-name="uniE0AB" unicode="&#xe111;" 
d="M1101 1965l941 -941l-941 -941l-90 90l787 787h-1798v128h1798l-787 787l90 90v0z" />
    <glyph glyph-name="uniE0AB" unicode="&#xe0ae;" 
d="M1101 1965l941 -941l-941 -941l-90 90l787 787h-1798v128h1798l-787 787l90 90v0z" />
    <glyph glyph-name="uniE0AB" unicode="&#xe0ad;" 
d="M1101 1965l941 -941l-941 -941l-90 90l787 787h-1798v128h1798l-787 787l90 90v0z" />
    <glyph glyph-name="uniE0A6" unicode="&#xe0a6;" 
d="M2048 1088v-128h-1798l787 -787l-90 -90l-941 941l941 941l90 -90l-787 -787h1798v0z" />
    <glyph glyph-name="uniE0A6" unicode="&#xe72b;" 
d="M2048 1088v-128h-1798l787 -787l-90 -90l-941 941l941 941l90 -90l-787 -787h1798v0z" />
    <glyph glyph-name="uniE0A6" unicode="&#xe112;" 
d="M2048 1088v-128h-1798l787 -787l-90 -90l-941 941l941 941l90 -90l-787 -787h1798v0z" />
    <glyph glyph-name="uniE0A6" unicode="&#xe0d5;" 
d="M2048 1088v-128h-1798l787 -787l-90 -90l-941 941l941 941l90 -90l-787 -787h1798v0z" />
    <glyph glyph-name="uniE0A6" unicode="&#xe0c4;" 
d="M2048 1088v-128h-1798l787 -787l-90 -90l-941 941l941 941l90 -90l-787 -787h1798v0z" />
    <glyph glyph-name="uniE149" unicode="&#xe149;" 
d="M1297 2010q166 -45 304 -140.5t237.5 -226t154.5 -289t55 -330.5q0 -141 -36.5 -272t-103 -245t-160 -207.5t-207.5 -160t-245 -103t-272 -36.5t-272 36.5t-245 103t-207.5 160t-160 207.5t-103 244.5t-36.5 272.5q0 140 37 272t105.5 248.5t166.5 212t221 163.5h-274
v128h512v-512h-128v297q-117 -56 -211.5 -140.5t-161.5 -190t-103 -227.5t-36 -251q0 -123 32 -237.5t90.5 -214t140.5 -181.5t181.5 -140.5t213.5 -90.5t238 -32q123 0 237.5 32t214 90.5t181.5 140.5t140.5 181.5t90.5 213.5t32 238q0 150 -48.5 289t-135.5 253
t-207.5 197.5t-265.5 123.5l34 123v0z" />
    <glyph glyph-name="uniE149" unicode="&#xe72c;" 
d="M1297 2010q166 -45 304 -140.5t237.5 -226t154.5 -289t55 -330.5q0 -141 -36.5 -272t-103 -245t-160 -207.5t-207.5 -160t-245 -103t-272 -36.5t-272 36.5t-245 103t-207.5 160t-160 207.5t-103 244.5t-36.5 272.5q0 140 37 272t105.5 248.5t166.5 212t221 163.5h-274
v128h512v-512h-128v297q-117 -56 -211.5 -140.5t-161.5 -190t-103 -227.5t-36 -251q0 -123 32 -237.5t90.5 -214t140.5 -181.5t181.5 -140.5t213.5 -90.5t238 -32q123 0 237.5 32t214 90.5t181.5 140.5t140.5 181.5t90.5 213.5t32 238q0 150 -48.5 289t-135.5 253
t-207.5 197.5t-265.5 123.5l34 123v0z" />
    <glyph glyph-name="uniE1F6" unicode="&#xe1f6;" 
d="M1792 1152v-1152h-1536v1152h256v374q0 108 39 203t108 166t162.5 112t202.5 41t202.5 -41t162.5 -112t108 -166t39 -203v-374h256zM640 1152h768v374q0 81 -29 152.5t-80.5 125.5t-122 85t-152.5 31t-152.5 -31t-122 -85t-80.5 -125.5t-29 -152.5v-374zM1664 1024h-1280
v-896h1280v896z" />
    <glyph glyph-name="uniE1F6" unicode="&#xe72e;" 
d="M1792 1152v-1152h-1536v1152h256v374q0 108 39 203t108 166t162.5 112t202.5 41t202.5 -41t162.5 -112t108 -166t39 -203v-374h256zM640 1152h768v374q0 81 -29 152.5t-80.5 125.5t-122 85t-152.5 31t-152.5 -31t-122 -85t-80.5 -125.5t-29 -152.5v-374zM1664 1024h-1280
v-896h1280v896z" />
    <glyph glyph-name="uniE1DE" unicode="&#xe1de;" 
d="M1024 512h-128v128h128v-128zM1024 1664h-128v-896h128v896zM960 3q-119 70 -236.5 149.5t-224 171t-198 195.5t-158.5 223t-105 253t-38 285v512q83 0 161 6t152 22t146 45t144 75q85 55 170 81.5t187 26.5q51 0 97 -6.5t89.5 -20t85.5 -34t85 -47.5q72 -46 144 -75
t146 -45t152 -22t161 -6v-512q0 -151 -38 -285t-105 -253t-158.5 -223t-198 -195.5t-224 -171t-236.5 -149.5zM128 1666v-386q0 -127 33.5 -244t91.5 -222.5t138 -200t172 -178t193.5 -154.5t203.5 -130q102 59 203.5 130t193.5 154.5t172 178t138 200t91.5 222.5t33.5 244
v386q-149 8 -285.5 48t-262.5 121q-68 44 -135.5 64.5t-148.5 20.5t-148.5 -20.5t-135.5 -64.5q-126 -81 -262.5 -121t-285.5 -48z" />
    <glyph glyph-name="uniE1DE" unicode="&#xe730;" 
d="M1024 512h-128v128h128v-128zM1024 1664h-128v-896h128v896zM960 3q-119 70 -236.5 149.5t-224 171t-198 195.5t-158.5 223t-105 253t-38 285v512q83 0 161 6t152 22t146 45t144 75q85 55 170 81.5t187 26.5q51 0 97 -6.5t89.5 -20t85.5 -34t85 -47.5q72 -46 144 -75
t146 -45t152 -22t161 -6v-512q0 -151 -38 -285t-105 -253t-158.5 -223t-198 -195.5t-224 -171t-236.5 -149.5zM128 1666v-386q0 -127 33.5 -244t91.5 -222.5t138 -200t172 -178t193.5 -154.5t203.5 -130q102 59 203.5 130t193.5 154.5t172 178t138 200t91.5 222.5t33.5 244
v386q-149 8 -285.5 48t-262.5 121q-68 44 -135.5 64.5t-148.5 20.5t-148.5 -20.5t-135.5 -64.5q-126 -81 -262.5 -121t-285.5 -48z" />
    <glyph glyph-name="uniE25B" unicode="&#xe25b;" 
d="M1024 2048q141 0 271.5 -36.5t244.5 -103.5t207.5 -160.5t160.5 -207.5t103.5 -244.5t36.5 -271.5t-36.5 -271.5t-103.5 -244.5t-160.5 -207.5t-207.5 -160.5t-244.5 -103.5t-271.5 -36.5t-271.5 36.5t-244.5 103.5t-207.5 160.5t-160.5 207.5t-103.5 244.5t-36.5 271.5
t36.5 271.5t103.5 244.5t160.5 207.5t207.5 160.5t244.5 103.5t271.5 36.5zM1024 128q164 0 313.5 56t273.5 163l-1264 1264q-107 -124 -163 -273.5t-56 -313.5q0 -124 32 -238.5t90.5 -214t140 -181t181 -140t214 -90.5t238.5 -32zM1701 437q107 124 163 273.5t56 313.5
q0 124 -32 238.5t-90.5 214t-140 181t-181 140t-214 90.5t-238.5 32q-164 0 -313.5 -56t-273.5 -163z" />
    <glyph glyph-name="uniE1CE" unicode="&#xe1ce;" 
d="M1416 794l248 -794l-640 492l-640 -492l248 794l-632 486h784l240 768l240 -768h784zM1421 348q-38 124 -76 246.5t-78 246.5q103 77 203 155t202 156h-502l-146 467l-146 -467h-502q102 -78 202 -156t203 -155q-40 -124 -78 -246.5t-76 -246.5l397 306z" />
    <glyph glyph-name="uniE1CE" unicode="&#xe734;" 
d="M1416 794l248 -794l-640 492l-640 -492l248 794l-632 486h784l240 768l240 -768h784zM1421 348q-38 124 -76 246.5t-78 246.5q103 77 203 155t202 156h-502l-146 467l-146 -467h-502q102 -78 202 -156t203 -155q-40 -124 -78 -246.5t-76 -246.5l397 306z" />
    <glyph glyph-name="uniE1CE" unicode="&#xe24a;" 
d="M1416 794l248 -794l-640 492l-640 -492l248 794l-632 486h784l240 768l240 -768h784zM1421 348q-38 124 -76 246.5t-78 246.5q103 77 203 155t202 156h-502l-146 467l-146 -467h-502q102 -78 202 -156t203 -155q-40 -124 -78 -246.5t-76 -246.5l397 306z" />
    <glyph glyph-name="uniE1CE" unicode="&#xe224;" 
d="M1416 794l248 -794l-640 492l-640 -492l248 794l-632 486h784l240 768l240 -768h784zM1421 348q-38 124 -76 246.5t-78 246.5q103 77 203 155t202 156h-502l-146 467l-146 -467h-502q102 -78 202 -156t203 -155q-40 -124 -78 -246.5t-76 -246.5l397 306z" />
    <glyph glyph-name="uniE1CE" unicode="&#xe208;" 
d="M1416 794l248 -794l-640 492l-640 -492l248 794l-632 486h784l240 768l240 -768h784zM1421 348q-38 124 -76 246.5t-78 246.5q103 77 203 155t202 156h-502l-146 467l-146 -467h-502q102 -78 202 -156t203 -155q-40 -124 -78 -246.5t-76 -246.5l397 306z" />
    <glyph glyph-name="uniE737" unicode="&#xe737;" 
d="M0 1920h2048v-1664h-2048v1664zM1920 1792h-1792v-256h1792v256zM128 384h1792v1024h-1792v-1024z" />
    <glyph glyph-name="uniE003" unicode="&#xe003;" 
d="M0 2048h2048v-2048h-2048v2048zM1920 128v1792h-1792v-1792h1792z" />
    <glyph glyph-name="uniE003" unicode="&#xe739;" 
d="M0 2048h2048v-2048h-2048v2048zM1920 128v1792h-1792v-1792h1792z" />
    <glyph glyph-name="uniE0A2" unicode="&#xe0a2;" 
d="M0 2048h2048v-2048h-2048v2048zM1920 128v1792h-1792v-1792h1792zM768 421l-429 430l90 90l339 -338l851 850l90 -90l-941 -942v0z" />
    <glyph glyph-name="uniE0A2" unicode="&#xe73a;" 
d="M0 2048h2048v-2048h-2048v2048zM1920 128v1792h-1792v-1792h1792zM768 421l-429 430l90 90l339 -338l851 850l90 -90l-941 -942v0z" />
    <glyph glyph-name="uniE002" unicode="&#xe002;" 
d="M0 2048h2048v-2048h-2048v2048v0z" />
    <glyph glyph-name="uniE002" unicode="&#xe73b;" 
d="M0 2048h2048v-2048h-2048v2048v0z" />
    <glyph glyph-name="uniE002" unicode="&#xe009;" 
d="M0 2048h2048v-2048h-2048v2048v0z" />
    <glyph glyph-name="uniE005" unicode="&#xe005;" 
d="M0 2048h2048v-2048h-2048v2048zM768 421l941 942l-90 90l-851 -850l-339 338l-90 -90z" />
    <glyph glyph-name="uniE005" unicode="&#xe73d;" 
d="M0 2048h2048v-2048h-2048v2048zM768 421l941 942l-90 90l-851 -850l-339 338l-90 -90z" />
    <glyph glyph-name="uniE1D8" unicode="&#xe1d8;" 
d="M256 768v128h640v-640h-128v421l-675 -674l-90 90l674 675h-421zM2045 1955l-674 -675h421v-128h-640v640h128v-421l675 674z" />
    <glyph glyph-name="uniE1D8" unicode="&#xe73f;" 
d="M256 768v128h640v-640h-128v421l-675 -674l-90 90l674 675h-421zM2045 1955l-674 -675h421v-128h-640v640h128v-421l675 674z" />
    <glyph glyph-name="uniE1D9" unicode="&#xe1d9;" 
d="M1280 1920h640v-640h-128v421l-1445 -1445h421v-128h-640v640h128v-421l1445 1445h-421v128v0z" />
    <glyph glyph-name="uniE1D9" unicode="&#xe740;" 
d="M1280 1920h640v-640h-128v421l-1445 -1445h421v-128h-640v640h128v-421l1445 1445h-421v128v0z" />
    <glyph glyph-name="uniE110" unicode="&#xe110;" 
d="M1965 1101l-90 -90l-787 787v-1798h-128v1798l-787 -787l-90 90l941 941l941 -941v0z" />
    <glyph glyph-name="uniE110" unicode="&#xe74a;" 
d="M1965 1101l-90 -90l-787 787v-1798h-128v1798l-787 -787l-90 90l941 941l941 -941v0z" />
    <glyph glyph-name="uniE1FD" unicode="&#xe1fd;" 
d="M1875 1037l90 -90l-941 -941l-941 941l90 90l787 -787v1798h128v-1798l787 787v0z" />
    <glyph glyph-name="uniE1FD" unicode="&#xe74b;" 
d="M1875 1037l90 -90l-941 -941l-941 941l90 90l787 -787v1798h128v-1798l787 787v0z" />
    <glyph glyph-name="uniE74C" unicode="&#xe74c;" 
d="M2048 1472l-448 -448h192v-896h-1664v1664h896v-192l448 448zM1472 1890l-418 -418l418 -418l418 418zM1344 1024l-320 320v-320h320zM256 1664v-640h640v640h-640zM896 256v640h-640v-640h640zM1664 896h-640v-640h640v640z" />
    <glyph glyph-name="uniE198" unicode="&#xe198;" 
d="M293 1408l384 384h91v-1536h-91l-384 384h-293v768h293zM640 475v1098l-293 -293h-219v-512h219zM1773 1299l-274 -275l274 -275l-90 -90l-275 274l-275 -274l-90 90l274 275l-274 275l90 90l275 -274l275 274z" />
    <glyph glyph-name="uniE198" unicode="&#xe74f;" 
d="M293 1408l384 384h91v-1536h-91l-384 384h-293v768h293zM640 475v1098l-293 -293h-219v-512h219zM1773 1299l-274 -275l274 -275l-90 -90l-275 274l-275 -274l-90 90l274 275l-274 275l90 90l275 -274l275 274z" />
    <glyph glyph-name="uniE753" unicode="&#xe753;" 
d="M1661 1152q80 0 150.5 -30t123 -81.5t83 -121.5t30.5 -151q0 -80 -30 -149.5t-82.5 -122t-122.5 -82.5t-149 -30h-1152q-106 0 -199.5 40t-163 109.5t-109.5 163t-40 199.5t40 199.5t109.5 163t163 109.5t199.5 40q46 0 93 -9q40 62 92.5 111.5t114.5 83.5t132 52t144 18
q111 0 209.5 -39t174.5 -107.5t125.5 -162.5t63.5 -203zM1664 512q53 0 99.5 20t81.5 55t55 81.5t20 99.5t-20 99.5t-55 81.5t-81.5 55t-99.5 20h-128v64q0 93 -35 174.5t-96 142.5t-142.5 96t-174.5 35q-70 0 -135 -21t-119.5 -59t-96.5 -91.5t-67 -119.5q-75 35 -158 35
q-80 0 -149.5 -30t-122 -82.5t-82.5 -122.5t-30 -149q0 -80 30 -149.5t82.5 -122t122 -82.5t149.5 -30h1152z" />
    <glyph glyph-name="uniE754" unicode="&#xe754;" 
d="M2048 1664v-1152h-475l-256 256h-1317v640h1317l256 256h475zM128 896h1152v384h-1152v-384zM1627 640h37v896h-37l-219 -219v-458zM1920 1536h-128v-896h128v896zM1088 1152q26 0 45 -19t19 -45t-19 -45t-45 -19t-45 19t-19 45t19 45t45 19z" />
    <glyph glyph-name="uniE755" unicode="&#xe755;" 
d="M1280 1025q52 0 99 -20.5t81.5 -55t55 -81.5t20.5 -99v-128h128v-640h-768v640h128v128q0 52 20.5 99t55 81.5t81 55t99.5 20.5zM1152 641h256v128q0 26 -10 49.5t-27.5 41t-41 27.5t-49.5 10q-27 0 -50 -10t-40.5 -27.5t-27.5 -40.5t-10 -50v-128zM1536 513h-512v-384
h512v384zM499 692l90 91l192 -193l-90 -90zM1242 2048q26 0 49.5 -9t41.5 -27l678 -678q18 -18 27.5 -41.5t9.5 -49.5q0 -25 -9.5 -48.5t-27.5 -41.5l-350 -350q-8 74 -41 141l300 300l-677 677l-1115 -1114l640 -640v-158q-15 5 -28.5 12t-24.5 18l-678 677
q-18 18 -27.5 41.5t-9.5 48.5q0 26 9.5 49.5t27.5 41.5l1115 1115q18 18 41.5 27t48.5 9z" />
    <glyph glyph-name="uniE75A" unicode="&#xe75a;" 
d="M0 1792h2048v-1536h-2048v1536zM1920 384v1280h-1792v-1280h1792zM1664 1152v-512h-1280v512h1280zM1536 768v256h-1024v-256h1024z" />
    <glyph glyph-name="uniE75B" unicode="&#xe75b;" 
d="M0 1792h2048v-1536h-2048v1536zM1920 384v384h-1792v-384h1792zM128 896h1792v768h-1792v-768z" />
    <glyph glyph-name="uniE75C" unicode="&#xe75c;" 
d="M1115 256h421v-128h-1083l-403 404q-24 24 -37 56.5t-13 67.5t13 67.5t38 57.5l1197 1198l794 -795zM1248 1798l-710 -710l614 -613l709 709zM933 256l128 128l-613 614l-306 -307q-14 -14 -14 -35t14 -35l364 -365h427z" />
    <glyph glyph-name="uniE75E" unicode="&#xe75e;" 
d="M1024 2048q132 0 248.5 -50.5t203.5 -137.5t137.5 -203.5t50.5 -248.5v-768q0 -132 -50.5 -248.5t-137.5 -203.5t-203.5 -137.5t-248.5 -50.5t-248.5 50.5t-203.5 137.5t-137.5 203.5t-50.5 248.5v768q0 132 50.5 248.5t137.5 203.5t203.5 137.5t248.5 50.5zM1024 1024
q79 0 149 30.5t122 82.5t82.5 122t30.5 149t-30.5 149t-82.5 122t-122 82.5t-149 30.5t-149 -30.5t-122 -82.5t-82.5 -122t-30.5 -149t30.5 -149t82.5 -122t122 -82.5t149 -30.5zM1024 1675q55 0 103.5 -21t85 -57.5t57.5 -85t21 -103.5t-21 -103.5t-57.5 -85t-85 -57.5
t-103.5 -21t-103.5 21t-85 57.5t-57.5 85t-21 103.5t21 103.5t57.5 85t85 57.5t103.5 21z" />
    <glyph glyph-name="uniE75F" unicode="&#xe75f;" 
d="M640 1664h-256v256h256v-256v0zM1152 1664h-256v256h256v-256v0zM1664 1664h-256v256h256v-256v0zM640 1152h-256v256h256v-256v0zM1152 1152h-256v256h256v-256v0zM1664 1152h-256v256h256v-256v0zM640 640h-256v256h256v-256v0zM1152 640h-256v256h256v-256v0z
M1152 128h-256v256h256v-256v0zM1664 640h-256v256h256v-256v0z" />
    <glyph glyph-name="uniE15D" unicode="&#xe15d;" 
d="M1673 1929q90 -90 159.5 -195t117.5 -220.5t72.5 -239t24.5 -250.5t-24.5 -250.5t-72.5 -239t-117.5 -220.5t-159.5 -195l-90 90q81 81 143.5 175.5t105.5 198.5t65.5 215.5t22.5 225.5t-22.5 225.5t-65.5 215.5t-105.5 198.5t-143.5 175.5zM1402 1658
q63 -63 111.5 -136.5t82 -154.5t51 -168t17.5 -175q0 -89 -17.5 -175.5t-51 -167.5t-82 -154.5t-111.5 -136.5l-91 91q108 108 166.5 249t58.5 294t-58.5 294t-166.5 249zM1130 1386q72 -72 111 -166t39 -196t-39 -196t-111 -166l-90 90q54 54 83 124.5t29 147.5t-29 147.5
t-83 124.5zM677 1792h91v-1536h-91l-384 384h-293v768h293zM640 1573l-293 -293h-219v-512h219l293 -293v1098z" />
    <glyph glyph-name="uniE15D" unicode="&#xe767;" 
d="M1673 1929q90 -90 159.5 -195t117.5 -220.5t72.5 -239t24.5 -250.5t-24.5 -250.5t-72.5 -239t-117.5 -220.5t-159.5 -195l-90 90q81 81 143.5 175.5t105.5 198.5t65.5 215.5t22.5 225.5t-22.5 225.5t-65.5 215.5t-105.5 198.5t-143.5 175.5zM1402 1658
q63 -63 111.5 -136.5t82 -154.5t51 -168t17.5 -175q0 -89 -17.5 -175.5t-51 -167.5t-82 -154.5t-111.5 -136.5l-91 91q108 108 166.5 249t58.5 294t-58.5 294t-166.5 249zM1130 1386q72 -72 111 -166t39 -196t-39 -196t-111 -166l-90 90q54 54 83 124.5t29 147.5t-29 147.5
t-83 124.5zM677 1792h91v-1536h-91l-384 384h-293v768h293zM640 1573l-293 -293h-219v-512h219l293 -293v1098z" />
    <glyph glyph-name="uniE102" unicode="&#xe102;" 
d="M512 1920l1280 -896l-1280 -896v1792zM640 1674v-1300l929 650z" />
    <glyph glyph-name="uniE102" unicode="&#xe768;" 
d="M512 1920l1280 -896l-1280 -896v1792zM640 1674v-1300l929 650z" />
    <glyph glyph-name="uniE103" unicode="&#xe103;" 
d="M640 256v1536h128v-1536h-128zM1280 1792h128v-1536h-128v1536z" />
    <glyph glyph-name="uniE103" unicode="&#xe769;" 
d="M640 256v1536h128v-1536h-128zM1280 1792h128v-1536h-128v1536z" />
    <glyph glyph-name="uniE00E" unicode="&#xe00e;" 
d="M1533 93l-90 -90l-1022 1021l1022 1021l90 -90l-930 -931l930 -931v0z" />
    <glyph glyph-name="uniE00E" unicode="&#xe76b;" 
d="M1533 93l-90 -90l-1022 1021l1022 1021l90 -90l-930 -931l930 -931v0z" />
    <glyph glyph-name="uniE00E" unicode="&#xe0e2;" 
d="M1533 93l-90 -90l-1022 1021l1022 1021l90 -90l-930 -931l930 -931v0z" />
    <glyph glyph-name="uniE00E" unicode="&#xe09e;" 
d="M1533 93l-90 -90l-1022 1021l1022 1021l90 -90l-930 -931l930 -931v0z" />
    <glyph glyph-name="uniE00E" unicode="&#xe09a;" 
d="M1533 93l-90 -90l-1022 1021l1022 1021l90 -90l-930 -931l930 -931v0z" />
    <glyph glyph-name="uniE00E" unicode="&#xe096;" 
d="M1533 93l-90 -90l-1022 1021l1022 1021l90 -90l-930 -931l930 -931v0z" />
    <glyph glyph-name="uniE00E" unicode="&#xe016;" 
d="M1533 93l-90 -90l-1022 1021l1022 1021l90 -90l-930 -931l930 -931v0z" />
    <glyph glyph-name="uniE00E" unicode="&#xe012;" 
d="M1533 93l-90 -90l-1022 1021l1022 1021l90 -90l-930 -931l930 -931v0z" />
    <glyph glyph-name="uniE00F" unicode="&#xe00f;" 
d="M515 93l930 931l-930 931l90 90l1022 -1021l-1022 -1021l-90 90v0z" />
    <glyph glyph-name="uniE00F" unicode="&#xe76c;" 
d="M515 93l930 931l-930 931l90 90l1022 -1021l-1022 -1021l-90 90v0z" />
    <glyph glyph-name="uniE00F" unicode="&#xe0e3;" 
d="M515 93l930 931l-930 931l90 90l1022 -1021l-1022 -1021l-90 90v0z" />
    <glyph glyph-name="uniE00F" unicode="&#xe09f;" 
d="M515 93l930 931l-930 931l90 90l1022 -1021l-1022 -1021l-90 90v0z" />
    <glyph glyph-name="uniE00F" unicode="&#xe09b;" 
d="M515 93l930 931l-930 931l90 90l1022 -1021l-1022 -1021l-90 90v0z" />
    <glyph glyph-name="uniE00F" unicode="&#xe097;" 
d="M515 93l930 931l-930 931l90 90l1022 -1021l-1022 -1021l-90 90v0z" />
    <glyph glyph-name="uniE00F" unicode="&#xe017;" 
d="M515 93l930 931l-930 931l90 90l1022 -1021l-1022 -1021l-90 90v0z" />
    <glyph glyph-name="uniE00F" unicode="&#xe013;" 
d="M515 93l930 931l-930 931l90 90l1022 -1021l-1022 -1021l-90 90v0z" />
    <glyph glyph-name="uniE76D" unicode="&#xe76d;" 
d="M1920 1536h-120l-449 -896h-72q-1 -28 -3.5 -70.5t-8 -93t-15 -105t-23 -107.5t-32.5 -101t-44 -84t-57 -57.5t-72 -21.5q-53 0 -92 37t-67 95.5t-46.5 131t-29 144t-15 133t-5.5 99.5h-72l-449 896h-120v512h128v-384h1536v384h128v-512zM1024 128q23 12 41 47.5
t32 84.5t23.5 105t16 109t10 97t4.5 69h-254q1 -25 4.5 -69t10 -97t16 -109t23.5 -105t32 -84.5t41 -47.5zM1656 1536h-1264l384 -768h496z" />
    <glyph glyph-name="uniE76F" unicode="&#xe76f;" 
d="M0 1280h2048v-128h-2048v128zM0 768v128h2048v-128h-2048z" />
    <glyph glyph-name="uniE770" unicode="&#xe770;" 
d="M2000 523q12 -12 21 -29t15 -36t9 -38.5t3 -35.5q0 -27 -10 -50t-27.5 -40.5t-40.5 -27.5t-50 -10h-1792q-27 0 -50 10t-40.5 27.5t-27.5 40.5t-10 50q0 16 3 35.5t9 38.5t15 36t21 29l208 208v933h1536v-933zM384 768h1280v768h-1280v-768zM1920 384q0 11 -4 28.5
t-12 25.5l-203 202h-1354l-203 -202q-8 -8 -12 -25.5t-4 -28.5h1792z" />
    <glyph glyph-name="uniE771" unicode="&#xe771;" 
d="M1024 256v-128h256v-128h-640v128h256v128h-896v1152h1024l-129 -128h-767v-896h1664v768l128 128v-1024h-896zM512 640q27 0 50 10t40.5 27.5t27.5 40.5t10 50q0 49 17.5 93t48 78t72 56.5t90.5 27.5l711 711q28 28 65 43t76 15q41 0 77.5 -15.5t63.5 -42.5t42.5 -63.5
t15.5 -78.5q0 -39 -15 -76t-43 -65l-711 -711q-5 -48 -27 -90t-56.5 -72.5t-78 -48t-92.5 -17.5h-640v128h256zM1720 1664q-29 0 -50 -21l-445 -445q57 -44 101 -101l445 445q21 21 21 50q0 30 -21.5 51t-50.5 21zM1042 1015q61 -40 101 -101l92 91q-42 60 -102 102z
M1024 768q0 27 -10 50t-27.5 40.5t-40.5 27.5t-50 10t-50 -10t-40.5 -27.5t-27.5 -40.5t-10 -50q0 -68 -34 -128h162q26 0 49.5 10t41 27.5t27.5 41t10 49.5z" />
    <glyph glyph-name="uniE773" unicode="&#xe773;" 
d="M1664 1152q79 0 149 -30.5t122 -82.5t82.5 -122t30.5 -149t-30.5 -149t-82.5 -122t-122 -82.5t-149 -30.5q-60 0 -117 18t-105 53q-16 -16 -53.5 -55.5t-86.5 -90t-103.5 -105t-102.5 -100t-85 -75t-51 -29.5q-26 0 -45 19t-19 45q0 14 29.5 51t75 85t100 102.5
t105 103.5t90 86.5t55.5 53.5q-35 48 -53 105t-18 117q0 79 30.5 149t82.5 122t122 82.5t149 30.5zM1664 512q52 0 99 20.5t81.5 55t55 81t20.5 99.5q0 52 -20.5 99t-55 81.5t-81.5 55t-99 20.5q-53 0 -99.5 -20.5t-81 -55t-55 -81.5t-20.5 -99q0 -53 20.5 -99.5t55 -81
t81 -55t99.5 -20.5zM256 640v256h-256v1152h1536v-256h256v-530q-32 8 -64 13t-64 5v384h-1280v-896h768q0 -32 5 -64t13 -64h-914zM256 1024v768h1152v128h-1280v-896h128z" />
    <glyph glyph-name="uniE12B" unicode="&#xe12b;" 
d="M1024 2048q141 0 272 -36.5t245 -103t207.5 -160t160 -207.5t103 -245t36.5 -272t-36.5 -272t-103 -245t-160 -207.5t-207.5 -160t-245 -103t-272 -36.5t-272 36.5t-245 103t-207.5 160t-160 207.5t-103 244.5t-36.5 272.5q0 141 36.5 272t103 245t160 207.5t207.5 160
t244.5 103t272.5 36.5zM1833 1408q-38 81 -92 152.5t-120 130.5t-143 105t-161 75q36 -50 65 -106t51.5 -115.5t38.5 -120.5t28 -121h333zM1920 1024q0 133 -37 256h-363q8 -64 12 -127.5t4 -128.5t-4 -128.5t-12 -127.5h363q37 123 37 256zM1024 128q49 0 91.5 27t78.5 71
t64.5 99.5t50.5 112.5t37 110t23 92h-690q8 -39 23 -92t37 -110t50.5 -112.5t64.5 -99.5t78.5 -71t91.5 -27zM1391 768q8 64 12.5 127.5t4.5 128.5t-4.5 128.5t-12.5 127.5h-734q-8 -64 -12.5 -127.5t-4.5 -128.5t4.5 -128.5t12.5 -127.5h734zM128 1024q0 -133 37 -256h363
q-8 64 -12 127.5t-4 128.5t4 128.5t12 127.5h-363q-37 -123 -37 -256zM1024 1920q-49 0 -91.5 -27t-78.5 -71t-64.5 -99.5t-50.5 -112.5t-37 -110t-23 -92h690q-8 39 -23 92t-37 110t-50.5 112.5t-64.5 99.5t-78.5 71t-91.5 27zM731 1871q-84 -29 -161 -75t-143 -105
t-120 -130.5t-92 -152.5h333q12 60 28 121t38.5 120.5t51.5 115.5t65 106zM215 640q38 -81 92 -152.5t120 -130.5t143 -105t161 -75q-36 50 -65 106t-51.5 115.5t-38.5 120.5t-28 121h-333zM1317 177q84 29 161 75t143 105t120 130.5t92 152.5h-333q-12 -60 -28 -121
t-38.5 -120.5t-51.5 -115.5t-65 -106z" />
    <glyph glyph-name="uniE12B" unicode="&#xe774;" 
d="M1024 2048q141 0 272 -36.5t245 -103t207.5 -160t160 -207.5t103 -245t36.5 -272t-36.5 -272t-103 -245t-160 -207.5t-207.5 -160t-245 -103t-272 -36.5t-272 36.5t-245 103t-207.5 160t-160 207.5t-103 244.5t-36.5 272.5q0 141 36.5 272t103 245t160 207.5t207.5 160
t244.5 103t272.5 36.5zM1833 1408q-38 81 -92 152.5t-120 130.5t-143 105t-161 75q36 -50 65 -106t51.5 -115.5t38.5 -120.5t28 -121h333zM1920 1024q0 133 -37 256h-363q8 -64 12 -127.5t4 -128.5t-4 -128.5t-12 -127.5h363q37 123 37 256zM1024 128q49 0 91.5 27t78.5 71
t64.5 99.5t50.5 112.5t37 110t23 92h-690q8 -39 23 -92t37 -110t50.5 -112.5t64.5 -99.5t78.5 -71t91.5 -27zM1391 768q8 64 12.5 127.5t4.5 128.5t-4.5 128.5t-12.5 127.5h-734q-8 -64 -12.5 -127.5t-4.5 -128.5t4.5 -128.5t12.5 -127.5h734zM128 1024q0 -133 37 -256h363
q-8 64 -12 127.5t-4 128.5t4 128.5t12 127.5h-363q-37 -123 -37 -256zM1024 1920q-49 0 -91.5 -27t-78.5 -71t-64.5 -99.5t-50.5 -112.5t-37 -110t-23 -92h690q-8 39 -23 92t-37 110t-50.5 112.5t-64.5 99.5t-78.5 71t-91.5 27zM731 1871q-84 -29 -161 -75t-143 -105
t-120 -130.5t-92 -152.5h333q12 60 28 121t38.5 120.5t51.5 115.5t65 106zM215 640q38 -81 92 -152.5t120 -130.5t143 -105t161 -75q-36 50 -65 106t-51.5 115.5t-38.5 120.5t-28 121h-333zM1317 177q84 29 161 75t143 105t120 130.5t92 152.5h-333q-12 -60 -28 -121
t-38.5 -120.5t-51.5 -115.5t-65 -106z" />
    <glyph glyph-name="uniE775" unicode="&#xe775;" 
d="M601 896l298 -896h-134l-86 256h-334l-86 -256h-134l298 896h178zM637 384l-125 374l-125 -374h250zM640 1792v-384h256v-128h-384v512h128zM257 899q-60 45 -108 102t-81 122t-50.5 137.5t-17.5 147.5q0 88 23 170t64.5 153t100 129.5t129.5 100t153 64.5t170 23
t170 -23t153 -64.5t129.5 -100t100 -129.5t64.5 -153t23 -170q0 -32 -3.5 -64t-9.5 -64h-133q8 32 13 64t5 64q0 106 -40.5 199t-110 162.5t-162.5 110t-199 40.5t-199 -40.5t-162.5 -110t-110 -162.5t-40.5 -199q0 -110 45.5 -208.5t126.5 -171.5zM2030 606q2 -8 2 -13v-96
q0 -4 -2 -12q-8 -2 -13 -2q-40 1 -79 2t-79 1h-321q-1 -60 0.5 -120.5t3.5 -120.5q1 -25 -8 -50t-30 -40q-14 -10 -39.5 -15.5t-54.5 -8t-56.5 -3t-43.5 -0.5q-6 0 -19 0.5t-18 5.5q-3 3 -7 16t-6 18q-7 26 -16.5 48.5t-23.5 45.5q34 -4 68 -5.5t68 -1.5q24 0 36.5 7.5
t12.5 33.5v190h-319q-40 0 -80 -1l-80 -2q-8 0 -12 3q-2 6 -2 11v96q0 3 0.5 7.5t2.5 6.5q6 2 11 2l80 -2t80 -1h319q-2 26 -2.5 52.5t-5.5 52.5q22 -2 43 -4t43 -4q35 25 67 53t64 57h-308q-42 0 -83.5 -1t-83.5 -2q-8 0 -12 3q-2 6 -2 11v95q0 4 2 12q8 2 12 2
q42 -1 83.5 -2t83.5 -1h373q16 0 30 4.5t25 4.5q8 0 23 -12t30 -28t26.5 -32.5t11.5 -24.5q0 -10 -6.5 -15.5t-14.5 -9.5q-14 -7 -27 -18t-25 -21q-52 -43 -104.5 -83.5t-109.5 -77.5v-11h321q40 0 79 1t79 2q7 0 13 -3zM1391 1148q0 32 -0.5 66t-8.5 66q69 0 137 -6
q6 -1 12.5 -3t6.5 -10q0 -5 -3 -12t-5 -12q-2 -6 -3.5 -16t-2 -21.5t-0.5 -22v-16.5v-13h296q42 0 83.5 1t83.5 2q7 0 13 -3q3 -5 3 -10q-1 -17 -2 -35.5t-1 -35.5v-58q0 -36 1 -72.5t2 -72.5q0 -3 -0.5 -7t-2.5 -6q-8 -2 -13 -2t-23 -0.5t-38 -0.5t-36.5 0.5t-19.5 3.5
q-2 11 -2.5 35.5t0 52t1 53t0.5 39.5h-802q0 -5 0.5 -20t0.5 -34.5v-41.5v-40.5t-1 -31t-3 -14.5q-8 -2 -13 -2h-102q-11 0 -13 3t-2 13q1 69 1.5 137t-1.5 137q0 5 2 11q8 2 13 2q42 -1 83.5 -2t83.5 -1h275z" />
    <glyph glyph-name="uniE07F" unicode="&#xe07f;" 
d="M3 1024q11 132 61.5 254t136.5 223l90 -91q-69 -82 -109 -181t-51 -205h-128zM291 1591q101 86 223 136.5t254 61.5v-128q-106 -11 -205 -51t-181 -109zM201 419q-86 101 -136.5 223t-61.5 254h128q11 -106 51 -205t109 -181zM768 131q-132 11 -254 61.5t-223 136.5
l91 90q82 -69 181 -109t205 -51v-128zM1661 896q-11 -132 -61.5 -254t-136.5 -223l-90 91q69 82 109 181t51 205h128zM1373 329q-101 -86 -223 -136.5t-254 -61.5v128q106 11 205 51t181 109zM1024 1920v-768h192l-256 -256l-256 256h192v768h128zM1792 832v192h-523
l128 128h395v192l256 -256z" />
    <glyph glyph-name="uniE07F" unicode="&#xe776;" 
d="M3 1024q11 132 61.5 254t136.5 223l90 -91q-69 -82 -109 -181t-51 -205h-128zM291 1591q101 86 223 136.5t254 61.5v-128q-106 -11 -205 -51t-181 -109zM201 419q-86 101 -136.5 223t-61.5 254h128q11 -106 51 -205t109 -181zM768 131q-132 11 -254 61.5t-223 136.5
l91 90q82 -69 181 -109t205 -51v-128zM1661 896q-11 -132 -61.5 -254t-136.5 -223l-90 91q69 82 109 181t51 205h128zM1373 329q-101 -86 -223 -136.5t-254 -61.5v128q106 11 205 51t181 109zM1024 1920v-768h192l-256 -256l-256 256h192v768h128zM1792 832v192h-523
l128 128h395v192l256 -256z" />
    <glyph glyph-name="uniE777" unicode="&#xe777;" 
d="M1024 2048q141 0 272 -36.5t245 -103t207.5 -160t160 -207.5t103 -245t36.5 -272t-36.5 -272t-103 -245t-160 -207.5t-207.5 -160t-245 -103t-272 -36.5q-172 0 -330.5 55t-289 154.5t-226 237.5t-140.5 304l123 34q40 -145 123.5 -265.5t197.5 -207.5t253 -135.5
t289 -48.5q123 0 237.5 32t214 90.5t181.5 140.5t140.5 181.5t90.5 213.5t32 238q0 123 -32 237.5t-90.5 214t-140.5 181.5t-181.5 140.5t-214 90.5t-237.5 32q-129 0 -251 -36t-227.5 -103t-190.5 -161.5t-140 -211.5h297v-128h-512v512h128v-274q67 123 163 221
t212.5 166.5t248.5 105.5t272 37z" />
    <glyph glyph-name="uniE137" unicode="&#xe137;" 
d="M960 1792q62 0 136.5 -7t153.5 -22.5t159.5 -40t155 -58.5t139 -78t113 -99.5t76 -123t27.5 -147.5v-128q0 -40 -15 -75t-41 -61t-61 -41t-75 -15h-256q-56 0 -91 16.5t-55 43.5t-28.5 61.5t-12 70.5t-5 70.5t-7 61.5t-18.5 43.5t-39 16.5h-512q-26 0 -39 -16.5
t-18.5 -43.5t-7 -61.5t-5 -70.5t-12 -70.5t-28.5 -61.5t-55 -43.5t-91 -16.5h-256q-40 0 -75 15t-61 41t-41 61t-15 75v128q0 80 27.5 147.5t76 123t113 99.5t139 78t155 58.5t159.5 40t153.5 22.5t136.5 7zM1792 1216q0 84 -44 149.5t-115.5 115.5t-161.5 84.5t-182.5 56.5
t-179 32t-149.5 10t-149.5 -10t-179 -32t-182.5 -56.5t-161.5 -84.5t-115.5 -115.5t-44 -149.5v-128q0 -26 19 -45t45 -19h256q33 0 47.5 22.5t18 53t1 63t-2.5 53.5q0 40 15 75t41 61t61 41t75 15h512q40 0 75 -15t61 -41t41 -61t15 -75q0 -21 -2.5 -53.5t1 -63t18 -53
t47.5 -22.5h256q26 0 45 19t19 45v128zM1235 557l90 -90l-365 -365l-365 365l90 90l211 -210v677h128v-677z" />
    <glyph glyph-name="uniE137" unicode="&#xe778;" 
d="M960 1792q62 0 136.5 -7t153.5 -22.5t159.5 -40t155 -58.5t139 -78t113 -99.5t76 -123t27.5 -147.5v-128q0 -40 -15 -75t-41 -61t-61 -41t-75 -15h-256q-56 0 -91 16.5t-55 43.5t-28.5 61.5t-12 70.5t-5 70.5t-7 61.5t-18.5 43.5t-39 16.5h-512q-26 0 -39 -16.5
t-18.5 -43.5t-7 -61.5t-5 -70.5t-12 -70.5t-28.5 -61.5t-55 -43.5t-91 -16.5h-256q-40 0 -75 15t-61 41t-41 61t-15 75v128q0 80 27.5 147.5t76 123t113 99.5t139 78t155 58.5t159.5 40t153.5 22.5t136.5 7zM1792 1216q0 84 -44 149.5t-115.5 115.5t-161.5 84.5t-182.5 56.5
t-179 32t-149.5 10t-149.5 -10t-179 -32t-182.5 -56.5t-161.5 -84.5t-115.5 -115.5t-44 -149.5v-128q0 -26 19 -45t45 -19h256q33 0 47.5 22.5t18 53t1 63t-2.5 53.5q0 40 15 75t41 61t61 41t75 15h512q40 0 75 -15t61 -41t41 -61t15 -75q0 -21 -2.5 -53.5t1 -63t18 -53
t47.5 -22.5h256q26 0 45 19t19 45v128zM1235 557l90 -90l-365 -365l-365 365l90 90l211 -210v677h128v-677z" />
    <glyph glyph-name="uniE136" unicode="&#xe136;" 
d="M740 971q65 -33 117.5 -81.5t89.5 -108t57 -128t20 -141.5h-128q0 79 -30.5 149t-82.5 122t-122 82.5t-149 30.5t-149 -30.5t-122 -82.5t-82.5 -122t-30.5 -149h-128q0 73 20 141.5t57 128t89.5 108t117.5 81.5q-73 54 -114.5 136t-41.5 173q0 79 30.5 149t82.5 122
t122 82.5t149 30.5t149 -30.5t122 -82.5t82.5 -122t30.5 -149q0 -91 -41.5 -173t-114.5 -136zM256 1280q0 -53 20.5 -99.5t55 -81t81 -55t99.5 -20.5q52 0 99 20.5t81.5 55t55 81t20.5 99.5q0 52 -20.5 99t-55 81.5t-81.5 55t-99 20.5q-53 0 -99.5 -20.5t-81 -55t-55 -81.5
t-20.5 -99zM2048 1664v-128h-896v128h896zM1152 1152h896v-128h-896v128zM1152 640h896v-128h-896v128z" />
    <glyph glyph-name="uniE136" unicode="&#xe779;" 
d="M740 971q65 -33 117.5 -81.5t89.5 -108t57 -128t20 -141.5h-128q0 79 -30.5 149t-82.5 122t-122 82.5t-149 30.5t-149 -30.5t-122 -82.5t-82.5 -122t-30.5 -149h-128q0 73 20 141.5t57 128t89.5 108t117.5 81.5q-73 54 -114.5 136t-41.5 173q0 79 30.5 149t82.5 122
t122 82.5t149 30.5t149 -30.5t122 -82.5t82.5 -122t30.5 -149q0 -91 -41.5 -173t-114.5 -136zM256 1280q0 -53 20.5 -99.5t55 -81t81 -55t99.5 -20.5q52 0 99 20.5t81.5 55t55 81t20.5 99.5q0 52 -20.5 99t-55 81.5t-81.5 55t-99 20.5q-53 0 -99.5 -20.5t-81 -55t-55 -81.5
t-20.5 -99zM2048 1664v-128h-896v128h896zM1152 1152h896v-128h-896v128zM1152 640h896v-128h-896v128z" />
    <glyph glyph-name="uniE196" unicode="&#xe196;" 
d="M1472 896q93 0 174.5 -35t142.5 -96t96 -142.5t35 -174.5t-35 -174.5t-96 -142.5t-142.5 -96t-174.5 -35t-174.5 35t-142.5 96t-96 142.5t-35 174.5t35 174.5t96 142.5t142.5 96t174.5 35zM1152 448q0 -66 25 -124.5t68.5 -102t102 -68.5t124.5 -25q47 0 92 13.5t84 39.5
l-443 443q-26 -39 -39.5 -84t-13.5 -92zM1739 272q26 39 39.5 84t13.5 92q0 66 -25.5 124t-69 101.5t-101.5 69t-124 25.5q-47 0 -92 -13.5t-84 -39.5zM1990 1300q-33 -33 -64.5 -60.5t-65 -46.5t-73 -29.5t-89.5 -10.5q-34 0 -65 6l-134 -135h-182l278 278q26 -8 51 -14.5
t52 -6.5q55 0 104 26l-495 495q-26 -49 -26 -104q0 -27 6.5 -52t14.5 -51l-492 -491q-24 10 -46 19t-44 15t-45.5 9.5t-50.5 3.5q-57 0 -111 -16.5t-100 -48.5l483 -483v-182l-192 193l-568 -569l-136 -45l45 136l569 568l-386 386l45 45q70 70 162 107t191 37
q39 0 77.5 -6.5t76.5 -18.5l379 379q-6 31 -6 65q0 49 10.5 88.5t29.5 73.5t46.5 65.5t60.5 64.5z" />
    <glyph glyph-name="uniE196" unicode="&#xe77a;" 
d="M1472 896q93 0 174.5 -35t142.5 -96t96 -142.5t35 -174.5t-35 -174.5t-96 -142.5t-142.5 -96t-174.5 -35t-174.5 35t-142.5 96t-96 142.5t-35 174.5t35 174.5t96 142.5t142.5 96t174.5 35zM1152 448q0 -66 25 -124.5t68.5 -102t102 -68.5t124.5 -25q47 0 92 13.5t84 39.5
l-443 443q-26 -39 -39.5 -84t-13.5 -92zM1739 272q26 39 39.5 84t13.5 92q0 66 -25.5 124t-69 101.5t-101.5 69t-124 25.5q-47 0 -92 -13.5t-84 -39.5zM1990 1300q-33 -33 -64.5 -60.5t-65 -46.5t-73 -29.5t-89.5 -10.5q-34 0 -65 6l-134 -135h-182l278 278q26 -8 51 -14.5
t52 -6.5q55 0 104 26l-495 495q-26 -49 -26 -104q0 -27 6.5 -52t14.5 -51l-492 -491q-24 10 -46 19t-44 15t-45.5 9.5t-50.5 3.5q-57 0 -111 -16.5t-100 -48.5l483 -483v-182l-192 193l-568 -569l-136 -45l45 136l569 568l-386 386l45 45q70 70 162 107t191 37
q39 0 77.5 -6.5t76.5 -18.5l379 379q-6 31 -6 65q0 49 10.5 88.5t29.5 73.5t46.5 65.5t60.5 64.5z" />
    <glyph glyph-name="uniE13D" unicode="&#xe13d;" 
d="M1330 845q136 -47 245.5 -131.5t186 -195.5t117.5 -243t41 -275h-128q0 164 -58.5 304.5t-161.5 243.5t-243.5 161.5t-304.5 58.5q-107 0 -206 -27t-184.5 -76.5t-155 -119t-119 -155t-76.5 -184.5t-27 -206h-128q0 144 42 275.5t119 241.5t186.5 194t244.5 133
q-78 42 -140 102t-105.5 133.5t-67 157t-23.5 171.5q0 133 50 249.5t137 203.5t203.5 137t249.5 50t249.5 -50t203.5 -137t137 -203.5t50 -249.5q0 -88 -23.5 -171t-67 -156t-105 -133.5t-138.5 -102.5zM512 1408q0 -106 40.5 -199t110 -162.5t162.5 -110t199 -40.5
t199 40.5t162.5 110t110 162.5t40.5 199t-40.5 199t-110 162.5t-162.5 110t-199 40.5t-199 -40.5t-162.5 -110t-110 -162.5t-40.5 -199z" />
    <glyph glyph-name="uniE13D" unicode="&#xe77b;" 
d="M1330 845q136 -47 245.5 -131.5t186 -195.5t117.5 -243t41 -275h-128q0 164 -58.5 304.5t-161.5 243.5t-243.5 161.5t-304.5 58.5q-107 0 -206 -27t-184.5 -76.5t-155 -119t-119 -155t-76.5 -184.5t-27 -206h-128q0 144 42 275.5t119 241.5t186.5 194t244.5 133
q-78 42 -140 102t-105.5 133.5t-67 157t-23.5 171.5q0 133 50 249.5t137 203.5t203.5 137t249.5 50t249.5 -50t203.5 -137t137 -203.5t50 -249.5q0 -88 -23.5 -171t-67 -156t-105 -133.5t-138.5 -102.5zM512 1408q0 -106 40.5 -199t110 -162.5t162.5 -110t199 -40.5
t199 40.5t162.5 110t110 162.5t40.5 199t-40.5 199t-110 162.5t-162.5 110t-199 40.5t-199 -40.5t-162.5 -110t-110 -162.5t-40.5 -199z" />
    <glyph glyph-name="uniE13D" unicode="&#xe2af;" 
d="M1330 845q136 -47 245.5 -131.5t186 -195.5t117.5 -243t41 -275h-128q0 164 -58.5 304.5t-161.5 243.5t-243.5 161.5t-304.5 58.5q-107 0 -206 -27t-184.5 -76.5t-155 -119t-119 -155t-76.5 -184.5t-27 -206h-128q0 144 42 275.5t119 241.5t186.5 194t244.5 133
q-78 42 -140 102t-105.5 133.5t-67 157t-23.5 171.5q0 133 50 249.5t137 203.5t203.5 137t249.5 50t249.5 -50t203.5 -137t137 -203.5t50 -249.5q0 -88 -23.5 -171t-67 -156t-105 -133.5t-138.5 -102.5zM512 1408q0 -106 40.5 -199t110 -162.5t162.5 -110t199 -40.5
t199 40.5t162.5 110t110 162.5t40.5 199t-40.5 199t-110 162.5t-162.5 110t-199 40.5t-199 -40.5t-162.5 -110t-110 -162.5t-40.5 -199z" />
    <glyph glyph-name="uniE1D5" unicode="&#xe1d5;" 
d="M1600 1536q93 0 174.5 -35.5t142 -96t96 -142t35.5 -174.5t-35.5 -174.5t-96 -142t-142 -96t-174.5 -35.5h-1152q-93 0 -174.5 35.5t-142 96t-96 142t-35.5 174.5t35.5 174.5t96 142t142 96t174.5 35.5t174.5 -35.5t142 -96t96 -142t35.5 -174.5q0 -21 -4.5 -50.5
t-12.5 -61t-20 -64t-27 -61t-33 -50.5t-38 -33h526q-20 11 -38 33t-33 50.5t-27 61t-20 64t-12.5 60.5t-4.5 51q0 93 35.5 174.5t96 142t142 96t174.5 35.5zM128 1088q0 -66 25.5 -124t69 -101.5t101.5 -69t124 -25.5t124 25.5t101.5 69t69 101.5t25.5 124t-25.5 124
t-69 101.5t-101.5 69t-124 25.5t-124 -25.5t-101.5 -69t-69 -101.5t-25.5 -124zM1600 768q66 0 124 25.5t101.5 69t69 101.5t25.5 124t-25.5 124t-69 101.5t-101.5 69t-124 25.5t-124 -25.5t-101.5 -69t-69 -101.5t-25.5 -124t25.5 -124t69 -101.5t101.5 -69t124 -25.5z" />
    <glyph glyph-name="uniE1D5" unicode="&#xe77c;" 
d="M1600 1536q93 0 174.5 -35.5t142 -96t96 -142t35.5 -174.5t-35.5 -174.5t-96 -142t-142 -96t-174.5 -35.5h-1152q-93 0 -174.5 35.5t-142 96t-96 142t-35.5 174.5t35.5 174.5t96 142t142 96t174.5 35.5t174.5 -35.5t142 -96t96 -142t35.5 -174.5q0 -21 -4.5 -50.5
t-12.5 -61t-20 -64t-27 -61t-33 -50.5t-38 -33h526q-20 11 -38 33t-33 50.5t-27 61t-20 64t-12.5 60.5t-4.5 51q0 93 35.5 174.5t96 142t142 96t174.5 35.5zM128 1088q0 -66 25.5 -124t69 -101.5t101.5 -69t124 -25.5t124 25.5t101.5 69t69 101.5t25.5 124t-25.5 124
t-69 101.5t-101.5 69t-124 25.5t-124 -25.5t-101.5 -69t-69 -101.5t-25.5 -124zM1600 768q66 0 124 25.5t101.5 69t69 101.5t25.5 124t-25.5 124t-69 101.5t-101.5 69t-124 25.5t-124 -25.5t-101.5 -69t-69 -101.5t-25.5 -124t25.5 -124t69 -101.5t101.5 -69t124 -25.5z" />
    <glyph glyph-name="uniE16D" unicode="&#xe16d;" 
d="M1920 1280v-1280h-1024v128h-768v1664h512q0 52 20.5 99t55 81.5t81 55t99.5 20.5q52 0 99 -20.5t81.5 -55t55 -81.5t20.5 -99h512v-512h256zM512 1664v-128h768v128h-256q0 25 1 53.5t-1 57t-8.5 55t-20.5 46.5t-38 32t-61 12q-56 0 -82.5 -26t-37 -64.5t-9.5 -83.5
t1 -82h-256zM896 256v1024h640v384h-128v-256h-1024v256h-128v-1408h640zM1792 1152h-768v-1024h768v1024z" />
    <glyph glyph-name="uniE16D" unicode="&#xe77f;" 
d="M1920 1280v-1280h-1024v128h-768v1664h512q0 52 20.5 99t55 81.5t81 55t99.5 20.5q52 0 99 -20.5t81.5 -55t55 -81.5t20.5 -99h512v-512h256zM512 1664v-128h768v128h-256q0 25 1 53.5t-1 57t-8.5 55t-20.5 46.5t-38 32t-61 12q-56 0 -82.5 -26t-37 -64.5t-9.5 -83.5
t1 -82h-256zM896 256v1024h640v384h-128v-256h-1024v256h-128v-1408h640zM1792 1152h-768v-1024h768v1024z" />
    </font>
</defs>
</svg>
