<?xml version="1.0" standalone="no"?>
<!DOCTYPE svg PUBLIC "-//W3C//DTD SVG 1.1//EN" "http://www.w3.org/Graphics/SVG/1.1/DTD/svg11.dtd" >
<svg xmlns="http://www.w3.org/2000/svg">
<metadata></metadata>
<defs>
<font id="paymentfont-webfontregular" horiz-adv-x="4096" >
<font-face units-per-em="2048" ascent="1920" descent="-128" />
<missing-glyph horiz-adv-x="1024" />
<glyph horiz-adv-x="0" d="M0 0v0v0v0z" />
<glyph horiz-adv-x="0" d="M0 0v0v0v0z" />
<glyph horiz-adv-x="0" d="M0 0v0v0v0z" />
<glyph unicode=" " horiz-adv-x="1024" d="M0 0v0v0v0z" />
<glyph unicode="&#xa0;" horiz-adv-x="1024" d="M0 0v0v0v0z" />
<glyph unicode="&#x2000;" horiz-adv-x="984" />
<glyph unicode="&#x2001;" horiz-adv-x="1968" />
<glyph unicode="&#x2002;" horiz-adv-x="984" />
<glyph unicode="&#x2003;" horiz-adv-x="1968" />
<glyph unicode="&#x2004;" horiz-adv-x="656" />
<glyph unicode="&#x2005;" horiz-adv-x="492" />
<glyph unicode="&#x2006;" horiz-adv-x="328" />
<glyph unicode="&#x2007;" horiz-adv-x="328" />
<glyph unicode="&#x2008;" horiz-adv-x="246" />
<glyph unicode="&#x2009;" horiz-adv-x="393" />
<glyph unicode="&#x200a;" horiz-adv-x="109" />
<glyph unicode="&#x202f;" horiz-adv-x="393" />
<glyph unicode="&#x205f;" horiz-adv-x="492" />
<glyph unicode="&#x25fc;" horiz-adv-x="2000" d="M0 0v0v0v0v0z" />
<glyph unicode="&#xf000;" d="M596 880q-20 -16 -44 -36t-52 -40q-4 -4 -12 -6t-16 -2q-16 12 -32 34t-36 50q-48 -40 -100 -62t-112 -22q-96 0 -144 48t-48 144q0 72 34 124t102 88q12 4 72 14t168 22v20q0 36 -6 56t-14 32q-4 20 -22 28t-46 8q-44 0 -70 -18t-34 -58q0 -8 -6 -14t-14 -6l-124 12 q-12 0 -16 6t-4 22q20 96 92 144t196 48q64 0 112 -16t80 -52q24 -24 36 -76t12 -136v-200q0 -24 12 -54t36 -62q8 -8 8 -18t-8 -22v0zM376 1140q-96 0 -144 -32t-48 -100q0 -44 18 -66t58 -22q28 0 52 14t44 46q8 16 14 50t6 82v28v0zM2556 584q0 20 -12 24t-36 -4 q-204 -84 -412 -124t-412 -40q-148 0 -288 18t-272 50q-136 36 -262 88t-246 124l-28 8q-16 -4 -16 -14t16 -26q112 -100 238 -176t262 -124q132 -52 276 -78t300 -26q264 0 482 66t394 194q8 12 12 22t4 18v0zM720 796h128q12 0 20 6t8 22v348q0 84 22 128t62 44t60 -44 t20 -128v-348q0 -4 4 -12t12 -16h136q8 0 14 6t6 22v348q0 40 2 72t6 52q16 24 34 36t46 12q32 0 52 -14t24 -46v-460q0 -4 6 -12t22 -16h124q12 0 16 6t4 22v412q0 80 -8 130t-20 74q-28 32 -64 50t-80 18q-68 0 -112 -30t-64 -86q-28 56 -68 86t-92 30q-64 0 -108 -30 t-68 -86v76q0 16 -4 22t-12 6h-128q-8 0 -14 -6t-6 -22v-644q0 -4 6 -12t14 -16v0zM2040 1256q0 36 -6 56t-14 32q-4 20 -22 28t-46 8q-44 0 -70 -18t-34 -58q0 -4 -6 -12t-14 -16l-128 20q-8 0 -12 6t-4 22q16 96 90 144t198 48q56 0 102 -16t78 -52q32 -24 46 -76t14 -136 v-200q0 -24 12 -54t36 -62q8 -8 8 -18t-8 -22q-4 -4 -16 -14t-28 -22q-16 -16 -30 -26t-22 -14q-4 -4 -12 -6t-16 -2q-16 8 -28 20t-20 28q-12 12 -18 22t-14 14q-40 -40 -92 -62t-108 -22q-96 0 -144 48t-48 144q0 72 34 124t102 88q12 4 72 14t168 22v20v0zM2040 1140 q-96 0 -144 -32t-48 -100q0 -44 18 -66t58 -22q28 0 50 14t34 46q16 16 24 50t8 82v28v0zM2592 772q-72 -4 -130 -20t-106 -44q-20 -20 -18 -28t26 -8q120 12 190 10t90 -22q8 -12 -8 -80t-60 -188q4 -12 12 -14t16 2q44 36 76 86t52 114q16 64 20 104t-12 52q-4 20 -42 28 t-106 8v0zM2816 980q-44 24 -100 36t-128 12l208 304q16 20 24 34t8 26v76q0 16 -6 22t-14 6h-412q-16 0 -24 -6t-8 -22v-88q0 -12 8 -20t24 -8h208l-248 -356q-4 -8 -6 -26t-2 -42v-84q0 -16 6 -22t22 -6q104 56 214 56t226 -56q16 0 24 6t8 22v96q0 12 -8 22t-24 18v0z M3480 1140q0 -76 -20 -140t-60 -112q-40 -52 -92 -78t-116 -26q-68 0 -120 28t-92 80q-36 52 -56 118t-20 142t20 140t56 112q40 52 92 78t120 26t120 -28t92 -80t58 -116t18 -144v0zM3288 1140q0 60 -4 102t-16 74q-4 28 -24 42t-52 14q-48 0 -72 -50t-24 -150 q0 -128 24 -190t72 -62t72 56t24 164v0zM3912 1508q-56 0 -100 -32t-72 -96v100q0 8 -8 12t-20 4h-116q-8 0 -14 -4t-6 -12v-656q0 -4 6 -12t14 -16h124q16 0 22 6t6 22v348q0 40 6 72t14 52q12 28 30 42t50 14q36 0 56 -46t20 -134v-348q0 -4 4 -12t16 -16h124q12 0 20 6 t8 22v404q0 76 -10 126t-30 74q-16 40 -52 60t-92 20v0z" />
<glyph unicode="&#xf001;" d="M188 -124v1096h176l40 100h92l40 -100h352v76l32 -76h180l32 76v-76h876v160h16q12 0 14 -6t2 -14v-140h452v36q76 -40 176 -38t180 2l40 100h92l40 -100h368v92l56 -92h292v612h-292v-72l-40 72h-296v-72l-40 72h-400q-44 0 -90 -8t-86 -28v36h-280v-36q-24 20 -54 28 t-62 8h-1016l-68 -156l-72 156h-320v-72l-36 72h-272l-124 -292v632h3720v-1092h-192q-36 0 -70 -8t-62 -28v36h-284q-32 0 -68 -8t-60 -28v36h-508v-36q-32 20 -70 28t-74 8h-336v-36q-24 24 -70 30t-78 6h-376l-88 -96l-80 96h-564v-612h552l88 96l84 -96h344v144h32 q36 0 74 2t70 18v-164h284v160h12q12 0 16 -4t4 -16v-140h856q32 0 72 8t68 28v-36h272q40 0 80 4t72 24v-372h-3720v0zM1316 1060h-108v344l-152 -344h-92l-152 344v-344h-212l-40 96h-220l-40 -96h-112l188 436h156l176 -412v412h172l136 -296l124 296h176v-436v0z M524 1248l-76 172l-68 -172h144v0zM1904 452v-148h-204l-132 148l-132 -148h-416v440h420l132 -144l132 144h336q72 0 124 -32t52 -112q0 -132 -112 -140t-200 -8v0zM1500 524l-112 128h-264v-80h232v-88h-232v-88h260l116 128v0zM1744 1060h-352v436h352v-92h-244v-76h236 v-92h-236v-88h244v-88v0zM1796 344v352l-160 -172l160 -180v0zM2164 1260q44 -16 56 -44t12 -72v-84h-104q-4 68 -6 112t-90 44h-112v-156h-104v436h248q64 0 118 -20t54 -96q0 -40 -20 -72t-52 -48v0zM2040 652h-136v-112h132q28 0 48 14t20 46q0 28 -20 40t-44 12v0z M2052 1404h-132v-96h132q24 0 46 10t22 42q0 28 -22 36t-46 8v0zM2612 508q44 -16 56 -44t12 -72v-88h-104v72q0 56 -22 72t-74 16h-112v-160h-104v440h248q64 0 118 -20t54 -100q0 -36 -18 -68t-54 -48v0zM2404 1060h-108v436h108v-436v0zM2504 652h-136v-100h132 q28 0 48 10t20 42t-20 40t-44 8v0zM3644 1060h-148l-200 328v-328h-212l-44 96h-216l-40 -96h-120q-108 0 -158 54t-50 162t52 164t164 56h100v-92q-84 0 -148 -6t-64 -122q0 -56 20 -90t84 -34h48l148 344h156l176 -412v412h160l184 -304v304h108v-436v0zM3092 304h-348 v440h348v-92h-244v-80h240v-88h-240v-88h244v-92v0zM3008 1248l-72 172l-72 -172h144v0zM3360 304h-204v96h204q20 0 36 6t16 34q0 68 -134 42t-134 130q0 68 44 100t104 32h212v-92h-192q-24 0 -42 -8t-18 -32q0 -72 136 -42t136 -126q0 -76 -48 -108t-116 -32v0zM3908 360 q-20 -32 -60 -44t-80 -12h-204v96h204q20 0 36 8t16 32q0 68 -134 42t-134 130q0 68 44 100t104 32h208v-92h-188q-24 0 -42 -8t-18 -32q0 -60 100 -42t148 -46v-164v0z" />
<glyph unicode="&#xf002;" d="M1024 -124v1064h100l20 56h48l24 -56h192v40l20 -40h100l16 44v-44h480v88h12q4 0 6 -4t2 -8v-76h248v20q44 -20 98 -20h98l24 56h48l24 -56h200v52l32 -52h160v336h-160v-40l-20 40h-164v-40l-24 40h-220q-24 0 -50 -4t-46 -16v20h-152v-20q-16 12 -32 16t-36 4h-556 l-40 -84l-36 84h-176v-40l-20 40h-152l-68 -160v808h2048v-1060h-108q-16 0 -36 -6t-36 -14v20h-156q-16 0 -36 -4t-32 -16v20h-284v-20q-16 8 -36 14t-40 6h-184v-20q-16 12 -40 16t-44 4h-208l-48 -52l-44 52h-308v-336h304l48 52l48 -52h188v76h16q20 0 40 2t40 10v-92 h156v88h8h6t2 -8v-76h472q20 0 42 4t38 16v-20h148q20 0 42 2t42 10v-664h-2048v0zM1644 988h-56v188l-84 -188h-52l-84 188v-188h-116l-24 52h-120l-20 -52h-64l104 240h84l100 -228v228h92l76 -164l68 164h96v-240v0zM1208 1092l-40 96l-40 -96h80v0zM1968 656v-84h-112 l-72 80l-72 -80h-228v240h232l68 -76l76 76h184q40 0 68 -16t28 -60q0 -72 -62 -76t-110 -4v0zM1748 696l-64 68h-144v-44h128v-48h-128v-48h140l68 72v0zM1880 988h-192v240h192v-48h-136v-44h132v-48h-132v-48h136v-52v0zM1912 596v192l-88 -96l88 -96v0zM2112 1100 q24 -8 30 -24t6 -40v-48h-56q0 40 -2 64t-50 24h-64v-88h-56v240h136q36 0 66 -10t30 -54q0 -20 -10 -38t-30 -26v0zM2044 764h-76v-60h72q16 0 28 8t12 24t-12 22t-24 6v0zM2052 1180h-76v-56h72q16 0 28 6t12 22t-12 22t-24 6v0zM2356 684q24 -8 32 -24t8 -40v-48h-60v40 q0 32 -10 40t-38 8h-64v-88h-56v244h136q32 0 64 -12t32 -56q0 -20 -12 -38t-32 -26v0zM2244 988h-60v240h60v-240v0zM2296 764h-72v-52h72q16 0 28 4t12 24q0 16 -12 20t-28 4v0zM2924 988h-80l-108 180v-180h-120l-20 52h-120l-24 -52h-64q-60 0 -88 30t-28 90t28 90 t92 30h56v-52q-48 0 -82 -2t-34 -66q0 -32 10 -50t46 -18h24l84 188h84l96 -228v228h88l104 -168v168h56v-240v0zM2624 572h-192v240h192v-48h-136v-44h132v-48h-132v-48h136v-52v0zM2576 1092l-40 96l-40 -96h80v0zM2768 572h-112v52h112q12 0 22 4t10 20q0 36 -74 22 t-74 74q0 36 24 54t56 18h116v-52h-104q-12 0 -22 -4t-10 -20q0 -40 74 -22t74 -70q0 -40 -26 -58t-66 -18v0zM3072 604q-12 -20 -34 -26t-46 -6h-108v52h108q12 0 22 4t10 20q0 36 -74 22t-74 74q0 36 24 54t56 18h116v-52h-104q-12 0 -22 -4t-10 -20q0 -32 54 -20t82 -24 v-92v0z" />
<glyph unicode="&#xf003;" d="M1224 348l-80 264h-404l-80 -264h-252l392 1108h284l392 -1108h-252v0zM1088 808q-56 176 -88 278t-36 122l-14 42t-6 34q-12 -48 -48 -168t-96 -308h288v0zM2040 348h-236v908h-300v196h836v-196h-300v-908v0zM2976 348l-268 864h-4q4 -132 8 -220t4 -132v-512h-208 v1104h320l260 -844h4l276 844h320v-1104h-220v520v42v46q4 24 6 88t6 168h-8l-284 -864h-212v0z" />
<glyph unicode="&#xf004;" d="M1276 1924h12h8h292h292h288h292q68 0 126 -22t106 -66q68 -56 100 -128t28 -156q-4 -136 -88 -236t-220 -124h-22h-22h-292h-292h-294h-294q-16 0 -18 2t-2 18v344v348v8v12v0zM2464 392h32t32 4q68 12 122 48t98 92q44 64 62 134t6 146q-12 72 -48 132t-96 104 q-48 36 -102 56t-118 16h-288h-288h-292h-288q-12 0 -16 -4t-4 -16v-346v-346q0 -16 2 -18t18 -2h298h298h286h286v0zM764 92v-98v-98q0 -4 4 -6t8 -2h20h20h88t84 4q68 8 88 66t-4 102q-8 16 -22 26t-34 10q-60 -4 -118 -4h-114h-8h-8h-4v0v0zM844 60h14h14h42t46 -4 q20 -4 32 -16t8 -28q0 -24 -10 -38t-30 -14q-28 -4 -58 -2t-58 2v48v52v0zM780 100h118h118q8 0 16 4l16 8q24 24 24 66t-24 66q-20 20 -44 28t-48 8h-88h-88h-8h-8v-92v-88h8h8v0zM844 212q32 0 62 -2t58 -2q12 -4 20 -12t8 -20q4 -16 -2 -28t-18 -16l-12 -6t-12 -2h-50 h-54v44v44v0zM3148 -100q-8 4 -10 16t-2 20v70v70v8v8h-40h-36q-4 -12 -14 -18t-26 -10l-48 -8t-44 -12q-24 -8 -38 -32t-14 -48q4 -32 18 -52t42 -28q24 -8 48 -6t48 18q4 4 12 10t16 10q0 -4 2 -10l2 -6q0 -4 4 -8l4 -4h40h40v8t-4 4v0zM3056 -16q-4 -24 -28 -40t-48 -8 q-12 4 -18 10t-6 18t2 22t14 14q4 4 12 6t16 6q12 0 26 4t30 8v-22v-18v0zM1280 68q-20 -4 -42 -8t-42 -8q-48 -12 -60 -42t-4 -70q4 -36 38 -52t74 -8q16 4 34 14t34 18v-4t4 -8q0 -4 4 -8l4 -4h38h38v8v4q-12 8 -14 20t-2 24v66v66v8v8h-38h-34q-8 -12 -12 -16t-20 -8v0z M1308 -16q-4 -28 -30 -40t-46 -8q-12 4 -18 12t-10 20q0 12 4 20t16 16q8 0 14 2t14 6q12 4 26 6t30 6v-20v-20v0zM2084 92q-4 0 -6 -2l-6 -6q-12 -44 -6 -84t34 -76q32 -44 98 -46t102 22q44 28 58 84t-2 104q-4 0 -6 2l-2 2h-40h-40q12 -28 14 -56t-10 -56q-8 -20 -24 -30 t-40 -10q-16 4 -32 14t-20 26q-12 28 -10 56t14 56h-38h-38v0zM1948 -100l8 -8t8 -4h42h42q-24 44 -52 90t-52 90l10 10l14 14h-26h-18h-36t-32 -20v12v8h-38h-34v-102v-102h34h38v40v40q0 4 4 8t4 8q4 8 10 14l14 14q16 -32 32 -60t28 -52v0zM2488 100q4 0 10 2t10 6 q12 8 30 10t26 -6t18 -10t18 -2h30h26q8 0 12 2t8 6q16 12 34 10t30 -14q4 0 6 -2t6 -2h36h40q0 28 -12 46t-36 30q-40 12 -72 4t-60 -44q-8 28 -30 38t-46 10t-46 -10t-38 -38v24v16h-38h-34v-38v-38h34h38v0zM3212 88v-80v-76q0 -16 8 -26t24 -18q20 -8 42 -6t46 6v26v26 h-10h-10q-16 4 -20 8t-4 16v44v44v18v22h-38h-38v-2v-2v0zM1660 176q-36 12 -72 6t-64 -46v22v18h-38h-34v-38v-34q0 -4 2 -4h2h36h36q8 0 12 2t8 6q16 12 38 12t38 -16l2 -2t6 -2h40h40q-4 28 -16 46t-36 30v0zM3212 176h-22h-18v-28v-28h18h22v-12v-8h38h34q4 4 4 10v10 h22h22v28v28h-14h-10q-16 0 -18 2t-2 18v30v30h-38h-38v-40v-40v0zM2584 -112h26h30t18 2t2 18v94v90h-38h-38v-102v-102v0zM2416 92v-102v-102h32h28t14 2t2 14v66v66v30v26h-36h-40v0zM1632 -112h36h36l4 4q4 4 4 8v90v94l-4 4q-4 4 -8 4h-34h-34v-102v-102v0zM2752 60 v-76t-4 -80q0 -12 4 -14t16 -2h22h22t16 2t4 14q-4 44 -4 88v84v8v8h-40h-36v-16v-16v0zM2192 184q-40 0 -72 -24t-36 -60h4h4h34h34q4 0 6 2t6 2q20 20 42 20t46 -20l4 -2l4 -2h40h40q-16 48 -54 68t-102 16v0zM1452 -104l2 -4t6 -4h32h36q4 52 0 104t8 100h-42h-42v-98 v-98v0zM1352 164q-40 20 -82 22t-82 -18q-20 -8 -32 -26t-16 -42h8h4h30h26q4 0 8 2t4 6q16 16 44 16t40 -20q4 0 6 -2l2 -2h36h36q0 24 -8 40t-24 24v0zM2908 100h26h26q4 0 6 2l2 2q20 20 46 20t42 -20l2 -2l2 -2h38h34q0 24 -8 40t-28 24q-36 20 -74 22t-74 -14 q-24 -8 -38 -26t-18 -46h8h8v0zM1856 100v88v88h-38h-38v-88v-88h38h38v0zM1956 176q-4 0 -6 -2l-2 -2q-16 -16 -32 -34t-32 -38h44h40q4 0 6 2t6 2q16 20 32 36t32 36h-46h-42v0z" />
<glyph unicode="&#xf005;" d="M544 396h-100l84 328h-120l20 68h336l-16 -68h-120l-84 -328v0zM892 548l-40 -152h-100l100 396h120q40 0 70 -6t50 -22q20 -12 30 -32t10 -48q0 -20 -8 -40t-20 -36q-16 -12 -34 -24t-46 -20l88 -168h-112l-68 152h-40v0zM908 616h28q20 0 38 4t30 12t18 20t6 28 q0 12 -4 20t-12 12q-8 8 -20 10t-28 2h-28l-28 -108v0zM1444 488h-156l-56 -92h-108l256 400h124l48 -400h-100l-8 92v0zM1440 560l-8 96q0 16 -2 34t-2 34v12q-8 -16 -16 -34t-20 -38l-60 -104h108v0zM2028 396h-116l-120 300v0v-8q-8 -32 -12 -58t-12 -46l-48 -188h-92 l104 396h120l112 -292v0q4 8 6 24t10 36q4 16 18 76t42 156h88l-100 -396v0zM2460 512q0 -28 -14 -50t-38 -38q-24 -20 -58 -28t-74 -8q-36 0 -66 6t-54 18v76q32 -16 62 -22t58 -6q20 0 34 2t26 10q8 4 14 12t6 20q0 4 -2 10t-2 10q-4 4 -6 8t-6 8q-8 4 -18 10t-26 18 q-24 12 -40 26t-24 26t-14 28t-6 28q0 20 6 36t18 28q8 16 22 26t34 18t42 12t46 4q36 0 70 -8t62 -20l-36 -64q-24 12 -48 16t-48 4q-12 0 -24 -2t-20 -10t-14 -16t-6 -16t4 -16t8 -12q8 -8 20 -16t28 -20q24 -8 38 -20t26 -28q8 -12 14 -28t6 -32v0zM2640 396h-100 l104 396h268l-16 -68h-168l-28 -104h156l-16 -68h-160l-40 -156v0zM3192 396h-272l100 396h276l-20 -68h-172l-20 -88h160l-20 -68h-160l-24 -104h168l-16 -68v0zM3448 548l-40 -152h-104l104 396h120q40 0 70 -6t50 -22q20 -12 30 -32t10 -48q0 -20 -8 -40t-20 -36 q-16 -12 -36 -24t-44 -20l88 -168h-112l-68 152h-40v0zM3464 616h28q20 0 38 4t30 12t18 20t6 28q0 12 -4 20t-12 12q-8 8 -20 10t-32 2h-24l-28 -108v0zM1924 1412q40 0 68 -6t48 -18t30 -28t10 -40q0 -20 -8 -38t-20 -30q-16 -12 -34 -22t-46 -14v-4q16 0 30 -8t22 -16 q12 -12 16 -24t4 -28q0 -32 -12 -56t-36 -40q-28 -20 -62 -28t-82 -8h-172l104 408h140v0zM1800 1076h60q20 0 34 4t26 12t18 18t6 26q0 24 -16 34t-48 10h-52l-28 -104v0zM1844 1248h48q20 0 36 4t24 12q12 8 16 16t4 24t-14 26t-42 10h-48l-24 -92v0zM2384 1100h-160 l-56 -96h-108l256 408h124l52 -408h-100l-8 96v0zM2380 1172l-12 100v34v34v12q-8 -16 -18 -34t-18 -38l-64 -108h112v0zM2964 1004h-112l-120 308h-4v-8q-4 -32 -10 -58t-10 -50l-48 -192h-92l100 408h120l116 -300v0q0 8 4 24t8 36t20 80t40 160h92l-104 -408v0z M3464 1004h-116l-68 164l-44 -20l-36 -144h-100l104 408h100l-52 -196l56 56l136 140h120l-200 -196l100 -212v0zM1476 1372q0 16 -12 28t-32 12h-900q-16 0 -28 -12t-12 -28v0q0 -16 12 -28t28 -12h900q20 0 32 12t12 28v0v0zM1228 1208q0 16 -12 28t-28 12h-656 q-16 0 -28 -12t-12 -28v0q0 -16 12 -28t28 -12h656q16 0 28 12t12 28v0v0zM984 1044q0 16 -12 28t-28 12h-412q-16 0 -28 -12t-12 -28v0q0 -16 12 -28t28 -12h412q16 0 28 12t12 28v0v0z" />
<glyph unicode="&#xf006;" d="M904 800q-20 -80 -66 -142t-114 -106q-72 -40 -150 -52t-158 8q-84 16 -148 64t-108 120q-40 72 -52 150t8 158q16 84 64 146t120 102q72 44 150 56t158 -8q84 -20 146 -66t102 -118q44 -76 56 -154t-8 -158v0zM604 1064l12 68l-44 16l-16 -76q-4 4 -14 6t-26 2l24 76 l-48 8l-12 -68q-12 0 -20 2t-12 6l-64 12l-8 -52l32 -8q8 0 12 -6t4 -18l-16 -84l-32 -116q0 -12 -4 -14t-16 6l-32 8l-24 -56l64 -16q8 0 16 -2t12 -2l-20 -72l44 -16l24 80q4 -4 12 -6t20 -2l-16 -80l44 -8l16 72q64 -12 102 4t54 56q16 36 6 64t-46 44q28 8 42 24t14 40 q4 36 -18 62t-66 46v0zM524 876q40 -8 56 -24t8 -36q-8 -24 -44 -28t-96 12l32 92q20 -4 32 -8t12 -8v0zM548 1024q36 -12 48 -26t8 -34q-8 -28 -38 -34t-78 10l20 92q16 -4 26 -6t14 -2v0zM1272 1060q-4 -4 -10 -4h-10q-8 0 -20 -4t-24 -12l68 264l-164 -24l-176 -744 q16 -12 30 -16t30 -4q4 0 12 -2t20 -2q12 -4 20 -6t12 -6h92q32 0 64 6t68 14q28 12 54 32t54 48q32 36 48 64t20 44q12 28 18 60t6 72q0 32 -2 52t-6 32q-4 20 -14 38t-22 34t-26 28t-30 16q-24 12 -46 18t-46 6q-4 0 -10 -2t-10 -2v0zM1144 624h-32l64 284l44 24h40 q24 0 38 -6t18 -18q12 -20 16 -38t4 -38q0 -16 -4 -36l-8 -40q-4 -12 -14 -30t-26 -42q-16 -16 -30 -28t-26 -20q-20 -4 -38 -8t-30 -4h-16v0zM1780 1048h-156l-124 -540h156l124 540v0zM1764 1124q16 8 26 14t14 10q4 8 10 16t10 16q0 4 2 8t2 12q4 4 4 10v10q0 16 -8 32 t-24 28q-12 8 -26 12t-26 4q-16 0 -26 -2t-14 -6q-4 0 -8 -2l-12 -6l-8 -8l-8 -8q-8 -8 -14 -16t-10 -16l-2 -6t-2 -10q-4 -8 -4 -12v-8q0 -20 8 -36t24 -28q12 -8 26 -12t26 -4q16 0 26 2t14 6v0zM1808 760q-4 -16 -4 -42v-58q-4 -20 -4 -40t8 -44q16 -24 32 -38t32 -18 q16 -8 42 -14t66 -6q32 0 52 2t32 6h12t20 4q12 0 20 2t12 6l-8 124q-16 -8 -28 -10t-20 -2q-8 -4 -20 -6t-24 -2h-16h-16l-16 8l-24 20v10t-4 10q0 8 -2 12t-2 8t2 10t2 14q4 8 4 14v10l48 184h168l32 124h-168l36 164l-160 -24l-104 -428v0zM2212 636q4 -12 14 -32t26 -44 l42 -28t34 -16q12 -8 40 -12t68 -4q28 0 48 2t32 6q8 0 26 4t42 8l-16 124q-4 -4 -10 -6t-14 -2h-14t-10 -4l-8 -2q-8 -2 -20 -2q-12 -4 -20 -4h-12q-24 0 -44 8t-32 20q-12 16 -18 38t-6 50q0 40 10 78t30 66q20 24 52 36t68 12h56q16 -8 26 -12t14 -4l52 116q-8 4 -22 10 t-38 14q-12 4 -34 6t-54 2t-66 -6t-62 -18q-40 -24 -68 -42t-44 -34q-20 -32 -36 -58t-24 -50q-12 -32 -18 -64t-6 -68q0 -20 4 -42t12 -46v0zM3008 528q28 16 52 36t44 44q20 28 34 56t18 52q12 36 18 66t6 58q0 16 -4 38t-12 54q-4 12 -14 30t-26 38q-8 20 -26 32t-42 16 q-24 8 -46 12t-46 4q-40 0 -72 -8t-60 -24q-40 -32 -62 -50t-30 -26q-28 -44 -44 -72t-20 -44q-8 -40 -12 -70t-4 -54q0 -32 4 -54t12 -30q8 -28 18 -46t22 -26q12 -16 26 -28t34 -16q16 -8 40 -12t56 -4q40 0 76 8t60 20v0zM3008 908q8 -24 12 -44t4 -40t-2 -36t-6 -28 l-20 -68l-48 -48q-12 -8 -28 -14t-36 -6q-16 0 -30 6t-22 22q-8 8 -12 28t-4 52q0 24 2 40t6 28q0 8 6 24t18 40q16 16 26 30t18 22t22 12t34 4q24 0 38 -6t22 -18v0zM3476 1048h-156l-124 -540h148l132 540v0zM3460 1124q12 8 18 14l10 10q12 8 18 16t6 16q4 8 6 18t2 22 q0 16 -6 32t-18 28q-16 8 -28 12t-24 4q-16 0 -28 -2t-20 -6l-16 -8q-8 -4 -12 -8t-4 -8q-8 -8 -12 -16t-8 -12q-4 -8 -6 -18t-2 -22q0 -20 6 -36t14 -28q24 -8 40 -12t24 -4q12 0 22 2t18 6v0zM3460 508h152l104 416q4 4 20 6t40 2q16 0 26 -2t14 -6q12 -4 16 -12t4 -20 v-44v-10v-14q-4 -8 -4 -16v-16l-72 -284h156l68 292q12 68 8 116t-24 80t-64 50t-104 18q-24 0 -42 -2t-30 -6q-20 0 -36 -2t-24 -6h-10t-14 -4q-8 0 -14 -2t-10 -2l-24 -12t-12 -4l-124 -516v0z" />
<glyph unicode="&#xf007;" d="M2924 1428q108 -180 138 -372t-22 -400q-56 -204 -172 -362t-296 -266q-176 -112 -368 -140t-400 20q-204 56 -362 172t-270 296q-108 180 -138 372t22 396q56 208 172 366t296 266q176 108 368 138t400 -22q204 -52 362 -170t270 -294v0zM2276 1304l40 184l-108 28 l-44 -176q-8 0 -18 2t-26 6t-28 6t-20 2l44 184l-112 24l-40 -184q-8 4 -18 6t-26 2q-12 0 -20 2t-12 6l-152 44l-32 -120l84 -24q24 -4 36 -20t12 -48l-48 -200q0 -4 2 -6t6 -2h-8l-76 -288q-8 -20 -22 -28t-30 -4l-84 24l-48 -124l140 -44q12 -4 22 -8t22 -4q12 -4 22 -4 h18l-48 -184l108 -36l52 184q24 -8 46 -12t38 -4l-44 -184l112 -32l48 192q156 -32 256 2t140 142q28 96 2 166t-110 110q64 12 100 52t40 108q20 84 -36 150t-180 110v0zM2016 880q24 -8 44 -14t40 -10q16 -8 34 -18t42 -22q20 -12 34 -26t22 -26q8 -16 10 -34t-2 -38 q-12 -60 -98 -72t-246 20l60 252q4 0 18 -2t42 -10v0zM2064 1220q16 -4 28 -6t20 -2q4 0 16 -4l24 -8q16 -8 26 -12t18 -8q4 -4 14 -10t22 -14q12 -4 20 -10t12 -14q0 -4 4 -14t12 -18q4 -12 4 -24t-8 -24q-16 -64 -88 -76t-200 28l52 224l24 -8v0z" />
<glyph unicode="&#xf008;" d="M104 652v68h52v328h-52v68h212q76 0 118 -34t42 -94q0 -36 -20 -62t-48 -34q40 -12 66 -40t26 -68q0 -64 -46 -98t-126 -34h-224v0zM228 1048v-128h80q48 0 70 16t22 48t-24 48t-68 16h-80v0zM228 720h92q52 0 80 16t28 52q0 32 -28 50t-84 18h-88v-136v0zM888 892 q-4 20 -18 32t-34 12q-48 0 -84 -34t-36 -94v-88h116v-68h-264v68h76v204h-60v68h128v-60q16 32 48 52t76 20q52 0 82 -26t38 -66l-68 -20v0zM1248 848v20q0 36 -24 52t-56 16q-28 0 -54 -12t-46 -28l-44 48q24 24 58 42t86 18q64 0 108 -34t44 -98v-152h48v-68h-120v36 q-12 -24 -46 -36t-70 -12q-52 0 -92 26t-40 82q0 60 50 88t110 28q24 0 48 -6l40 -10v0zM1248 788q-16 8 -40 12t-48 4q-32 0 -60 -14t-28 -42q0 -24 18 -34t50 -10q36 0 72 20t36 56v8v0zM1796 720v-68h-344v68h144v204h-108v68h176v-272h132v0zM1664 1060h-76v104h76v-104 v0zM1880 720h52v204h-48v68h120v-44q16 24 46 40t70 16q56 0 92 -34t36 -94v-156h52v-68h-176v68h56v136q0 44 -22 60t-46 16q-40 0 -74 -26t-34 -74v-112h52v-68h-176v68v0zM2400 924h-92v68h92v124h68v-124h168v-68h-168v-144q0 -40 24 -58t56 -18q28 0 54 16t46 32 l44 -48q-24 -24 -60 -44t-84 -20q-64 0 -106 34t-42 102v148v0zM3076 892q-4 20 -18 32t-34 12q-48 0 -84 -34t-36 -94v-88h116v-68h-264v68h76v204h-60v68h128v-60q20 32 52 52t72 20q52 0 82 -26t38 -66l-68 -20v0zM3552 704q-28 -28 -72 -46t-96 -18q-88 0 -142 52 t-54 128q0 80 52 132t136 52q80 0 130 -56t50 -140v-12h-292q8 -44 40 -68t80 -24q40 0 70 14t50 34l48 -48v0zM3268 856h208q-8 36 -36 58t-64 22q-44 0 -72 -22t-36 -58v0zM3988 704q-28 -28 -72 -46t-96 -18q-84 0 -140 52t-56 128q0 80 54 132t134 52t130 -56t50 -140 v-12h-292q8 -44 42 -68t78 -24q40 0 72 14t48 34l48 -48v0zM3704 856h208q-8 36 -36 58t-64 22q-40 0 -70 -22t-38 -58v0z" />
<glyph unicode="&#xf009;" d="M2680 1296q8 -112 -34 -192t-130 -128q68 -16 122 -48t94 -76q32 -44 46 -110t10 -154q-4 -44 -14 -84t-26 -72q-20 -36 -40 -62t-44 -46q-24 -24 -52 -42t-64 -30q-44 -16 -82 -28t-66 -16t-74 -8t-110 -8v-316h-188v312h-152v-312h-188v316h-380l40 224h136q32 0 48 16 t20 48v852q-4 40 -32 62t-76 22h-136v200h380v308h188v-300h152v300h188v-308q52 -4 96 -12t76 -16q44 -12 78 -26t66 -30q28 -16 52 -38t48 -58q16 -24 28 -60t20 -80v0zM2324 1208q0 24 -4 42t-12 34q-8 12 -16 26t-20 26q-16 12 -32 20t-28 12q-28 8 -46 14t-22 10 q-20 4 -40 6t-32 2q-16 0 -34 2t-42 2h-64q-16 -4 -28 -4h-24v-376h44q20 -4 34 -4t22 4h64q16 0 32 2t32 6l68 12q12 4 26 10t34 14l12 8l36 24q12 16 20 28t8 20q8 12 10 28t2 32v0zM2412 624q0 24 -4 44t-12 36q-8 12 -20 26t-28 30q-16 12 -34 22t-38 18q-32 8 -52 14 t-28 6q-28 4 -50 6t-42 2q-16 4 -38 6t-46 2h-140v-420h172q16 4 32 4h40q8 4 26 6t46 6q20 4 38 10l30 10q12 0 26 6t30 18q16 8 28 16t20 20q12 16 20 28t12 24t8 26t4 34v0z" />
<glyph unicode="&#xf00a;" d="M1452 184q-60 8 -116 14t-112 14q-164 24 -332 46t-336 46q-44 8 -52 16t-8 56v426v426q0 20 6 34t26 22q156 80 314 158t314 158q160 80 316 160l312 160q16 4 26 4t22 -8q192 -116 386 -230t386 -234q20 -12 44 -18t52 -6h324h324q112 0 182 -66t70 -178v-266v-266 v-268v-268q0 -104 -70 -172t-178 -68h-416h-412h-416h-416q-100 0 -170 68t-70 168v36v36v0zM1692 1032q4 0 10 -2t10 -2h248t248 4q60 0 112 -16t96 -52q72 -64 98 -154t-6 -178t-108 -142t-172 -54h-254h-250q-20 0 -30 -6t-6 -26v-86v-82q0 -48 30 -82t74 -38 q16 -4 30 -4h30h342h338h342h342q64 0 106 36t42 112q-4 200 -2 398t2 394q0 72 -34 106t-106 34h-348h-352h-352h-352q-68 0 -104 -44t-24 -116v0z" />
<glyph unicode="&#xf00b;" d="M1164 576l-16 -72l-8 -8h-12q-24 12 -58 18t-74 6q-132 0 -198 -68t-66 -204t64 -204t192 -68q44 0 80 6t60 18q8 4 10 4t2 -4h8l16 -80l-8 -8q-28 -16 -74 -26t-110 -10q-84 0 -150 24t-110 76q-48 48 -72 114t-24 150t26 152t78 120t118 80t150 28q52 0 96 -10t80 -26 v-8v0zM1628 -44q4 -16 4 -30v-22q0 -4 -2 -6t-6 -2h-80q-4 0 -6 2t-2 6l-8 36q-32 -32 -70 -48t-82 -16q-80 0 -118 40t-38 120q0 96 74 146t226 50q0 52 -28 78t-80 26q-28 0 -58 -8t-66 -28h-16l-20 64v16q36 24 80 34t100 10q96 0 144 -54t48 -166v-184q0 -16 2 -30 t2 -34v0zM1520 44v108q-100 0 -148 -26t-48 -82q0 -40 20 -60t60 -20t68 20t48 60v0zM1864 844q-164 8 -274 46t-170 110q-8 12 -16 18t-20 2q-8 0 -10 -10t2 -30q68 -144 230 -218t426 -74q108 0 218 20t218 60t162 102t54 146q0 52 -22 98t-62 82q-44 40 -82 64t-74 36 q-36 8 -70 16t-70 12q-52 0 -78 -28t-26 -84v-188q-8 -96 -92 -142t-244 -38v0zM2216 1428q164 -8 274 -46t166 -110q8 -12 18 -18t22 -2q12 0 16 10t0 26q-68 148 -232 220t-424 72q-112 0 -224 -20t-220 -60t-162 -100t-54 -144q0 -80 34 -138t102 -98q68 -36 128 -56 t116 -20q52 0 78 30t26 86v184q4 100 88 144t248 40v0zM1996 408v-88l-8 -12q-8 8 -16 10t-20 2q-44 0 -72 -30t-36 -86q-4 -4 -6 -14t-2 -22v-264q0 -4 -2 -6t-6 -2h-88q-4 0 -6 2t-2 6v344q0 52 -4 90t-8 62q0 4 2 6t10 2h76q12 0 16 -2t4 -6v-64q20 44 54 66t78 22 q8 0 14 -2t14 -6q4 0 6 -2t2 -6v0zM2048 1924q-92 0 -138 -28t-46 -84t46 -82t138 -26q88 0 132 26t44 82t-44 84t-132 28v0zM2340 400v-64q0 -8 -2 -12t-6 -4h-124v-256q0 -44 14 -66t46 -22q24 0 36 2t16 6h12v-8l8 -72q0 -4 -2 -6t-6 -2q-20 -8 -42 -14t-46 -6 q-32 0 -58 12t-50 32q-16 28 -26 64t-10 80v256h-68l-12 16v64q0 4 2 6t10 2h68v88l8 8l92 28h8v-124h124q4 0 6 -2t2 -6v0zM2816 -96q0 -4 -2 -6t-6 -2h-80q-8 0 -12 2t-4 6v36q-32 -32 -70 -48t-82 -16q-40 0 -70 12t-54 36q-20 28 -32 54t-12 58q0 96 78 146t230 50 q0 52 -26 78t-78 26q-32 0 -64 -8t-68 -28h-12l-24 64q0 4 2 8t6 8q36 24 78 34t90 10q100 0 152 -54t52 -166v-184q0 -40 2 -70t6 -46v0zM2692 44q4 4 6 12t2 16v80h-8q-92 0 -138 -26t-46 -82q0 -40 20 -60t60 -20q44 0 70 20t34 60v0zM3320 88q0 -44 -16 -80t-48 -68 q-28 -32 -78 -48t-114 -16q-60 0 -106 14t-82 42q-4 0 -6 2t-2 6l28 68q0 8 2 10t6 2h8q36 -24 74 -34t78 -10q68 0 104 26t36 78q0 40 -30 74t-94 58q-96 32 -144 82t-48 122q0 100 58 152t178 52q44 0 84 -10t76 -26v-8l-28 -80h-8q-24 12 -58 18t-74 6q-56 0 -86 -22 t-30 -66q0 -40 34 -72t98 -60q96 -36 142 -88t46 -124v0zM3480 612v-92q0 -4 -4 -6t-8 -2h-88q-4 0 -6 2t-2 6v92l8 8h88q4 0 8 -2t4 -6v0zM3480 400v-496q0 -4 -4 -6t-8 -2h-88q-4 0 -6 2t-2 6v496q0 4 2 6t6 2h88q4 0 8 -2t4 -6v0z" />
<glyph unicode="&#xf00c;" d="M3580 1824v-1844q0 -16 -6 -34t-22 -38q-16 -16 -34 -24t-38 -8h-2864q-20 0 -38 8t-34 24q-16 20 -22 38t-6 34v1844q0 16 6 34t22 38q16 16 34 22t38 6h2864q20 0 38 -6t34 -22q16 -20 22 -38t6 -34v0zM3376 492v816q-84 0 -156 30t-132 90q-56 60 -86 134t-30 158 h-1848q0 -84 -30 -158t-86 -134q-60 -60 -132 -90t-156 -30v-816q84 0 156 -28t132 -88q56 -60 86 -134t30 -162h1848q0 88 30 162t86 134q60 60 132 88t156 28v0zM2556 900q0 -48 -6 -104t-22 -124q-20 -60 -44 -114t-52 -102q-32 -44 -72 -86t-92 -74q-52 -28 -108 -44 t-112 -16t-112 16t-108 44q-52 32 -92 74t-72 86q-28 48 -52 102t-44 114q-16 68 -22 124t-6 104t6 106t22 122q20 64 44 118t52 98q32 48 72 88t92 72t108 46t112 14t112 -14t108 -46t92 -72t72 -88q28 -44 52 -98t44 -118q16 -64 22 -122t6 -106v0zM1744 492h608v152h-204 v720h-176l-240 -224l124 -124l58 58t26 30h8v-460h-204v-152v0z" />
<glyph unicode="&#xf00d;" d="M836 1392q-24 0 -44 -8t-36 -20q-20 -12 -34 -32t-22 -48q-12 -24 -18 -52t-6 -56t6 -48t18 -32q12 -16 30 -22t42 -6t54 6t62 18v-84q-36 -12 -68 -18t-68 -6q-40 0 -74 12t-58 36t-36 58t-12 82q0 40 10 80t26 76t40 64t52 44q32 20 64 30t72 10q20 0 38 -2t34 -6 t34 -10t38 -18l-40 -80q-20 8 -34 14t-26 10t-22 6t-22 2v0zM1248 1104h-156l-60 -116h-104l256 480h124l48 -480h-100l-8 116v0zM1244 1188l-8 116q0 20 -2 40t-2 40v12l-16 -40t-20 -44l-64 -124h112v0zM1732 1132q0 -36 -12 -62t-40 -46q-24 -20 -58 -30t-74 -10 q-36 0 -66 6t-54 22v88q32 -16 62 -24t58 -8q20 0 34 2t26 10q8 8 14 18t6 22q0 4 -2 10t-2 14q-4 4 -6 10t-6 10t-16 12t-28 20q-20 16 -38 32t-26 32t-14 34t-6 34q0 20 6 40t18 36q8 16 24 30t32 22q20 8 42 12t46 4q36 0 70 -8t62 -24l-36 -76q-24 12 -48 18t-48 6 q-12 0 -24 -2t-20 -10t-12 -18t-4 -22q0 -8 2 -18t6 -18q8 -8 20 -16t32 -24q20 -12 34 -26t26 -30q8 -16 14 -34t6 -38v0zM2172 988h-100l44 208h-156l-44 -208h-104l104 480h100l-40 -188h160l40 188h100l-104 -480v0zM2964 1296q0 -48 -8 -88t-24 -76q-16 -40 -40 -66 t-52 -46t-62 -28t-70 -8q-44 0 -76 12t-56 36t-36 58t-12 74q0 44 8 84t24 76t40 64t52 48t62 30t70 10q44 0 78 -12t54 -36q24 -24 36 -56t12 -76v0zM2776 1392q-20 0 -38 -8t-34 -24t-30 -36t-22 -44q-12 -28 -16 -56t-4 -60q0 -24 6 -42t14 -30q12 -12 28 -18t36 -6t38 8 t34 20q20 16 32 36t20 44q12 28 16 56t4 60q0 24 -6 42t-14 30q-12 12 -28 20t-36 8v0zM3420 988h-116l-116 364h-4v-12q-8 -36 -12 -66t-12 -58l-48 -228h-92l104 480h120l112 -352v0q4 12 8 30t8 42l18 90t42 190h92l-104 -480v0zM852 632q0 -44 -10 -86t-26 -78 q-16 -32 -40 -58t-56 -46t-70 -28t-82 -8h-160l108 492h140q44 0 82 -12t62 -36t38 -58t14 -82v0zM572 412q24 0 46 8t42 20t34 30t26 46q12 24 18 52t6 60q0 24 -8 44t-20 36q-12 12 -30 18t-42 6h-40l-68 -320h36v0zM1192 328h-284l108 492h284l-20 -88h-176l-24 -108h168 l-20 -84h-168l-28 -128h180l-20 -84v0zM1312 328l108 492h108l-92 -408h180l-20 -84h-284v0zM1700 328l108 492h104l-108 -492h-104v0zM2112 428q16 36 24 60t16 36l148 296h112l-260 -492h-116l-44 492h100l20 -296v-20v-24v-32v-20v0v0zM2668 328h-284l108 492h284 l-20 -88h-176l-24 -108h164l-20 -84h-164l-28 -128h180l-20 -84v0zM2936 516l-44 -188h-104l108 492h124q40 0 72 -8t52 -28q20 -16 30 -42t10 -58q0 -28 -8 -50t-20 -42q-16 -16 -36 -32t-48 -24l92 -208h-116l-72 188h-40v0zM2952 600h28q24 0 42 6t30 14t18 24t6 36 q0 12 -4 22t-12 18t-22 10t-30 2h-28l-28 -132v0zM3436 620l132 200h120l-216 -304l-40 -188h-108l44 188l-84 304h108l44 -200v0z" />
<glyph unicode="&#xf00e;" d="M1064 900h1084q0 -224 -66 -390t-198 -278q-132 -104 -334 -156t-478 -52q-284 0 -490 52t-330 156q-128 112 -190 278t-62 390q0 220 50 376t146 248q68 64 156 112t196 80t240 46t284 14q284 0 496 -56t348 -172q112 -92 166 -236t54 -332h-1072v-80v0zM3724 980h-1512 v764h1480q76 0 142 -28t126 -88q56 -56 86 -122t30 -146q0 -76 -26 -142t-74 -118q-48 -56 -112 -86t-140 -34v0zM3712 900q76 -4 144 -36t124 -96q60 -60 88 -134t28 -158t-28 -154t-88 -126q-56 -60 -124 -90t-144 -38h-1500v832h1500v0z" />
<glyph unicode="&#xf00f;" d="M2732 1924q-200 0 -374 -70t-310 -190q-136 120 -310 190t-374 70q-212 0 -398 -80t-326 -220q-136 -136 -218 -324t-82 -400t82 -398t218 -326q140 -136 326 -218t398 -82q200 0 374 70t310 194q136 -124 310 -194t374 -70q212 0 398 82t326 218q136 140 218 326t82 398 t-82 400t-218 324q-140 140 -326 220t-398 80v0zM2396 1188v0l-2 -2l-2 -2l2 2l2 2v0zM1376 1012q-28 8 -56 14t-60 6q-20 -4 -38 -8t-38 -12q-16 -8 -30 -18t-22 -22v0q0 -4 -2 -4h-2v0v-2t-4 -2q-12 -16 -22 -36t-14 -40q0 -16 -2 -32t-2 -32q4 -24 14 -40t26 -28 q16 -16 34 -22t38 -6q36 -8 66 -2t62 22q4 0 10 2t14 6q-4 -4 -4 -10v-10q-4 -16 -10 -36t-6 -40q-4 -8 -8 -12t-12 -4q-4 0 -6 -2t-6 -2q-8 0 -16 -2t-16 -6q-44 -4 -84 -4t-80 12q-72 16 -114 68t-46 124q-4 48 10 94t46 86q12 16 26 30t30 26q28 20 56 30t60 18 q28 8 58 10t58 -2q32 0 64 -6t64 -14q8 0 8 -2v-10l-8 -40t-12 -40v-6v-2q-8 0 -14 2t-10 6v0zM1620 1008q-8 -32 -14 -64t-14 -64q-12 -52 -24 -106t-20 -106q-4 -8 -6 -14t-2 -14t-2 -10t-10 -2h-54h-54h-8h-8t-4 4v8l24 104t20 104q8 36 16 70t12 66q4 4 4 10t4 14 q0 8 2 8h10h40h40h18h22q4 0 6 -2t2 -6v0zM1932 912h-6h-2q-24 4 -44 -4t-36 -28q-4 -8 -8 -14t-8 -14q-12 -28 -20 -58t-16 -62q-4 -20 -8 -44t-8 -44q0 -4 -2 -6l-2 -2q0 -4 -2 -6t-6 -2h-10h-14h-56h-56v6v2q4 24 10 48t10 48q12 48 24 98t20 98q4 16 6 30t6 30q0 4 2 10 t2 10t2 6t6 2h56h56q4 0 6 -2t2 -6q0 -8 -2 -16t-2 -12v-8t-4 -12q8 4 10 6l6 6q8 12 20 20l24 16q24 12 48 14t52 -2q-8 -16 -12 -28l-8 -24t-10 -24t-10 -24q-4 -8 -6 -8h-10v0zM2264 924q-4 -12 -6 -12h-14v0h-4q-24 4 -44 -6t-36 -30q-4 -4 -8 -10t-8 -10 q-12 -32 -22 -66t-14 -70q-4 -20 -10 -40t-10 -44q0 -4 -2 -6t-6 -2h-12h-8h-4h-4h-12h-16h-38h-38q-4 0 -4 4v8q8 24 14 52t14 56q12 60 26 120t22 120q0 4 2 10t2 10q0 8 2 8h6h20h16h38h34q12 0 14 -2t-2 -10q0 -8 -2 -14t-2 -14v-8v-8q4 8 10 12t10 12q20 16 40 26 t48 10h24h24q-4 -12 -8 -22t-8 -18q-4 -16 -10 -30t-14 -26v0zM2724 768l-8 -48t-12 -48v-16t-4 -16q0 -8 -2 -10t-10 -2h-8h-8h-50h-54q4 16 6 32t6 32q-12 -12 -22 -20t-22 -16v-4v0v0v0v0v0v0v0v0q-4 -4 -8 -6t-4 -6h-8h-4q-28 -12 -54 -18t-54 -2q-36 4 -60 20t-36 48 q-12 24 -14 50t2 54t10 58t14 58q4 20 8 38t8 38q0 8 2 16t6 16h58h58h6h6t6 -2t2 -10l-8 -32t-8 -36q-8 -36 -16 -70t-16 -70q-4 -32 12 -48t40 -16q12 0 28 2t28 10q4 4 10 6t10 6q12 16 22 32t14 36l8 32t8 28q4 28 10 52t10 48q0 4 2 8t2 8q4 12 6 14t14 2h44h44h14h14 q4 0 6 -2t2 -6q-4 -16 -8 -30t-4 -26q-12 -48 -22 -94t-22 -90v0zM3140 932q0 -4 -2 -6t-6 -2h-10h-10q-24 4 -48 6t-44 -2q-12 0 -20 -2t-16 -2q-8 -4 -14 -10t-2 -18q-4 -8 2 -14t14 -6q12 -8 24 -12t28 -8l32 -16t32 -20q12 -12 20 -26t12 -30v-24t-4 -24q-4 -20 -14 -36 t-26 -28q-4 0 -4 -2v-2q0 -4 -2 -4h-2v0h-2h-2q-24 -12 -46 -18t-46 -10q-28 0 -54 -2t-54 2q-24 0 -50 2t-50 6q-8 0 -8 2v10q4 12 6 22t2 22q4 8 6 14t2 10q0 8 2 10t10 2q8 -4 18 -6t18 -2q12 0 22 -2t18 -2q4 0 10 -2t14 -2q16 0 32 2t32 6q4 0 10 2t10 2q12 8 14 24 t-14 24q-4 0 -8 2t-8 6l-24 8l-24 8q-16 8 -30 14t-30 18q-12 12 -22 26t-14 34t0 38t16 38q16 28 42 42t58 18q28 8 58 10t62 2q24 0 46 -2t46 -6q8 0 8 -2v-6q-4 -20 -8 -38t-8 -38v0z" />
<glyph unicode="&#xf010;" d="M3624 1416q-72 116 -166 208t-210 164q-124 68 -254 102t-262 34q-172 0 -326 -52t-290 -160q124 -108 204 -242t116 -290h-92q-32 136 -106 256t-190 228q-116 -108 -190 -228t-106 -256h-92q36 156 116 290t204 242q-136 108 -290 160t-326 52q-132 0 -262 -34 t-254 -102q-116 -72 -210 -164t-166 -208q-64 -116 -98 -246t-34 -270t34 -268t98 -248q72 -112 166 -206t210 -166q124 -68 254 -102t262 -34q172 0 326 54t290 158q-108 96 -188 220t-124 272h92q44 -128 116 -238t172 -202q100 92 172 202t116 238h92q-44 -148 -124 -272 t-188 -220q136 -104 290 -158t326 -54q132 0 262 34t254 102q116 72 210 166t166 206q64 120 98 248t34 268t-34 270t-98 246v0zM1376 1044q-28 8 -58 14t-58 6l-40 -8t-36 -12t-30 -18t-22 -26v0h-2h-2v0l-2 -2l-2 -2q-16 -16 -24 -36t-12 -44q-4 -12 -4 -30v-34 q0 -20 12 -36t28 -28q12 -16 32 -22t40 -10q32 -4 64 2t64 18q4 4 10 6t10 6v-10v-10q-8 -20 -12 -38t-8 -38q0 -8 -4 -12t-12 -4q-4 0 -8 -2l-4 -2q-8 -4 -16 -4t-20 -4q-40 -8 -80 -6t-84 10q-72 20 -114 70t-46 126q0 48 14 94t42 86l30 30t30 26q24 20 54 30t58 18 t58 10t62 -2q32 0 64 -6t64 -14q8 0 8 -2v-10q-4 -20 -10 -40t-10 -40v-6t-4 -2t-10 2t-10 6v0zM1616 1040q-4 -32 -12 -64t-12 -64q-12 -52 -24 -106t-24 -106q0 -8 -2 -16t-2 -12q-4 -8 -4 -10t-12 -2h-52h-52h-8h-8t-4 4v4q12 56 22 108t22 104q8 32 14 66t14 70 q4 4 4 10v14l6 6t10 2h36h40h22h22q4 0 6 -2t-2 -6v0zM1932 944h-6h-2q-24 4 -44 -6t-36 -26q-4 -8 -8 -14t-8 -14q-12 -28 -20 -58t-16 -62q-4 -24 -8 -46t-8 -42q-4 -4 -4 -6v-2q0 -4 -2 -6t-6 -2h-12h-12h-56h-56v6v2q4 24 10 48t10 48q12 48 22 98t22 98q4 16 6 30t6 30 q0 4 2 10t2 10t2 6t6 2h56h56q4 0 6 -2t2 -6q0 -8 -2 -16t-2 -16q0 -4 -2 -8t-2 -8q8 4 10 6t2 6q12 8 24 18t24 18q24 12 48 14t52 -2q-8 -16 -12 -28l-8 -24t-10 -24t-10 -24q-4 -8 -6 -8h-10v0zM2264 952q-4 -8 -6 -8h-14v0h-4q-24 4 -44 -6t-36 -30q-4 -4 -8 -10t-8 -10 q-12 -36 -22 -68t-14 -68q-4 -20 -10 -42t-10 -42q0 -4 -2 -6t-6 -2h-10h-10h-4h-4h-12h-16h-38h-38q-4 0 -4 4v4q8 28 14 56t10 56q16 60 30 120t22 120q0 4 2 10t2 10q0 8 2 8h6h20h16h38h34q12 0 14 -2t-2 -10v-14t-4 -14v-8v-8q4 8 10 12t10 8q20 20 40 30t48 10h24h24 q-4 -12 -8 -22t-8 -18q-4 -16 -10 -30t-14 -30v0zM2728 800q-8 -24 -12 -48l-8 -48q-4 -8 -4 -16v-16q-4 -8 -6 -10t-10 -2h-8h-8h-50h-54q4 16 6 30t6 30q-12 -8 -22 -16t-18 -20q-4 0 -2 0t2 -4v0v0v0v0h-4v0q-4 0 -6 -2l-6 -6h-6t-6 -4q-28 -12 -54 -16t-54 0 q-36 4 -60 20t-36 48q-12 24 -14 50t2 54t10 56t14 60q4 16 8 36l8 40q0 8 4 16t4 16h58h58h6h6t6 -2t2 -10q-4 -16 -8 -34t-8 -34l-16 -72t-16 -68q-4 -32 12 -48t40 -16q16 0 30 2t26 10l12 6t8 6q16 16 24 32t12 36l8 32t8 28q4 24 10 50t10 50q0 4 2 8t2 8q4 12 6 14 t14 2h46h46h12h12q8 0 8 -2v-6q-4 -16 -6 -30t-6 -26q-12 -48 -22 -94t-18 -90v0zM3140 964q0 -4 -2 -6t-6 -2h-8h-8q-24 4 -48 6t-48 -2q-8 0 -18 -2t-18 -6q-8 0 -12 -6t-4 -18q0 -8 4 -14t12 -6q12 -8 26 -12t26 -8q20 -8 36 -16t32 -20q12 -12 20 -26t8 -30q4 -12 2 -24 t-2 -24q-4 -24 -16 -40t-28 -24q0 -4 -2 -4t-2 -4v0v0v0h-4h-4q-20 -12 -44 -18t-48 -10q-28 -4 -54 -4h-54q-24 4 -50 6t-50 6q-8 0 -8 2v6q4 12 6 24t6 24q0 8 2 14t2 10q4 8 6 10t10 -2q8 0 16 -2t20 -2q8 -4 18 -4h18q8 -4 14 -4h10h34t34 4q4 4 8 4t8 4q16 8 16 24 t-16 24q-4 0 -6 2t-6 2q-16 8 -28 12l-24 8q-16 8 -30 14t-26 18q-16 12 -26 26t-10 34q-4 20 0 38t12 38q20 28 44 42t56 18q28 8 60 10t60 2q24 -4 48 -4t48 -4q4 0 6 -2t2 -6q-8 -20 -12 -38t-8 -38v0z" />
<glyph unicode="&#xf011;" d="M2880 1456q40 -44 48 -88l8 -44q0 -56 -28 -94l-28 -38l-416 -416q-40 -40 -86 -46l-46 -6q-56 0 -92 26l-36 26q-40 40 -48 86l-8 46q0 56 28 92l28 36l100 104h-388q-60 0 -96 26l-36 26q-40 40 -48 86l-8 46q0 56 28 94l28 38q40 40 86 46l46 6h388l-100 104 q-40 40 -48 84l-8 44q0 56 28 94l28 38q40 40 84 46l44 6q60 0 96 -26l36 -26l416 -416v0zM1380 1580q-76 0 -126 -36l-50 -36q-52 -52 -62 -112l-10 -60q0 -76 36 -126l36 -50q56 -52 116 -62l60 -10q76 0 124 36l48 36q56 56 64 116l8 60q0 76 -36 124l-36 48 q-52 56 -112 64l-60 8v0zM720 16l8 8t4 8v48q0 4 -4 8t-8 4l-20 -4t-40 -4q-36 0 -50 20t-14 52v100q0 28 14 48t50 20q20 0 40 -2l20 -2q4 0 8 2t4 10v44q0 8 -4 12t-8 4l-20 4q-20 4 -48 4q-68 0 -104 -36t-36 -108v-104q0 -68 36 -104t104 -36q24 0 46 2l22 2v0zM852 20 q8 0 12 4t4 8v500q0 8 -4 12t-12 4h-52q-8 0 -12 -4t-4 -12v-500q0 -4 4 -8t12 -4h52v0zM996 20q8 0 12 4t4 8v344q0 8 -4 12t-12 4h-52q-8 0 -12 -4t-4 -12v-344q0 -4 4 -8t12 -4h52v0zM996 464q8 0 12 4t4 12v52q0 8 -4 12t-12 4h-52q-8 0 -12 -4t-4 -12v-52q0 -8 4 -12 t12 -4h52v0zM1280 16q8 4 12 8t4 8v48q0 4 -4 8t-12 4l-18 -4q-18 -4 -42 -4q-36 0 -50 20t-14 52v100q0 28 14 48t50 20q20 0 40 -2l20 -2q8 0 12 2t4 10v44q0 8 -4 12t-12 4l-20 4q-20 4 -44 4q-68 0 -104 -36t-36 -108v-104q0 -68 36 -104t104 -36q24 0 44 2l20 2v0z M1612 20q8 0 10 4t2 8l-104 196l92 148q4 4 2 10t-10 6h-60q-4 0 -10 -6l-10 -10l-92 -148l104 -196q0 -4 6 -8t10 -4h60v0zM1416 20q4 0 8 4t4 8v500q0 8 -4 12t-8 4h-56q-4 0 -8 -4t-4 -12v-500q0 -4 4 -8t8 -4h56v0zM1836 100q-16 -8 -36 -14t-36 -6q-24 0 -36 12t-12 32 q0 24 12 38t44 14h64v-76v0zM1904 20q4 0 8 4t4 8v232q0 64 -28 100t-104 36q-48 0 -80 -8l-32 -8l-8 -8t-4 -8v-48q0 -4 4 -8t8 -4l34 8q34 8 66 8q36 0 50 -16t14 -44v-32q-8 4 -32 4h-40q-64 0 -98 -28t-34 -84t30 -84t86 -28q28 0 50 8t38 20v-8q0 -4 4 -8t12 -4h52v0z M2248 20q8 0 12 4t4 8v240q0 56 -24 92t-88 36q-32 0 -56 -12t-40 -24v12q0 8 -4 12t-8 4h-52q-4 0 -8 -4t-4 -12v-344q0 -4 4 -8t8 -4h56q4 0 8 4t4 8v268q16 8 34 14t38 6q28 0 38 -14t10 -42v-232q0 -4 4 -8t12 -4h52v0zM2512 100q-16 -4 -32 -10t-32 -6q-28 0 -42 18 t-14 46v116q0 28 14 46t42 18q16 0 32 -4t32 -12v-212v0zM2580 20q4 0 8 4t4 8v500q0 8 -4 12t-8 4h-52q-8 0 -12 -4t-4 -12v-152q-16 8 -36 14t-44 6q-60 0 -90 -36t-30 -96v-128q0 -60 30 -94t90 -34q24 0 46 8t38 16v-4q0 -4 4 -8t8 -4h52v0zM2860 152q0 -28 -16 -46 t-48 -18h-56v220q16 8 32 14t32 6q28 0 42 -18t14 -46v-112v0zM2804 20q68 0 102 34t34 94v120q0 60 -30 96t-90 36q-24 0 -44 -8t-36 -16v156q0 8 -4 12t-12 4h-52q-8 0 -12 -4t-4 -12v-500q0 -4 4 -8t12 -4h132v0zM3272 20q8 0 12 4t4 8v344q0 8 -4 12t-12 4h-52 q-8 0 -12 -4t-4 -12v-268q-16 -8 -34 -14t-34 -6q-32 0 -42 16t-10 40v232q0 8 -4 12t-8 4h-56q-4 0 -8 -4t-4 -12v-240q0 -56 24 -90t84 -34q32 0 56 10t40 22v-12q0 -4 4 -8t12 -4h48v0zM3652 376q0 4 -2 10t-10 6h-60q-4 0 -8 -4t-8 -12l-80 -236l-76 236q0 8 -4 12 t-12 4h-60q-4 0 -8 -4t0 -12l116 -360l-40 -124q-4 -8 0 -12t8 -4h64q4 0 8 4t4 12l168 484v0z" />
<glyph unicode="&#xf012;" d="M3396 1924q44 0 82 -16t70 -48q32 -28 48 -66t16 -82v-1620q0 -44 -16 -82t-48 -66q-32 -36 -70 -52t-82 -16h-2696q-44 0 -82 16t-70 52q-32 28 -48 66t-16 82v1620q0 44 16 82t48 66q32 32 70 48t82 16h2696v0zM700 1756q-12 0 -20 -4t-12 -12q-8 -8 -10 -16t-2 -12 v-300h2784v300q0 4 -2 12t-10 16q-4 8 -12 12t-20 4h-2696v0zM3396 48q12 0 20 4t12 8q8 8 10 16t2 16v808h-2784v-808q0 -8 2 -16t10 -16q4 -4 12 -8t20 -4h2696v0zM824 216v176h344v-176h-344v0zM1340 216v176h508v-176h-508v0z" />
<glyph unicode="&#xf013;" d="M2284 1212q-4 136 -78 240t-190 148v-772q116 44 190 148t78 236v0zM1720 828v772q-116 -44 -190 -148t-74 -240q0 -132 74 -236t190 -148v0zM1868 500h336q144 0 278 56t238 152t166 224t62 276q0 156 -62 290t-166 226q-104 96 -238 148t-278 52h-336q-148 0 -278 -52 t-230 -148q-96 -92 -154 -226t-58 -290q0 -148 58 -276t154 -224t228 -152t280 -56v0zM1868 1868q136 0 254 -52t206 -140q92 -88 142 -208t50 -256q0 -132 -50 -252t-142 -208q-88 -88 -206 -140t-254 -52t-254 52t-206 140t-140 208t-52 252q0 136 52 256t140 208t206 140 t254 52v0zM476 428h-78h-58h-44h-48v-20q28 0 50 -6t22 -58v0v-376q0 -40 -18 -48t-54 -12v-20q28 0 54 2t50 2q28 0 56 -2t56 -2q208 0 264 106t56 166q0 100 -80 184t-228 84v0zM476 -88q-28 0 -54 12t-26 56v420q12 0 24 2t36 2q112 0 178 -70t66 -178q0 -88 -48 -166 t-176 -78v0zM924 -64v296v8t-4 4t-8 -2t-8 -2q0 -4 -26 -12t-54 -16v-12q20 -12 30 -22t10 -34v-208q0 -20 -10 -24t-30 -4h-12v-20q20 0 42 2t42 2t40 -2t40 -2v20h-12q-16 0 -28 4t-12 24v0zM896 360q12 0 24 12t12 28t-12 26t-24 10q-16 0 -28 -10t-12 -26t12 -28t28 -12 v0zM1336 -64v200q0 44 -20 76t-68 32q-40 0 -72 -18t-64 -42v52q0 4 -2 6l-2 2q-28 -12 -52 -22t-52 -18v-12q28 -12 38 -22t10 -30v0v-204q0 -20 -12 -24t-28 -4h-12v-20q20 0 42 2t42 2t40 -2t40 -2v20h-12q-16 0 -28 4t-12 24v228q20 12 46 24t46 12q32 0 50 -16t18 -48 v-200q0 -20 -10 -24t-26 -4h-12v-20q20 0 40 2t40 2q24 0 44 -2t40 -2v20h-12q-20 0 -30 4t-10 24v0zM1560 -76q-44 0 -76 40t-36 92q-4 20 -4 30t4 18h216l8 4v6v6q0 64 -42 94t-90 30q-40 0 -98 -42t-58 -158q0 -36 28 -102t120 -66q48 0 82 26t62 62l-12 12 q-20 -24 -46 -38t-58 -14v0zM1540 216q32 0 48 -20t16 -48q0 -8 -2 -14t-18 -6h-136q8 40 32 64t60 24v0zM1908 244q-32 0 -58 -30t-38 -50h-4v68q0 8 -2 10l-2 2q-8 0 -32 -14t-64 -30v-12l24 -12t16 -24v-216q0 -20 -10 -24t-26 -4h-24v-20q24 0 48 2t44 2q28 0 54 -2 t58 -2v20h-44q-16 0 -28 4t-12 24v180q0 36 24 50t36 14q20 0 26 -10t22 -10t26 12t10 28q0 24 -14 34t-30 10v0zM2032 168q0 24 18 36t42 12q36 0 56 -20t28 -56h16l-4 80q-24 12 -48 18t-40 6q-64 0 -92 -34t-28 -66q0 -96 84 -108t84 -80q0 -20 -14 -38t-50 -18 q-40 0 -64 30t-32 66l-16 -4l12 -88q20 -12 44 -20t48 -8q68 0 100 34t32 74q0 88 -88 102t-88 82v0zM2736 -100q-88 0 -160 76t-72 196q0 136 76 190t144 54q64 0 110 -30t54 -98h20l-8 112q-44 16 -90 28t-90 12q-116 0 -206 -76t-90 -196q0 -132 80 -212t216 -80 q40 0 94 14t78 30l16 112l-16 4q-12 -60 -56 -98t-100 -38v0zM3052 -64v532q0 4 -2 8t-6 4l-6 -2t-10 -6q-12 -8 -34 -18t-46 -14v-16q20 -4 30 -12t10 -48v-428q0 -20 -10 -24t-26 -4h-16v-20q20 0 42 2t42 2t42 -2t38 -2v20h-12q-16 0 -26 4t-10 24v0zM3432 -68v0v284v12 t-4 4q-8 0 -38 -4t-82 -8v-12q20 -8 42 -16t22 -16v-208q-24 -24 -50 -36t-46 -12q-48 0 -56 36t-8 52v200q0 12 -2 18t-10 6q-4 0 -40 -2t-56 -6v-12q32 -4 38 -16t6 -28v-200q0 -48 28 -70t56 -22q44 0 74 18t66 50v-64l4 -4q8 4 46 14t62 10v16h-14h-14q-12 0 -18 2 t-6 14v0zM3704 244q-32 0 -62 -18t-54 -38v0v280q0 4 -2 8t-6 4l-4 -2l-12 -6q-12 -8 -34 -18t-46 -14v-16q24 -4 32 -12t8 -48v-332q0 -36 -2 -70t-6 -66l16 -8l20 16q16 -8 42 -18t66 -10q84 0 136 64t52 140q0 64 -40 114t-104 50v0zM3668 -104q-40 0 -60 30t-20 50v0 v188q16 12 34 24t38 12q48 0 86 -44t38 -108q0 -52 -28 -102t-88 -50v0z" />
<glyph unicode="&#xf014;" d="M452 1924v-2048h3192v2048h-3192v0zM1592 -60h-1080v1924h3072v-1172q-100 -60 -278 -152t-426 -196q-252 -104 -574 -210t-714 -194v0zM712 1304h-140v-480h140q52 0 94 12t74 40q44 36 66 84t22 100q0 108 -72 176t-184 68v0zM820 940q-24 -20 -54 -28t-74 -8h-24v316 h24q44 0 74 -8t54 -32q24 -20 38 -52t14 -68q0 -32 -14 -64t-38 -56v0zM1012 1304h92v-480h-92v480v0zM1332 1120q-40 12 -56 26t-16 34t20 36t52 16q20 0 38 -10t38 -30l48 64q-32 28 -68 40t-72 12q-64 0 -108 -38t-44 -98q0 -48 26 -78t94 -54q28 -8 42 -14t22 -14 q12 -8 20 -20t8 -28q0 -28 -20 -48t-52 -20q-36 0 -62 16t-42 48l-60 -56q32 -48 72 -72t96 -24q72 0 118 46t46 114q0 56 -30 88t-110 64v0zM1500 1060q0 -104 74 -176t182 -72q28 0 56 6t60 22v108q-28 -28 -54 -40t-58 -12q-72 0 -116 46t-44 118t44 120t112 48 q32 0 60 -14t56 -42v112q-32 16 -58 22t-58 6q-104 0 -180 -72t-76 -180v0zM2420 1060q0 -108 -76 -184t-184 -76t-184 76t-76 184t76 184t184 76t184 -76t76 -184v0zM2616 980l-128 324h-104l204 -496h52l208 496h-104zM2888 824h264v80h-172v128h168v80h-168v108h172v84 h-264v-480zM3416 1024q52 12 80 46t28 90q0 68 -44 106t-124 38h-140v-480h92v192h12l132 -192h116l-152 200v0zM3336 1080h-28v144h28q44 0 68 -16t24 -52t-24 -56t-68 -20v0z" />
<glyph unicode="&#xf015;" d="M2420 396v-16t4 -16q4 -20 14 -36t30 -24q28 -16 58 -16t58 4v424h500v-840h-1844q-92 0 -150 54t-70 130q-4 16 -6 32t-2 32v390v386v390v386q0 32 4 60t16 56q28 52 68 86t100 42q12 4 24 4h24h1836v-400v-400h-248h-252v192v196h-2h-2q-24 4 -46 4t-46 -8 q-32 -8 -50 -34t-18 -58v-1020v0zM1692 596h220v62v58h-392v-320v-16t4 -16q4 -28 22 -46t46 -26q24 -8 50 -6t50 2v308v0zM1604 1512h-8h-4q-28 -8 -50 -32t-22 -64v-140v-140v-10v-6h168v392h-84v0z" />
<glyph unicode="&#xf016;" d="M2068 1924q4 -4 8 -12t12 -16q24 -36 50 -76t54 -80q12 -24 28 -46t32 -46q0 -4 2 -4t2 -4h-188h-188q4 4 4 6t4 6q20 28 38 56t38 56q20 36 44 70t44 66q4 8 8 12t4 8q4 0 4 2v2v0v0v0zM2972 -124q48 72 94 144t94 144l6 -12t6 -8q24 -36 50 -76t50 -76q20 -28 38 -54 t34 -54l2 -2t2 -6h-188h-188v0zM748 -124q48 72 94 144t94 144q4 -8 8 -14t8 -10q28 -40 54 -82t54 -82q12 -24 28 -46t32 -46l2 -2q2 -2 2 -6h-188h-188v0zM1996 1292h2h2q20 12 40 20t44 12q16 4 34 4h38q16 -4 32 -6t36 -6q16 -4 30 -8t30 -12q16 -4 28 -12t24 -20 q16 -12 28 -24t24 -28l24 -40t16 -44q8 -16 12 -34t4 -38q8 -32 8 -64v-64q-4 -32 -10 -66t-18 -66q-12 -20 -22 -40t-26 -36q-24 -28 -54 -48t-62 -36q-20 -8 -42 -12t-46 -8q-16 -4 -36 -4h-40q-12 0 -26 2t-26 2q-12 4 -22 6t-22 6q-4 4 -4 2v-6v-2v-2v-124v-120 q0 -12 -2 -12h-10h-82h-86h-6t-2 8v468v464q0 8 2 8h6h86h82h4v0h6t2 -4v-6v-6v-2v-2v0zM1996 964v-78v-78v-8t4 -4q16 -12 36 -18t40 -6q8 0 20 2t20 2q16 0 26 4t22 8q28 8 46 24t30 44q8 20 12 42t8 46v40t-4 44q-4 16 -6 32t-10 28q-4 12 -12 22t-16 18q-12 12 -28 18 t-32 10q-20 8 -38 8h-38q-24 0 -42 -8t-34 -20q-4 -4 -4 -6v-6v-80v-80v0zM1548 836q8 -8 12 -16l8 -16q8 -16 14 -30t14 -30q8 -12 14 -24t14 -24v-6t-4 -6q-8 -8 -16 -14t-20 -10q-20 -12 -42 -20t-42 -16q-16 -4 -32 -6t-28 -2q-24 -4 -48 -4h-48q-40 0 -80 10t-76 26 q-20 12 -34 22t-30 22q-20 16 -36 38t-28 46q-12 20 -18 42t-14 42q0 16 -2 30t-2 26q-4 8 -4 18v18v18v18q0 12 2 28t6 32q4 24 12 46t16 42t18 36t22 28q20 24 44 44t52 36q24 16 48 26t48 14t46 6t46 2q28 0 56 -6t56 -14q24 -8 48 -20t44 -32q24 -16 42 -40t34 -52 q12 -24 22 -50t14 -54v-36v-36q0 -12 -2 -26t-6 -26q0 -8 -2 -14t-2 -14l-2 -2t-6 -2h-2h-2h-200h-200h-24h-24h-8v-8q4 -16 8 -30t16 -26q12 -20 30 -34t38 -22q12 -4 28 -6t28 -6q24 0 48 2t48 6q20 8 40 18t36 26q4 4 6 8t6 4v0v0v0zM1364 1052v0v0h70h66q8 0 8 2v6 q-4 8 -6 14t-2 14q-12 28 -30 46t-46 26q-16 4 -32 6t-28 2q-16 0 -28 -2t-24 -10q-20 -4 -34 -16t-26 -24q-8 -12 -16 -26t-12 -30v-6t8 -2v0v0h66h66v0zM2952 1120q-8 4 -12 8l-8 8q-16 12 -32 20t-36 12t-38 4h-34q-8 0 -16 -2t-12 -6q-12 -4 -18 -12t-6 -20 q-4 -12 4 -22t16 -18q12 -8 22 -12t18 -12q28 -12 58 -24t58 -24q20 -12 38 -26t38 -30q4 -8 12 -16t12 -20q8 -16 14 -32t10 -32v-12v-12v-10v-14q0 -20 -2 -38t-10 -34q-8 -24 -22 -42t-34 -30q-16 -16 -34 -26t-38 -14q-16 -8 -32 -12t-36 -4q-20 -4 -42 -4h-42t-40 2 t-40 6l-24 8t-24 12q-20 4 -38 14t-38 22q16 36 34 76t34 80q4 -4 6 -4t2 -4q12 -8 26 -18t30 -18t32 -12l32 -8q12 0 22 -2t22 2h16t20 4q4 0 8 2t8 6q8 4 10 12t2 16v16t-4 16q-4 12 -10 18t-14 10q-12 12 -28 20l-32 16l-40 16t-40 20t-38 24t-38 28q-20 24 -34 50 t-22 54v12v8v32t4 32q8 28 24 54t44 42q24 20 54 30t58 18q24 4 46 4h42q24 -4 48 -6t44 -10q20 -4 40 -12l40 -16l6 -6t6 -2l4 -4v-4l-8 -16t-4 -20q-8 -16 -16 -36l-16 -40q-4 -8 -6 -16t-6 -20v0v0v0zM1612 220v18v22v2t4 6q0 8 10 10t18 -2l4 -4l4 4q12 4 26 4t26 -12h2 h6q8 8 20 10t28 -2q12 -4 18 -12t6 -20v-36v-36q0 -4 -4 -10t-8 -6q-8 0 -14 2t-6 10q-4 4 -4 6v2v26v26v4v4q0 8 -4 10t-12 2q-4 0 -8 -4l-8 -8v-4v-4v-24v-24v-6v-2q0 -8 -4 -12t-12 -4t-12 4t-8 12v2v6v24v24v6v2q0 8 -4 10t-12 2q-4 0 -8 -2t-4 -10q-4 0 -4 -2v-6v-24 v-24v-2v-6q0 -8 -4 -12t-12 -4t-14 4t-6 12v22v22v0v4v0zM2708 272v14v10v8v8q0 8 4 12t12 4t14 -4t6 -12v-22v-22v-46v-42v-2v-6t-4 -8l-8 -8h-12t-8 4l-4 4h-4q-12 -12 -28 -10t-28 14t-18 26t-2 30q0 12 4 20l8 16q12 16 28 20t32 -4h2t6 -4v0zM2664 216v-8t4 -8 q8 -12 18 -12t14 8t6 20t-6 24q-4 8 -14 8t-18 -12q0 -4 -2 -8t-2 -12v0zM3064 164q-8 -4 -14 -6t-10 -2q-16 0 -28 6t-20 18q-12 16 -10 40t14 40t28 20t32 -4h2q2 0 6 -4v8v8v10v14t8 14t16 2q4 0 6 -4l6 -12v-2v-2v-64v-64v-4v0q0 -8 -4 -12l-8 -8q-8 0 -12 2t-8 6h-4v0 v0zM3020 220v-12t4 -8q4 -12 16 -12t16 12q8 8 8 18t-8 18q-4 12 -14 12t-18 -12q-4 -4 -4 -8v-8v0zM1252 164v-12v-12v-4v-8q0 -8 -6 -12t-10 -4q-8 0 -14 4t-6 12v2v2v64v60v6v2q0 4 4 8l8 8h10t10 -8v0h4q8 8 20 8t24 -4t18 -10t10 -18q8 -16 8 -30t-4 -30 q-8 -12 -20 -24t-32 -8q-4 0 -8 2t-8 2h-4l-4 4v0zM1296 216q0 4 -2 10t-2 10l-8 8t-12 4t-12 -4t-4 -12q-4 -8 -4 -16t4 -16l8 -8t8 -4q8 0 12 4l8 8q0 4 2 8t2 8v0zM1428 268q4 8 8 10t12 2q4 0 8 -4t4 -8t2 -6t2 -6q0 -20 -2 -40t-2 -40v-2v-2q0 -4 -2 -8t-6 -8h-12t-8 8 h-4h-4q-12 -12 -32 -8t-32 16q-4 8 -8 18t-4 18q-4 12 -2 22t6 18q4 12 12 20t20 8q8 4 20 4t24 -12v0zM1424 216v12t-4 12q-8 8 -16 8t-16 -8q-4 -8 -6 -22t6 -22q4 -8 16 -8t16 12q4 4 4 8v8v0zM2448 272q4 4 8 6t8 2q8 0 12 -4t4 -12v-2v-2v-42v-46q0 -4 -2 -8t-10 -8 q-4 0 -10 2t-10 6v0v0q-4 0 -8 -2t-8 -6q-12 -4 -28 0t-24 16t-12 26t-4 26l8 24t12 20q12 8 24 12t24 0q4 -4 8 -6t8 -2v0zM2424 188q4 0 8 4l8 8q4 8 4 18t-4 18q-4 12 -16 12t-16 -12q-8 -8 -8 -18t8 -18q0 -8 4 -10t12 -2v0zM2844 268q4 8 8 10t12 2q4 0 8 -4t4 -12v-2 v-2v-42v-42v0v0q0 -8 -2 -12t-6 -8q-8 0 -12 2l-12 6v0v0v0v0q-16 -12 -36 -8t-32 20q-8 12 -12 24t-4 24q4 8 6 18t6 18q12 8 22 14t26 6q8 0 12 -2t12 -10v0zM2840 216v14t-4 10q-8 8 -18 8t-14 -8q-4 -4 -4 -8v-8q-4 -8 -2 -16t10 -16q4 -4 12 -4t12 8q4 4 6 10t2 10v0z M1024 204l8 -8l8 -8h12t12 4q4 0 8 2t8 6q8 0 14 -2t6 -10q4 -4 2 -8l-2 -4l-6 -6l-2 -2q-16 -8 -30 -12t-30 0t-26 14t-14 22q-8 20 -4 36t16 32q16 20 42 20t42 -20q8 -8 12 -16t4 -20v0v0q0 -8 -4 -14t-12 -6h-26h-30h-2h-6v0zM1068 232q-4 8 -10 12t-14 4t-12 -4t-8 -12 h22h22v0zM1832 204q0 -8 6 -12t14 -4h10t14 4q0 4 4 4t4 4q8 0 12 -2t8 -6t4 -8t-4 -8l-6 -6l-2 -2q-16 -8 -32 -12t-32 4q-12 4 -20 10t-12 18q-8 16 -8 30t8 30t20 24t28 8q20 0 32 -8t20 -24q4 -4 6 -12t2 -16t-4 -12t-12 -4h-26h-26h-6h-2v0zM1872 232q0 8 -8 12t-16 4 t-12 -4t-8 -12h22h22v0zM2508 216v22v18v2v6t4 8t8 4q4 4 10 4t10 -4q0 -4 2 -4t6 4q8 4 28 4t32 -16q4 -4 6 -12t2 -16v-30v-30v-2v-6t-6 -8t-10 -4q-8 0 -12 4l-8 8v6v6v22v22v6v2q0 8 -4 12t-12 4t-12 -4t-8 -12v-2v-6v-22v-22v-6v-6l-8 -8t-12 -4q-4 0 -8 4l-8 8v6v6v18 v18v0zM1924 220v18v18q0 4 2 6l2 2q0 12 10 14t18 -2l4 -4l4 4q8 4 16 4h20q16 -4 24 -14t8 -30v-28v-32v-2v-6t-6 -8t-14 -4q-4 0 -8 4t-8 12v4v4v24v24v4v4q0 8 -6 10t-10 2q-8 0 -12 -2t-4 -10v-2v-6v-24v-24l-2 -2q-2 -2 -2 -6q0 -8 -4 -12t-12 -4t-12 6t-8 14v10v10v10 v14v0zM1536 216q0 8 4 14t4 10q4 8 6 14t6 14t14 10t14 -6q4 -4 4 -8v-12q-4 -8 -8 -20t-8 -20q-8 -24 -18 -44t-18 -44l-2 -2l-2 -2q-4 -8 -12 -10t-16 6q-4 4 -4 8v8q4 4 6 10t2 14q4 8 4 14v14q-8 16 -16 34t-12 34q-4 0 -4 2v6q0 8 4 12l8 8q8 0 14 -2t6 -10q4 -4 4 -6 t4 -6q4 -8 6 -18t6 -18v-2v-2h2h2v0zM2236 280h14t14 -4q4 0 6 -4t6 -4q4 -8 2 -18t-10 -10h-6h-6q-4 4 -6 4t-6 4h-4h-4h-6t-2 -4t2 -4t2 -4h2h6q4 -4 8 -6t8 -2l4 -2l4 -2q20 -12 18 -32t-14 -28t-22 -8h-18t-14 2t-14 6l-8 8t-4 12q4 4 8 10t12 2q4 0 8 -2t8 -2 q4 -4 8 -4h8h4t4 4l-2 2l-6 6l-4 2q-4 2 -8 2q-4 4 -8 4t-8 4q-8 4 -14 12t-6 20q4 12 8 20t16 12q4 4 10 4h10v0zM2064 208v16v16v4l-4 4q-8 0 -12 4t-4 8q0 8 4 12t12 4l4 4v4v6v6q0 8 6 12t14 8q4 0 10 -6t6 -10v-8v-8t2 -4h2q4 0 4 -2t4 -2q8 0 10 -4t2 -12q0 -4 -4 -8 t-12 -4q-4 0 -6 -2t-2 -10v-26v-30v-2v-6q0 -8 -6 -12t-14 -4q-4 0 -10 6t-6 14v12v16v2v2v0zM2308 208v16v16q0 4 -2 4t-6 4q-4 0 -8 2t-4 10q-4 4 0 8l8 8h2h2q4 4 6 4t2 4v6v6q0 8 4 12t8 4q8 4 14 0t10 -12v-8v-8v-4h4q4 0 4 -2t4 -2t8 -4t4 -12q0 -4 -4 -8t-8 -4h-4v0 q-8 0 -8 -2v-10v-28v-28v-6t-4 -6q0 -4 -4 -8t-12 -4q-4 0 -8 4l-8 8v6v6v14v14v0zM2904 216v22v22q0 4 2 10t10 6q4 4 10 2t10 -6h4h4q4 4 8 6t8 2q12 0 16 -8t0 -16q0 -4 -2 -6t-6 -2q-4 -4 -8 -4t-8 -4l-8 -8t-4 -12v-22v-18v-6v-2q0 -8 -6 -12t-14 -4t-12 6t-4 14v14v14 v8v4v0zM1156 208h-10h-10q-8 0 -12 4t-4 8q0 8 4 14t8 6h4h4h18h18h2h2q12 -4 14 -10t-2 -14q0 -4 -4 -6t-8 -2v0v0h-12h-12v0z" />
<glyph unicode="&#xf017;" d="M2588 360l40 -184q0 -8 -2 -14t-2 -10l-12 -12t-8 -4l-12 -4h-4t-8 -4h-8t-8 -4h-4q-4 0 -8 -4q-4 0 -6 -2t-6 -2h-8h-8t-8 -2t-8 -2h-4h-8q-4 -4 -10 -4h-10t-8 -2t-8 -2q-8 0 -12 -2t-8 -2h-24t-16 -4h-44q-132 0 -250 38t-218 110q-104 76 -172 178t-104 226h-108 q-8 0 -14 4t-14 8q-4 4 -6 10t-2 14v128q0 8 2 14t6 14q4 4 12 6t16 2h76q-4 36 -4 66t4 54h-76q-8 0 -14 4t-14 8q-4 8 -6 16t-2 12v128q0 8 2 14t6 14q8 4 16 6t12 2h112q40 120 108 216t168 172q104 72 218 108t242 36q60 0 114 -6t106 -18q8 -4 14 -8t10 -8t4 -12v-16 l-48 -184q-4 -8 -8 -12l-8 -8q-8 -4 -14 -6t-14 2h-8q-4 4 -6 4h-6l-20 4q-4 0 -10 2t-14 2q-8 4 -16 4h-16q-4 0 -12 2t-20 2h-32q-72 0 -136 -18t-124 -54q-56 -40 -100 -90t-72 -114h536q8 0 16 -2t12 -10q8 -4 10 -12t-2 -20l-28 -128q-4 -16 -12 -24t-24 -8h-556 q-4 -20 -4 -50t4 -70h524q8 0 16 -2t12 -10q4 -4 6 -12t2 -20l-28 -128l-6 -12t-6 -8q-8 -4 -14 -6t-10 -2h-444q32 -68 76 -120t96 -92q60 -40 124 -60t136 -20q16 0 26 2t18 2q12 0 22 2t14 2t8 2t8 2h12h8t8 2t8 2h8h4q4 0 6 2t6 2q4 4 6 4h2l12 4h8q8 4 14 4t14 -4 t12 -10t12 -14v0z" />
<glyph unicode="&#xf018;" d="M3580 1176l-356 356l-10 10t-18 14v-408h408q-8 12 -14 18l-10 10v0zM3196 1024q-36 4 -50 12t-34 28q-16 20 -28 38t-12 46v492h-2460q-40 0 -76 -18t-68 -50q-28 -24 -44 -60t-16 -80v-1076q0 -44 16 -80t44 -60q32 -32 68 -42t76 -10h2872q40 0 76 10t68 42 q28 24 44 60t16 80v668h-492v0zM760 524l-44 -188h-100l104 476h272l-16 -84h-172l-28 -124h160l-20 -80h-156v0zM1256 336l-8 112h-160l-60 -112h-108l260 476h124l52 -476h-100v0zM1808 704q-20 8 -34 14t-26 10t-24 6t-24 2q-20 0 -40 -8t-40 -20q-16 -12 -30 -32 t-26 -44q-12 -28 -16 -56t-4 -56t6 -48t18 -32q8 -16 28 -22t44 -6t52 6t60 18v-84q-32 -12 -66 -18t-66 -6q-44 0 -78 12t-58 36q-20 24 -32 60t-12 80q0 40 8 80t24 76q20 36 42 64t54 44q28 20 62 30t74 10q20 0 38 -2t34 -6t34 -10t38 -18l-40 -80v0zM2096 728l-84 -392 h-104l88 392h-120l20 84h340l-20 -84h-120v0zM2600 504q-8 -44 -26 -78t-46 -54q-28 -24 -62 -34t-78 -10q-36 0 -64 10t-48 26q-20 20 -32 44t-12 56q0 12 2 24t6 24l64 300h104l-64 -300q-4 -12 -6 -22t-2 -18q0 -32 16 -46t48 -14q20 0 36 6t28 18q16 16 24 34t12 42 l68 300h100l-68 -308v0zM3044 336h-112l-68 180h-40l-40 -180h-104l104 476h124q40 0 70 -8t50 -24q20 -20 30 -44t10 -56q0 -24 -8 -46t-20 -42q-16 -20 -36 -34t-48 -22l88 -200v0zM3464 728h-172l-24 -104h160l-16 -84h-164l-24 -124h172l-20 -80h-276l104 476h276 l-16 -84v0zM1228 728v12q-4 -20 -14 -40t-22 -40l-64 -128h116l-12 116q0 20 -2 40t-2 40v0zM2896 728h-24l-32 -128h28q24 0 40 4t28 16q12 8 18 22t6 34q0 12 -4 22t-12 18t-20 10t-28 2v0z" />
<glyph unicode="&#xf019;" d="M3580 1176l-356 356l-10 10t-18 14v-408h408q-8 12 -14 18l-10 10v0zM2940 720q-8 8 -22 10t-30 2h-24l-32 -128h28q24 0 42 4t30 12q12 12 18 26t6 34q0 12 -4 22t-12 18v0zM1244 736v12q-8 -20 -18 -42t-22 -42l-64 -128h116l-8 116q-4 20 -4 42v42v0zM3196 1024 q-36 4 -50 12t-34 28q-16 20 -28 38t-12 46v492h-2460q-40 0 -76 -18t-68 -50q-28 -24 -44 -60t-16 -80v-1076q0 -44 16 -80t44 -60q32 -32 68 -42t76 -10h2872q40 0 76 10t68 42q28 24 44 60t16 80v668h-492v0zM760 524l-40 -188h-104l104 480h280l-16 -84h-176l-28 -124 h164l-20 -84h-164v0zM1268 336l-8 112h-164l-56 -112h-112l264 484h128l52 -484h-104v0zM1820 732h-120l-88 -396h-108l88 396h-120l20 84h348l-20 -84v0zM2072 732l-88 -396h-104l88 396h-120l16 84h348l-16 -84h-124v0zM2588 504q-8 -44 -28 -76t-48 -56t-64 -34t-80 -10 q-36 0 -64 10t-52 26q-20 20 -30 46t-10 58q0 12 2 22t2 22l68 304h104l-64 -304q-4 -12 -6 -22t-2 -18q0 -28 16 -44t52 -16q20 0 36 8t28 20t22 30t14 46l68 300h104l-68 -312v0zM3380 336l-8 112h-164l-60 -112h-104l-4 4v-4h-112l-72 184h-40l-40 -184h-108l108 480h124 q40 0 70 -8t54 -24q20 -16 30 -42t10 -58q0 -24 -8 -48t-20 -40q-16 -20 -36 -34t-48 -22l88 -200l264 480h128l48 -484h-100v0zM3352 736v12q-8 -20 -16 -42t-20 -42l-64 -128h112l-8 116q0 20 -2 42t-2 42v0z" />
<glyph unicode="&#xf01a;" d="M820 1348l-356 -360q-4 0 -6 -2t-2 -6q-8 0 -12 4t-4 12v148q-48 0 -80 -2t-48 -6q-52 -8 -78 -48t-26 -116v-244l-208 -208v476q0 176 80 264t240 88h500v0zM888 1280v-472q0 -180 -80 -268t-240 -88h-508l364 372h8l8 -8v-156q52 0 84 2t44 6q56 4 84 46t28 118v240 l208 208v0zM1680 1228v88q0 12 -4 18t-12 6h-208q-48 0 -80 -2t-48 -6q-56 -4 -102 -22t-78 -46q-48 -48 -72 -122t-24 -170v-484q0 -12 6 -20t18 -8h132q12 0 18 8t6 20v276q8 8 16 12t12 4q4 4 8 6t8 2h388q8 0 12 4t4 16v112q0 8 -4 12t-12 4q-4 4 -8 6t-8 2h-388 q-8 0 -16 6t-12 22v60q0 60 28 96t84 48q20 4 54 8t86 4h180q8 8 12 14t4 10v16v0zM1984 1308v8q0 12 -6 18t-22 6h-120q-12 0 -18 -6t-6 -18v-828q0 -12 6 -20t18 -8h120q16 0 22 8t6 20v820v0zM2700 824v-320q0 -8 -2 -12t-6 -4q0 -12 -6 -20t-14 -8h-292q-64 0 -106 2 t-58 10q-60 12 -90 56t-30 124q0 56 20 96t56 68q24 16 68 24t116 8h136l24 28v16q-8 40 -42 60t-94 20h-216q-4 0 -10 6t-14 18v88q8 8 14 12t10 4q4 4 8 6t8 2h200h20t24 -4t20 -4h12q60 0 106 -18t78 -50q16 -20 26 -38t14 -42q12 -32 16 -66t4 -62v0zM2516 676v8 q-8 16 -14 22t-10 6h-156q-28 0 -44 -16t-16 -44t24 -40t72 -12h120q4 0 10 6t14 18v52v0zM2812 1308v16q8 8 14 12t10 4h132q8 0 12 -6t4 -18v-172l8 -8q0 -16 4 -22t12 -6h104l8 -8q16 0 22 -4t6 -12v-88q0 -12 -6 -18t-22 -6h-112l-24 -28v-208q0 -40 4 -66t12 -38 q4 -16 24 -24t56 -8h40l28 -28v-84q-4 -12 -10 -20t-18 -8h-100q-52 0 -92 14t-64 38q-20 20 -30 34t-14 26q-8 36 -12 68t-4 64l8 604v0zM3268 1308l8 16q0 8 4 12t16 4h128q4 0 10 -6t14 -18v-180q0 -16 8 -22t20 -6h96q8 0 12 -2t4 -6q4 0 10 -4t14 -12v-88 q-4 -12 -10 -18t-14 -6h-112q-12 -8 -20 -14t-8 -14v-208q0 -40 2 -66t6 -38q16 -16 34 -24t46 -8h52q8 -8 12 -16t4 -12l8 -16l-8 -52v-16q0 -12 -6 -20t-18 -8h-96q-56 0 -98 14t-66 38q-12 8 -22 24t-14 36q-8 20 -12 52t-4 80v604v0zM4096 988l-8 -8q0 -12 -4 -20 t-12 -8h-72q-28 0 -50 -6t-34 -18q-8 -20 -14 -44t-6 -60v-336q-8 -12 -14 -20t-10 -8h-128q-12 12 -16 18t-4 10v380q0 48 4 80t16 48l16 32t16 28q28 28 66 40t90 12h140q8 -8 12 -14t4 -10v-20l8 -76v0z" />
<glyph unicode="&#xf01b;" d="M2048 20h-432h-428h-432h-432q-72 0 -134 26t-110 82q-40 48 -60 102t-20 118v454v454v102v98q0 84 32 150t100 114q40 28 84 44t96 16h12h12h856h856h856h856q36 0 74 -6t74 -22q88 -44 136 -116t52 -172v-192v-192v-370v-370q0 -80 -34 -146t-102 -114q-40 -32 -86 -46 t-98 -14h-236h-236h-314h-314h-316h-312v0zM2140 1652h-18h-18h-438h-434h-438h-438h-12h-12q-36 0 -70 -12t-62 -36q-36 -28 -54 -68t-18 -92q4 -168 4 -338v-338v-210v-210q0 -52 20 -90t56 -70q32 -20 64 -30t68 -10h408h408h478h474h16h16v376v376v376v376v0zM2424 740 q20 -24 40 -40t44 -20q60 -20 128 2t104 94q16 32 22 64t6 68q0 44 -12 84t-40 72q-56 72 -148 70t-144 -74l-4 -4l-8 -8v38v34h-70h-70v-308v-312h78h74v120v120v0zM3324 1120q4 -4 6 -12t2 -12q12 -32 24 -60t24 -60l56 -144t60 -140q4 -16 2 -28t-10 -24q-12 -12 -26 -20 t-30 -8h-34t-34 4q-4 -28 -6 -56t-2 -56q28 -8 54 -10t50 -2q52 0 88 24t60 64l16 32l16 32q44 116 90 232t94 232v6t4 6h-78h-74q-24 -68 -46 -140t-46 -148q-24 76 -48 148t-48 140h-84h-80v0zM2888 1104q0 -28 2 -52t2 -48q28 8 54 14t50 10q20 4 42 4t42 -8 q24 -4 38 -22t14 -46h-12t-8 4q-28 4 -56 2t-56 -6t-58 -12t-54 -24q-52 -40 -54 -108t46 -108q56 -44 130 -34t118 62q4 4 6 8t6 8q4 -20 4 -36v-32h70h66v102t-4 98v40v40q0 64 -32 106t-96 58q-44 12 -88 10t-92 -10q-20 -4 -40 -10t-40 -10v0zM700 1048v34v38h66h66 q0 -8 2 -12t2 -12v-180v-180q0 -28 -4 -54t-8 -54q-16 -44 -44 -74t-72 -42q-20 -8 -44 -12t-44 -4q-48 -4 -94 -2t-94 18q-4 0 -10 2t-10 2q-4 4 -6 4t-6 4q4 28 6 56t2 56q8 0 12 -2t8 -2q36 -20 74 -26t74 -2q52 4 80 30t36 74q4 12 4 24v24q-8 -4 -12 -8t-4 -8 q-56 -68 -164 -58t-148 118q-24 56 -22 112t22 112q36 92 144 108t168 -68l8 -8l8 -8h2h2v0zM500 908q4 -16 6 -30t6 -26q20 -44 64 -54t80 26q28 28 32 76t-20 80q-16 24 -40 32t-52 4q-24 -4 -40 -18t-24 -38q-4 -12 -6 -26t-6 -26v0zM1776 1132q40 0 76 -6t64 -22 q76 -36 104 -100t20 -132q-12 -88 -68 -136t-132 -60q-48 -8 -96 -2t-96 26q-64 32 -94 92t-26 128q8 88 62 142t142 66q12 0 24 2t20 2v0zM1884 900q0 20 -4 40t-12 36q-12 28 -34 40t-50 12t-50 -12t-34 -36q-16 -40 -16 -78t16 -74q12 -28 34 -40t50 -12t50 12t34 40 q8 16 12 34t4 38v0zM1200 680v222v218h66h66v-38v-42q16 20 26 34t22 26t30 20t34 12q20 0 38 -2t38 -2q-4 -32 -6 -62t-2 -62q-16 0 -30 2t-26 -2q-32 0 -56 -16t-36 -48q-8 -16 -10 -34t-6 -34v-94v-98h-36h-36h-38h-38v0zM944 1120h74h70q4 -12 6 -210t-2 -226h-72h-72 q-4 12 -6 210t2 226v0zM1092 1196h-74h-74q0 16 -2 28t-2 28v24v28q20 4 76 4t76 -4v-54v-54v0zM2424 908q0 16 6 34t18 38q24 36 70 36t74 -40q20 -32 18 -76t-22 -76q-24 -32 -62 -36t-66 24q-20 20 -28 42t-8 54v0zM3132 876q0 -52 -36 -82t-80 -18q-16 4 -26 14t-10 26 q-4 16 4 30t24 22q8 0 16 4t20 4h42h46v0z" />
<glyph unicode="&#xf01c;" d="M1076 900q0 -224 -158 -380t-378 -156q-224 0 -382 158t-158 378q0 224 158 382t382 158q220 0 378 -158t158 -382v0zM756 1104q-44 32 -84 16t-64 -40q-8 -12 -24 -20t-40 -8q-28 0 -44 8t-24 20q-24 24 -64 40t-84 -16q-56 -36 -52 -86t20 -70l248 -332l244 332 q16 20 20 70t-52 86v0zM1504 704q-112 0 -180 68t-68 168q0 112 74 184t190 72q48 0 90 -14t66 -34l-28 -92q-20 16 -56 30t-72 14q-68 0 -108 -42t-40 -110q0 -72 42 -110t102 -38q20 0 36 2t32 10v48v20t-4 20h-18h-18h-32t-32 -4v48v40q32 0 50 -2t42 -2q40 0 62 2t58 2 q-4 -20 -6 -76t-2 -88v-68q-28 -16 -72 -32t-108 -16v0zM2008 960q-44 4 -80 -10t-36 -62v-96q0 -20 2 -40t2 -36h-124q0 24 2 58t2 66v108q0 32 -2 58t-6 50q20 0 62 6t58 6l4 -80q16 36 46 58t78 26l-8 -112v0zM2144 708q-48 0 -76 26t-28 70q0 52 44 84t132 32h14t14 -4 v12q0 24 -12 38t-44 14t-60 -10t-48 -22l-16 84q28 20 68 30t80 10q76 0 110 -34t34 -106l-4 -120q0 -16 6 -22t14 -6q4 0 10 2t10 2l-4 -68q-16 -4 -30 -8t-30 -4q-28 0 -50 12t-30 44q-12 -24 -42 -40t-62 -16v0zM2240 836l4 32h-12h-12q-40 0 -56 -14t-16 -34t10 -32 t30 -12q24 0 38 16t14 44v0zM2676 724q-16 -8 -38 -14t-46 -6q-56 0 -88 26t-32 98v156h-60l20 80h44l4 72l112 36v-108h88q-4 -12 -4 -38v-42h-84v-144q0 -28 8 -36t28 -8q12 0 26 4t22 12v-88v0zM2804 1124q-28 0 -46 16t-18 40q0 28 20 46t48 18q24 0 44 -16t20 -44 t-20 -44t-48 -16v0zM2740 716q0 24 2 56t2 64v104q0 32 -2 66t-2 54q16 0 62 4t62 4q0 -12 -2 -34t-2 -42v-204q0 -20 2 -38t2 -34h-124v0zM3148 704q-24 0 -44 6t-32 14v-88v-34v-34q-12 0 -64 -4t-60 -8q4 24 4 56v64v260q0 32 -2 64t-2 56q16 0 56 4t56 8l4 -44 q20 20 46 34t58 14q72 0 110 -52t38 -120q0 -88 -52 -142t-116 -54v0zM3128 988q-20 0 -34 -8t-22 -24v-148q8 -8 22 -14t34 -6q32 0 52 30t20 74q0 48 -22 72t-50 24v0zM3464 708q-48 0 -76 26t-28 70q0 52 44 84t132 32h14t14 -4v12q0 24 -12 38t-44 14t-60 -10t-48 -22 l-16 84q28 20 68 30t80 10q76 0 110 -34t34 -106l-4 -120q0 -16 6 -22t14 -6q4 0 10 2t10 2l-4 -68q-16 -4 -30 -8t-30 -4q-28 0 -50 12t-30 44q-12 -24 -42 -40t-62 -16v0zM3560 836l4 32h-12h-12q-40 0 -56 -14t-16 -34t10 -32t30 -12q24 0 38 16t14 44v0zM3856 744 q-12 24 -18 42t-18 46l-40 92q-16 32 -34 72t-30 64q12 0 64 2t60 6l72 -208l28 88q12 28 22 60t18 52q32 0 60 2t56 2l-148 -360q-8 -20 -26 -66t-26 -74h-62t-58 -4l80 184v0z" />
<glyph unicode="&#xf01d;" d="M1688 1200q12 -32 22 -70t14 -82q12 -48 16 -90t8 -82q0 -40 -4 -90t-16 -106q-12 -52 -30 -96t-46 -80q-12 52 -32 100t-48 92t-58 84t-62 72q-28 28 -60 56l-64 56l-56 42t-36 26q-8 4 -14 8t-10 4q-4 4 -8 6t-8 6l-4 4q-36 16 -62 48t-38 72q-12 36 -8 76t24 84 q24 36 54 60t74 36q36 16 76 12t80 -28q88 -52 162 -108t134 -112v0zM2088 1556q0 -8 4 -14t8 -14q4 -12 8 -18t4 -10q8 -12 18 -44t26 -84q20 -48 32 -94t20 -90q12 -48 20 -104t16 -116v-132v-124q-8 -56 -22 -118t-38 -134t-56 -136t-76 -124q-32 -44 -74 -68t-98 -24 q-32 0 -62 10t-58 30q-36 28 -56 62t-24 74q-12 40 -2 80t34 76q36 56 62 116t38 124q12 60 16 122t0 122q-8 64 -18 120t-26 104q-12 56 -24 96t-20 64q-4 8 -6 14t-6 14q-4 4 -6 10t-6 10q0 4 -2 8l-2 4q-20 40 -22 80t14 80q12 40 38 70t66 50q16 12 38 18t54 6t60 -8 t52 -24q28 -16 46 -38t30 -46v0zM2484 732q-12 -100 -34 -196t-58 -188q-8 80 -28 158t-48 146q16 100 14 212t-18 232q-20 108 -48 214t-68 206q76 -64 142 -128t118 -132q0 -8 2 -20t6 -28t6 -28t6 -24q16 -100 18 -206t-10 -218v0zM2816 1808l16 -32l16 -32q8 -20 22 -56 t30 -88q16 -48 34 -104t30 -116q8 -48 20 -118t24 -162q4 -72 6 -154t-2 -178q-4 -68 -18 -162t-38 -206q-28 -104 -64 -204t-80 -192q-12 -28 -32 -52t-44 -44q-28 -16 -58 -24t-66 -8q-24 0 -46 4t-42 16q-40 16 -68 48t-44 76q-20 44 -18 86t22 82q40 84 68 162t44 154 q20 84 32 158t16 138v110t-4 154q-8 56 -16 110t-20 110q-8 40 -20 84t-28 88q-12 32 -20 58t-20 50q-4 16 -10 26t-10 18q-20 36 -22 78t10 82q12 44 40 76t68 56q20 12 46 18t54 6q32 0 60 -8t52 -20q28 -20 48 -40t32 -48v0z" />
<glyph unicode="&#xf01e;" d="M1280 120h80l-20 -16v-64l-44 -8h-16t-16 -4q-12 0 -18 -2t-10 -2q-36 0 -62 10t-46 34q-16 24 -24 46t-8 42q0 68 36 100t112 32q20 0 32 -2t20 -6q16 0 26 -4t18 -12l-32 -36l8 16q-36 20 -56 28t-24 8q-48 0 -72 -26t-24 -82q0 -64 30 -98t94 -34q16 0 26 2t18 10v60 l-56 -8l28 16v0zM1220 1532q16 40 46 60t74 20q16 0 30 -4t34 -12q96 -48 182 -122t162 -170v-80q0 -92 -24 -180t-72 -172q0 -4 -2 -6t-10 -2q-8 -28 -10 -48t2 -32q-12 192 -102 334t-258 230q-64 36 -76 82t24 102v0zM1464 220q-48 0 -72 -26t-24 -74q0 -44 24 -66 t72 -22t74 22t26 66q0 48 -26 74t-74 26v0zM1508 60q-8 -8 -16 -14t-16 -6q-36 0 -54 28t-18 80q0 4 4 16t12 28q4 4 14 6t22 2q36 0 54 -24t18 -72q0 -4 -4 -16t-16 -28v0zM1676 220q-52 0 -78 -26t-26 -74q0 -44 24 -66t72 -22t72 22t24 66q0 48 -22 74t-66 26v0zM1712 60 q-8 -8 -16 -14t-20 -6q-28 0 -44 28t-16 80q0 12 4 24t12 20q4 4 12 6t16 2q36 0 54 -24t18 -72q0 -4 -6 -16l-14 -28v0zM1668 1568q-12 40 -14 74t6 58q8 20 16 32t20 24q8 8 22 16t30 16q4 0 10 2t10 2q8 4 16 6t16 2q20 0 40 -8t40 -20q12 -4 22 -14t14 -22q4 0 6 -2 t2 -6q72 -116 106 -244t34 -268v-64q-4 -112 -38 -222t-102 -218q-20 -36 -52 -54t-72 -18h-44q-4 0 -8 4l-8 8t-10 6t-10 2q-24 16 -42 46t-26 70q0 24 4 44t12 32v12q52 80 80 168t28 184q0 4 -2 12l-6 24q0 12 -2 24t-2 20q-8 76 -32 144t-64 128v0zM1952 208h-80 q-24 0 -38 -4t-26 -12q-12 -12 -18 -26t-6 -26q0 -32 14 -48t46 -16h8v-16q8 -8 10 -16t2 -12q-24 0 -42 -4t-30 -12q-12 -4 -20 -16t-8 -28q0 -28 20 -40t60 -12q48 0 74 16t26 52q0 20 -8 32t-20 20l-20 12v6t-4 2l-2 2t-2 6t2 8t6 8q20 20 28 36t8 28t-6 26t-18 26h16 l28 8v0zM1916 -28q0 -20 -14 -28t-38 -8q-36 0 -54 10t-18 34q0 4 8 16t28 28h52q16 -12 26 -26t10 -26v0zM1888 96q-8 -4 -14 -8t-10 -4q-24 0 -34 18t-10 54q0 8 2 16t6 12q0 8 6 12t18 4q24 0 34 -18t10 -54q0 -12 -2 -20t-6 -12v0zM2336 1300q0 -24 2 -46t2 -38 q0 -140 -30 -270t-86 -250l-8 -8q0 -8 -2 -14t-2 -14q-4 -8 -4 -16v-12v56q0 132 -30 248t-86 216v64q0 140 -36 268t-104 244l-12 8q-4 8 -10 18t-14 18h-8q132 -80 238 -184t186 -232v-18t4 -38v0zM2012 68v220l20 20h-56l-24 -12h24v-236l-8 -8l-6 -12t-2 -8h72l16 8 q-8 0 -16 4t-12 8q-4 0 -6 4t-2 12v0zM2076 128h24l100 36l-12 12q-4 8 -8 14t-8 10q-20 8 -30 14t-14 6q-44 0 -66 -22t-22 -70q0 -24 10 -46t34 -42q8 -4 20 -6t24 -2t24 2t20 6h8l20 28q-12 -8 -22 -12t-22 -4q-36 0 -56 20t-24 56v0zM2076 148q0 28 10 40t34 12 q16 0 24 -8t8 -28l-8 -8l-68 -28v20v0zM2676 1216q0 -96 -10 -182t-26 -162q-8 -28 -16 -50t-12 -38q-16 -60 -38 -116t-50 -116q-16 -40 -52 -58t-88 -18q-24 0 -38 2t-26 6q-40 20 -62 48t-26 56v44q0 16 2 30t10 34q60 132 90 262t30 258q0 132 -30 264t-90 264 q-32 72 -12 122t88 82q20 8 36 14t28 6q48 0 84 -24t56 -68q32 -60 60 -140t56 -176q16 -72 26 -158t10 -186v0zM2464 208h16l-36 -176h-24l-36 160l-36 -160h-28l-44 176h20l36 -156l32 156h28l36 -156l36 156v0zM2632 156q0 32 -16 48t-48 16q-20 0 -36 -14t-24 -42h16 q8 16 20 22t24 6q20 0 28 -8t8 -28v-16l-8 8h-16h-12q-32 0 -46 -14t-14 -38q0 -32 12 -48t40 -16q20 0 32 4t12 16l8 -20h20v124v0zM2604 76q0 -12 -10 -18t-34 -6q-16 0 -26 10t-10 34q0 16 12 24t32 8h12h16l8 -8v-44v0zM2664 280h20v-248h-20v248v0zM2728 280h16v-248 h-16v248v0zM2844 220q-32 0 -48 -26t-16 -74q0 -44 16 -66t48 -22q28 0 44 16t16 48h-16q0 -24 -12 -34t-32 -10q-24 0 -34 16t-10 52h104v8q0 48 -16 70t-44 22v0zM2800 140q4 24 14 38t30 14t32 -14t12 -38h-88v0zM2968 208h32v-16h-32v-116q0 -12 4 -18t12 -6l16 8v-20 q-4 -4 -10 -6t-14 -2q-20 0 -28 10t-8 26v124h-20v16h20v56l28 8v-64v0z" />
<glyph unicode="&#xf01f;" d="M2628 552v-420v-14t-4 -10l-16 -8t-16 -4h-1088q-12 0 -18 4t-14 8q-4 4 -6 10t-2 14v172q0 8 2 14t6 14q8 4 16 6t16 2h108v440h-108q-8 0 -14 2t-10 6q-8 8 -12 14t-4 14v148q0 8 4 16t12 12q0 4 6 6t18 2h108v256q0 100 36 182t104 142q68 64 158 94t202 30 q108 0 204 -34t176 -106q8 -4 10 -10t2 -14t-2 -16t-6 -12l-116 -144q-4 -4 -10 -8t-14 -4t-14 2t-14 6l-4 4q0 4 -2 6t-6 2q-4 4 -8 6t-8 2q-12 8 -32 18t-48 18q-20 12 -48 16t-60 4q-48 0 -88 -12t-68 -40t-44 -62t-16 -78v-248h348q12 0 18 -2t10 -6q8 -4 10 -12t2 -16 v-148q0 -8 -2 -14t-10 -14q-8 -4 -14 -6t-14 -2h-348v-436h476v208q0 12 2 18t6 10q8 4 16 6t12 2h184q8 0 14 -2t14 -6q4 -8 8 -14t4 -14h-4z" />
<glyph unicode="&#xf020;" d="M3224 904q0 -276 -76 -478t-228 -326q-132 -112 -304 -168t-388 -56h-1356v2048h1356q216 0 388 -60t304 -180q80 -68 136 -148t88 -168q40 -100 60 -214t20 -250v0zM3088 904q0 228 -64 398t-192 286q-116 104 -272 154t-356 50h-1196v-1780h1196q220 0 386 56t278 164 q112 112 166 280t54 392v0zM1324 1296q-44 0 -82 -16t-66 -48q-32 -28 -48 -66t-16 -82t16 -82t48 -70q28 -32 66 -46t82 -14t82 14t70 46t48 70t16 82t-16 82t-48 66q-32 32 -70 48t-82 16v0zM1132 144h380v628h-380v-628v0zM2700 880h264q0 -184 -50 -322t-154 -230 t-258 -138t-362 -46h-452v736h44q28 0 46 2t26 6q24 8 36 14t16 14q16 12 26 30t18 38q8 12 10 32t2 48q0 8 -2 20t-2 24l-6 24t-2 12q-4 8 -8 18t-12 18t-10 16t-2 12q-20 16 -36 26t-28 10q-8 4 -26 6t-46 2h-44v372h452q196 0 346 -42t250 -126q104 -80 162 -206t66 -290 h-168v292h-96v-372v0zM1812 1064v-60l-16 -28q-8 -8 -16 -12t-12 -4h-80v212h72q8 0 18 -4t18 -16q0 -4 4 -10t12 -14v-64v0zM2264 960h-204v68h180v80h-180v64h196v80h-284v-372h292v80v0zM2664 880l-140 372h-100l-140 -372h96l28 80h132q0 -4 6 -24t22 -56h96v0z M2444 1040l16 52q4 12 6 24t2 20q20 -36 28 -60t8 -36h-60v0z" />
<glyph unicode="&#xf021;" d="M2396 572q0 -16 -10 -26t-26 -10h-184q-16 0 -26 10t-10 26v568q0 128 -92 218t-220 90h-312v-1316q0 -16 -10 -26t-26 -10h-180q-16 0 -28 10t-12 26v1536q0 16 12 26t28 10h528q236 0 402 -166t166 -398v-568v0zM2836 664q0 -236 -166 -402t-402 -166h-532 q-16 0 -26 10t-10 26v1100q0 12 10 24t26 12h184q16 0 26 -12t10 -24v-880h312q128 0 220 92t92 220v1004q0 16 10 26t26 10h180q16 0 28 -10t12 -26v-1004v0z" />
<glyph unicode="&#xf022;" d="M2560 1316v-116q0 -4 -2 -12t-6 -16q-4 -4 -12 -8t-16 -4h-192q-12 -80 -48 -146t-100 -118q-56 -52 -136 -84t-180 -44q96 -100 228 -254t300 -358q8 -8 8 -18t-4 -22q-4 -8 -14 -14t-22 -6h-220q-12 0 -18 4t-10 12q-104 124 -194 228t-162 184t-126 142t-90 98 q-4 4 -6 10t-2 14v144q0 8 2 14t6 14q4 4 12 6t16 2h128q72 0 132 14t112 38q48 24 76 60t40 80h-488q-8 0 -14 4t-14 8q-4 8 -6 16t-2 12v116q0 8 2 14t6 10q8 8 14 10t14 2h472q-32 64 -110 96t-198 32h-164q-8 0 -14 4t-14 8q-4 8 -6 14t-2 10v152q0 8 2 14t6 14 q4 4 12 6t16 2h952q8 0 14 -2t10 -6q8 -4 10 -12t2 -16v-116q0 -8 -2 -14t-10 -10q-4 -4 -10 -8t-14 -4h-268q28 -36 46 -76t26 -88h196q8 0 16 -2t12 -10q4 -4 6 -10t2 -14v0z" />
<glyph unicode="&#xf023;" d="M3580 1176l-356 356l-10 10t-18 14v-408h408q-8 12 -14 18l-10 10v0zM3196 1024q-36 4 -50 12t-34 28q-16 20 -28 38t-12 46v492h-2460q-40 0 -76 -18t-68 -50q-28 -24 -44 -60t-16 -80v-1076q0 -44 16 -80t44 -60q32 -32 68 -42t76 -10h2872q40 0 76 10t68 42 q28 24 44 60t16 80v668h-492v0zM724 376h-108l112 476h108l-112 -476v0zM1284 376h-124l-128 360h-4v-12q-8 -32 -14 -64t-10 -60l-52 -224h-100l112 476h128l124 -352v0q4 12 6 30t10 42q4 24 20 94t44 186h100l-112 -476v0zM1504 376l-48 476h108l16 -288q4 -8 4 -18v-26 v-28t-4 -20h4q12 36 22 60t18 32l156 288h112l-268 -476h-120v0zM2308 516q-20 -36 -44 -64t-56 -48q-28 -16 -64 -26t-76 -10q-48 0 -84 12t-60 36q-28 24 -40 58t-12 78q0 40 8 80t28 76q16 40 40 66t56 46t68 30t80 10t80 -12t60 -36q28 -24 40 -56t12 -76t-10 -86 t-26 -78v0zM2496 376h-112l112 476h112l-112 -476v0zM2784 480q12 -12 32 -20t48 -8t58 8t62 20v-88q-36 -12 -72 -18t-72 -6q-44 0 -80 12t-60 36q-28 24 -40 60t-12 80t10 82t26 74q20 36 46 64t58 48q28 16 64 26t80 10q20 0 40 -2t40 -6q16 -4 34 -10t38 -18l-40 -80 q-20 8 -36 16t-28 8q-12 4 -24 6t-24 2q-24 0 -46 -6t-42 -22q-20 -12 -34 -32t-26 -44q-12 -28 -18 -54t-6 -58q0 -28 6 -48t18 -32v0zM3464 768h-188l-24 -104h172l-20 -84h-172l-28 -120h184l-20 -84h-292l112 476h292l-16 -84v0zM2140 776q-20 0 -40 -8t-40 -20 q-16 -16 -30 -38t-26 -46q-12 -28 -16 -56t-4 -56q0 -24 6 -42t18 -30q12 -16 28 -22t40 -6q20 0 40 8t40 20q16 16 30 36t26 48q8 24 14 54t6 62q0 24 -6 40t-18 32q-12 12 -28 18t-40 6v0z" />
<glyph unicode="&#xf024;" d="M2196 1304q0 -24 8 -44t24 -36t34 -24t42 -8h620v-1208q0 -24 -8 -42t-24 -34t-36 -24t-40 -8h-1536q-24 0 -42 8t-34 24t-24 34t-8 42v1832q0 24 8 44t24 32q16 16 34 24t42 8h916v-620v0zM2340 1340v540q16 -12 26 -20t14 -12l468 -468q4 -4 12 -14t20 -26h-540v0z" />
<glyph unicode="&#xf025;" d="M2304 1192h620v-1208q0 -24 -8 -42t-24 -34t-36 -24t-40 -8h-1536q-24 0 -42 8t-34 24t-24 34t-8 42v1832q0 24 8 44t24 32q16 16 34 24t42 8h916v-620q0 -24 8 -44t24 -36t34 -24t42 -8v0zM2488 936v72q0 8 -4 16t-8 12q-8 8 -14 10t-10 2h-808q-4 0 -12 -2t-12 -10 q-4 -4 -8 -12t-4 -16v-72q0 -8 4 -14t8 -10q8 -4 12 -8t12 -4h808q8 0 14 4t10 8q8 4 10 10t2 14v0zM2488 644v72q0 8 -4 16t-8 12t-10 6t-14 2h-808q-8 0 -14 -2t-10 -6t-8 -12t-4 -16v-72q0 -8 4 -14t8 -14q8 -4 14 -6t10 -2h808q4 0 10 2t14 6q8 8 10 14t2 14v0z M2488 352v72q0 8 -4 16t-8 12q-8 4 -14 6t-10 2h-808q-4 0 -10 -2t-14 -6q-4 -4 -8 -12t-4 -16v-72q0 -8 4 -14t8 -14q8 -4 14 -6t10 -2h808q4 0 10 2t14 6q8 8 10 14t2 14v0zM2848 1380q4 -4 12 -14t20 -26h-540v540q16 -12 26 -20t14 -12l468 -468v0z" />
<glyph unicode="&#xf026;" d="M2848 1488q16 -16 30 -36t26 -48q8 -20 14 -46t6 -54v-1320q0 -24 -8 -42t-24 -34t-36 -24t-40 -8h-1536q-24 0 -42 8t-34 24t-24 34t-8 42v1832q0 24 8 44t24 32q16 16 34 24t42 8h1024q24 0 48 -6t52 -18q32 -12 54 -26t34 -26l356 -360v0zM2780 24v1168h-476 q-24 0 -42 8t-34 24t-24 36t-8 44v472h-880v-1752h1464v0zM1608 1008q0 8 4 16t8 12q8 8 14 10t10 2h808q8 0 14 -2t10 -10q8 -4 10 -12t2 -16v-72q0 -8 -2 -14t-10 -10q-4 -4 -10 -8t-14 -4h-808q-4 0 -12 4t-12 8t-8 10t-4 14v72v0zM2452 752q8 0 14 -2t10 -6t8 -12t4 -16 v-72q0 -8 -4 -14t-8 -14q-8 -4 -14 -6t-10 -2h-808q-4 0 -10 2t-14 6q-4 8 -8 14t-4 14v72q0 8 4 16t8 12t10 6t14 2h808v0zM2452 460q4 0 10 -2t14 -6q4 -4 8 -12t4 -16v-72q0 -8 -4 -14t-8 -14q-8 -4 -14 -6t-10 -2h-808q-4 0 -10 2t-14 6q-4 8 -8 14t-4 14v72q0 8 4 16 t8 12q8 4 14 6t10 2h808v0zM2340 1768v-428h432q-4 20 -12 30t-16 14l-356 360q-8 8 -18 14t-30 10v0z" />
<glyph unicode="&#xf027;" d="M2848 1488q16 -16 30 -36t26 -48q8 -20 14 -46t6 -54v-1320q0 -24 -8 -42t-24 -34t-36 -24t-40 -8h-1536q-24 0 -42 8t-34 24t-24 34t-8 42v1832q0 24 8 44t24 32q16 16 34 24t42 8h1024q24 0 48 -6t52 -18q32 -12 54 -26t34 -26l356 -360v0zM2780 24v1168h-476 q-24 0 -42 8t-34 24t-24 36t-8 44v472h-880v-1752h1464v0zM2340 1768v-428h432q-4 20 -12 30t-16 14l-356 360q-8 8 -18 14t-30 10v0z" />
<glyph unicode="&#xf028;" d="M684 -124v360v360q4 0 6 -2l2 -2l88 -16t84 -12q56 -8 108 -10t108 -2q52 4 106 12t106 28q32 12 60 30t52 46q20 28 32 56t16 60q4 16 4 34v38v178v178v8v8h-146h-150v-6v-6v-192v-192q0 -28 -8 -54t-24 -50q-20 -24 -44 -38t-56 -22q-20 -4 -44 -4t-48 4q-68 4 -128 24 t-120 48h-2h-2v6v6v416v412q0 116 64 204t172 124q32 12 66 14t66 2h86h82h144h144h8h8v-8v-8v-420v-424v-420v-420q0 -64 -20 -120t-60 -104t-90 -78t-114 -38q-12 -4 -28 -6t-32 -2h-240h-240h-8h-8v0zM1628 660h4v0q40 -32 88 -52t100 -32q60 -16 122 -20t122 -4 q56 4 112 10t112 14q20 4 38 8t34 8q4 0 8 2t8 2v72v72q-4 0 -8 -2t-8 -2q-40 -20 -82 -36t-86 -24q-36 -8 -72 -10t-68 -2q-32 4 -62 10t-54 22q-40 20 -66 52t-38 72t-12 80t12 80q16 56 50 90t86 50q36 12 72 16t72 0q64 -4 128 -22t124 -50h4h4v0h4v70v74q-12 0 -20 2 t-16 6q-40 4 -80 12t-80 12q-48 8 -100 8h-104q-40 -4 -82 -8t-82 -16q-44 -8 -84 -24t-76 -44q-4 -4 -10 -8t-14 -8v2v6v216v216q0 112 60 198t160 126q32 12 62 16t62 4h244h240h6h6v-2v-6v-4v-4v-420v-420v-418v-422q0 -36 -6 -74t-22 -74q-36 -80 -100 -130t-152 -66 q-12 -4 -28 -6t-28 -2h-246h-246h-4h-8v392v392v0zM2572 1228v8v8v166v166q0 80 30 146t90 118q36 36 82 56t94 24q16 4 30 4h26h238h234h8h8v-8v-8v-420v-424v-420v-420q0 -80 -28 -146t-88 -118q-36 -32 -80 -52t-92 -24q-16 -4 -32 -6t-32 -2h-236h-236h-8h-8v348v348h20 h20h40h40h200h200q32 0 62 4t58 16q24 12 44 26t36 38q32 44 26 108t-62 100q-24 16 -48 26t-52 14q-8 4 -14 4t-14 4l32 8t32 12q36 16 58 44t30 68q4 44 -12 86t-60 66q-24 16 -50 22t-54 10h-38h-38q-112 4 -220 2t-220 -2h-8h-8v0zM2740 680v88v88q4 4 6 4h6h92h92 q36 0 60 -20t32 -52q8 -40 -12 -68t-52 -36q-8 0 -16 -2t-12 -2h-94h-94h-2h-6v0zM2740 964v80v80h6h6h82h86q16 0 32 -4t28 -16q16 -16 22 -40t-2 -48t-28 -38t-44 -14h-90h-94v0h-4v0z" />
<glyph unicode="&#xf029;" d="M2152 96h-200q-4 0 -10 4t-14 8q-4 4 -8 10t-4 14v380h-328q-8 0 -14 2t-10 6q-4 8 -8 14t-4 14v116q0 8 4 16t8 12t10 6t14 2h328v100h-328q-8 0 -14 2t-10 6q-4 8 -8 14t-4 14v116q0 8 4 16t8 12q4 8 10 10t14 2h244l-368 660q-4 8 -4 18t4 18q8 8 16 12t16 4h224 q12 0 20 -4t12 -16l248 -484l6 -14t18 -38t22 -48t18 -44q4 8 12 28t20 52q16 28 24 46t8 22l220 480q4 12 12 16t20 4h220q8 0 16 -4t12 -12q8 -8 8 -16t-4 -20l-360 -660h248q8 0 14 -2t10 -10q8 -4 10 -12t2 -16v-116q0 -8 -2 -14t-10 -14q-4 -4 -10 -6t-14 -2h-332v-100 h332q4 0 10 -2t14 -6t10 -12t2 -16v-116q0 -8 -2 -14t-10 -14q-4 -4 -10 -6t-14 -2h-332v-380q0 -4 -2 -10t-10 -14q-4 -4 -10 -8t-14 -4v0z" />
<glyph unicode="&#xf02a;" d="M3072 936v-72q0 -8 -2 -14t-10 -10q0 -4 -6 -8t-18 -4h-244l-188 -704q0 -12 -10 -20t-26 -8h-180q-16 0 -24 8t-12 20l-188 704h-240l-192 -704q0 -12 -10 -20t-26 -8h-180q-4 0 -10 2t-14 6q0 4 -4 8t-8 12l-180 704h-240q-8 0 -14 4t-10 8t-8 10t-4 14v72q0 8 4 16 t8 12q4 8 10 10t14 2h200l-36 144h-164q-8 0 -14 4t-10 8t-8 10t-4 14v76q0 8 4 14t8 10q4 8 10 10t14 2h124l-100 392q-4 12 -2 20t6 12q8 8 16 10t16 2h156q16 0 24 -6t12 -18l100 -412h412l112 412q4 12 14 18t22 6h144q16 0 24 -6t8 -18l112 -412h420l104 412 q4 12 14 18t22 6h156q12 0 20 -2t12 -10q8 -4 8 -12t-4 -20l-104 -392h128q12 0 18 -2t6 -10q8 -4 10 -10t2 -14v-76q0 -8 -2 -14t-10 -10q0 -4 -6 -8t-18 -4h-168l-36 -144h204q12 0 18 -2t6 -10q8 -4 10 -12t2 -16v0zM1744 976l40 144h-332l36 -144h256v0zM1612 488 l92 340h-180l84 -344v-4h4v8v0zM1964 976h160l-40 144h-80l-40 -144v0zM2604 976l36 144h-340l40 -144h264v0zM2476 484l88 344h-184l92 -340v-4l4 -4v4v0z" />
<glyph unicode="&#xf02b;" d="M2732 1924q-200 0 -374 -70t-310 -190q-136 120 -310 190t-374 70q-212 0 -398 -80t-326 -220q-136 -136 -218 -324t-82 -400t82 -398t218 -326q140 -136 326 -218t398 -82q200 0 374 70t310 194q136 -124 310 -194t374 -70q212 0 398 82t326 218q136 140 218 326t82 398 t-82 400t-218 324q-140 140 -326 220t-398 80v0zM1072 644l76 408l-184 -408h-116l-20 408l-80 -408h-116l100 536h204l8 -332l148 332h212l-108 -536h-124v0zM1664 876l-28 -156v-28l-12 -20v-28h-104v48q-20 -28 -54 -44t-86 -16q-56 0 -86 32t-30 96q0 84 56 124t168 40 q20 0 34 -2t26 -6v28q0 20 -20 30t-60 10q-44 0 -70 -2t-34 -6h-20l-12 -12l12 96q48 16 86 24t70 8q88 0 130 -32t42 -96q0 -20 -2 -42t-6 -46v0zM2052 652l-70 -14t-54 -6q-112 0 -168 50t-56 146q0 132 56 198t168 66q84 0 128 -40t44 -116q0 -36 -2 -62t-6 -46h-264v-20 q0 -40 28 -58t80 -18q40 0 74 6t62 22l-20 -108v0zM2440 984h-96q-28 0 -42 -8t-14 -20q0 -16 14 -28t42 -24q44 -16 66 -48t22 -76q0 -72 -50 -110t-154 -38h-28q-12 8 -22 10t-18 2h-40l-20 8h-8l20 100q48 -12 78 -16t38 -4q40 0 58 10t18 26t-14 28t-42 24 q-56 24 -82 54t-26 70q0 72 52 110t152 38q4 0 18 -2t38 -6q20 0 36 -2t24 -2l-20 -96v0zM2664 652q-36 -8 -62 -14t-34 -6q-48 0 -72 26t-24 74v36l8 40v40l68 332h128l-20 -100h68l-20 -104h-68l-28 -188l-8 -8t-4 -12q0 -12 12 -20t40 -8q12 0 22 2t14 10l-20 -100v0z M2840 644h-136l80 436h124l-20 -68q32 36 60 52t56 16h32l8 -8l-48 -116h-28q-36 0 -68 -78t-60 -234v0zM3452 836q-12 -100 -76 -152t-176 -52q-108 0 -160 52t-52 152q0 56 18 100t54 80q36 40 84 58t104 18q104 0 154 -50t50 -146v-60v0zM1392 768q0 -16 12 -26t36 -10 q44 0 66 26t22 78h-28q-56 0 -82 -16t-26 -52v0zM1984 936q0 28 -14 42t-42 14q-36 0 -58 -18t-30 -58h144v20v0zM3248 984q-52 0 -78 -36t-26 -112q0 -48 16 -72t52 -24t64 28t40 80v48q0 44 -16 66t-52 22v0z" />
<glyph unicode="&#xf02c;" d="M3272 980q-56 0 -82 -38t-26 -110q0 -48 16 -72t52 -24q40 0 66 26t42 82v48q0 44 -18 66t-50 22v0zM2004 932q0 28 -14 42t-46 14t-54 -20t-34 -56h148v20v0zM1408 764q0 -20 12 -30t40 -10q44 0 64 28t20 80h-28q-52 0 -80 -16t-28 -52v0zM3624 1416q-72 116 -166 208 t-210 164q-124 68 -254 102t-262 34q-172 0 -326 -52t-290 -160q124 -108 204 -242t116 -290h-92q-32 136 -106 256t-190 228q-116 -108 -190 -228t-106 -256h-92q36 156 116 290t204 242q-136 108 -290 160t-326 52q-132 0 -262 -34t-254 -102q-116 -72 -210 -164 t-166 -208q-64 -116 -98 -246t-34 -270t34 -268t98 -248q72 -112 166 -206t210 -166q124 -68 254 -102t262 -34q172 0 326 54t290 158q-108 96 -188 220t-124 272h92q44 -128 116 -238t172 -202q100 92 172 202t116 238h92q-44 -148 -124 -272t-188 -220q136 -104 290 -158 t326 -54q132 0 262 34t254 102q116 72 210 166t166 206q64 120 98 248t34 268t-34 270t-98 246v0zM1088 640l80 408l-188 -408h-116l-20 408l-76 -408h-120l100 532h204l8 -328l148 328h212l-104 -532h-128v0zM1684 872l-32 -156v-28l-8 -20v-28h-108v48q-20 -32 -54 -46 t-82 -14q-60 0 -88 32t-28 96q0 80 56 122t168 42q20 0 34 -2t22 -6v28q0 20 -18 30t-58 10q-44 0 -70 -2t-38 -10h-20l-8 -8l8 96q48 16 88 24t68 8q88 0 132 -32t44 -96q0 -20 -2 -42t-6 -46v0zM1956 724q40 0 74 8t62 24l-20 -108q-40 -12 -72 -16t-56 -4q-112 0 -168 48 t-56 148q0 132 56 198t168 66q88 0 132 -40t44 -116q0 -36 -2 -62t-6 -46h-264v-20q0 -40 26 -60t82 -20v0zM2460 980h-96q-28 0 -44 -8t-16 -24q0 -12 16 -24t44 -24q44 -20 66 -50t22 -74q0 -76 -52 -112t-152 -36h-28q-12 4 -22 8t-18 4h-40l-20 8h-8l20 96q48 -8 76 -14 t40 -6q40 0 58 10t18 30q0 16 -14 28t-42 20q-56 24 -82 56t-26 72q0 72 50 110t154 38q4 0 18 -2t34 -6q24 0 40 -2t24 -2l-20 -96v0zM2684 648q-36 -8 -62 -14t-34 -6q-48 0 -72 24t-24 72v40l8 40v40l68 328h128l-20 -96h68l-20 -108h-68l-28 -184q-4 -4 -8 -10t-4 -10 q0 -12 12 -20t40 -8q12 0 22 2t14 6l-20 -96v0zM2860 640h-136l80 436h124l-20 -68q32 36 60 52t60 16h28l8 -8l-48 -120h-28q-36 0 -66 -78t-62 -230v0zM3476 832q-16 -100 -80 -152t-176 -52q-104 0 -158 52t-54 152q0 56 18 100t54 80t84 56t108 20q100 0 152 -50 t52 -146v-60v0z" />
<glyph unicode="&#xf02d;" d="M2732 1924q-200 0 -374 -70t-310 -190q-136 120 -310 190t-374 70q-212 0 -398 -80t-326 -220q-136 -136 -218 -324t-82 -400t82 -398t218 -326q140 -136 326 -218t398 -82q200 0 374 70t310 194q136 -124 310 -194t374 -70q212 0 398 82t326 218q136 140 218 326t82 398 t-82 400t-218 324q-140 140 -326 220t-398 80v0zM764 656l60 372l-136 -372h-76v372l-68 -372h-100l84 492h152v-308l108 308h160l-84 -492h-100v0zM1236 756q-4 -24 -8 -42t-8 -34v-24h-84v44q-16 -28 -44 -40t-68 -12q-20 0 -36 6t-28 18q-16 16 -22 38t-6 46q0 40 10 68 t34 44q28 20 64 30t80 10h40v28q0 16 -16 24t-52 8q-20 0 -48 -4t-60 -12q4 16 8 38t8 46q36 12 64 18t56 6q72 0 108 -28t36 -88q0 -16 -4 -36l-8 -40q-4 -32 -8 -58t-8 -54v0zM1540 960q-12 4 -30 6t-46 2q-24 0 -36 -8t-12 -24q0 -8 2 -16t6 -12l32 -16q40 -20 58 -48 t18 -60q0 -68 -40 -102t-120 -34q-36 0 -64 2t-44 6q4 16 8 40t8 52q32 -8 56 -12t36 -4q28 0 44 8t16 24q0 12 -2 18t-6 10q-8 8 -20 14t-24 10q-36 16 -56 44t-20 68q0 64 38 98t114 34q40 0 64 -2t40 -6l-20 -92v0zM1760 952h-60q0 -20 -2 -40t-6 -36v-12t-4 -20 q0 -16 -4 -24t-8 -12v-32q0 -20 8 -28t28 -8q8 0 16 2t16 6l-16 -92q-12 -4 -32 -6t-44 -2q-44 0 -64 20t-20 64q0 24 4 52t12 60l40 268h104l-8 -60h48l-8 -100v0zM2092 816h-212q0 -20 4 -36t12 -24q12 -12 32 -18t44 -6t52 8t56 24l-16 -100q-20 -8 -48 -12t-60 -4 q-88 0 -134 44t-46 132q0 56 14 98t38 74t56 48t72 16q32 0 60 -10t48 -30q16 -16 26 -42t10 -58t-2 -58t-6 -46v0zM2260 892q-12 -44 -24 -104t-20 -132h-108l8 24q16 120 28 212t24 160h100l-8 -56q12 20 24 32t24 16q16 12 28 14t24 -6q-4 -4 -14 -34t-26 -82 q-20 4 -34 -6t-26 -38v0zM2640 664q-16 -8 -40 -12t-52 -4q-44 0 -78 14t-58 46q-28 24 -40 62t-12 90q0 64 18 116t50 96q28 40 72 62t96 22q24 0 52 -8t68 -20l-16 -100q-28 12 -50 18t-46 6q-32 0 -58 -12t-42 -36t-24 -58t-8 -78q0 -32 6 -52t18 -32q12 -20 30 -28 t38 -8t44 6t48 22l-16 -112v0zM3016 908q-4 -12 -4 -22v-18q-4 -20 -8 -50t-8 -66t-10 -60t-10 -36h-84v44q-16 -28 -44 -40t-64 -12q-24 0 -40 6t-28 18q-12 16 -18 38t-6 46q0 40 10 68t30 44q28 20 62 30t74 10h40q4 4 8 12t4 16q0 16 -18 24t-50 8q-24 0 -50 -4t-62 -12 q0 16 4 38t12 46q36 12 66 18t54 6q72 0 108 -28t36 -88q0 -4 -2 -12t-2 -24v0zM3180 892q-8 -24 -18 -84t-26 -152h-108l8 24q16 96 30 188t22 184h100q0 -16 -2 -30t-6 -26q12 20 26 32t26 16q16 8 28 10t20 -2q-16 -20 -26 -50t-14 -66q-16 4 -32 -6t-28 -38v0zM3468 656 l8 32q-16 -20 -40 -30t-52 -10q-36 0 -58 10t-38 30q-20 32 -30 62t-10 58q0 56 14 100t46 76q20 36 50 52t66 16q28 0 52 -12t52 -36l16 144h108l-84 -492h-100v0zM1036 776q0 -24 8 -34t24 -10t30 6t22 18q12 16 18 34t6 42h-24q-44 0 -64 -14t-20 -42v0zM1988 960 q-4 0 -8 2t-8 6h-16q-28 0 -44 -16t-24 -52h116v28l-8 16q0 4 -2 8t-6 8v0zM2792 776q0 -24 8 -34t24 -10q20 0 32 6t20 18q12 16 18 34t6 42h-24q-44 0 -64 -14t-20 -42v0zM3444 960q-20 0 -34 -10t-26 -30q-8 -16 -12 -38t-4 -58t12 -56t36 -20q16 0 32 8t28 28 q12 16 18 42t6 58q0 40 -14 58t-42 18v0z" />
<glyph unicode="&#xf02e;" d="M3756 900q0 140 -34 270t-98 246q-72 116 -166 208t-210 164q-124 68 -254 102t-262 34q-172 0 -326 -52t-290 -160q124 -108 204 -242t116 -290h-92q-32 136 -106 256t-190 228q-116 -108 -190 -228t-106 -256h-92q36 156 116 290t204 242q-136 108 -290 160t-326 52 q-132 0 -262 -34t-254 -102q-116 -72 -210 -164t-166 -208q-64 -116 -98 -246t-34 -270t34 -268t98 -248q72 -112 166 -206t210 -166q124 -68 254 -102t262 -34q172 0 326 54t290 158q-108 96 -188 220t-124 272h92q44 -128 116 -238t172 -202q100 92 172 202t116 238h92 q-44 -148 -124 -272t-188 -220q136 -104 290 -158t326 -54q132 0 262 34t254 102q116 72 210 166t166 206q64 120 98 248t34 268v0zM788 1148h160l-84 -492h-104l60 372l-136 -372h-76v372l-68 -372h-100l84 492h152v-308l112 308v0zM1260 944q0 -16 -2 -36t-6 -40 q-4 -32 -8 -58t-8 -54q-4 -24 -8 -44t-8 -32v-24h-84v40q-20 -24 -46 -36t-66 -12q-20 0 -38 6t-30 18q-12 16 -18 38t-6 46q0 40 10 68t30 44q32 20 68 30t76 10h44v28q0 16 -18 24t-50 8q-20 0 -48 -4t-64 -12q4 16 10 38t10 46q32 12 62 18t54 6q72 0 108 -28t36 -88v0z M1144 832h-28q-40 0 -62 -14t-22 -42q0 -24 8 -34t28 -10q16 0 28 6t20 18q12 12 20 32t8 44v0zM1556 1052l-16 -92q-12 4 -32 6t-44 2t-38 -8t-14 -24q0 -8 2 -16t6 -12l36 -16q36 -20 56 -48t20 -60q0 -68 -40 -102t-120 -34q-40 0 -68 2t-44 6q4 16 8 40t8 52 q36 -8 60 -12t36 -4q28 0 44 8t16 24q0 12 -4 18t-8 10q-8 8 -18 14t-22 10q-40 16 -58 44t-18 68q0 68 38 100t114 32q36 0 62 -2t38 -6v0zM1716 1052h52l-8 -100h-60q0 -20 -2 -40t-6 -36v-12t-4 -24q0 -12 -4 -20t-8 -12v-32q0 -20 8 -28t24 -8q8 0 18 2t18 6l-16 -92 q-16 -4 -34 -6t-42 -2q-44 0 -66 20t-22 64q0 24 4 52t16 56l40 272h104l-12 -60v0zM2100 920q0 -32 -2 -58t-6 -46h-212q0 -20 4 -36t12 -24q12 -12 32 -18t44 -6t52 8t56 24l-16 -100q-20 -8 -48 -12t-60 -4q-88 0 -134 44t-46 132q0 56 14 98t38 74t56 48t72 16 q32 0 60 -10t48 -30q16 -16 26 -42t10 -58v0zM1888 900h116v28l-8 16q0 4 -2 8t-6 8q-4 0 -8 2t-8 6h-16q-28 0 -44 -16t-24 -52v0zM2360 1052q-4 -4 -14 -34t-26 -82q-20 4 -34 -6t-26 -38q-12 -44 -24 -104t-20 -132h-108l8 24q16 120 28 212t24 160h100l-8 -56 q12 20 24 32t28 16q12 12 24 14t24 -6v0zM2716 1128l-16 -100q-24 12 -48 18t-44 6q-36 0 -62 -12t-42 -36t-24 -58t-8 -78q0 -32 6 -52t18 -32q12 -20 30 -28t38 -8t44 6t48 22l-16 -112q-16 -8 -40 -12t-52 -4q-44 0 -78 14t-58 46q-24 24 -38 62t-14 90q0 64 18 116 t50 96q32 40 74 62t98 22q20 0 50 -6t66 -22v0zM3020 944v-12t-4 -24q0 -12 -2 -22t-2 -18q-4 -20 -8 -50t-8 -66t-8 -60t-8 -36h-84v44q-20 -28 -46 -40t-66 -12q-20 0 -38 6t-30 18q-12 16 -18 38t-6 46q0 40 10 68t30 44q32 20 66 30t70 10h44q4 4 6 12t2 16q0 16 -18 24 t-50 8q-20 0 -48 -4t-64 -12q0 16 6 38t14 46q32 12 62 18t54 6q72 0 108 -28t36 -88v0zM2904 832h-28q-40 0 -62 -14t-22 -42q0 -24 8 -34t28 -10q16 0 28 6t20 18q16 12 22 32t6 44v0zM3284 1052q-16 -20 -28 -50t-16 -66q-16 4 -30 -6t-26 -38q-12 -24 -22 -84t-22 -152 h-112l12 24q16 96 28 188t20 184h104q0 -16 -2 -30t-6 -26q12 20 24 32t24 16q16 8 30 10t22 -2v0zM3544 1148h112l-84 -492h-104l12 32q-20 -20 -42 -30t-54 -10t-56 10t-36 30q-20 32 -32 62t-12 58q0 56 16 100t44 76q24 36 52 52t68 16q24 0 50 -12t50 -36l16 144v0z M3504 884q0 40 -16 58t-44 18q-16 0 -32 -10t-28 -30q-8 -16 -12 -38t-4 -58t12 -56t40 -20q16 0 30 8t30 28q12 16 18 42t6 58v0z" />
<glyph unicode="&#xf02f;" d="M500 1464q-40 -116 -78 -232t-78 -232q-4 -8 -8 -10t-12 -2h-32h-32q-8 0 -12 4t-4 12q0 68 -2 132t-2 132v100v100h-6h-2q-4 -24 -8 -50t-8 -50q-16 -92 -30 -184t-30 -184q0 -8 -4 -10t-12 -2h-48h-48q-12 0 -16 4t0 16q8 60 18 120t22 120q12 96 28 192l32 192 q0 12 6 18t18 6q40 -4 78 -4t78 4q12 0 16 -4t4 -16q0 -64 2 -128t2 -128v-62v-58h2h2l24 72l24 72q20 60 38 118t38 118q0 8 4 12t16 4q44 -4 88 -4t92 4q8 0 12 -4t0 -12q-16 -120 -36 -240l-40 -240q-4 -36 -10 -74t-10 -74q-4 -16 -10 -22t-18 -2h-50h-50q-8 0 -10 2 t-2 14q16 112 34 222t34 222v8v4q4 8 2 12t2 8h-4v0h2h2q0 -4 -2 -8t-6 -8v0zM1476 172q0 -8 2 -12t14 -4h46h46q8 0 12 2t4 14q4 56 14 114t18 114q8 72 20 142t20 138q4 8 0 12t-12 4h-46h-42q-24 0 -28 -4t-8 -28q-8 -60 -18 -122t-18 -122q-4 -32 -16 -60t-36 -48 q-16 -8 -30 -12t-30 4q-16 4 -22 18t-10 30v14v10q4 40 10 76t10 72q8 36 14 76t10 80v10t-8 6h-60h-56q-8 0 -10 -2t-2 -10q-12 -88 -26 -174t-18 -174q0 -36 6 -72t26 -68t46 -44t62 -8q24 4 44 14t36 26q12 12 22 24t22 28q0 -16 -2 -32t-6 -32v0zM420 788q8 16 2 24 t-22 12q-44 12 -90 16t-94 -8q-44 -8 -78 -32t-50 -68q-20 -36 -24 -76t4 -80q4 -40 22 -68t50 -48q12 -4 22 -10t18 -14q12 -4 22 -10t18 -14q20 -16 26 -36t2 -40q-4 -24 -18 -38t-34 -18q-16 -4 -32 -6t-32 -2q-28 4 -54 14t-50 26q-8 -36 -14 -68t-14 -64q0 -8 4 -10 t8 -2q44 -20 88 -28t92 0q40 4 78 20t66 52q20 28 32 60t16 68q4 80 -20 132t-92 88q-12 4 -22 12t-22 16q-20 12 -28 32t0 40q4 20 20 30t40 14q36 4 70 -2t66 -26q4 28 10 56t14 56v0zM2832 1144q-16 -8 -30 -14t-30 -10q-60 -16 -104 4t-60 76q-20 68 -10 134t50 126 q20 24 44 40t56 20q36 8 66 -2t62 -22q8 -4 12 -4t4 12q4 28 10 58t10 58q0 8 -2 12t-10 8l-32 8l-32 8q-88 24 -166 -2t-130 -102q-60 -88 -76 -186t4 -202q12 -52 40 -96t80 -68q52 -28 108 -26t112 18q4 0 6 4t2 8q4 32 10 64t10 64l2 6t-6 6v0zM2796 788v8t-8 8 q-32 12 -68 22t-76 6q-68 -4 -118 -38t-86 -90q-52 -88 -64 -184t8 -196q16 -88 82 -142t174 -38q44 4 56 14t16 46q4 28 8 54t8 54q-20 -8 -38 -16t-38 -12q-48 -12 -84 8t-52 64q-12 32 -14 60t2 60q4 40 14 80t38 72q24 36 56 52t76 8q24 -4 46 -14t42 -18q4 32 10 66 t10 66v0zM1064 1012q0 -12 4 -16t12 -8l88 -8t92 0q64 8 102 42t50 98q8 68 -12 116t-88 80q-12 4 -22 10t-18 10q-16 8 -18 26t6 30q12 12 24 16t28 4q24 0 46 -2t46 -2q8 -4 12 0t4 8q4 28 8 54t8 50v8t-8 4q-44 8 -88 10t-84 -6q-56 -8 -92 -44t-44 -84q-12 -68 6 -114 t70 -78q16 -8 30 -16t30 -16q12 -4 20 -16t4 -32q-4 -16 -14 -24t-26 -12q-16 0 -30 -2t-26 2q-28 0 -52 6t-52 14q-4 -28 -8 -54t-8 -54v0zM1128 288q-52 -20 -90 0t-50 76q-8 36 -2 72t22 68q20 40 56 54t80 2q8 -4 14 -8t14 -8t12 -4t4 12q8 24 12 50t12 54q0 8 -2 12 t-6 4q-72 40 -150 28t-126 -76q-68 -84 -80 -178t28 -194q16 -44 48 -74t84 -38q24 -4 50 0t50 8q16 4 26 12t10 28l8 56l8 56l-16 -8t-16 -4v0zM1624 1108q-20 4 -28 12t-8 28v14v10q8 44 14 90t14 90q4 32 12 38t40 6h6h6q8 0 12 2t4 14q0 16 4 36l8 40q4 32 -2 36t-38 4 q-20 0 -22 4t2 24q0 8 2 18t6 22q4 8 0 12t-12 4h-54h-54q-8 0 -12 -4t-4 -12l-32 -192t-28 -192q-8 -32 -12 -68t-4 -72q4 -36 24 -60t52 -32t62 -4t62 16q4 0 6 4t2 8q4 28 8 54t8 58q-12 -4 -22 -6t-22 -2v0zM2340 1464q0 12 2 26t6 26q0 8 -2 10t-10 2h-48h-44 q-12 4 -16 -2t-8 -14q-16 -128 -36 -256t-40 -252q0 -12 2 -14t10 -2h52h52q12 0 16 4t8 16q8 52 16 106t16 106q4 28 12 56t20 56q4 16 16 30t36 14q12 0 16 4t4 16q8 32 18 62t22 62q8 8 4 12t-12 4q-24 0 -42 -8t-34 -24q-8 -12 -16 -22t-16 -22l-2 2l-2 2v0zM3508 1512 q4 12 0 14t-12 2h-44h-44q-12 4 -18 -2t-6 -18q-20 -124 -38 -252t-38 -252q-4 -12 0 -14t12 -2h52h52q12 0 16 4t4 12q8 56 16 110t20 106q4 32 10 60t22 56q8 20 20 30t36 10q8 0 10 4t2 12q8 32 18 64t26 64q4 8 0 12t-12 4q-24 0 -42 -10t-34 -26q-8 -12 -16 -22 t-20 -26q4 20 4 34t4 26v0zM1852 676q0 12 -2 16t-14 4h-36h-32q-24 0 -28 -4t-8 -28q-12 -76 -22 -154t-22 -154q-8 -48 -14 -94t-14 -90q0 -12 4 -16t16 -4h44h48q8 0 12 4t4 12q8 44 14 88t14 88q4 40 12 78t24 78q8 16 20 28t32 12q8 0 10 4t2 8q8 36 20 74t28 74 q-48 8 -72 -18t-48 -54q0 12 2 24t6 24v0zM504 1460q4 8 4 12v12q-4 -8 -4 -12t-4 -8h2t2 -4v0zM2836 1148l-2 -2l-2 -2q4 -4 4 -8v-8q0 4 2 8t-2 12v0zM3868 1004q-4 -8 0 -12t12 -4h48h48q12 0 16 2t4 14q4 36 10 74t14 74q20 124 38 244t38 244q0 8 -2 12t-14 4 q-24 -4 -50 -4t-50 4q-12 0 -16 -6t-4 -14q-8 -44 -14 -84t-14 -80q-4 -4 -4 -2t-4 6q-48 64 -118 62t-122 -50q-28 -32 -50 -70t-34 -78q-16 -64 -18 -128t22 -128q36 -96 122 -104t130 44l6 6t6 -2v-10v-14v0zM3900 1300q0 -36 -6 -68t-22 -64q-12 -20 -30 -36t-46 -16 q-24 0 -40 10t-20 30q-16 56 -10 110t38 102q16 20 36 30t48 2q24 -8 34 -26t14 -42q4 -8 4 -18v-14v0zM3496 176q-4 -12 0 -16t16 -4h42h42q8 0 14 4t6 16q24 156 46 316t46 320q0 8 -2 12t-10 4q-24 0 -48 -2t-48 2q-8 0 -12 -6t-8 -14q-4 -44 -10 -86t-14 -86q-4 4 -6 8 l-2 4q-48 60 -108 62t-112 -50q-40 -44 -62 -96t-30 -108q-12 -56 -8 -110t28 -106t68 -76t100 -8q20 8 38 20t34 32v-18v-14v0zM3524 460q0 -28 -4 -54t-16 -54q-4 -12 -12 -24t-20 -20q-28 -28 -60 -20t-44 48q-12 52 -6 100t34 96q0 4 6 10l10 10q28 28 60 20t44 -44 q8 -16 8 -34v-34v0zM904 1004q0 -8 4 -12t12 -4h42h42q8 0 12 2t4 10q4 28 6 52t6 48q8 64 20 130t16 134q8 72 -26 118t-102 58q-52 8 -100 0t-96 -20q-8 -4 -12 -10t-8 -14q-4 -20 -6 -42t-6 -42q-4 -16 0 -18t20 2q36 12 76 16t80 0q32 -4 44 -20t8 -48q-4 -4 -6 -8 t-14 -4q-16 0 -36 2t-40 -2q-100 -4 -154 -64t-50 -156q4 -68 44 -104t104 -32q32 4 62 18t54 46q0 -12 2 -20t-2 -16v0zM772 1148q0 28 14 46t38 26q20 8 42 10t42 -2q4 0 8 -2t4 -6q-4 -28 -12 -56t-32 -48q-8 -8 -16 -12l-16 -8q-32 -8 -50 6t-22 46v0zM2948 1392 q44 16 86 20t82 0q32 -4 44 -20t4 -48q0 -4 -4 -8t-12 -4q-20 0 -40 2t-40 -2q-92 -4 -146 -60t-54 -152q0 -80 50 -118t130 -18q24 8 46 22t38 34v-22v-18t2 -10t10 -2h46h42q8 0 12 2t4 10q0 20 2 38t6 34q8 76 22 150t18 150q4 68 -28 112t-100 52q-52 12 -102 4 t-102 -24q-4 0 -6 -4t-6 -8l-8 -56l-8 -56h8h4v0zM3100 1232q36 0 42 -4t2 -32q-4 -24 -14 -44t-26 -36q-24 -20 -50 -22t-42 18t-10 52t30 48q16 12 36 16t32 4v0zM3172 572q-16 44 -46 76t-74 48q-76 20 -146 -10t-110 -102q-32 -68 -40 -136t4 -136q4 -44 22 -78t50 -62 q52 -44 156 -34t156 110q24 48 34 100t10 116q0 24 -4 52t-12 56v0zM3056 456q-4 -32 -8 -66t-16 -66q-8 -16 -20 -30t-32 -22q-24 -8 -42 -2t-30 26q-8 16 -14 34t-6 34q-4 40 2 76t22 68q8 16 18 28t22 24q24 16 48 10t40 -30q8 -20 10 -42t6 -42v0zM2080 1124 q-36 -12 -70 -18t-74 -6q-44 4 -68 28t-24 64q0 12 4 16t16 4h116h116q8 0 14 2t6 10q8 36 12 72t4 72q-4 68 -44 114t-100 58q-68 12 -122 -12t-94 -80q-48 -80 -60 -164t12 -172q16 -48 48 -78t80 -46q56 -16 110 -12t110 20q4 0 6 2t2 6q8 32 12 64t12 68q-8 -4 -14 -6 t-10 -6v0zM1928 1324q-16 0 -30 -2t-30 2h-8t-4 4q0 28 24 56t48 32q40 8 60 -18t16 -66q0 -8 -4 -10t-12 -2q-16 4 -30 2t-30 2v0zM3916 264q-44 4 -66 26t-26 62q0 12 4 16t20 4h106h106h12t8 12q8 44 12 90t-4 94q-16 68 -66 106t-118 30q-56 -8 -94 -38t-62 -78 q-36 -72 -46 -144t6 -148q8 -44 32 -80t68 -56q56 -24 114 -22t118 18l6 6t2 6q4 32 10 64t10 64q-56 -24 -86 -30t-66 -2v0zM3904 484h-26h-30q-8 0 -10 2t-2 10q8 16 14 32t18 32q16 16 38 20t42 -8q16 -12 24 -38t0 -46q0 -4 -4 -4h-8h-26h-30v0v0v0zM2276 288 q-28 -16 -62 -22t-70 -2q-40 4 -62 24t-26 60q0 16 2 20t22 4h106h106q8 0 14 2t6 10q8 44 12 86t-4 86q-12 76 -62 116t-126 32q-48 -4 -82 -30t-58 -66q-48 -80 -58 -166t14 -174q12 -44 42 -74t74 -42q52 -16 102 -12t102 16q4 4 8 6t4 6l8 64t12 64l-12 -6t-12 -2v0z M2136 484h-30h-26q-8 0 -10 2t-2 10l8 24t12 24q12 20 34 30t42 6q20 -8 30 -24t14 -44q0 -20 -4 -24t-24 -4h-4v0h-22h-18v0zM640 264q-44 4 -68 28t-24 64q0 12 6 14t14 2h110h106q8 0 14 2t6 10q8 48 12 94t-4 90q-16 68 -66 106t-118 30q-52 -4 -88 -32t-60 -68 q-44 -76 -54 -158t10 -166q16 -60 54 -94t102 -42q36 -8 70 -6t70 10q20 4 32 14t12 34t6 50t10 50q-40 -20 -76 -28t-76 -4v0zM632 484h-30h-26h-8t-8 8q0 32 26 60t58 28q24 0 38 -16t18 -44q0 -28 -4 -32t-28 -4h-18h-18v0z" />
<glyph unicode="&#xf030;" d="M764 808q-36 -56 -96 -92t-140 -48q-8 0 -24 -4l-32 -8q-20 -4 -34 -6t-22 -2q-44 0 -94 12t-106 36q-56 32 -84 82t-28 114q-4 100 38 176t130 128q48 28 100 42t108 14q68 0 116 -8t84 -20q56 -28 92 -68t48 -92q16 -72 2 -136t-58 -120v0zM612 860q28 44 38 90t2 94 q-12 60 -52 92t-108 32q-48 0 -92 -26t-80 -78q-24 -40 -38 -78t-18 -74q0 -40 12 -70t36 -54q28 -28 62 -38t78 2q52 8 92 36t68 72v0zM2368 1016q4 -68 -12 -122t-52 -102q-40 -44 -88 -74t-112 -42q-80 -28 -158 -26t-154 34q-64 24 -100 66t-40 106q-16 64 2 128t62 128 l40 36h-248q0 -4 4 -10t8 -10q40 -40 44 -88t-36 -100q-20 -28 -44 -50t-60 -34q-28 -12 -66 -20t-86 -20q-12 0 -32 -2t-48 -6q-24 -4 -44 -10t-36 -10q-8 0 -16 -2t-12 -6q-16 -8 -16 -18t16 -22q20 -8 38 -12t38 -4l50 -10l70 -14t68 -14t48 -10t44 -16t52 -32 q48 -36 50 -76t-42 -84q-32 -24 -70 -40t-82 -28q-36 -8 -70 -12t-62 -4q-92 0 -164 8t-120 28q-32 12 -56 22t-36 26q-4 4 -12 16t-16 32q0 16 10 34t26 30q28 20 52 30t44 10q36 8 62 16t42 12q-4 0 -22 4t-46 16l-28 14t-20 14q-20 24 -20 46t20 46q12 16 28 26t40 14 q20 8 36 12t32 4q-12 12 -22 16t-18 4q-32 16 -54 34t-30 42q-20 48 -16 92t36 88q20 36 62 62t98 42q16 4 48 6t72 2h604q20 0 54 6t82 14q84 8 156 -6t136 -50q44 -32 68 -78t24 -102v0zM1048 580q-20 -8 -36 -16t-32 -12q-12 -8 -12 -20t12 -28q20 -8 32 -12t16 -4 q28 -12 74 -16t106 -4q28 0 50 2t34 6q24 0 44 8t32 20q8 20 6 32t-14 16q-12 12 -18 16t-10 4l-88 28q-8 4 -22 6t-34 2l-140 -28v0zM1396 1036q0 32 -16 56t-48 36q-28 12 -54 16t-50 4q-40 -8 -70 -28t-54 -48q-24 -36 -22 -70t30 -62q24 -20 56 -28t68 -8q8 0 16 2t12 6 q32 0 62 14t50 42q12 20 16 36t4 32v0zM2200 1044q-12 44 -34 72t-62 40q-28 12 -54 12t-50 -12q-56 -16 -98 -56t-70 -104q-12 -36 -14 -70t2 -62q12 -56 52 -84t112 -28q36 0 72 16t68 48q48 40 66 96t10 132v0zM3104 1224q-36 20 -80 24t-96 -4q-48 -8 -96 -26t-96 -50 q-12 -12 -22 -18t-14 -10q4 8 6 20t2 24q0 16 2 26t10 14q0 4 -6 6t-14 2h-124l-28 -28q-20 -76 -42 -188t-50 -264q-12 -28 -16 -50t-4 -34h140q4 0 12 4t16 12q8 28 16 70t20 98q12 52 20 94t12 70q0 4 2 8l6 12q40 28 68 46t48 30q40 20 78 30t70 6q36 0 54 -14t22 -42 v-56q-4 -28 -12 -68t-20 -88q-12 -52 -20 -88t-12 -60q0 -4 -2 -12t-2 -16q-4 -8 -6 -16t-2 -12v-8h152l8 8v12v16l12 8l20 70t20 98q12 52 22 94t14 70q8 60 -14 106t-74 74v0zM3992 968l-8 -8h-508q-12 0 -16 -6t-4 -14q-16 -68 18 -114t114 -74q48 -16 102 -14t114 22 q12 4 28 12t40 16q24 12 40 18t24 10h20q0 -8 -2 -18t-6 -22q-8 -12 -10 -20t-2 -16q0 -12 -10 -22t-26 -14q-48 -24 -96 -36t-92 -12q-68 -8 -122 -4t-98 24q-56 12 -96 38t-64 66q-36 60 -42 128t22 144q40 60 90 102t110 70q44 12 84 20t76 8q60 0 110 -10t90 -26 q56 -36 86 -78t34 -94v-76v0zM3832 1064q-8 36 -28 58t-48 26q-32 8 -56 10t-36 -2q-56 -4 -100 -34t-72 -86h332q8 0 10 6t-2 22v0z" />
<glyph unicode="&#xf031;" d="M864 1824l48 16l48 16q48 16 98 32t98 32q24 8 30 4t18 -20q60 -112 108 -228t84 -240q24 -92 40 -188t24 -192q8 -72 8 -144t-4 -140q-8 -124 -30 -242t-58 -234q-32 -100 -76 -198t-92 -194h-2h-2q-12 -24 -18 -26t-34 6q-64 20 -128 42t-132 42l-4 2t-8 2q-12 4 -14 8 t6 16q4 12 8 22t12 18q36 84 66 168t54 168q20 76 32 152t20 156q12 88 14 176t-6 176q-4 124 -28 248t-60 244q-24 72 -50 142t-62 134q0 8 -2 12l-6 12v0zM256 172q12 24 22 48t18 48q36 84 62 174t38 178q16 100 20 196t0 196q-4 104 -24 206t-52 202q-16 48 -36 94 t-40 90q-8 20 -6 24t22 12l96 32t96 28q4 4 8 4t8 4q20 8 26 6t18 -26q52 -92 92 -192t64 -204q28 -116 40 -232t4 -232q-4 -148 -34 -286t-90 -274q-20 -40 -40 -82t-40 -82q-8 -12 -12 -14t-20 2q-52 16 -104 34t-104 34q-8 0 -16 4l-16 8v0zM1996 40v16v16v352v352 q0 28 4 34t36 6h96h96q28 -4 60 -6t60 -14q44 -16 74 -48t42 -76q16 -52 12 -102t-40 -98l-16 -16l-16 -16q-4 -4 -4 -10t4 -14q20 -16 34 -34t22 -42q8 -12 12 -28t4 -28q4 -32 0 -64t-16 -64q-16 -40 -46 -66t-70 -38q-16 -8 -36 -10t-36 -6h-128h-128q-4 0 -8 2t-12 2v0z M2108 260v0v0v-52v-52q0 -8 4 -12t16 -4q32 0 66 -2t70 2q40 0 68 30t32 74v16v20q-4 36 -34 68t-70 32h-66h-66q-12 0 -16 -4t-4 -20v-48v-48v0zM2108 596v0v0v-48v-48q4 -12 6 -16t18 -4h64t64 4q32 0 54 14t38 42q8 20 10 38t2 34q0 32 -30 64t-58 32q-40 4 -76 4h-72 q-12 0 -16 -4t-4 -16v-48v-48v0zM3160 424v-100v-100q0 -84 -58 -140t-138 -60h-48h-48q-52 8 -94 30t-70 70q-16 24 -22 52t-6 56v176v176q0 20 2 42t6 38q12 68 56 108t112 48q36 4 76 4t76 -8q64 -12 110 -66t46 -122v-104v-100v0v0v0zM3044 424v94v90q4 32 -10 54 t-34 42q-24 20 -80 20t-80 -20q-28 -16 -38 -42t-10 -54v-184v-184v-12v-12q8 -36 36 -62t64 -26h24h24q44 0 74 30t30 74v96v96v0zM3576 532q8 8 14 18t10 18q24 56 50 112t50 112q8 12 14 18t18 6h44h44q16 0 20 -8t-4 -24q-16 -32 -34 -66t-34 -66q-24 -52 -50 -104 t-54 -104q-8 -12 -8 -20t8 -20q40 -80 82 -162t82 -162q16 -32 12 -38t-40 -6q-12 0 -28 2t-28 -2q-20 -4 -30 6t-18 26q-24 56 -50 110t-54 106q0 8 -6 14l-10 10q-4 -4 -8 -10t-8 -14q-28 -52 -56 -108t-52 -112q-8 -16 -16 -22t-24 -6h-40h-40t-24 6t8 22q16 36 34 72 t38 72q24 48 48 94t48 94q8 16 8 28t-8 28q-44 80 -84 162t-84 162q-12 24 -8 32t32 8h34h34t24 -6t16 -22q28 -60 56 -118t56 -118l8 -8t8 -12v0zM3036 1004q-8 0 -18 -2t-18 2q-16 0 -20 4t-8 16q-8 36 -18 72t-18 72q-4 8 -10 10t-14 2h-70h-70h-22h-22q-8 0 -12 -2 t-8 -14q-8 -36 -18 -70t-18 -70q-8 -16 -12 -18t-16 -2q-20 -4 -38 -2t-38 2q-16 0 -20 4t0 20q12 40 26 80t26 80q8 32 18 66t22 70q12 40 24 78t24 78q12 44 26 88t26 88l16 48t12 48q8 16 12 22t24 6h22h22q16 -4 20 -10t8 -18q8 -28 16 -54t12 -50q32 -96 60 -190 t56 -190q12 -32 22 -66t22 -70q8 -24 16 -50t12 -54q8 -16 4 -20t-24 -4q-4 -4 -8 -2t-8 2h-8h-12v0v0v0zM2828 1568h-6h-2q-12 -32 -22 -68t-18 -72t-18 -70t-18 -74q48 -4 94 -2t62 6q-20 72 -38 142t-34 138v0zM2112 1340v-14v-14q0 -68 -2 -136t-2 -136q0 -4 2 -8 t-2 -12q0 -8 -4 -12t-16 -4q-20 -4 -42 -2t-50 2v18v18v352v352v10v10q0 8 4 12t12 4h8h8h106h106q28 0 54 -4t54 -12q40 -16 70 -44t42 -72q16 -40 18 -80t-10 -80q-8 -32 -26 -58t-46 -42q-28 -20 -58 -30t-62 -10q-40 0 -80 -2t-84 -6v0zM2116 1676q-4 0 -4 -2v-6v-102 v-102q0 -12 6 -16t14 -4q36 4 72 4t72 4q20 0 36 10t28 26t18 36t6 44q0 36 -30 74t-78 34h-70h-70v0zM3336 1188v78v74q0 12 -2 22t-10 22q-20 36 -38 72t-38 72l-40 72l-40 72q-8 20 -20 40t-20 40q-8 12 -4 20t20 8h40h40q12 0 20 -8t16 -20q28 -64 58 -126t62 -126l8 -8 t8 -4l4 4l8 8q20 44 44 90t48 94q8 20 18 38t18 38l14 14t22 6q16 -4 34 -2t38 2q16 0 20 -6t-4 -22q-12 -28 -26 -54t-30 -54q-8 -20 -18 -40t-22 -40q-16 -24 -30 -52t-30 -52q-12 -24 -24 -44t-20 -40q-4 -12 -6 -20t-2 -20v-146v-150v-10v-10q0 -8 -4 -12t-12 -4h-40 h-40q-12 -4 -16 2t-4 14v32v28v56v52v0v0v0z" />
<glyph unicode="&#xf032;" d="M1684 900q-12 -32 -22 -70t-14 -66h-8q-4 28 -16 66t-24 70l-48 148t-48 152h-168q12 -36 122 -328l110 -292l-38 -104q-38 -104 -42 -112h152q0 4 48 132t104 284q60 156 108 286t48 134h-164q-4 -16 -52 -158l-48 -142v0zM348 1032h-192v220h188q60 0 90 -28t30 -80 q0 -56 -30 -84t-86 -28v0zM348 1408h-348v-824h156v292h180q80 0 184 48t104 224q0 116 -74 188t-202 72v0zM1060 760q-12 -20 -42 -38t-70 -18q-64 0 -80 32t-16 52q0 40 24 62t72 22q44 0 68 -8t44 -20v0v-84v0zM972 1212q-76 0 -124 -16t-100 -44q4 -4 30 -54t30 -54 q40 24 76 32t88 8q40 0 64 -22t24 -62v-36l-4 4q-24 12 -52 18t-60 6q-116 0 -180 -54t-64 -150q0 -112 70 -164t154 -52q36 0 72 14t60 38l4 8v-48h156v412q0 100 -66 158t-178 58v0zM3732 960v4q8 52 36 82t68 30q56 0 82 -36t30 -76v-4h-216v0zM4096 892q0 140 -70 230 t-182 90q-116 0 -192 -90t-76 -230q0 -148 78 -234t206 -86q60 0 118 26t94 70q-4 4 -56 48l-52 44q-20 -20 -46 -30t-58 -10q-44 0 -84 26t-44 94v4h360q0 4 2 26l2 22v0zM2260 1408h-156v-824h560v156h-404v668v0zM3204 1276v-76h-76v-148h76v-468h152v468h104v148h-104 v56q0 28 14 40t46 12q16 0 28 -2t24 -10v124q-20 8 -44 12t-52 4q-88 0 -128 -38t-40 -122v0zM2896 1436q-36 0 -62 -26t-26 -62t26 -64t62 -28t62 28t26 64t-26 62t-62 26v0zM2820 584h152v616h-152v-616v0z" />
</font>
</defs>
</svg>
