<?xml version="1.0" encoding="UTF-8"?>
<svg xmlns="http://www.w3.org/2000/svg" xmlns:xlink="http://www.w3.org/1999/xlink" version="1.2" >
<font id="Overpass-Reg">
<font-face  font-family="Overpass" units-per-em="2048" ascent="1536" descent="-512" font-style="normal" font-weight="400" font-stretch="normal" cap-height="1434" x-height="1047" underline-position="-270" underline-thickness="184" />
<missing-glyph  horiz-adv-x="471" d="" />
<glyph glyph-name="Eth" unicode="&#xd0;" horiz-adv-x="1403" d="M184 618 L51 618 L51 815 L184 815 L184 1434 L586 1434 Q711 1434 810 1405.5 Q909 1377 985 1327 Q1061 1277 1115 1208.5 Q1169 1140 1203.5 1060.5 Q1238 981 1254 893 Q1270 805 1270 717 Q1270 635 1255.5 549.5 Q1241 464 1207.5 384.5 Q1174 305 1121 235 Q1068 165 991 112.5 Q914 60 811.5 30 Q709 0 578 0 L184 0 L184 618 Z M612 201 Q694 201 758.5 222.5 Q823 244 871.5 281 Q920 318 953.5 368 Q987 418 1008.5 475.5 Q1030 533 1039.5 594.5 Q1049 656 1049 717 Q1049 814 1025.5 906.5 Q1002 999 952 1071.5 Q902 1144 823.5 1188.5 Q745 1233 635 1233 L397 1233 L397 815 L707 815 L707 618 L397 618 L397 201 L612 201 Z " />
<glyph glyph-name="eth" unicode="&#xf0;" horiz-adv-x="1161" d="M862 1391 L766 1290 Q841 1229 896 1149.5 Q951 1070 987 975.5 Q1023 881 1041 774 Q1059 667 1059 551 Q1059 431 1030 326 Q1001 221 942 143 Q883 65 793 20 Q703 -25 580 -25 Q477 -25 389.5 11 Q302 47 238 111 Q174 175 138 262.5 Q102 350 102 453 Q102 559 138.5 647 Q175 735 237.5 799 Q300 863 383 898.5 Q466 934 559 934 Q606 934 649.5 923.5 Q693 913 729.5 894 Q766 875 794.5 848.5 Q823 822 840 791 Q815 909 762.5 1000 Q710 1091 633 1153 L506 1020 L393 1126 L496 1233 Q445 1253 389.5 1264 Q334 1275 274 1278 L274 1458 Q378 1455 466.5 1434 Q555 1413 631 1376 L750 1499 L862 1391 Z M578 733 Q521 733 473 713 Q425 693 389.5 656 Q354 619 334.5 567.5 Q315 516 315 453 Q315 394 335.5 343 Q356 292 392 255 Q428 218 476 197 Q524 176 580 176 Q636 176 684.5 197 Q733 218 769 255 Q805 292 825.5 342 Q846 392 846 451 Q846 512 826 564 Q806 616 770 653.5 Q734 691 685 712 Q636 733 578 733 Z " />
<glyph glyph-name="Lslash" unicode="&#x141;" horiz-adv-x="1190" d="M184 0 L184 487 L41 379 L41 614 L184 723 L184 1434 L397 1434 L397 887 L666 1092 L666 856 L397 651 L397 205 L1098 205 L1098 0 L184 0 Z " />
<glyph glyph-name="lslash" unicode="&#x142;" horiz-adv-x="541" d="M164 0 L164 489 L41 395 L41 594 L164 688 L164 1378 L377 1479 L377 850 L500 944 L500 745 L377 651 L377 0 L164 0 Z " />
<glyph glyph-name="Scaron" unicode="&#x160;" horiz-adv-x="1237" d="M854 1108 Q841 1139 818 1165.5 Q795 1192 762 1211.5 Q729 1231 686.5 1242 Q644 1253 592 1253 Q489 1253 431 1208 Q373 1163 373 1081 Q373 1030 405 994.5 Q437 959 489 932 Q541 905 607.5 882.5 Q674 860 743.5 833.5 Q813 807 879.5 772.5 Q946 738 998 688.5 Q1050 639 1082 569.5 Q1114 500 1114 403 Q1114 300 1076.5 220.5 Q1039 141 973 86.5 Q907 32 817.5 3.5 Q728 -25 625 -25 Q529 -25 445.5 -0.5 Q362 24 294.5 69.5 Q227 115 178 179.5 Q129 244 102 324 L303 397 Q325 349 357.5 309 Q390 269 432 240.5 Q474 212 524.5 196 Q575 180 633 180 Q691 180 739 194 Q787 208 821 236 Q855 264 874 305.5 Q893 347 893 401 Q893 465 861 508.5 Q829 552 777 584 Q725 616 658.5 640 Q592 664 522.5 689 Q453 714 386.5 745 Q320 776 268 821 Q216 866 184 929 Q152 992 152 1083 Q152 1159 182.5 1227 Q213 1295 271 1346.5 Q329 1398 414 1428 Q499 1458 608 1458 Q699 1458 773 1436.5 Q847 1415 902.5 1377 Q958 1339 995 1287 Q1032 1235 1051 1174 L854 1108 Z M715 1569 L500 1569 L211 1888 L416 1888 L609 1726 L801 1888 L1006 1888 L715 1569 Z " />
<glyph glyph-name="scaron" unicode="&#x161;" horiz-adv-x="973" d="M477 -25 Q415 -25 356 -13 Q297 -1 245.5 21 Q194 43 152 74.5 Q110 106 82 145 L233 274 Q249 259 272 240.5 Q295 222 325 206 Q355 190 392 179 Q429 168 473 168 Q513 168 547 174 Q581 180 605.5 193 Q630 206 643.5 227.5 Q657 249 657 281 Q657 318 631.5 344.5 Q606 371 565 392.5 Q524 414 472 433.5 Q420 453 367 475 Q318 496 271 521 Q224 546 187.5 581 Q151 616 128.5 664.5 Q106 713 106 782 Q106 852 134.5 906 Q163 960 212.5 996.5 Q262 1033 328.5 1052 Q395 1071 471 1071 Q538 1071 594.5 1058 Q651 1045 696.5 1023 Q742 1001 777 972.5 Q812 944 838 913 L684 791 Q670 805 650.5 820.5 Q631 836 605 849 Q579 862 546 870.5 Q513 879 471 879 Q403 879 363.5 854 Q324 829 324 782 Q324 752 345 729.5 Q366 707 402 688 Q438 669 484.5 651.5 Q531 634 582 614 Q636 593 688 567 Q740 541 780.5 503 Q821 465 845.5 411 Q870 357 870 281 Q870 206 842 148.5 Q814 91 762.5 52.5 Q711 14 638.5 -5.5 Q566 -25 477 -25 Z M582 1180 L367 1180 L78 1499 L283 1499 L476 1337 L668 1499 L873 1499 L582 1180 Z " />
<glyph glyph-name="Yacute" unicode="&#xdd;" horiz-adv-x="1364" d="M575 0 L575 561 L72 1434 L315 1434 L682 778 L1049 1434 L1292 1434 L788 563 L788 0 L575 0 Z M682 1569 L465 1569 L755 1888 L1046 1888 L682 1569 Z " />
<glyph glyph-name="yacute" unicode="&#xfd;" horiz-adv-x="1102" d="M498 -397 L281 -397 L442 18 L51 1047 L262 1047 L520 362 Q531 333 537 314 Q543 295 549 270 Q555 295 561 314 Q567 333 578 362 L838 1047 L1051 1047 L498 -397 Z M508 1180 L291 1180 L581 1499 L872 1499 L508 1180 Z " />
<glyph glyph-name="Thorn" unicode="&#xde;" horiz-adv-x="1315" d="M184 0 L184 1434 L397 1434 L397 1167 L760 1167 Q892 1167 982.5 1129 Q1073 1091 1128.5 1029 Q1184 967 1208.5 888.5 Q1233 810 1233 729 Q1233 654 1207 576 Q1181 498 1124 434.5 Q1067 371 977 331 Q887 291 760 291 L397 291 L397 0 L184 0 Z M772 496 Q839 496 884.5 517 Q930 538 958.5 571 Q987 604 999.5 645.5 Q1012 687 1012 729 Q1012 766 1001 807.5 Q990 849 963 883.5 Q936 918 889.5 940.5 Q843 963 772 963 L397 963 L397 496 L772 496 Z " />
<glyph glyph-name="thorn" unicode="&#xfe;" horiz-adv-x="1151" d="M618 -25 Q572 -25 534.5 -16 Q497 -7 466 9 Q435 25 410.5 45.5 Q386 66 367 90 L367 -313 L154 -412 L154 1358 L367 1458 L367 963 Q408 1009 468 1040 Q528 1071 618 1071 Q717 1071 797 1033.5 Q877 996 933 925.5 Q989 855 1019 753 Q1049 651 1049 522 Q1049 393 1017.5 291.5 Q986 190 929.5 119.5 Q873 49 793.5 12 Q714 -25 618 -25 Z M588 176 Q709 176 772.5 265 Q836 354 836 522 Q836 598 819.5 662 Q803 726 771 772 Q739 818 693 844 Q647 870 588 870 Q513 870 457.5 839.5 Q402 809 367 752 L367 297 Q385 273 407.5 251 Q430 229 457.5 212.5 Q485 196 517.5 186 Q550 176 588 176 Z " />
<glyph glyph-name="Zcaron" unicode="&#x17d;" horiz-adv-x="1356" d="M113 0 L113 172 L940 1229 L160 1229 L160 1434 L1223 1434 L1223 1262 L393 205 L1223 205 L1223 0 L113 0 Z M799 1569 L584 1569 L295 1888 L500 1888 L693 1726 L885 1888 L1090 1888 L799 1569 Z " />
<glyph glyph-name="zcaron" unicode="&#x17e;" horiz-adv-x="1047" d="M113 0 L113 174 L668 858 L154 858 L154 1047 L924 1047 L924 879 L369 188 L922 188 L922 0 L113 0 Z M635 1180 L420 1180 L131 1499 L336 1499 L529 1337 L721 1499 L926 1499 L635 1180 Z " />
<glyph glyph-name="onehalf" unicode="&#xbd;" horiz-adv-x="1495" d="M20 -25 L999 1458 L1194 1458 L215 -25 L20 -25 Z M143 580 L143 1264 L30 1264 L30 1389 Q62 1389 85.5 1392 Q109 1395 126 1402 Q143 1409 155 1419 Q167 1429 176 1444 L311 1444 L311 580 L143 580 Z M815 0 Q815 92 839 167.5 Q863 243 904.5 303 Q946 363 1000.5 408 Q1055 453 1116 485 Q1141 498 1163 511 Q1185 524 1202 539.5 Q1219 555 1229 574 Q1239 593 1239 618 Q1239 659 1209 689 Q1179 719 1122 719 Q1064 719 1027.5 684 Q991 649 979 586 L813 625 Q824 679 852 725.5 Q880 772 920.5 806 Q961 840 1012.5 859.5 Q1064 879 1122 879 Q1191 879 1245.5 859 Q1300 839 1338 804 Q1376 769 1396.5 720.5 Q1417 672 1417 614 Q1417 557 1399 516.5 Q1381 476 1349.5 445 Q1318 414 1275.5 388.5 Q1233 363 1184 338 Q1113 301 1074.5 255 Q1036 209 1014 160 L1415 160 L1415 0 L815 0 Z " />
<glyph glyph-name="onequarter" unicode="&#xbc;" horiz-adv-x="1405" d="M20 -25 L999 1458 L1194 1458 L215 -25 L20 -25 Z M143 580 L143 1264 L30 1264 L30 1389 Q62 1389 85.5 1392 Q109 1395 126 1402 Q143 1409 155 1419 Q167 1429 176 1444 L311 1444 L311 580 L143 580 Z M1084 0 L1084 176 L649 176 L649 285 L1090 866 L1247 866 L1247 334 L1358 334 L1358 176 L1247 176 L1247 0 L1084 0 Z M1084 334 L1084 625 L860 334 L1084 334 Z " />
<glyph glyph-name="onesuperior" unicode="&#xb9;" horiz-adv-x="410" d="M133 909 L133 1593 L20 1593 L20 1718 Q52 1718 75.5 1721.5 Q99 1725 116 1731.5 Q133 1738 145 1748.5 Q157 1759 166 1774 L301 1774 L301 909 L133 909 Z " />
<glyph glyph-name="threequarters" unicode="&#xbe;" horiz-adv-x="1651" d="M266 -25 L1245 1458 L1440 1458 L461 -25 L266 -25 Z M338 563 Q219 563 139 629.5 Q59 696 25 815 L193 860 Q210 788 253 755.5 Q296 723 344 723 Q397 723 432 751.5 Q467 780 467 834 Q467 855 459.5 875 Q452 895 436 910.5 Q420 926 395 935 Q370 944 336 944 L272 944 L272 1104 L334 1104 Q388 1104 412 1132 Q436 1160 436 1200 Q436 1242 411 1270 Q386 1298 338 1298 Q290 1298 262.5 1270.5 Q235 1243 219 1198 L55 1257 Q92 1348 165.5 1403 Q239 1458 342 1458 Q406 1458 456 1438 Q506 1418 540.5 1383.5 Q575 1349 593.5 1304 Q612 1259 612 1208 Q612 1156 584.5 1107.5 Q557 1059 512 1030 Q574 1002 608.5 948 Q643 894 643 831 Q643 770 620.5 720.5 Q598 671 558 636 Q518 601 461.5 582 Q405 563 338 563 Z M1330 0 L1330 176 L895 176 L895 285 L1336 866 L1493 866 L1493 334 L1604 334 L1604 176 L1493 176 L1493 0 L1330 0 Z M1330 334 L1330 625 L1106 334 L1330 334 Z " />
<glyph glyph-name="threesuperior" unicode="&#xb3;" horiz-adv-x="711" d="M338 893 Q219 893 139 959.5 Q59 1026 25 1145 L193 1190 Q210 1118 253 1085.5 Q296 1053 344 1053 Q397 1053 432 1081 Q467 1109 467 1163 Q467 1185 459.5 1205 Q452 1225 436 1240.5 Q420 1256 395 1265 Q370 1274 336 1274 L272 1274 L272 1434 L334 1434 Q388 1434 412 1462 Q436 1490 436 1530 Q436 1572 411 1600 Q386 1628 338 1628 Q290 1628 262.5 1600.5 Q235 1573 219 1528 L55 1587 Q92 1678 165.5 1733 Q239 1788 342 1788 Q406 1788 456 1768 Q506 1748 540.5 1713.5 Q575 1679 593.5 1634 Q612 1589 612 1538 Q612 1485 584.5 1437 Q557 1389 512 1360 Q574 1332 608.5 1278 Q643 1224 643 1161 Q643 1099 620.5 1049.5 Q598 1000 558 965.5 Q518 931 461.5 912 Q405 893 338 893 Z " />
<glyph glyph-name="twosuperior" unicode="&#xb2;" horiz-adv-x="731" d="M51 909 Q51 1001 75 1077 Q99 1153 140.5 1213 Q182 1273 236.5 1318 Q291 1363 352 1395 Q377 1408 399 1421 Q421 1434 438 1449 Q455 1464 465 1483 Q475 1502 475 1528 Q475 1568 445 1598 Q415 1628 358 1628 Q300 1628 263.5 1593 Q227 1558 215 1495 L49 1534 Q60 1588 88 1634.5 Q116 1681 156.5 1715 Q197 1749 248.5 1768.5 Q300 1788 358 1788 Q427 1788 481.5 1768.5 Q536 1749 574 1713.5 Q612 1678 632.5 1629.5 Q653 1581 653 1524 Q653 1467 635 1426 Q617 1385 585.5 1354 Q554 1323 511.5 1297.5 Q469 1272 420 1247 Q349 1210 310.5 1164.5 Q272 1119 250 1069 L651 1069 L651 909 L51 909 Z " />
<glyph glyph-name="brokenbar" unicode="&#xa6;" horiz-adv-x="561" d="M174 778 L174 1475 L387 1475 L387 778 L174 778 Z M174 -246 L174 451 L387 451 L387 -246 L174 -246 Z " />
<glyph glyph-name="minus" unicode="&#x2212;" horiz-adv-x="1290" d="M164 600 L164 805 L1126 805 L1126 600 L164 600 Z " />
<glyph glyph-name="multiply" unicode="&#xd7;" horiz-adv-x="1290" d="M647 553 L324 227 L170 381 L496 705 L172 1028 L319 1176 L643 852 L967 1178 L1120 1024 L795 700 L1118 377 L971 229 L647 553 Z " />
<glyph glyph-name="space" unicode="&#x20;" horiz-adv-x="471" d="" />
<glyph glyph-name="exclam" unicode="&#x21;" horiz-adv-x="565" d="M236 395 L176 1004 L176 1458 L389 1458 L389 1004 L330 395 L236 395 Z M283 -25 Q250 -25 222 -13 Q194 -1 173 19.5 Q152 40 140.5 67 Q129 94 129 125 Q129 156 140.5 183.5 Q152 211 173 231.5 Q194 252 222 264 Q250 276 283 276 Q315 276 343.5 264 Q372 252 393 231.5 Q414 211 426 183.5 Q438 156 438 125 Q438 94 426 67 Q414 40 393 19.5 Q372 -1 343.5 -13 Q315 -25 283 -25 Z " />
<glyph glyph-name="quotedbl" unicode="&#x22;" horiz-adv-x="860" d="M92 1434 L358 1434 L315 860 L135 860 L92 1434 Z M502 1434 L768 1434 L725 860 L545 860 L502 1434 Z " />
<glyph glyph-name="numbersign" unicode="&#x23;" horiz-adv-x="1393" d="M260 0 L319 387 L86 387 L113 563 L346 563 L397 901 L164 901 L190 1077 L424 1077 L479 1434 L662 1434 L606 1077 L891 1077 L946 1434 L1128 1434 L1073 1077 L1307 1077 L1280 901 L1047 901 L995 563 L1229 563 L1202 387 L969 387 L909 0 L727 0 L786 387 L502 387 L442 0 L260 0 Z M528 563 L813 563 L864 901 L580 901 L528 563 Z " />
<glyph glyph-name="dollar" unicode="&#x24;" horiz-adv-x="1196" d="M813 1108 Q801 1139 779.5 1165.5 Q758 1192 728 1211.5 Q698 1231 659.5 1242 Q621 1253 573 1253 Q479 1253 426 1208 Q373 1163 373 1081 Q373 1030 403 994.5 Q433 959 482.5 932 Q532 905 594.5 882.5 Q657 860 723 833.5 Q789 807 851.5 772.5 Q914 738 963.5 688.5 Q1013 639 1043 569.5 Q1073 500 1073 403 Q1073 313 1044.5 241.5 Q1016 170 966 117 Q916 64 848 30.5 Q780 -3 702 -16 L702 -201 L489 -201 L489 -14 Q347 12 246.5 100.5 Q146 189 102 324 L303 397 Q324 349 354 309 Q384 269 423 240.5 Q462 212 509 196 Q556 180 610 180 Q665 180 709.5 194 Q754 208 785.5 236 Q817 264 834.5 305.5 Q852 347 852 401 Q852 465 822 508.5 Q792 552 742.5 584 Q693 616 630.5 640 Q568 664 502 689 Q436 714 373.5 745 Q311 776 261.5 821 Q212 866 182 929 Q152 992 152 1083 Q152 1149 174 1209.5 Q196 1270 239 1319 Q282 1368 345 1402 Q408 1436 489 1450 L489 1616 L702 1616 L702 1448 Q763 1436 813.5 1410.5 Q864 1385 903 1349.5 Q942 1314 968.5 1269.5 Q995 1225 1010 1174 L813 1108 Z " />
<glyph glyph-name="percent" unicode="&#x25;" horiz-adv-x="1743" d="M428 729 Q336 729 272 762 Q208 795 168 847 Q128 899 110 964 Q92 1029 92 1094 Q92 1154 109.5 1218 Q127 1282 167 1335.5 Q207 1389 271 1423.5 Q335 1458 428 1458 Q520 1458 584 1425.5 Q648 1393 688 1340.5 Q728 1288 746 1223 Q764 1158 764 1094 Q764 1035 747 970.5 Q730 906 690.5 852.5 Q651 799 586.5 764 Q522 729 428 729 Z M428 893 Q470 893 501 909 Q532 925 552.5 952.5 Q573 980 582.5 1016.5 Q592 1053 592 1094 Q592 1137 582 1174 Q572 1211 551.5 1237.5 Q531 1264 500.5 1279 Q470 1294 428 1294 Q386 1294 355 1278 Q324 1262 303.5 1235 Q283 1208 273.5 1171.5 Q264 1135 264 1094 Q264 1050 274 1013 Q284 976 304.5 949.5 Q325 923 355.5 908 Q386 893 428 893 Z M479 -25 L285 -25 L1264 1458 L1458 1458 L479 -25 Z M1315 -25 Q1223 -25 1159 8 Q1095 41 1055 93 Q1015 145 997 210 Q979 275 979 340 Q979 400 996.5 464.5 Q1014 529 1054 582.5 Q1094 636 1158 670.5 Q1222 705 1315 705 Q1407 705 1471 672 Q1535 639 1575 587 Q1615 535 1633 469.5 Q1651 404 1651 340 Q1651 281 1634 216.5 Q1617 152 1577.5 98.5 Q1538 45 1473.5 10 Q1409 -25 1315 -25 Z M1315 139 Q1357 139 1388 155 Q1419 171 1439 198.5 Q1459 226 1469 262.5 Q1479 299 1479 340 Q1479 384 1469 421 Q1459 458 1438.5 484.5 Q1418 511 1387 526 Q1356 541 1315 541 Q1273 541 1242 525 Q1211 509 1190.5 482 Q1170 455 1160.5 418.5 Q1151 382 1151 340 Q1151 296 1161 259 Q1171 222 1191.5 195.5 Q1212 169 1242.5 154 Q1273 139 1315 139 Z " />
<glyph glyph-name="ampersand" unicode="&#x26;" horiz-adv-x="1436" d="M1106 0 L983 152 Q899 71 791 23 Q683 -25 549 -25 Q455 -25 377 4 Q299 33 242.5 85.5 Q186 138 154.5 212.5 Q123 287 123 379 Q123 464 150 530 Q177 596 221.5 647.5 Q266 699 323.5 739.5 Q381 780 442 815 Q405 861 377.5 900 Q350 939 331.5 976.5 Q313 1014 304 1052 Q295 1090 295 1135 Q295 1211 322.5 1271 Q350 1331 397.5 1372.5 Q445 1414 509 1436 Q573 1458 647 1458 Q721 1458 784 1433.5 Q847 1409 893.5 1365.5 Q940 1322 966.5 1262 Q993 1202 993 1130 Q993 1065 973 1012.5 Q953 960 919 917.5 Q885 875 840 840 Q795 805 745 774 L971 504 Q989 547 999.5 598 Q1010 649 1010 694 L1217 694 Q1215 604 1189.5 509 Q1164 414 1116 328 L1389 0 L1106 0 Z M578 176 Q661 176 730.5 213 Q800 250 854 309 L565 666 Q520 639 481.5 610 Q443 581 414 547.5 Q385 514 368.5 475 Q352 436 352 389 Q352 341 368 302 Q384 263 413.5 235 Q443 207 484.5 191.5 Q526 176 578 176 Z M500 1137 Q500 1111 510.5 1084 Q521 1057 538.5 1030 Q556 1003 579 975 Q602 947 627 918 Q661 939 690 961 Q719 983 741 1007.5 Q763 1032 775.5 1060.5 Q788 1089 788 1122 Q788 1158 776.5 1185.5 Q765 1213 744.5 1231.5 Q724 1250 697.5 1260 Q671 1270 641 1270 Q610 1270 584 1260.5 Q558 1251 539.5 1233.5 Q521 1216 510.5 1191.5 Q500 1167 500 1137 Z " />
<glyph glyph-name="quotesingle" unicode="&#x27;" horiz-adv-x="451" d="M92 1434 L358 1434 L315 860 L135 860 L92 1434 Z " />
<glyph glyph-name="parenleft" unicode="&#x28;" horiz-adv-x="707" d="M393 -266 Q346 -205 301 -123 Q256 -41 221 64 Q186 169 164.5 298 Q143 427 143 582 Q143 737 166.5 870 Q190 1003 228 1113.5 Q266 1224 315.5 1310 Q365 1396 416 1458 L625 1458 Q604 1434 576.5 1390 Q549 1346 519 1286 Q489 1226 460 1150 Q431 1074 407.5 985 Q384 896 370 794.5 Q356 693 356 582 Q356 414 384.5 274.5 Q413 135 452.5 27 Q492 -81 534 -155 Q576 -229 602 -266 L393 -266 Z " />
<glyph glyph-name="parenright" unicode="&#x29;" horiz-adv-x="707" d="M104 -266 Q130 -229 172 -155 Q214 -81 253.5 27 Q293 135 321.5 274.5 Q350 414 350 582 Q350 693 336 794.5 Q322 896 299 985 Q276 1074 247 1150 Q218 1226 188 1286 Q158 1346 130 1389.5 Q102 1433 82 1458 L291 1458 Q342 1396 391 1310 Q440 1224 478.5 1113.5 Q517 1003 540 870 Q563 737 563 582 Q563 427 541.5 298 Q520 169 485 64 Q450 -41 405 -123 Q360 -205 313 -266 L104 -266 Z " />
<glyph glyph-name="asterisk" unicode="&#x2a;" horiz-adv-x="1085" d="M590 791 L543 932 L496 791 L354 600 L201 713 L340 903 L455 989 L313 989 L102 1059 L162 1241 L373 1174 L485 1094 L446 1227 L446 1458 L639 1458 L639 1227 L598 1092 L713 1174 L924 1241 L983 1059 L772 989 L629 989 L745 903 L885 713 L731 600 L590 791 Z " />
<glyph glyph-name="plus" unicode="&#x2b;" horiz-adv-x="1290" d="M752 600 L752 221 L539 221 L539 600 L164 600 L164 805 L539 805 L539 1184 L752 1184 L752 805 L1126 805 L1126 600 L752 600 Z " />
<glyph glyph-name="comma" unicode="&#x2c;" horiz-adv-x="457" d="M84 -238 Q98 -226 117.5 -203.5 Q137 -181 156 -152.5 Q175 -124 189.5 -91.5 Q204 -59 209 -25 Q182 -22 157 -11 Q132 0 113.5 19 Q95 38 83.5 63 Q72 88 72 119 Q72 154 84.5 182.5 Q97 211 117.5 231.5 Q138 252 165.5 263 Q193 274 223 274 Q255 274 284.5 262.5 Q314 251 336.5 228 Q359 205 372 170 Q385 135 385 88 Q385 29 367.5 -27 Q350 -83 320 -131.5 Q290 -180 249.5 -220.5 Q209 -261 164 -289 L84 -238 Z " />
<glyph glyph-name="hyphen" unicode="&#x2d;" horiz-adv-x="809" d="M154 506 L154 711 L655 711 L655 506 L154 506 Z " />
<glyph glyph-name="period" unicode="&#x2e;" horiz-adv-x="457" d="M227 -25 Q194 -25 166 -13 Q138 -1 117.5 19.5 Q97 40 85.5 67 Q74 94 74 125 Q74 156 85.5 183.5 Q97 211 117.5 231.5 Q138 252 166 264 Q194 276 227 276 Q259 276 287.5 264 Q316 252 337 231.5 Q358 211 370.5 183.5 Q383 156 383 125 Q383 94 370.5 67 Q358 40 337 19.5 Q316 -1 287.5 -13 Q259 -25 227 -25 Z " />
<glyph glyph-name="slash" unicode="&#x2f;" horiz-adv-x="1010" d="M-31 -266 L774 1458 L989 1458 L184 -266 L-31 -266 Z " />
<glyph glyph-name="zero" unicode="0" horiz-adv-x="1331" d="M666 -25 Q567 -25 490.5 5.5 Q414 36 357 88.5 Q300 141 261.5 212.5 Q223 284 199 366.5 Q175 449 164.5 538.5 Q154 628 154 717 Q154 799 163.5 886 Q173 973 196.5 1055.5 Q220 1138 258 1211 Q296 1284 353 1339 Q410 1394 487 1426 Q564 1458 666 1458 Q765 1458 841 1427.5 Q917 1397 974 1344.5 Q1031 1292 1070 1220.5 Q1109 1149 1133 1066.5 Q1157 984 1167.5 894.5 Q1178 805 1178 717 Q1178 635 1168 547.5 Q1158 460 1135 378 Q1112 296 1074 222.5 Q1036 149 979 94 Q922 39 844.5 7 Q767 -25 666 -25 Z M666 180 Q725 180 769 202.5 Q813 225 845.5 264 Q878 303 899 355 Q920 407 933 466.5 Q946 526 951 590 Q956 654 956 717 Q956 817 943 913 Q930 1009 897 1084.5 Q864 1160 808 1206.5 Q752 1253 666 1253 Q607 1253 562.5 1230.5 Q518 1208 485.5 1169.5 Q453 1131 432 1079 Q411 1027 398 967.5 Q385 908 380 843.5 Q375 779 375 717 Q375 651 380.5 585 Q386 519 399 459.5 Q412 400 434 349 Q456 298 488.5 260.5 Q521 223 564.5 201.5 Q608 180 666 180 Z " />
<glyph glyph-name="one" unicode="1" horiz-adv-x="827" d="M307 0 L307 1112 L72 1112 L72 1270 Q124 1270 169 1278 Q214 1286 250.5 1305 Q287 1324 314 1355.5 Q341 1387 356 1434 L520 1434 L520 0 L307 0 Z " />
<glyph glyph-name="two" unicode="2" horiz-adv-x="1262" d="M156 1151 Q182 1219 228 1275.5 Q274 1332 337 1372.5 Q400 1413 477 1435.5 Q554 1458 641 1458 Q750 1458 837 1426.5 Q924 1395 984.5 1338.5 Q1045 1282 1077.5 1204 Q1110 1126 1110 1034 Q1110 943 1082.5 875 Q1055 807 1006 753.5 Q957 700 888.5 656.5 Q820 613 739 571 Q598 497 508.5 409.5 Q419 322 393 209 L1122 209 L1122 0 L133 0 Q133 147 176 265 Q219 383 291 476 Q363 569 456 639 Q549 709 649 760 Q695 784 738.5 811 Q782 838 815.5 871.5 Q849 905 869 946.5 Q889 988 889 1040 Q889 1085 870.5 1123.5 Q852 1162 819 1191 Q786 1220 740 1236.5 Q694 1253 639 1253 Q522 1253 453 1202 Q384 1151 350 1063 L156 1151 Z " />
<glyph glyph-name="three" unicode="3" horiz-adv-x="1239" d="M604 -25 Q509 -25 429.5 -1.5 Q350 22 287 65.5 Q224 109 177 169.5 Q130 230 100 305 L299 385 Q324 329 357.5 290 Q391 251 431 226.5 Q471 202 515 191 Q559 180 604 180 Q662 180 713 193.5 Q764 207 802 235.5 Q840 264 862.5 308 Q885 352 885 414 Q885 461 869.5 502.5 Q854 544 820.5 575.5 Q787 607 735 625 Q683 643 610 643 L500 643 L500 848 L610 848 Q660 848 700.5 862.5 Q741 877 770 902.5 Q799 928 815 963.5 Q831 999 831 1042 Q831 1142 773.5 1197.5 Q716 1253 604 1253 Q553 1253 513 1239.5 Q473 1226 442.5 1204 Q412 1182 389 1152.5 Q366 1123 350 1092 L152 1167 Q177 1232 219.5 1285.5 Q262 1339 319.5 1377.5 Q377 1416 450 1437 Q523 1458 610 1458 Q707 1458 788.5 1426.5 Q870 1395 929 1341 Q988 1287 1020.5 1215.5 Q1053 1144 1053 1063 Q1053 963 1007.5 881.5 Q962 800 868 752 Q922 730 966 698.5 Q1010 667 1041 626 Q1072 585 1089 534 Q1106 483 1106 422 Q1106 314 1068 230.5 Q1030 147 963 90 Q896 33 804 4 Q712 -25 604 -25 Z " />
<glyph glyph-name="four" unicode="4" horiz-adv-x="1325" d="M803 0 L803 326 L31 326 L31 463 L764 1434 L1016 1434 L1016 522 L1202 522 L1202 326 L1016 326 L1016 0 L803 0 Z M803 522 L803 1176 L313 522 L803 522 Z " />
<glyph glyph-name="five" unicode="5" horiz-adv-x="1241" d="M164 725 L213 1434 L1018 1434 L1018 1229 L412 1229 L381 864 Q426 896 496.5 919 Q567 942 655 942 Q770 942 855.5 903 Q941 864 997.5 799.5 Q1054 735 1082 652 Q1110 569 1110 481 Q1110 366 1069 272.5 Q1028 179 955.5 113 Q883 47 782 11 Q681 -25 561 -25 Q474 -25 404.5 -13 Q335 -1 280.5 18 Q226 37 187 60.5 Q148 84 123 106 L250 276 Q275 259 304 242 Q333 225 370 211 Q407 197 453.5 188.5 Q500 180 561 180 Q635 180 695.5 201.5 Q756 223 799 262 Q842 301 865.5 355.5 Q889 410 889 475 Q889 539 870 588 Q851 637 816 670 Q781 703 732.5 720 Q684 737 625 737 Q550 737 493.5 711 Q437 685 395 639 L164 725 Z " />
<glyph glyph-name="six" unicode="6" horiz-adv-x="1229" d="M631 -25 Q505 -25 411.5 17.5 Q318 60 256 135 Q194 210 163.5 311.5 Q133 413 133 530 Q133 709 179.5 863.5 Q226 1018 322.5 1138.5 Q419 1259 567 1341 Q715 1423 918 1458 L918 1253 Q829 1239 745.5 1206 Q662 1173 592 1117.5 Q522 1062 468.5 983 Q415 904 387 799 Q408 819 437 837.5 Q466 856 503.5 870 Q541 884 586 892.5 Q631 901 682 901 Q779 901 861 867.5 Q943 834 1001.5 772.5 Q1060 711 1093 625.5 Q1126 540 1126 436 Q1126 333 1090 248 Q1054 163 989 102.5 Q924 42 833 8.5 Q742 -25 631 -25 Z M631 180 Q691 180 741.5 197 Q792 214 828 247 Q864 280 884.5 327.5 Q905 375 905 436 Q905 498 884.5 546.5 Q864 595 828 628 Q792 661 741.5 678.5 Q691 696 631 696 Q571 696 520 678.5 Q469 661 432.5 628 Q396 595 375 546.5 Q354 498 354 436 Q354 375 375 327.5 Q396 280 432.5 247 Q469 214 520 197 Q571 180 631 180 Z " />
<glyph glyph-name="seven" unicode="7" horiz-adv-x="1100" d="M371 0 Q372 183 399 343.5 Q426 504 477.5 652 Q529 800 605 940.5 Q681 1081 782 1225 L51 1225 L51 1434 L1018 1434 L1018 1202 Q938 1109 875 1005.5 Q812 902 765 795 Q718 688 685 580 Q652 472 631.5 369.5 Q611 267 601.5 173 Q592 79 592 0 L371 0 Z " />
<glyph glyph-name="eight" unicode="8" horiz-adv-x="1260" d="M629 -25 Q518 -25 426.5 8 Q335 41 269.5 100.5 Q204 160 168.5 241.5 Q133 323 133 420 Q133 486 150.5 541.5 Q168 597 199.5 642 Q231 687 275.5 722.5 Q320 758 373 784 Q288 832 241.5 905 Q195 978 195 1083 Q195 1163 226 1231.5 Q257 1300 314 1350.5 Q371 1401 451 1429.5 Q531 1458 629 1458 Q727 1458 807.5 1429.5 Q888 1401 945 1350.5 Q1002 1300 1033.5 1231.5 Q1065 1163 1065 1083 Q1065 980 1018 907 Q971 834 885 784 Q939 758 983 722.5 Q1027 687 1059 642 Q1091 597 1108.5 541.5 Q1126 486 1126 420 Q1126 323 1090 241.5 Q1054 160 989 100.5 Q924 41 832 8 Q740 -25 629 -25 Z M629 180 Q689 180 739.5 198 Q790 216 826.5 248.5 Q863 281 884 326.5 Q905 372 905 426 Q905 478 884 524.5 Q863 571 826.5 605.5 Q790 640 739.5 660 Q689 680 629 680 Q568 680 517.5 660 Q467 640 430.5 605.5 Q394 571 374 524.5 Q354 478 354 426 Q354 372 374 326.5 Q394 281 430.5 248.5 Q467 216 517.5 198 Q568 180 629 180 Z M629 885 Q677 885 717.5 899.5 Q758 914 787 939.5 Q816 965 832 999 Q848 1033 848 1071 Q848 1113 832 1146.5 Q816 1180 787 1203.5 Q758 1227 717.5 1240 Q677 1253 629 1253 Q581 1253 541 1240 Q501 1227 472.5 1203.5 Q444 1180 428 1146.5 Q412 1113 412 1071 Q412 1033 428 999 Q444 965 472.5 939.5 Q501 914 541 899.5 Q581 885 629 885 Z " />
<glyph glyph-name="nine" unicode="9" horiz-adv-x="1229" d="M352 193 Q434 197 513 219.5 Q592 242 659 292 Q726 342 775.5 425.5 Q825 509 848 637 Q832 619 805.5 600 Q779 581 743 566 Q707 551 661.5 541.5 Q616 532 563 532 Q463 532 378.5 565 Q294 598 232.5 658.5 Q171 719 136.5 805 Q102 891 102 997 Q102 1100 138.5 1185 Q175 1270 240.5 1330.5 Q306 1391 397.5 1424.5 Q489 1458 600 1458 Q729 1458 822.5 1415.5 Q916 1373 977 1299 Q1038 1225 1067 1123 Q1096 1021 1096 903 Q1096 702 1051 535.5 Q1006 369 914.5 247.5 Q823 126 682.5 55 Q542 -16 352 -25 L352 193 Z M598 750 Q659 750 709.5 767 Q760 784 795.5 816.5 Q831 849 850.5 895 Q870 941 870 999 Q870 1054 850 1099 Q830 1144 794 1175.5 Q758 1207 708.5 1224 Q659 1241 600 1241 Q540 1241 490 1224 Q440 1207 404 1175.5 Q368 1144 348 1098.5 Q328 1053 328 997 Q328 938 347 892 Q366 846 401.5 814.5 Q437 783 486.5 766.5 Q536 750 598 750 Z " />
<glyph glyph-name="colon" unicode="&#x3a;" horiz-adv-x="457" d="M227 690 Q194 690 166 702 Q138 714 117.5 734.5 Q97 755 85.5 782 Q74 809 74 840 Q74 871 85.5 898.5 Q97 926 117.5 946.5 Q138 967 166 979 Q194 991 227 991 Q259 991 287.5 979 Q316 967 337 946.5 Q358 926 370.5 898.5 Q383 871 383 840 Q383 809 370.5 782 Q358 755 337 734.5 Q316 714 287.5 702 Q259 690 227 690 Z M227 -25 Q194 -25 166 -13 Q138 -1 117.5 19.5 Q97 40 85.5 67 Q74 94 74 125 Q74 156 85.5 183.5 Q97 211 117.5 231.5 Q138 252 166 264 Q194 276 227 276 Q259 276 287.5 264 Q316 252 337 231.5 Q358 211 370.5 183.5 Q383 156 383 125 Q383 94 370.5 67 Q358 40 337 19.5 Q316 -1 287.5 -13 Q259 -25 227 -25 Z " />
<glyph glyph-name="semicolon" unicode="&#x3b;" horiz-adv-x="457" d="M225 690 Q192 690 164 702 Q136 714 115.5 734.5 Q95 755 83.5 782 Q72 809 72 840 Q72 871 83.5 898.5 Q95 926 115.5 946.5 Q136 967 164 979 Q192 991 225 991 Q257 991 285.5 979 Q314 967 335 946.5 Q356 926 368.5 898.5 Q381 871 381 840 Q381 809 368.5 782 Q356 755 335 734.5 Q314 714 285.5 702 Q257 690 225 690 Z M84 -238 Q98 -226 117.5 -203.5 Q137 -181 156 -152.5 Q175 -124 189.5 -91.5 Q204 -59 209 -25 Q182 -22 157 -11 Q132 0 113.5 19 Q95 38 83.5 63 Q72 88 72 119 Q72 154 84.5 182.5 Q97 211 117.5 231.5 Q138 252 165.5 263 Q193 274 223 274 Q255 274 284.5 262.5 Q314 251 336.5 228 Q359 205 372 170 Q385 135 385 88 Q385 29 367.5 -27 Q350 -83 320 -131.5 Q290 -180 249.5 -220.5 Q209 -261 164 -289 L84 -238 Z " />
<glyph glyph-name="less" unicode="&#x3c;" horiz-adv-x="1290" d="M1126 221 L164 612 L164 793 L1126 1184 L1126 969 L455 702 L1126 436 L1126 221 Z " />
<glyph glyph-name="equal" unicode="&#x3d;" horiz-adv-x="1290" d="M164 401 L164 606 L1126 606 L1126 401 L164 401 Z M164 799 L164 1004 L1126 1004 L1126 799 L164 799 Z " />
<glyph glyph-name="greater" unicode="&#x3e;" horiz-adv-x="1290" d="M1126 612 L164 221 L164 436 L836 702 L164 969 L164 1184 L1126 793 L1126 612 Z " />
<glyph glyph-name="question" unicode="&#x3f;" horiz-adv-x="1026" d="M387 389 L387 430 Q387 503 402 558 Q417 613 442 655.5 Q467 698 499 731 Q531 764 564 792 Q597 820 629 846.5 Q661 873 686 903 Q711 933 726 969 Q741 1005 741 1053 Q741 1097 726.5 1134.5 Q712 1172 683.5 1199 Q655 1226 613 1241.5 Q571 1257 516 1257 Q391 1257 322.5 1184.5 Q254 1112 254 979 L41 979 Q41 1091 76 1180 Q111 1269 174 1330.5 Q237 1392 324.5 1425 Q412 1458 516 1458 Q623 1458 704.5 1427 Q786 1396 841.5 1341.5 Q897 1287 925.5 1213 Q954 1139 954 1053 Q954 969 928 911 Q902 853 862.5 808.5 Q823 764 777 727 Q731 690 691.5 648.5 Q652 607 626 555 Q600 503 600 428 L600 389 L387 389 Z M492 -25 Q459 -25 430.5 -13 Q402 -1 381.5 19.5 Q361 40 349.5 67 Q338 94 338 125 Q338 156 349.5 183.5 Q361 211 381.5 231.5 Q402 252 430.5 264 Q459 276 492 276 Q524 276 552.5 264 Q581 252 602 231.5 Q623 211 635 183.5 Q647 156 647 125 Q647 94 635 67 Q623 40 602 19.5 Q581 -1 552.5 -13 Q524 -25 492 -25 Z " />
<glyph glyph-name="at" unicode="&#x40;" horiz-adv-x="1677" d="M1069 -10 Q971 -25 852 -25 Q694 -25 560 22.5 Q426 70 329 161 Q232 252 177.5 385.5 Q123 519 123 690 Q123 803 149.5 903.5 Q176 1004 225 1089.5 Q274 1175 342 1243 Q410 1311 493.5 1359 Q577 1407 672.5 1432.5 Q768 1458 872 1458 Q1028 1458 1154 1409.5 Q1280 1361 1369 1277 Q1458 1193 1506 1081 Q1554 969 1554 842 Q1554 731 1522.5 637 Q1491 543 1437.5 475.5 Q1384 408 1314 370 Q1244 332 1167 332 Q1141 332 1116 340 Q1091 348 1071 363.5 Q1051 379 1036.5 401.5 Q1022 424 1018 453 Q976 387 915 355.5 Q854 324 778 324 Q712 324 657.5 349.5 Q603 375 564.5 421 Q526 467 504.5 531.5 Q483 596 483 674 Q483 751 509.5 827 Q536 903 585 963 Q634 1023 702 1060.5 Q770 1098 854 1098 Q922 1098 973.5 1070 Q1025 1042 1057 979 L1073 1071 L1255 1071 L1190 725 Q1178 659 1169.5 611 Q1161 563 1161 537 Q1161 508 1170 496.5 Q1179 485 1196 485 Q1230 485 1263 513 Q1296 541 1322.5 589.5 Q1349 638 1365.5 702.5 Q1382 767 1382 840 Q1382 934 1348 1016.5 Q1314 1099 1249.5 1159.5 Q1185 1220 1092 1255 Q999 1290 881 1290 Q755 1290 650 1243.5 Q545 1197 470 1116 Q395 1035 353 925 Q311 815 311 688 Q311 559 348.5 457.5 Q386 356 457 286.5 Q528 217 630 180 Q732 143 860 143 Q929 143 992 150.5 Q1055 158 1112 172 L1069 -10 Z M809 500 Q856 500 893 523 Q930 546 956 582 Q982 618 996 663 Q1010 708 1010 752 Q1010 829 974.5 875.5 Q939 922 870 922 Q826 922 789 902 Q752 882 725 847.5 Q698 813 683 768 Q668 723 668 672 Q668 594 705.5 547 Q743 500 809 500 Z " />
<glyph glyph-name="A" unicode="A" horiz-adv-x="1425" d="M1118 0 L1004 330 L424 330 L307 0 L86 0 L604 1434 L823 1434 L1339 0 L1118 0 Z M764 1006 Q752 1040 737.5 1085 Q723 1130 715 1167 Q705 1130 691.5 1085.5 Q678 1041 666 1006 L489 518 L938 518 L764 1006 Z " />
<glyph glyph-name="B" unicode="B" horiz-adv-x="1364" d="M184 1434 L727 1434 Q855 1434 942 1401.5 Q1029 1369 1082 1315.5 Q1135 1262 1157.5 1193 Q1180 1124 1180 1051 Q1180 961 1131 881.5 Q1082 802 983 754 Q1050 730 1097 693.5 Q1144 657 1174 613 Q1204 569 1217.5 519.5 Q1231 470 1231 420 Q1231 347 1206.5 272 Q1182 197 1126 136.5 Q1070 76 979.5 38 Q889 0 758 0 L184 0 L184 1434 Z M774 197 Q845 197 891.5 216 Q938 235 965 265.5 Q992 296 1003 334 Q1014 372 1014 410 Q1014 455 1001 497.5 Q988 540 954 572.5 Q920 605 861.5 625 Q803 645 713 645 L397 645 L397 197 L774 197 Z M692 842 Q759 842 810 856.5 Q861 871 895 897.5 Q929 924 946 960 Q963 996 963 1040 Q963 1075 954 1110 Q945 1145 919.5 1173.5 Q894 1202 849.5 1219.5 Q805 1237 733 1237 L397 1237 L397 842 L692 842 Z " />
<glyph glyph-name="C" unicode="C" horiz-adv-x="1331" d="M729 -25 Q618 -25 530.5 5.5 Q443 36 377 88.5 Q311 141 264.5 212.5 Q218 284 189 366.5 Q160 449 146.5 538.5 Q133 628 133 717 Q133 799 146.5 886 Q160 973 189.5 1055.5 Q219 1138 266 1211 Q313 1284 379 1339 Q445 1394 532 1426 Q619 1458 729 1458 Q830 1458 911 1433.5 Q992 1409 1052.5 1369 Q1113 1329 1154 1278 Q1195 1227 1217 1174 L1022 1083 Q996 1124 967.5 1155.5 Q939 1187 904.5 1209 Q870 1231 827 1242 Q784 1253 729 1253 Q657 1253 601.5 1230 Q546 1207 504.5 1167 Q463 1127 434 1074 Q405 1021 387.5 961.5 Q370 902 362 839 Q354 776 354 717 Q354 622 375.5 526 Q397 430 443 353 Q489 276 560 228 Q631 180 729 180 Q782 180 824.5 193.5 Q867 207 902.5 231.5 Q938 256 966.5 290 Q995 324 1020 365 L1219 289 Q1189 219 1144.5 161 Q1100 103 1039.5 62 Q979 21 901.5 -2 Q824 -25 729 -25 Z " />
<glyph glyph-name="D" unicode="D" horiz-adv-x="1403" d="M184 1434 L586 1434 Q711 1434 810 1405.5 Q909 1377 985 1327 Q1061 1277 1115 1208.5 Q1169 1140 1203.5 1060.5 Q1238 981 1254 893 Q1270 805 1270 717 Q1270 635 1255.5 549.5 Q1241 464 1207.5 384.5 Q1174 305 1121 235 Q1068 165 991 112.5 Q914 60 811.5 30 Q709 0 578 0 L184 0 L184 1434 Z M612 201 Q694 201 758.5 222.5 Q823 244 871.5 281 Q920 318 953.5 368 Q987 418 1008.5 475.5 Q1030 533 1039.5 594.5 Q1049 656 1049 717 Q1049 814 1025.5 906.5 Q1002 999 952 1071.5 Q902 1144 823.5 1188.5 Q745 1233 635 1233 L397 1233 L397 201 L612 201 Z " />
<glyph glyph-name="E" unicode="E" horiz-adv-x="1231" d="M184 0 L184 1434 L1073 1434 L1073 1233 L397 1233 L397 840 L834 840 L834 639 L397 639 L397 201 L1118 201 L1118 0 L184 0 Z " />
<glyph glyph-name="F" unicode="F" horiz-adv-x="1145" d="M184 0 L184 1434 L1073 1434 L1073 1233 L397 1233 L397 840 L834 840 L834 639 L397 639 L397 0 L184 0 Z " />
<glyph glyph-name="G" unicode="G" horiz-adv-x="1413" d="M758 -25 Q647 -25 558 4 Q469 33 399.5 84 Q330 135 279.5 205.5 Q229 276 196.5 358 Q164 440 148.5 531.5 Q133 623 133 717 Q133 804 149.5 893 Q166 982 200 1064.5 Q234 1147 285 1219 Q336 1291 405.5 1344 Q475 1397 563 1427.5 Q651 1458 758 1458 Q861 1458 937.5 1435.5 Q1014 1413 1072 1375 Q1130 1337 1172 1288 Q1214 1239 1247 1186 L1055 1075 Q1030 1110 1001.5 1141.5 Q973 1173 937 1197 Q901 1221 857 1235 Q813 1249 758 1249 Q680 1249 619.5 1226 Q559 1203 514.5 1163.5 Q470 1124 439 1071.5 Q408 1019 389.5 960 Q371 901 362.5 838.5 Q354 776 354 717 Q354 614 377 518 Q400 422 449 347.5 Q498 273 574.5 228.5 Q651 184 758 184 Q825 184 881 207.5 Q937 231 977 272 Q1017 313 1039 368 Q1061 423 1061 487 L1061 516 L803 516 L803 717 L1280 717 L1280 530 Q1280 395 1240 291.5 Q1200 188 1129.5 117.5 Q1059 47 964 11 Q869 -25 758 -25 Z " />
<glyph glyph-name="H" unicode="H" horiz-adv-x="1448" d="M1051 0 L1051 639 L397 639 L397 0 L184 0 L184 1434 L397 1434 L397 840 L1051 840 L1051 1434 L1264 1434 L1264 0 L1051 0 Z " />
<glyph glyph-name="I" unicode="I" horiz-adv-x="602" d="M195 0 L195 1434 L408 1434 L408 0 L195 0 Z " />
<glyph glyph-name="J" unicode="J" horiz-adv-x="1157" d="M506 -25 Q429 -25 360 -7.5 Q291 10 232.5 44 Q174 78 128 128.5 Q82 179 51 246 L236 336 Q274 255 343 217.5 Q412 180 506 180 Q557 180 604.5 193 Q652 206 688.5 242 Q725 278 747.5 342.5 Q770 407 770 510 L770 1434 L983 1434 L983 481 Q983 381 962.5 304.5 Q942 228 907.5 171.5 Q873 115 826 77.5 Q779 40 726 17 Q673 -6 616.5 -15.5 Q560 -25 506 -25 Z " />
<glyph glyph-name="K" unicode="K" horiz-adv-x="1386" d="M1055 0 L651 750 L397 442 L397 0 L184 0 L184 1434 L397 1434 L397 739 L950 1434 L1196 1434 L795 930 L1305 0 L1055 0 Z " />
<glyph glyph-name="L" unicode="L" horiz-adv-x="1190" d="M184 0 L184 1434 L397 1434 L397 205 L1098 205 L1098 0 L184 0 Z " />
<glyph glyph-name="M" unicode="M" horiz-adv-x="1647" d="M1249 0 L1249 784 L1255 999 L1171 778 L825 -25 L477 784 L391 999 L397 784 L397 0 L184 0 L184 1434 L399 1434 L784 539 L823 434 L864 539 L1247 1434 L1462 1434 L1462 0 L1249 0 Z " />
<glyph glyph-name="N" unicode="N" horiz-adv-x="1454" d="M1069 0 L449 973 L391 1079 L397 973 L397 0 L184 0 L184 1434 L399 1434 L1004 477 L1063 367 L1057 475 L1057 1434 L1270 1434 L1270 0 L1069 0 Z " />
<glyph glyph-name="O" unicode="O" horiz-adv-x="1516" d="M758 -25 Q643 -25 552 5.5 Q461 36 391.5 88.5 Q322 141 273 212.5 Q224 284 193 366.5 Q162 449 147.5 538.5 Q133 628 133 717 Q133 805 147.5 894.5 Q162 984 193 1066.5 Q224 1149 273 1220.5 Q322 1292 391.5 1344.5 Q461 1397 552 1427.5 Q643 1458 758 1458 Q873 1458 964 1427.5 Q1055 1397 1124.5 1344.5 Q1194 1292 1243 1220.5 Q1292 1149 1323 1066.5 Q1354 984 1368 894.5 Q1382 805 1382 717 Q1382 628 1368 538.5 Q1354 449 1323 366.5 Q1292 284 1243 212.5 Q1194 141 1124.5 88.5 Q1055 36 964 5.5 Q873 -25 758 -25 Z M758 180 Q833 180 892 203.5 Q951 227 995.5 267 Q1040 307 1071.5 360.5 Q1103 414 1123 473.5 Q1143 533 1152 595.5 Q1161 658 1161 717 Q1161 779 1152 843.5 Q1143 908 1123 967.5 Q1103 1027 1071.5 1079 Q1040 1131 995.5 1169.5 Q951 1208 892 1230.5 Q833 1253 758 1253 Q683 1253 624 1229.5 Q565 1206 520 1166 Q475 1126 443.5 1072.5 Q412 1019 392 959.5 Q372 900 363 837.5 Q354 775 354 717 Q354 623 375 527.5 Q396 432 444 354.5 Q492 277 569 228.5 Q646 180 758 180 Z " />
<glyph glyph-name="P" unicode="P" horiz-adv-x="1315" d="M184 0 L184 1434 L760 1434 Q892 1434 982.5 1395.5 Q1073 1357 1128.5 1295 Q1184 1233 1208.5 1154.5 Q1233 1076 1233 995 Q1233 945 1221.5 893 Q1210 841 1186 792.5 Q1162 744 1124 701 Q1086 658 1033.5 626 Q981 594 913 575.5 Q845 557 760 557 L397 557 L397 0 L184 0 Z M772 762 Q839 762 884.5 783 Q930 804 958.5 837.5 Q987 871 999.5 912.5 Q1012 954 1012 995 Q1012 1033 1001 1074 Q990 1115 963 1149.5 Q936 1184 889.5 1206.5 Q843 1229 772 1229 L397 1229 L397 762 L772 762 Z " />
<glyph glyph-name="Q" unicode="Q" horiz-adv-x="1516" d="M758 -25 Q643 -25 552 5.5 Q461 36 391.5 88.5 Q322 141 273 212.5 Q224 284 193 366.5 Q162 449 147.5 538.5 Q133 628 133 717 Q133 805 147.5 894.5 Q162 984 193 1066.5 Q224 1149 273 1220.5 Q322 1292 391.5 1344.5 Q461 1397 552 1427.5 Q643 1458 758 1458 Q873 1458 964 1427.5 Q1055 1397 1124.5 1344.5 Q1194 1292 1243 1220.5 Q1292 1149 1323 1066.5 Q1354 984 1368 894.5 Q1382 805 1382 717 Q1382 634 1369.5 550.5 Q1357 467 1330.5 388.5 Q1304 310 1261.5 240.5 Q1219 171 1159 117 L1255 -27 L1092 -137 L989 14 Q938 -4 881 -14.5 Q824 -25 758 -25 Z M758 180 Q787 180 814.5 183.5 Q842 187 866 195 L758 358 L926 469 L1032 307 Q1066 348 1090.5 397.5 Q1115 447 1131 500.5 Q1147 554 1154 609.5 Q1161 665 1161 717 Q1161 779 1152 843.5 Q1143 908 1123 967.5 Q1103 1027 1071.5 1079 Q1040 1131 995.5 1169.5 Q951 1208 892 1230.5 Q833 1253 758 1253 Q683 1253 624 1229.5 Q565 1206 520 1166 Q475 1126 443.5 1072.5 Q412 1019 392 959.5 Q372 900 363 837.5 Q354 775 354 717 Q354 623 375 527.5 Q396 432 444 354.5 Q492 277 569 228.5 Q646 180 758 180 Z " />
<glyph glyph-name="R" unicode="R" horiz-adv-x="1384" d="M184 0 L184 1434 L788 1434 Q920 1434 1009 1398 Q1098 1362 1152 1302.5 Q1206 1243 1228.5 1167 Q1251 1091 1251 1010 Q1251 948 1233 885 Q1215 822 1177.5 766.5 Q1140 711 1081 668.5 Q1022 626 940 604 L1235 0 L991 0 L709 586 L397 586 L397 0 L184 0 Z M793 791 Q860 791 905 809.5 Q950 828 978 859 Q1006 890 1018 929 Q1030 968 1030 1010 Q1030 1047 1019.5 1086 Q1009 1125 982 1157 Q955 1189 909 1209 Q863 1229 793 1229 L397 1229 L397 791 L793 791 Z " />
<glyph glyph-name="S" unicode="S" horiz-adv-x="1237" d="M854 1108 Q841 1139 818 1165.5 Q795 1192 762 1211.5 Q729 1231 686.5 1242 Q644 1253 592 1253 Q489 1253 431 1208 Q373 1163 373 1081 Q373 1030 405 994.5 Q437 959 489 932 Q541 905 607.5 882.5 Q674 860 743.5 833.5 Q813 807 879.5 772.5 Q946 738 998 688.5 Q1050 639 1082 569.5 Q1114 500 1114 403 Q1114 300 1076.5 220.5 Q1039 141 973 86.5 Q907 32 817.5 3.5 Q728 -25 625 -25 Q529 -25 445.5 -0.5 Q362 24 294.5 69.5 Q227 115 178 179.5 Q129 244 102 324 L303 397 Q325 349 357.5 309 Q390 269 432 240.5 Q474 212 524.5 196 Q575 180 633 180 Q691 180 739 194 Q787 208 821 236 Q855 264 874 305.5 Q893 347 893 401 Q893 465 861 508.5 Q829 552 777 584 Q725 616 658.5 640 Q592 664 522.5 689 Q453 714 386.5 745 Q320 776 268 821 Q216 866 184 929 Q152 992 152 1083 Q152 1159 182.5 1227 Q213 1295 271 1346.5 Q329 1398 414 1428 Q499 1458 608 1458 Q699 1458 773 1436.5 Q847 1415 902.5 1377 Q958 1339 995 1287 Q1032 1235 1051 1174 L854 1108 Z " />
<glyph glyph-name="T" unicode="T" horiz-adv-x="1208" d="M711 1229 L711 0 L498 0 L498 1229 L92 1229 L92 1434 L1116 1434 L1116 1229 L711 1229 Z " />
<glyph glyph-name="U" unicode="U" horiz-adv-x="1427" d="M713 -25 Q602 -25 503.5 4 Q405 33 332 99.5 Q259 166 216.5 274.5 Q174 383 174 543 L174 1434 L387 1434 L387 543 Q387 435 412 365 Q437 295 480.5 254 Q524 213 584 196.5 Q644 180 713 180 Q782 180 841.5 196.5 Q901 213 945.5 254 Q990 295 1015 365 Q1040 435 1040 543 L1040 1434 L1253 1434 L1253 543 Q1253 385 1212 276.5 Q1171 168 1098.5 101 Q1026 34 927 4.5 Q828 -25 713 -25 Z " />
<glyph glyph-name="V" unicode="V" horiz-adv-x="1358" d="M786 0 L573 0 L82 1434 L311 1434 L637 434 Q646 405 658.5 362.5 Q671 320 682 270 Q693 320 705.5 362.5 Q718 405 727 434 L1049 1434 L1276 1434 L786 0 Z " />
<glyph glyph-name="W" unicode="W" horiz-adv-x="1745" d="M1653 1434 L1343 0 L1151 0 L903 930 Q888 987 879.5 1022.5 Q871 1058 868 1085 Q865 1058 857 1022.5 Q849 987 834 930 L592 0 L399 0 L92 1434 L311 1434 L489 551 Q502 489 509.5 451 Q517 413 520 385 Q523 413 532.5 450.5 Q542 488 557 551 L782 1434 L961 1434 L1192 553 Q1209 491 1217.5 454 Q1226 417 1229 389 Q1232 417 1238.5 455 Q1245 493 1257 553 L1438 1434 L1653 1434 Z " />
<glyph glyph-name="X" unicode="X" horiz-adv-x="1331" d="M102 0 L543 741 L133 1434 L379 1434 L666 948 L952 1434 L1198 1434 L788 741 L1229 0 L983 0 L666 535 L348 0 L102 0 Z " />
<glyph glyph-name="Y" unicode="Y" horiz-adv-x="1364" d="M575 0 L575 561 L72 1434 L315 1434 L682 778 L1049 1434 L1292 1434 L788 563 L788 0 L575 0 Z " />
<glyph glyph-name="Z" unicode="Z" horiz-adv-x="1356" d="M113 0 L113 172 L940 1229 L160 1229 L160 1434 L1223 1434 L1223 1262 L393 205 L1223 205 L1223 0 L113 0 Z " />
<glyph glyph-name="bracketleft" unicode="&#x5b;" horiz-adv-x="762" d="M205 -266 L205 1458 L680 1458 L680 1257 L418 1257 L418 -66 L680 -66 L680 -266 L205 -266 Z " />
<glyph glyph-name="backslash" unicode="&#x5c;" horiz-adv-x="1010" d="M774 -266 L-31 1458 L184 1458 L989 -266 L774 -266 Z " />
<glyph glyph-name="bracketright" unicode="&#x5d;" horiz-adv-x="762" d="M557 -266 L82 -266 L82 -66 L344 -66 L344 1257 L82 1257 L82 1458 L557 1458 L557 -266 Z " />
<glyph glyph-name="asciicircum" unicode="&#x5e;" horiz-adv-x="1290" d="M928 717 L645 1188 L362 717 L143 717 L555 1458 L735 1458 L1147 717 L928 717 Z " />
<glyph glyph-name="underscore" unicode="&#x5f;" horiz-adv-x="1024" d="M-10 -362 L-10 -178 L1034 -178 L1034 -362 L-10 -362 Z " />
<glyph glyph-name="grave" unicode="&#x60;" horiz-adv-x="819" d="M451 1180 L86 1499 L377 1499 L668 1180 L451 1180 Z " />
<glyph glyph-name="a" unicode="a" horiz-adv-x="1090" d="M956 0 L752 0 L752 90 Q732 69 704 48.5 Q676 28 640.5 11.5 Q605 -5 561 -15 Q517 -25 465 -25 Q385 -25 317 -3 Q249 19 199 63.5 Q149 108 120.5 173.5 Q92 239 92 326 Q92 416 126 481.5 Q160 547 216 589.5 Q272 632 344.5 652 Q417 672 494 672 Q566 672 632.5 656.5 Q699 641 752 610 L752 668 Q752 727 738.5 768 Q725 809 697.5 834.5 Q670 860 628 871.5 Q586 883 528 883 Q430 883 358.5 857 Q287 831 229 788 L166 963 Q198 985 239 1004.5 Q280 1024 329 1039 Q378 1054 435 1062.5 Q492 1071 557 1071 Q601 1071 648 1066 Q695 1061 739.5 1046.5 Q784 1032 823.5 1005 Q863 978 892.5 934.5 Q922 891 939 828 Q956 765 956 678 L956 0 Z M504 164 Q585 164 647.5 197 Q710 230 752 276 L752 436 Q708 459 649 473 Q590 487 528 487 Q480 487 438 478 Q396 469 364.5 449.5 Q333 430 315 399.5 Q297 369 297 326 Q297 251 349.5 207.5 Q402 164 504 164 Z " />
<glyph glyph-name="b" unicode="b" horiz-adv-x="1151" d="M614 -25 Q569 -25 532.5 -16.5 Q496 -8 466 6.5 Q436 21 412 41 Q388 61 367 84 L367 0 L154 0 L154 1380 L367 1479 L367 967 Q407 1012 467.5 1041.5 Q528 1071 614 1071 Q710 1071 790 1034 Q870 997 927.5 926.5 Q985 856 1017 754.5 Q1049 653 1049 524 Q1049 391 1019 288.5 Q989 186 932.5 116.5 Q876 47 795.5 11 Q715 -25 614 -25 Z M588 176 Q649 176 695 200.5 Q741 225 772.5 270 Q804 315 820 379.5 Q836 444 836 524 Q836 693 772.5 781.5 Q709 870 588 870 Q547 870 512 859 Q477 848 448.5 831 Q420 814 399.5 793 Q379 772 367 752 L367 295 Q402 238 459.5 207 Q517 176 588 176 Z " />
<glyph glyph-name="c" unicode="c" horiz-adv-x="1061" d="M559 -25 Q454 -25 369.5 12 Q285 49 225.5 119.5 Q166 190 134 291.5 Q102 393 102 522 Q102 651 134 753 Q166 855 225.5 925.5 Q285 996 369.5 1033.5 Q454 1071 559 1071 Q705 1071 806.5 1006 Q908 941 954 801 L752 731 Q729 791 682 828.5 Q635 866 567 866 Q507 866 461 842 Q415 818 383.5 773.5 Q352 729 335.5 665.5 Q319 602 319 522 Q319 442 335.5 378.5 Q352 315 382.5 271 Q413 227 457.5 203.5 Q502 180 559 180 Q631 180 682.5 220 Q734 260 756 334 L958 270 Q916 124 815.5 49.5 Q715 -25 559 -25 Z " />
<glyph glyph-name="d" unicode="d" horiz-adv-x="1151" d="M537 -25 Q438 -25 357.5 12.5 Q277 50 220 120.5 Q163 191 132.5 293 Q102 395 102 524 Q102 653 134 754.5 Q166 856 223.5 926.5 Q281 997 361 1034 Q441 1071 537 1071 Q623 1071 683.5 1043 Q744 1015 784 973 L784 1380 L997 1479 L997 0 L784 0 L784 74 Q742 27 683.5 1 Q625 -25 537 -25 Z M567 176 Q639 176 694 207 Q749 238 784 295 L784 756 Q772 776 752 796 Q732 816 704.5 832.5 Q677 849 642.5 859.5 Q608 870 567 870 Q447 870 381 781.5 Q315 693 315 524 Q315 448 332.5 384.5 Q350 321 382.5 274.5 Q415 228 461.5 202 Q508 176 567 176 Z " />
<glyph glyph-name="e" unicode="e" horiz-adv-x="1120" d="M578 -25 Q469 -25 381 12.5 Q293 50 231 120.5 Q169 191 135.5 293 Q102 395 102 524 Q102 653 136 754.5 Q170 856 232.5 926.5 Q295 997 382.5 1034 Q470 1071 578 1071 Q671 1071 752.5 1041.5 Q834 1012 895.5 951.5 Q957 891 992.5 799 Q1028 707 1028 582 Q1028 548 1026.5 510 Q1025 472 1020 444 L315 444 Q316 379 338.5 327.5 Q361 276 398 239.5 Q435 203 482 183.5 Q529 164 580 164 Q645 164 700.5 191 Q756 218 797 270 L936 127 Q879 59 790 17 Q701 -25 578 -25 Z M578 883 Q528 883 482 868.5 Q436 854 400.5 822.5 Q365 791 342 740 Q319 689 315 616 L815 616 Q813 689 792 740 Q771 791 737 822.5 Q703 854 661.5 868.5 Q620 883 578 883 Z " />
<glyph glyph-name="f" unicode="f" horiz-adv-x="686" d="M440 862 L440 0 L227 0 L227 862 L72 862 L72 1047 L227 1047 L227 1214 Q227 1286 248 1333.5 Q269 1381 302.5 1408.5 Q336 1436 379 1447 Q422 1458 467 1458 Q529 1458 579 1445 Q629 1432 676 1409 L676 1233 Q628 1253 593 1261.5 Q558 1270 526 1270 Q500 1270 483.5 1263 Q467 1256 457 1243 Q447 1230 443.5 1213 Q440 1196 440 1176 L440 1047 L676 1047 L676 862 L440 862 Z " />
<glyph glyph-name="g" unicode="g" horiz-adv-x="1151" d="M397 -246 Q512 -239 587 -219 Q662 -199 706 -168.5 Q750 -138 767 -97 Q784 -56 784 -8 L784 84 Q697 -25 532 -25 Q442 -25 364 9.5 Q286 44 227.5 113 Q169 182 135.5 284.5 Q102 387 102 524 Q102 653 134 754.5 Q166 856 223.5 926.5 Q281 997 361 1034 Q441 1071 537 1071 Q583 1071 621 1062.5 Q659 1054 689.5 1040 Q720 1026 743.5 1008.5 Q767 991 784 973 L784 1047 L997 1047 L997 80 Q997 -40 973 -124 Q949 -208 891 -268 Q852 -308 805.5 -333.5 Q759 -359 708.5 -375 Q658 -391 606 -398.5 Q554 -406 504 -410 L397 -246 Z M571 176 Q636 176 692.5 208 Q749 240 784 299 L784 752 Q768 778 744.5 799.5 Q721 821 693.5 837 Q666 853 634.5 861.5 Q603 870 571 870 Q446 870 380.5 781.5 Q315 693 315 524 Q315 444 333 379.5 Q351 315 384 270 Q417 225 464.5 200.5 Q512 176 571 176 Z " />
<glyph glyph-name="h" unicode="h" horiz-adv-x="1157" d="M801 0 L801 625 Q801 691 785 737.5 Q769 784 741 813.5 Q713 843 675 856.5 Q637 870 592 870 Q544 870 503 857.5 Q462 845 432 817 Q402 789 384.5 742.5 Q367 696 367 629 L367 0 L154 0 L154 1380 L367 1479 L367 946 Q418 1011 484 1041 Q550 1071 637 1071 Q719 1071 788 1047.5 Q857 1024 907.5 971 Q958 918 986 833 Q1014 748 1014 625 L1014 0 L801 0 Z " />
<glyph glyph-name="i" unicode="i" horiz-adv-x="524" d="M156 0 L156 1047 L369 1047 L369 0 L156 0 Z M262 1210 Q235 1210 211.5 1220 Q188 1230 170.5 1247.5 Q153 1265 143 1288.5 Q133 1312 133 1339 Q133 1366 143 1389.5 Q153 1413 170.5 1430.5 Q188 1448 211.5 1458 Q235 1468 262 1468 Q289 1468 312.5 1458 Q336 1448 353.5 1430.5 Q371 1413 381 1389.5 Q391 1366 391 1339 Q391 1312 381 1288.5 Q371 1265 353.5 1247.5 Q336 1230 312.5 1220 Q289 1210 262 1210 Z " />
<glyph glyph-name="j" unicode="j" horiz-adv-x="524" d="M-129 -281 Q-48 -263 6.5 -241.5 Q61 -220 94 -190 Q127 -160 141.5 -119.5 Q156 -79 156 -23 L156 1047 L369 1047 L369 49 Q369 3 365 -42.5 Q361 -88 350 -131 Q339 -174 320 -212.5 Q301 -251 270 -283 Q234 -321 196 -347 Q158 -373 120 -390.5 Q82 -408 45 -419.5 Q8 -431 -27 -438 L-129 -281 Z M262 1210 Q235 1210 211.5 1220 Q188 1230 170.5 1247.5 Q153 1265 143 1288.5 Q133 1312 133 1339 Q133 1366 143 1389.5 Q153 1413 170.5 1430.5 Q188 1448 211.5 1458 Q235 1468 262 1468 Q289 1468 312.5 1458 Q336 1448 353.5 1430.5 Q371 1413 381 1389.5 Q391 1366 391 1339 Q391 1312 381 1288.5 Q371 1265 353.5 1247.5 Q336 1230 312.5 1220 Q289 1210 262 1210 Z " />
<glyph glyph-name="k" unicode="k" horiz-adv-x="1126" d="M154 0 L154 1378 L367 1479 L367 723 L676 1047 L938 1047 L651 756 L1044 0 L811 0 L502 602 L367 467 L367 0 L154 0 Z " />
<glyph glyph-name="l" unicode="l" horiz-adv-x="541" d="M164 0 L164 1378 L377 1479 L377 0 L164 0 Z " />
<glyph glyph-name="m" unicode="m" horiz-adv-x="1739" d="M1382 0 L1382 627 Q1382 744 1334 807 Q1286 870 1190 870 Q1147 870 1109 854 Q1071 838 1042.5 806 Q1014 774 997.5 726.5 Q981 679 981 616 L981 0 L768 0 L768 627 Q768 744 719.5 807 Q671 870 575 870 Q532 870 494.5 854 Q457 838 428.5 806 Q400 774 383.5 726.5 Q367 679 367 616 L367 0 L154 0 L154 1047 L367 1047 L367 950 Q412 1015 481 1043 Q550 1071 631 1071 Q717 1071 790.5 1036.5 Q864 1002 909 922 Q959 999 1037 1035 Q1115 1071 1219 1071 Q1299 1071 1367.5 1048 Q1436 1025 1486.5 977 Q1537 929 1566 854 Q1595 779 1595 676 L1595 0 L1382 0 Z " />
<glyph glyph-name="n" unicode="n" horiz-adv-x="1157" d="M801 0 L801 625 Q801 691 785 737.5 Q769 784 741 813.5 Q713 843 675 856.5 Q637 870 592 870 Q544 870 503 857.5 Q462 845 432 817 Q402 789 384.5 742.5 Q367 696 367 629 L367 0 L154 0 L154 1047 L367 1047 L367 946 Q418 1011 484 1041 Q550 1071 637 1071 Q719 1071 788 1047.5 Q857 1024 907.5 971 Q958 918 986 833 Q1014 748 1014 625 L1014 0 L801 0 Z " />
<glyph glyph-name="o" unicode="o" horiz-adv-x="1161" d="M580 -25 Q470 -25 381.5 12 Q293 49 231 119.5 Q169 190 135.5 291.5 Q102 393 102 522 Q102 651 135.5 753 Q169 855 231 925.5 Q293 996 381.5 1033.5 Q470 1071 580 1071 Q689 1071 778 1033.5 Q867 996 929 925.5 Q991 855 1025 753 Q1059 651 1059 522 Q1059 393 1025 291.5 Q991 190 929 119.5 Q867 49 778 12 Q689 -25 580 -25 Z M580 176 Q641 176 690.5 200 Q740 224 774.5 268.5 Q809 313 827.5 377 Q846 441 846 522 Q846 603 827.5 667.5 Q809 732 774.5 777 Q740 822 690.5 846 Q641 870 580 870 Q519 870 470 846 Q421 822 386.5 777 Q352 732 333.5 667.5 Q315 603 315 522 Q315 441 333.5 377 Q352 313 386.5 268.5 Q421 224 470 200 Q519 176 580 176 Z " />
<glyph glyph-name="p" unicode="p" horiz-adv-x="1151" d="M618 -25 Q572 -25 534.5 -16 Q497 -7 466 9 Q435 25 410.5 45.5 Q386 66 367 90 L367 -313 L154 -412 L154 1047 L367 1047 L367 963 Q408 1009 468 1040 Q528 1071 618 1071 Q717 1071 797 1033.5 Q877 996 933 925.5 Q989 855 1019 753 Q1049 651 1049 522 Q1049 393 1017.5 291.5 Q986 190 929.5 119.5 Q873 49 793.5 12 Q714 -25 618 -25 Z M588 176 Q709 176 772.5 265 Q836 354 836 522 Q836 598 819.5 662 Q803 726 771 772 Q739 818 693 844 Q647 870 588 870 Q513 870 457.5 839.5 Q402 809 367 752 L367 297 Q385 273 407.5 251 Q430 229 457.5 212.5 Q485 196 517.5 186 Q550 176 588 176 Z " />
<glyph glyph-name="q" unicode="q" horiz-adv-x="1151" d="M537 -25 Q441 -25 361 12 Q281 49 223.5 119.5 Q166 190 134 291.5 Q102 393 102 522 Q102 651 132.5 753 Q163 855 220 925.5 Q277 996 357.5 1033.5 Q438 1071 537 1071 Q624 1071 683.5 1040 Q743 1009 784 963 L784 1047 L997 1047 L997 -313 L784 -410 L784 90 Q742 39 682.5 7 Q623 -25 537 -25 Z M563 176 Q604 176 638 187.5 Q672 199 699.5 216.5 Q727 234 748 255.5 Q769 277 784 297 L784 752 Q747 812 690.5 841 Q634 870 563 870 Q504 870 458 844 Q412 818 380 772 Q348 726 331.5 662 Q315 598 315 522 Q315 354 378.5 265 Q442 176 563 176 Z " />
<glyph glyph-name="r" unicode="r" horiz-adv-x="827" d="M154 0 L154 1047 L367 1047 L367 920 Q404 1000 463 1035.5 Q522 1071 600 1071 Q704 1071 776 1008 L745 811 Q716 831 676.5 846.5 Q637 862 580 862 Q544 862 506.5 849.5 Q469 837 438 805.5 Q407 774 387 721.5 Q367 669 367 588 L367 0 L154 0 Z " />
<glyph glyph-name="s" unicode="s" horiz-adv-x="973" d="M477 -25 Q415 -25 356 -13 Q297 -1 245.5 21 Q194 43 152 74.5 Q110 106 82 145 L233 274 Q249 259 272 240.5 Q295 222 325 206 Q355 190 392 179 Q429 168 473 168 Q513 168 547 174 Q581 180 605.5 193 Q630 206 643.5 227.5 Q657 249 657 281 Q657 318 631.5 344.5 Q606 371 565 392.5 Q524 414 472 433.5 Q420 453 367 475 Q318 496 271 521 Q224 546 187.5 581 Q151 616 128.5 664.5 Q106 713 106 782 Q106 852 134.5 906 Q163 960 212.5 996.5 Q262 1033 328.5 1052 Q395 1071 471 1071 Q538 1071 594.5 1058 Q651 1045 696.5 1023 Q742 1001 777 972.5 Q812 944 838 913 L684 791 Q670 805 650.5 820.5 Q631 836 605 849 Q579 862 546 870.5 Q513 879 471 879 Q403 879 363.5 854 Q324 829 324 782 Q324 752 345 729.5 Q366 707 402 688 Q438 669 484.5 651.5 Q531 634 582 614 Q636 593 688 567 Q740 541 780.5 503 Q821 465 845.5 411 Q870 357 870 281 Q870 206 842 148.5 Q814 91 762.5 52.5 Q711 14 638.5 -5.5 Q566 -25 477 -25 Z " />
<glyph glyph-name="t" unicode="t" horiz-adv-x="776" d="M457 -25 Q395 -25 350.5 -6.5 Q306 12 277.5 46 Q249 80 236 128.5 Q223 177 223 236 L223 862 L61 862 L61 1047 L223 1047 L223 1376 L436 1479 L436 1047 L684 1047 L684 862 L436 862 L436 291 Q436 265 440.5 243 Q445 221 456.5 205 Q468 189 488 180.5 Q508 172 539 172 Q615 172 694 221 L668 23 Q624 1 572 -12 Q520 -25 457 -25 Z " />
<glyph glyph-name="u" unicode="u" horiz-adv-x="1157" d="M791 0 L791 100 Q740 35 673.5 5 Q607 -25 520 -25 Q438 -25 369 -1.5 Q300 22 249.5 75.5 Q199 129 171 214 Q143 299 143 422 L143 1047 L356 1047 L356 422 Q356 356 372 309.5 Q388 263 416 233 Q444 203 482 189.5 Q520 176 565 176 Q613 176 654 188.5 Q695 201 725.5 229.5 Q756 258 773.5 304 Q791 350 791 418 L791 1047 L1004 1047 L1004 0 L791 0 Z " />
<glyph glyph-name="v" unicode="v" horiz-adv-x="1067" d="M633 0 L434 0 L51 1047 L264 1047 L506 360 Q515 333 521.5 313 Q528 293 535 268 Q541 293 547.5 313 Q554 333 563 360 L803 1047 L1016 1047 L633 0 Z " />
<glyph glyph-name="w" unicode="w" horiz-adv-x="1487" d="M1137 0 L948 0 L774 608 Q769 626 763.5 645 Q758 664 753.5 681.5 Q749 699 745.5 714 Q742 729 741 739 Q739 729 736.5 713.5 Q734 698 730 680 Q726 662 721 643 Q716 624 711 606 L539 0 L350 0 L72 1047 L281 1047 L428 395 Q436 361 440.5 335.5 Q445 310 449 289 Q452 310 457.5 337 Q463 364 471 395 L645 1047 L842 1047 L1016 395 Q1024 364 1029.5 337 Q1035 310 1038 289 Q1041 310 1046 335.5 Q1051 361 1059 395 L1206 1047 L1415 1047 L1137 0 Z " />
<glyph glyph-name="x" unicode="x" horiz-adv-x="1085" d="M770 0 L596 270 Q579 296 566.5 320.5 Q554 345 543 365 Q533 345 519.5 320.5 Q506 296 489 270 L315 0 L72 0 L420 545 L100 1047 L344 1047 L489 819 Q506 791 519.5 768 Q533 745 543 725 Q554 745 566.5 769 Q579 793 596 819 L741 1047 L985 1047 L664 545 L1014 0 L770 0 Z " />
<glyph glyph-name="y" unicode="y" horiz-adv-x="1102" d="M498 -397 L281 -397 L442 18 L51 1047 L262 1047 L520 362 Q531 333 537 314 Q543 295 549 270 Q555 295 561 314 Q567 333 578 362 L838 1047 L1051 1047 L498 -397 Z " />
<glyph glyph-name="z" unicode="z" horiz-adv-x="1047" d="M113 0 L113 174 L668 858 L154 858 L154 1047 L924 1047 L924 879 L369 188 L922 188 L922 0 L113 0 Z " />
<glyph glyph-name="braceleft" unicode="&#x7b;" horiz-adv-x="750" d="M668 -266 Q570 -264 490.5 -233 Q411 -202 354.5 -142.5 Q298 -83 267 5.5 Q236 94 236 211 L236 332 Q236 409 204.5 456.5 Q173 504 113 504 L82 504 L82 690 L113 690 Q173 690 204.5 737.5 Q236 785 236 862 L236 981 Q236 1098 267 1186.5 Q298 1275 354.5 1334.5 Q411 1394 490.5 1425 Q570 1456 668 1458 L668 1270 Q558 1265 503.5 1200.5 Q449 1136 449 1018 L449 885 Q449 809 436 757 Q423 705 398.5 672 Q374 639 337.5 621 Q301 603 254 596 Q301 588 337.5 570.5 Q374 553 398.5 520 Q423 487 436 435 Q449 383 449 307 L449 174 Q449 56 503.5 -8.5 Q558 -73 668 -78 L668 -266 Z " />
<glyph glyph-name="bar" unicode="&#x7c;" horiz-adv-x="561" d="M174 -420 L174 1649 L387 1649 L387 -420 L174 -420 Z " />
<glyph glyph-name="braceright" unicode="&#x7d;" horiz-adv-x="750" d="M82 -78 Q191 -73 246 -8.5 Q301 56 301 174 L301 307 Q301 383 314 435 Q327 487 351.5 520 Q376 553 412.5 570.5 Q449 588 496 596 Q449 603 412.5 621 Q376 639 351.5 672 Q327 705 314 757 Q301 809 301 885 L301 1018 Q301 1136 246 1200.5 Q191 1265 82 1270 L82 1458 Q179 1456 259 1425 Q339 1394 395.5 1334.5 Q452 1275 483 1186.5 Q514 1098 514 981 L514 862 Q514 785 545.5 737.5 Q577 690 637 690 L668 690 L668 504 L637 504 Q577 504 545.5 456.5 Q514 409 514 332 L514 211 Q514 94 483 5.5 Q452 -83 395.5 -142.5 Q339 -202 259 -233 Q179 -264 82 -266 L82 -78 Z " />
<glyph glyph-name="asciitilde" unicode="&#x7e;" horiz-adv-x="1290" d="M852 541 Q787 541 731 559.5 Q675 578 625.5 600 Q576 622 530.5 640.5 Q485 659 440 659 Q385 659 353.5 626 Q322 593 317 541 L164 541 Q164 605 179 663.5 Q194 722 227 766.5 Q260 811 312 837.5 Q364 864 438 864 Q503 864 559 845.5 Q615 827 664.5 804.5 Q714 782 759.5 763.5 Q805 745 850 745 Q906 745 937 778.5 Q968 812 973 864 L1126 864 Q1126 800 1111 741.5 Q1096 683 1063.5 638.5 Q1031 594 979 567.5 Q927 541 852 541 Z " />
<glyph glyph-name="Adieresis" unicode="&#xc4;" horiz-adv-x="1425" d="M1118 0 L1004 330 L424 330 L307 0 L86 0 L604 1434 L823 1434 L1339 0 L1118 0 Z M764 1006 Q752 1040 737.5 1085 Q723 1130 715 1167 Q705 1130 691.5 1085.5 Q678 1041 666 1006 L489 518 L938 518 L764 1006 Z M528 1599 Q501 1599 477.5 1609 Q454 1619 436.5 1636.5 Q419 1654 409 1677.5 Q399 1701 399 1728 Q399 1755 409 1778.5 Q419 1802 436.5 1819.5 Q454 1837 477.5 1847 Q501 1857 528 1857 Q555 1857 578.5 1847 Q602 1837 619.5 1819.5 Q637 1802 647 1778.5 Q657 1755 657 1728 Q657 1701 647 1677.5 Q637 1654 619.5 1636.5 Q602 1619 578.5 1609 Q555 1599 528 1599 Z M897 1599 Q870 1599 846.5 1609 Q823 1619 805.5 1636.5 Q788 1654 778 1677.5 Q768 1701 768 1728 Q768 1755 778 1778.5 Q788 1802 805.5 1819.5 Q823 1837 846.5 1847 Q870 1857 897 1857 Q924 1857 947.5 1847 Q971 1837 988.5 1819.5 Q1006 1802 1016 1778.5 Q1026 1755 1026 1728 Q1026 1701 1016 1677.5 Q1006 1654 988.5 1636.5 Q971 1619 947.5 1609 Q924 1599 897 1599 Z " />
<glyph glyph-name="Aring" unicode="&#xc5;" horiz-adv-x="1425" d="M1118 0 L1004 330 L424 330 L307 0 L86 0 L561 1317 Q515 1352 488 1404 Q461 1456 461 1518 Q461 1569 481 1614 Q501 1659 535.5 1692.5 Q570 1726 615.5 1745.5 Q661 1765 713 1765 Q764 1765 810 1745.5 Q856 1726 890.5 1692.5 Q925 1659 945 1614 Q965 1569 965 1518 Q965 1456 937 1404.5 Q909 1353 864 1319 L1339 0 L1118 0 Z M764 1006 Q752 1040 737.5 1085 Q723 1130 715 1167 Q705 1130 691.5 1085.5 Q678 1041 666 1006 L489 518 L938 518 L764 1006 Z M713 1421 Q751 1421 778 1448.5 Q805 1476 805 1518 Q805 1559 778 1586.5 Q751 1614 713 1614 Q675 1614 648 1586.5 Q621 1559 621 1518 Q621 1476 648 1448.5 Q675 1421 713 1421 Z " />
<glyph glyph-name="Ccedilla" unicode="&#xc7;" horiz-adv-x="1331" d="M709 -489 Q634 -489 584.5 -467.5 Q535 -446 504 -412 L608 -336 Q621 -351 640 -359 Q659 -367 688 -367 Q735 -367 763 -342 Q791 -317 791 -276 Q791 -238 759 -213 Q727 -188 680 -188 Q632 -188 598 -209 L557 -158 L666 -20 Q567 -12 489 22 Q411 56 352 110 Q293 164 251 234 Q209 304 183 383 Q157 462 145 547 Q133 632 133 717 Q133 799 146.5 886 Q160 973 189.5 1055.5 Q219 1138 266 1211 Q313 1284 379 1339 Q445 1394 532 1426 Q619 1458 729 1458 Q830 1458 911 1433.5 Q992 1409 1052.5 1369 Q1113 1329 1154 1278 Q1195 1227 1217 1174 L1022 1083 Q996 1124 967.5 1155.5 Q939 1187 904.5 1209 Q870 1231 827 1242 Q784 1253 729 1253 Q657 1253 601.5 1230 Q546 1207 504.5 1167 Q463 1127 434 1074 Q405 1021 387.5 961.5 Q370 902 362 839 Q354 776 354 717 Q354 622 375.5 526 Q397 430 443 353 Q489 276 560 228 Q631 180 729 180 Q782 180 824.5 193.5 Q867 207 902.5 231.5 Q938 256 966.5 290 Q995 324 1020 365 L1219 289 Q1191 224 1151.5 170.5 Q1112 117 1059 77 Q1006 37 939 12 Q872 -13 791 -20 L741 -102 Q801 -102 844 -116.5 Q887 -131 914 -155 Q941 -179 954 -211 Q967 -243 967 -279 Q967 -325 949 -363.5 Q931 -402 897 -430 Q863 -458 815.5 -473.5 Q768 -489 709 -489 Z " />
<glyph glyph-name="Eacute" unicode="&#xc9;" horiz-adv-x="1231" d="M184 0 L184 1434 L1073 1434 L1073 1233 L397 1233 L397 840 L834 840 L834 639 L397 639 L397 201 L1118 201 L1118 0 L184 0 Z M625 1569 L408 1569 L698 1888 L989 1888 L625 1569 Z " />
<glyph glyph-name="Ntilde" unicode="&#xd1;" horiz-adv-x="1454" d="M1069 0 L449 973 L391 1079 L397 973 L397 0 L184 0 L184 1434 L399 1434 L1004 477 L1063 367 L1057 475 L1057 1434 L1270 1434 L1270 0 L1069 0 Z M909 1591 Q855 1591 809.5 1606.5 Q764 1622 724 1640 Q684 1658 647 1673.5 Q610 1689 571 1689 Q533 1689 505.5 1667.5 Q478 1646 475 1599 L371 1599 Q371 1660 382.5 1709.5 Q394 1759 420 1794 Q446 1829 486.5 1847.5 Q527 1866 586 1866 Q640 1866 685.5 1850.5 Q731 1835 771 1816.5 Q811 1798 848 1782.5 Q885 1767 924 1767 Q962 1767 989.5 1789 Q1017 1811 1020 1857 L1124 1857 Q1124 1796 1112.5 1746.5 Q1101 1697 1075 1662.5 Q1049 1628 1008 1609.5 Q967 1591 909 1591 Z " />
<glyph glyph-name="Odieresis" unicode="&#xd6;" horiz-adv-x="1516" d="M758 -25 Q643 -25 552 5.5 Q461 36 391.5 88.5 Q322 141 273 212.5 Q224 284 193 366.5 Q162 449 147.5 538.5 Q133 628 133 717 Q133 805 147.5 894.5 Q162 984 193 1066.5 Q224 1149 273 1220.5 Q322 1292 391.5 1344.5 Q461 1397 552 1427.5 Q643 1458 758 1458 Q873 1458 964 1427.5 Q1055 1397 1124.5 1344.5 Q1194 1292 1243 1220.5 Q1292 1149 1323 1066.5 Q1354 984 1368 894.5 Q1382 805 1382 717 Q1382 628 1368 538.5 Q1354 449 1323 366.5 Q1292 284 1243 212.5 Q1194 141 1124.5 88.5 Q1055 36 964 5.5 Q873 -25 758 -25 Z M758 180 Q833 180 892 203.5 Q951 227 995.5 267 Q1040 307 1071.5 360.5 Q1103 414 1123 473.5 Q1143 533 1152 595.5 Q1161 658 1161 717 Q1161 779 1152 843.5 Q1143 908 1123 967.5 Q1103 1027 1071.5 1079 Q1040 1131 995.5 1169.5 Q951 1208 892 1230.5 Q833 1253 758 1253 Q683 1253 624 1229.5 Q565 1206 520 1166 Q475 1126 443.5 1072.5 Q412 1019 392 959.5 Q372 900 363 837.5 Q354 775 354 717 Q354 623 375 527.5 Q396 432 444 354.5 Q492 277 569 228.5 Q646 180 758 180 Z M575 1599 Q548 1599 524.5 1609 Q501 1619 483.5 1636.5 Q466 1654 456 1677.5 Q446 1701 446 1728 Q446 1755 456 1778.5 Q466 1802 483.5 1819.5 Q501 1837 524.5 1847 Q548 1857 575 1857 Q602 1857 625.5 1847 Q649 1837 666.5 1819.5 Q684 1802 694 1778.5 Q704 1755 704 1728 Q704 1701 694 1677.5 Q684 1654 666.5 1636.5 Q649 1619 625.5 1609 Q602 1599 575 1599 Z M944 1599 Q917 1599 893.5 1609 Q870 1619 852.5 1636.5 Q835 1654 825 1677.5 Q815 1701 815 1728 Q815 1755 825 1778.5 Q835 1802 852.5 1819.5 Q870 1837 893.5 1847 Q917 1857 944 1857 Q971 1857 994.5 1847 Q1018 1837 1035.5 1819.5 Q1053 1802 1063 1778.5 Q1073 1755 1073 1728 Q1073 1701 1063 1677.5 Q1053 1654 1035.5 1636.5 Q1018 1619 994.5 1609 Q971 1599 944 1599 Z " />
<glyph glyph-name="Udieresis" unicode="&#xdc;" horiz-adv-x="1427" d="M713 -25 Q602 -25 503.5 4 Q405 33 332 99.5 Q259 166 216.5 274.5 Q174 383 174 543 L174 1434 L387 1434 L387 543 Q387 435 412 365 Q437 295 480.5 254 Q524 213 584 196.5 Q644 180 713 180 Q782 180 841.5 196.5 Q901 213 945.5 254 Q990 295 1015 365 Q1040 435 1040 543 L1040 1434 L1253 1434 L1253 543 Q1253 385 1212 276.5 Q1171 168 1098.5 101 Q1026 34 927 4.5 Q828 -25 713 -25 Z M528 1599 Q501 1599 477.5 1609 Q454 1619 436.5 1636.5 Q419 1654 409 1677.5 Q399 1701 399 1728 Q399 1755 409 1778.5 Q419 1802 436.5 1819.5 Q454 1837 477.5 1847 Q501 1857 528 1857 Q555 1857 578.5 1847 Q602 1837 619.5 1819.5 Q637 1802 647 1778.5 Q657 1755 657 1728 Q657 1701 647 1677.5 Q637 1654 619.5 1636.5 Q602 1619 578.5 1609 Q555 1599 528 1599 Z M897 1599 Q870 1599 846.5 1609 Q823 1619 805.5 1636.5 Q788 1654 778 1677.5 Q768 1701 768 1728 Q768 1755 778 1778.5 Q788 1802 805.5 1819.5 Q823 1837 846.5 1847 Q870 1857 897 1857 Q924 1857 947.5 1847 Q971 1837 988.5 1819.5 Q1006 1802 1016 1778.5 Q1026 1755 1026 1728 Q1026 1701 1016 1677.5 Q1006 1654 988.5 1636.5 Q971 1619 947.5 1609 Q924 1599 897 1599 Z " />
<glyph glyph-name="aacute" unicode="&#xe1;" horiz-adv-x="1090" d="M956 0 L752 0 L752 90 Q732 69 704 48.5 Q676 28 640.5 11.5 Q605 -5 561 -15 Q517 -25 465 -25 Q385 -25 317 -3 Q249 19 199 63.5 Q149 108 120.5 173.5 Q92 239 92 326 Q92 416 126 481.5 Q160 547 216 589.5 Q272 632 344.5 652 Q417 672 494 672 Q566 672 632.5 656.5 Q699 641 752 610 L752 668 Q752 727 738.5 768 Q725 809 697.5 834.5 Q670 860 628 871.5 Q586 883 528 883 Q430 883 358.5 857 Q287 831 229 788 L166 963 Q198 985 239 1004.5 Q280 1024 329 1039 Q378 1054 435 1062.5 Q492 1071 557 1071 Q601 1071 648 1066 Q695 1061 739.5 1046.5 Q784 1032 823.5 1005 Q863 978 892.5 934.5 Q922 891 939 828 Q956 765 956 678 L956 0 Z M504 164 Q585 164 647.5 197 Q710 230 752 276 L752 436 Q708 459 649 473 Q590 487 528 487 Q480 487 438 478 Q396 469 364.5 449.5 Q333 430 315 399.5 Q297 369 297 326 Q297 251 349.5 207.5 Q402 164 504 164 Z M516 1180 L299 1180 L589 1499 L880 1499 L516 1180 Z " />
<glyph glyph-name="agrave" unicode="&#xe0;" horiz-adv-x="1090" d="M956 0 L752 0 L752 90 Q732 69 704 48.5 Q676 28 640.5 11.5 Q605 -5 561 -15 Q517 -25 465 -25 Q385 -25 317 -3 Q249 19 199 63.5 Q149 108 120.5 173.5 Q92 239 92 326 Q92 416 126 481.5 Q160 547 216 589.5 Q272 632 344.5 652 Q417 672 494 672 Q566 672 632.5 656.5 Q699 641 752 610 L752 668 Q752 727 738.5 768 Q725 809 697.5 834.5 Q670 860 628 871.5 Q586 883 528 883 Q430 883 358.5 857 Q287 831 229 788 L166 963 Q198 985 239 1004.5 Q280 1024 329 1039 Q378 1054 435 1062.5 Q492 1071 557 1071 Q601 1071 648 1066 Q695 1061 739.5 1046.5 Q784 1032 823.5 1005 Q863 978 892.5 934.5 Q922 891 939 828 Q956 765 956 678 L956 0 Z M504 164 Q585 164 647.5 197 Q710 230 752 276 L752 436 Q708 459 649 473 Q590 487 528 487 Q480 487 438 478 Q396 469 364.5 449.5 Q333 430 315 399.5 Q297 369 297 326 Q297 251 349.5 207.5 Q402 164 504 164 Z M598 1180 L233 1499 L524 1499 L815 1180 L598 1180 Z " />
<glyph glyph-name="acircumflex" unicode="&#xe2;" horiz-adv-x="1090" d="M956 0 L752 0 L752 90 Q732 69 704 48.5 Q676 28 640.5 11.5 Q605 -5 561 -15 Q517 -25 465 -25 Q385 -25 317 -3 Q249 19 199 63.5 Q149 108 120.5 173.5 Q92 239 92 326 Q92 416 126 481.5 Q160 547 216 589.5 Q272 632 344.5 652 Q417 672 494 672 Q566 672 632.5 656.5 Q699 641 752 610 L752 668 Q752 727 738.5 768 Q725 809 697.5 834.5 Q670 860 628 871.5 Q586 883 528 883 Q430 883 358.5 857 Q287 831 229 788 L166 963 Q198 985 239 1004.5 Q280 1024 329 1039 Q378 1054 435 1062.5 Q492 1071 557 1071 Q601 1071 648 1066 Q695 1061 739.5 1046.5 Q784 1032 823.5 1005 Q863 978 892.5 934.5 Q922 891 939 828 Q956 765 956 678 L956 0 Z M504 164 Q585 164 647.5 197 Q710 230 752 276 L752 436 Q708 459 649 473 Q590 487 528 487 Q480 487 438 478 Q396 469 364.5 449.5 Q333 430 315 399.5 Q297 369 297 326 Q297 251 349.5 207.5 Q402 164 504 164 Z M749 1180 L557 1341 L364 1180 L159 1180 L450 1499 L665 1499 L954 1180 L749 1180 Z " />
<glyph glyph-name="adieresis" unicode="&#xe4;" horiz-adv-x="1090" d="M956 0 L752 0 L752 90 Q732 69 704 48.5 Q676 28 640.5 11.5 Q605 -5 561 -15 Q517 -25 465 -25 Q385 -25 317 -3 Q249 19 199 63.5 Q149 108 120.5 173.5 Q92 239 92 326 Q92 416 126 481.5 Q160 547 216 589.5 Q272 632 344.5 652 Q417 672 494 672 Q566 672 632.5 656.5 Q699 641 752 610 L752 668 Q752 727 738.5 768 Q725 809 697.5 834.5 Q670 860 628 871.5 Q586 883 528 883 Q430 883 358.5 857 Q287 831 229 788 L166 963 Q198 985 239 1004.5 Q280 1024 329 1039 Q378 1054 435 1062.5 Q492 1071 557 1071 Q601 1071 648 1066 Q695 1061 739.5 1046.5 Q784 1032 823.5 1005 Q863 978 892.5 934.5 Q922 891 939 828 Q956 765 956 678 L956 0 Z M504 164 Q585 164 647.5 197 Q710 230 752 276 L752 436 Q708 459 649 473 Q590 487 528 487 Q480 487 438 478 Q396 469 364.5 449.5 Q333 430 315 399.5 Q297 369 297 326 Q297 251 349.5 207.5 Q402 164 504 164 Z M372 1210 Q345 1210 321.5 1220 Q298 1230 280.5 1247.5 Q263 1265 253 1288.5 Q243 1312 243 1339 Q243 1366 253 1389.5 Q263 1413 280.5 1430.5 Q298 1448 321.5 1458 Q345 1468 372 1468 Q399 1468 422.5 1458 Q446 1448 463.5 1430.5 Q481 1413 491 1389.5 Q501 1366 501 1339 Q501 1312 491 1288.5 Q481 1265 463.5 1247.5 Q446 1230 422.5 1220 Q399 1210 372 1210 Z M741 1210 Q714 1210 690.5 1220 Q667 1230 649.5 1247.5 Q632 1265 622 1288.5 Q612 1312 612 1339 Q612 1366 622 1389.5 Q632 1413 649.5 1430.5 Q667 1448 690.5 1458 Q714 1468 741 1468 Q768 1468 791.5 1458 Q815 1448 832.5 1430.5 Q850 1413 860 1389.5 Q870 1366 870 1339 Q870 1312 860 1288.5 Q850 1265 832.5 1247.5 Q815 1230 791.5 1220 Q768 1210 741 1210 Z " />
<glyph glyph-name="atilde" unicode="&#xe3;" horiz-adv-x="1090" d="M956 0 L752 0 L752 90 Q732 69 704 48.5 Q676 28 640.5 11.5 Q605 -5 561 -15 Q517 -25 465 -25 Q385 -25 317 -3 Q249 19 199 63.5 Q149 108 120.5 173.5 Q92 239 92 326 Q92 416 126 481.5 Q160 547 216 589.5 Q272 632 344.5 652 Q417 672 494 672 Q566 672 632.5 656.5 Q699 641 752 610 L752 668 Q752 727 738.5 768 Q725 809 697.5 834.5 Q670 860 628 871.5 Q586 883 528 883 Q430 883 358.5 857 Q287 831 229 788 L166 963 Q198 985 239 1004.5 Q280 1024 329 1039 Q378 1054 435 1062.5 Q492 1071 557 1071 Q601 1071 648 1066 Q695 1061 739.5 1046.5 Q784 1032 823.5 1005 Q863 978 892.5 934.5 Q922 891 939 828 Q956 765 956 678 L956 0 Z M504 164 Q585 164 647.5 197 Q710 230 752 276 L752 436 Q708 459 649 473 Q590 487 528 487 Q480 487 438 478 Q396 469 364.5 449.5 Q333 430 315 399.5 Q297 369 297 326 Q297 251 349.5 207.5 Q402 164 504 164 Z M718 1202 Q664 1202 618.5 1217.5 Q573 1233 533 1251 Q493 1269 456 1284.5 Q419 1300 380 1300 Q342 1300 314.5 1278.5 Q287 1257 284 1210 L180 1210 Q180 1271 191.5 1320.5 Q203 1370 229 1405 Q255 1440 295.5 1458.5 Q336 1477 395 1477 Q449 1477 494.5 1461.5 Q540 1446 580 1427.5 Q620 1409 657 1393.5 Q694 1378 733 1378 Q771 1378 798.5 1400 Q826 1422 829 1468 L933 1468 Q933 1407 921.5 1357.5 Q910 1308 884 1273.5 Q858 1239 817 1220.5 Q776 1202 718 1202 Z " />
<glyph glyph-name="aring" unicode="&#xe5;" horiz-adv-x="1090" d="M956 0 L752 0 L752 90 Q732 69 704 48.5 Q676 28 640.5 11.5 Q605 -5 561 -15 Q517 -25 465 -25 Q385 -25 317 -3 Q249 19 199 63.5 Q149 108 120.5 173.5 Q92 239 92 326 Q92 416 126 481.5 Q160 547 216 589.5 Q272 632 344.5 652 Q417 672 494 672 Q566 672 632.5 656.5 Q699 641 752 610 L752 668 Q752 727 738.5 768 Q725 809 697.5 834.5 Q670 860 628 871.5 Q586 883 528 883 Q430 883 358.5 857 Q287 831 229 788 L166 963 Q198 985 239 1004.5 Q280 1024 329 1039 Q378 1054 435 1062.5 Q492 1071 557 1071 Q601 1071 648 1066 Q695 1061 739.5 1046.5 Q784 1032 823.5 1005 Q863 978 892.5 934.5 Q922 891 939 828 Q956 765 956 678 L956 0 Z M504 164 Q585 164 647.5 197 Q710 230 752 276 L752 436 Q708 459 649 473 Q590 487 528 487 Q480 487 438 478 Q396 469 364.5 449.5 Q333 430 315 399.5 Q297 369 297 326 Q297 251 349.5 207.5 Q402 164 504 164 Z M557 1315 Q595 1315 622 1342.5 Q649 1370 649 1411 Q649 1453 622 1480.5 Q595 1508 557 1508 Q518 1508 491 1480.5 Q464 1453 464 1411 Q464 1369 491 1342 Q518 1315 557 1315 Z M557 1162 Q505 1162 459.5 1181.5 Q414 1201 379.5 1235 Q345 1269 325 1314.5 Q305 1360 305 1411 Q305 1463 325 1508 Q345 1553 379.5 1586.5 Q414 1620 459.5 1639.5 Q505 1659 557 1659 Q608 1659 654 1639.5 Q700 1620 734.5 1586.5 Q769 1553 789 1508 Q809 1463 809 1411 Q809 1360 789 1314.5 Q769 1269 734.5 1235 Q700 1201 654 1181.5 Q608 1162 557 1162 Z " />
<glyph glyph-name="ccedilla" unicode="&#xe7;" horiz-adv-x="1061" d="M528 -489 Q454 -489 404.5 -467.5 Q355 -446 324 -412 L428 -336 Q440 -351 459.5 -359 Q479 -367 508 -367 Q554 -367 582 -342 Q610 -317 610 -276 Q610 -238 578.5 -213 Q547 -188 500 -188 Q451 -188 418 -209 L377 -158 L487 -18 Q397 -7 326 35 Q255 77 205 146 Q155 215 128.5 310 Q102 405 102 522 Q102 651 134 753 Q166 855 225.5 925.5 Q285 996 369.5 1033.5 Q454 1071 559 1071 Q705 1071 806.5 1006 Q908 941 954 801 L752 731 Q729 791 682 828.5 Q635 866 567 866 Q507 866 461 842 Q415 818 383.5 773.5 Q352 729 335.5 665.5 Q319 602 319 522 Q319 442 335.5 378.5 Q352 315 382.5 271 Q413 227 457.5 203.5 Q502 180 559 180 Q631 180 682.5 220 Q734 260 756 334 L958 270 Q920 136 832 63 Q744 -10 610 -23 L561 -102 Q621 -102 663.5 -116.5 Q706 -131 733.5 -155 Q761 -179 773.5 -211 Q786 -243 786 -279 Q786 -325 768 -363.5 Q750 -402 716.5 -430 Q683 -458 635 -473.5 Q587 -489 528 -489 Z " />
<glyph glyph-name="eacute" unicode="&#xe9;" horiz-adv-x="1120" d="M578 -25 Q469 -25 381 12.5 Q293 50 231 120.5 Q169 191 135.5 293 Q102 395 102 524 Q102 653 136 754.5 Q170 856 232.5 926.5 Q295 997 382.5 1034 Q470 1071 578 1071 Q671 1071 752.5 1041.5 Q834 1012 895.5 951.5 Q957 891 992.5 799 Q1028 707 1028 582 Q1028 548 1026.5 510 Q1025 472 1020 444 L315 444 Q316 379 338.5 327.5 Q361 276 398 239.5 Q435 203 482 183.5 Q529 164 580 164 Q645 164 700.5 191 Q756 218 797 270 L936 127 Q879 59 790 17 Q701 -25 578 -25 Z M578 883 Q528 883 482 868.5 Q436 854 400.5 822.5 Q365 791 342 740 Q319 689 315 616 L815 616 Q813 689 792 740 Q771 791 737 822.5 Q703 854 661.5 868.5 Q620 883 578 883 Z M539 1180 L322 1180 L612 1499 L903 1499 L539 1180 Z " />
<glyph glyph-name="egrave" unicode="&#xe8;" horiz-adv-x="1120" d="M578 -25 Q469 -25 381 12.5 Q293 50 231 120.5 Q169 191 135.5 293 Q102 395 102 524 Q102 653 136 754.5 Q170 856 232.5 926.5 Q295 997 382.5 1034 Q470 1071 578 1071 Q671 1071 752.5 1041.5 Q834 1012 895.5 951.5 Q957 891 992.5 799 Q1028 707 1028 582 Q1028 548 1026.5 510 Q1025 472 1020 444 L315 444 Q316 379 338.5 327.5 Q361 276 398 239.5 Q435 203 482 183.5 Q529 164 580 164 Q645 164 700.5 191 Q756 218 797 270 L936 127 Q879 59 790 17 Q701 -25 578 -25 Z M578 883 Q528 883 482 868.5 Q436 854 400.5 822.5 Q365 791 342 740 Q319 689 315 616 L815 616 Q813 689 792 740 Q771 791 737 822.5 Q703 854 661.5 868.5 Q620 883 578 883 Z M621 1180 L256 1499 L547 1499 L838 1180 L621 1180 Z " />
<glyph glyph-name="ecircumflex" unicode="&#xea;" horiz-adv-x="1120" d="M578 -25 Q469 -25 381 12.5 Q293 50 231 120.5 Q169 191 135.5 293 Q102 395 102 524 Q102 653 136 754.5 Q170 856 232.5 926.5 Q295 997 382.5 1034 Q470 1071 578 1071 Q671 1071 752.5 1041.5 Q834 1012 895.5 951.5 Q957 891 992.5 799 Q1028 707 1028 582 Q1028 548 1026.5 510 Q1025 472 1020 444 L315 444 Q316 379 338.5 327.5 Q361 276 398 239.5 Q435 203 482 183.5 Q529 164 580 164 Q645 164 700.5 191 Q756 218 797 270 L936 127 Q879 59 790 17 Q701 -25 578 -25 Z M578 883 Q528 883 482 868.5 Q436 854 400.5 822.5 Q365 791 342 740 Q319 689 315 616 L815 616 Q813 689 792 740 Q771 791 737 822.5 Q703 854 661.5 868.5 Q620 883 578 883 Z M772 1180 L580 1341 L387 1180 L182 1180 L473 1499 L688 1499 L977 1180 L772 1180 Z " />
<glyph glyph-name="edieresis" unicode="&#xeb;" horiz-adv-x="1120" d="M578 -25 Q469 -25 381 12.5 Q293 50 231 120.5 Q169 191 135.5 293 Q102 395 102 524 Q102 653 136 754.5 Q170 856 232.5 926.5 Q295 997 382.5 1034 Q470 1071 578 1071 Q671 1071 752.5 1041.5 Q834 1012 895.5 951.5 Q957 891 992.5 799 Q1028 707 1028 582 Q1028 548 1026.5 510 Q1025 472 1020 444 L315 444 Q316 379 338.5 327.5 Q361 276 398 239.5 Q435 203 482 183.5 Q529 164 580 164 Q645 164 700.5 191 Q756 218 797 270 L936 127 Q879 59 790 17 Q701 -25 578 -25 Z M578 883 Q528 883 482 868.5 Q436 854 400.5 822.5 Q365 791 342 740 Q319 689 315 616 L815 616 Q813 689 792 740 Q771 791 737 822.5 Q703 854 661.5 868.5 Q620 883 578 883 Z M395 1210 Q368 1210 344.5 1220 Q321 1230 303.5 1247.5 Q286 1265 276 1288.5 Q266 1312 266 1339 Q266 1366 276 1389.5 Q286 1413 303.5 1430.5 Q321 1448 344.5 1458 Q368 1468 395 1468 Q422 1468 445.5 1458 Q469 1448 486.5 1430.5 Q504 1413 514 1389.5 Q524 1366 524 1339 Q524 1312 514 1288.5 Q504 1265 486.5 1247.5 Q469 1230 445.5 1220 Q422 1210 395 1210 Z M764 1210 Q737 1210 713.5 1220 Q690 1230 672.5 1247.5 Q655 1265 645 1288.5 Q635 1312 635 1339 Q635 1366 645 1389.5 Q655 1413 672.5 1430.5 Q690 1448 713.5 1458 Q737 1468 764 1468 Q791 1468 814.5 1458 Q838 1448 855.5 1430.5 Q873 1413 883 1389.5 Q893 1366 893 1339 Q893 1312 883 1288.5 Q873 1265 855.5 1247.5 Q838 1230 814.5 1220 Q791 1210 764 1210 Z " />
<glyph glyph-name="iacute" unicode="&#xed;" horiz-adv-x="524" d="M156 0 L156 1047 L369 1047 L369 0 L156 0 Z M226 1180 L9 1180 L299 1499 L590 1499 L226 1180 Z " />
<glyph glyph-name="igrave" unicode="&#xec;" horiz-adv-x="524" d="M156 0 L156 1047 L369 1047 L369 0 L156 0 Z M308 1180 L-57 1499 L234 1499 L525 1180 L308 1180 Z " />
<glyph glyph-name="icircumflex" unicode="&#xee;" horiz-adv-x="524" d="M156 0 L156 1047 L369 1047 L369 0 L156 0 Z M459 1180 L267 1341 L74 1180 L-131 1180 L160 1499 L375 1499 L664 1180 L459 1180 Z " />
<glyph glyph-name="idieresis" unicode="&#xef;" horiz-adv-x="524" d="M156 0 L156 1047 L369 1047 L369 0 L156 0 Z M82 1210 Q55 1210 31.5 1220 Q8 1230 -9.5 1247.5 Q-27 1265 -37 1288.5 Q-47 1312 -47 1339 Q-47 1366 -37 1389.5 Q-27 1413 -9.5 1430.5 Q8 1448 31.5 1458 Q55 1468 82 1468 Q109 1468 132.5 1458 Q156 1448 173.5 1430.5 Q191 1413 201 1389.5 Q211 1366 211 1339 Q211 1312 201 1288.5 Q191 1265 173.5 1247.5 Q156 1230 132.5 1220 Q109 1210 82 1210 Z M451 1210 Q424 1210 400.5 1220 Q377 1230 359.5 1247.5 Q342 1265 332 1288.5 Q322 1312 322 1339 Q322 1366 332 1389.5 Q342 1413 359.5 1430.5 Q377 1448 400.5 1458 Q424 1468 451 1468 Q478 1468 501.5 1458 Q525 1448 542.5 1430.5 Q560 1413 570 1389.5 Q580 1366 580 1339 Q580 1312 570 1288.5 Q560 1265 542.5 1247.5 Q525 1230 501.5 1220 Q478 1210 451 1210 Z " />
<glyph glyph-name="ntilde" unicode="&#xf1;" horiz-adv-x="1157" d="M801 0 L801 625 Q801 691 785 737.5 Q769 784 741 813.5 Q713 843 675 856.5 Q637 870 592 870 Q544 870 503 857.5 Q462 845 432 817 Q402 789 384.5 742.5 Q367 696 367 629 L367 0 L154 0 L154 1047 L367 1047 L367 946 Q418 1011 484 1041 Q550 1071 637 1071 Q719 1071 788 1047.5 Q857 1024 907.5 971 Q958 918 986 833 Q1014 748 1014 625 L1014 0 L801 0 Z M751 1202 Q697 1202 651.5 1217.5 Q606 1233 566 1251 Q526 1269 489 1284.5 Q452 1300 413 1300 Q375 1300 347.5 1278.5 Q320 1257 317 1210 L213 1210 Q213 1271 224.5 1320.5 Q236 1370 262 1405 Q288 1440 328.5 1458.5 Q369 1477 428 1477 Q482 1477 527.5 1461.5 Q573 1446 613 1427.5 Q653 1409 690 1393.5 Q727 1378 766 1378 Q804 1378 831.5 1400 Q859 1422 862 1468 L966 1468 Q966 1407 954.5 1357.5 Q943 1308 917 1273.5 Q891 1239 850 1220.5 Q809 1202 751 1202 Z " />
<glyph glyph-name="oacute" unicode="&#xf3;" horiz-adv-x="1161" d="M580 -25 Q470 -25 381.5 12 Q293 49 231 119.5 Q169 190 135.5 291.5 Q102 393 102 522 Q102 651 135.5 753 Q169 855 231 925.5 Q293 996 381.5 1033.5 Q470 1071 580 1071 Q689 1071 778 1033.5 Q867 996 929 925.5 Q991 855 1025 753 Q1059 651 1059 522 Q1059 393 1025 291.5 Q991 190 929 119.5 Q867 49 778 12 Q689 -25 580 -25 Z M580 176 Q641 176 690.5 200 Q740 224 774.5 268.5 Q809 313 827.5 377 Q846 441 846 522 Q846 603 827.5 667.5 Q809 732 774.5 777 Q740 822 690.5 846 Q641 870 580 870 Q519 870 470 846 Q421 822 386.5 777 Q352 732 333.5 667.5 Q315 603 315 522 Q315 441 333.5 377 Q352 313 386.5 268.5 Q421 224 470 200 Q519 176 580 176 Z M539 1180 L322 1180 L612 1499 L903 1499 L539 1180 Z " />
<glyph glyph-name="ograve" unicode="&#xf2;" horiz-adv-x="1161" d="M580 -25 Q470 -25 381.5 12 Q293 49 231 119.5 Q169 190 135.5 291.5 Q102 393 102 522 Q102 651 135.5 753 Q169 855 231 925.5 Q293 996 381.5 1033.5 Q470 1071 580 1071 Q689 1071 778 1033.5 Q867 996 929 925.5 Q991 855 1025 753 Q1059 651 1059 522 Q1059 393 1025 291.5 Q991 190 929 119.5 Q867 49 778 12 Q689 -25 580 -25 Z M580 176 Q641 176 690.5 200 Q740 224 774.5 268.5 Q809 313 827.5 377 Q846 441 846 522 Q846 603 827.5 667.5 Q809 732 774.5 777 Q740 822 690.5 846 Q641 870 580 870 Q519 870 470 846 Q421 822 386.5 777 Q352 732 333.5 667.5 Q315 603 315 522 Q315 441 333.5 377 Q352 313 386.5 268.5 Q421 224 470 200 Q519 176 580 176 Z M621 1180 L256 1499 L547 1499 L838 1180 L621 1180 Z " />
<glyph glyph-name="ocircumflex" unicode="&#xf4;" horiz-adv-x="1161" d="M580 -25 Q470 -25 381.5 12 Q293 49 231 119.5 Q169 190 135.5 291.5 Q102 393 102 522 Q102 651 135.5 753 Q169 855 231 925.5 Q293 996 381.5 1033.5 Q470 1071 580 1071 Q689 1071 778 1033.5 Q867 996 929 925.5 Q991 855 1025 753 Q1059 651 1059 522 Q1059 393 1025 291.5 Q991 190 929 119.5 Q867 49 778 12 Q689 -25 580 -25 Z M580 176 Q641 176 690.5 200 Q740 224 774.5 268.5 Q809 313 827.5 377 Q846 441 846 522 Q846 603 827.5 667.5 Q809 732 774.5 777 Q740 822 690.5 846 Q641 870 580 870 Q519 870 470 846 Q421 822 386.5 777 Q352 732 333.5 667.5 Q315 603 315 522 Q315 441 333.5 377 Q352 313 386.5 268.5 Q421 224 470 200 Q519 176 580 176 Z M772 1180 L580 1341 L387 1180 L182 1180 L473 1499 L688 1499 L977 1180 L772 1180 Z " />
<glyph glyph-name="odieresis" unicode="&#xf6;" horiz-adv-x="1161" d="M580 -25 Q470 -25 381.5 12 Q293 49 231 119.5 Q169 190 135.5 291.5 Q102 393 102 522 Q102 651 135.5 753 Q169 855 231 925.5 Q293 996 381.5 1033.5 Q470 1071 580 1071 Q689 1071 778 1033.5 Q867 996 929 925.5 Q991 855 1025 753 Q1059 651 1059 522 Q1059 393 1025 291.5 Q991 190 929 119.5 Q867 49 778 12 Q689 -25 580 -25 Z M580 176 Q641 176 690.5 200 Q740 224 774.5 268.5 Q809 313 827.5 377 Q846 441 846 522 Q846 603 827.5 667.5 Q809 732 774.5 777 Q740 822 690.5 846 Q641 870 580 870 Q519 870 470 846 Q421 822 386.5 777 Q352 732 333.5 667.5 Q315 603 315 522 Q315 441 333.5 377 Q352 313 386.5 268.5 Q421 224 470 200 Q519 176 580 176 Z M395 1210 Q368 1210 344.5 1220 Q321 1230 303.5 1247.5 Q286 1265 276 1288.5 Q266 1312 266 1339 Q266 1366 276 1389.5 Q286 1413 303.5 1430.5 Q321 1448 344.5 1458 Q368 1468 395 1468 Q422 1468 445.5 1458 Q469 1448 486.5 1430.5 Q504 1413 514 1389.5 Q524 1366 524 1339 Q524 1312 514 1288.5 Q504 1265 486.5 1247.5 Q469 1230 445.5 1220 Q422 1210 395 1210 Z M764 1210 Q737 1210 713.5 1220 Q690 1230 672.5 1247.5 Q655 1265 645 1288.5 Q635 1312 635 1339 Q635 1366 645 1389.5 Q655 1413 672.5 1430.5 Q690 1448 713.5 1458 Q737 1468 764 1468 Q791 1468 814.5 1458 Q838 1448 855.5 1430.5 Q873 1413 883 1389.5 Q893 1366 893 1339 Q893 1312 883 1288.5 Q873 1265 855.5 1247.5 Q838 1230 814.5 1220 Q791 1210 764 1210 Z " />
<glyph glyph-name="otilde" unicode="&#xf5;" horiz-adv-x="1161" d="M580 -25 Q470 -25 381.5 12 Q293 49 231 119.5 Q169 190 135.5 291.5 Q102 393 102 522 Q102 651 135.5 753 Q169 855 231 925.5 Q293 996 381.5 1033.5 Q470 1071 580 1071 Q689 1071 778 1033.5 Q867 996 929 925.5 Q991 855 1025 753 Q1059 651 1059 522 Q1059 393 1025 291.5 Q991 190 929 119.5 Q867 49 778 12 Q689 -25 580 -25 Z M580 176 Q641 176 690.5 200 Q740 224 774.5 268.5 Q809 313 827.5 377 Q846 441 846 522 Q846 603 827.5 667.5 Q809 732 774.5 777 Q740 822 690.5 846 Q641 870 580 870 Q519 870 470 846 Q421 822 386.5 777 Q352 732 333.5 667.5 Q315 603 315 522 Q315 441 333.5 377 Q352 313 386.5 268.5 Q421 224 470 200 Q519 176 580 176 Z M741 1202 Q687 1202 641.5 1217.5 Q596 1233 556 1251 Q516 1269 479 1284.5 Q442 1300 403 1300 Q365 1300 337.5 1278.5 Q310 1257 307 1210 L203 1210 Q203 1271 214.5 1320.5 Q226 1370 252 1405 Q278 1440 318.5 1458.5 Q359 1477 418 1477 Q472 1477 517.5 1461.5 Q563 1446 603 1427.5 Q643 1409 680 1393.5 Q717 1378 756 1378 Q794 1378 821.5 1400 Q849 1422 852 1468 L956 1468 Q956 1407 944.5 1357.5 Q933 1308 907 1273.5 Q881 1239 840 1220.5 Q799 1202 741 1202 Z " />
<glyph glyph-name="uacute" unicode="&#xfa;" horiz-adv-x="1157" d="M791 0 L791 100 Q740 35 673.5 5 Q607 -25 520 -25 Q438 -25 369 -1.5 Q300 22 249.5 75.5 Q199 129 171 214 Q143 299 143 422 L143 1047 L356 1047 L356 422 Q356 356 372 309.5 Q388 263 416 233 Q444 203 482 189.5 Q520 176 565 176 Q613 176 654 188.5 Q695 201 725.5 229.5 Q756 258 773.5 304 Q791 350 791 418 L791 1047 L1004 1047 L1004 0 L791 0 Z M529 1180 L312 1180 L602 1499 L893 1499 L529 1180 Z " />
<glyph glyph-name="ugrave" unicode="&#xf9;" horiz-adv-x="1157" d="M791 0 L791 100 Q740 35 673.5 5 Q607 -25 520 -25 Q438 -25 369 -1.5 Q300 22 249.5 75.5 Q199 129 171 214 Q143 299 143 422 L143 1047 L356 1047 L356 422 Q356 356 372 309.5 Q388 263 416 233 Q444 203 482 189.5 Q520 176 565 176 Q613 176 654 188.5 Q695 201 725.5 229.5 Q756 258 773.5 304 Q791 350 791 418 L791 1047 L1004 1047 L1004 0 L791 0 Z M611 1180 L246 1499 L537 1499 L828 1180 L611 1180 Z " />
<glyph glyph-name="ucircumflex" unicode="&#xfb;" horiz-adv-x="1157" d="M791 0 L791 100 Q740 35 673.5 5 Q607 -25 520 -25 Q438 -25 369 -1.5 Q300 22 249.5 75.5 Q199 129 171 214 Q143 299 143 422 L143 1047 L356 1047 L356 422 Q356 356 372 309.5 Q388 263 416 233 Q444 203 482 189.5 Q520 176 565 176 Q613 176 654 188.5 Q695 201 725.5 229.5 Q756 258 773.5 304 Q791 350 791 418 L791 1047 L1004 1047 L1004 0 L791 0 Z M762 1180 L570 1341 L377 1180 L172 1180 L463 1499 L678 1499 L967 1180 L762 1180 Z " />
<glyph glyph-name="udieresis" unicode="&#xfc;" horiz-adv-x="1157" d="M791 0 L791 100 Q740 35 673.5 5 Q607 -25 520 -25 Q438 -25 369 -1.5 Q300 22 249.5 75.5 Q199 129 171 214 Q143 299 143 422 L143 1047 L356 1047 L356 422 Q356 356 372 309.5 Q388 263 416 233 Q444 203 482 189.5 Q520 176 565 176 Q613 176 654 188.5 Q695 201 725.5 229.5 Q756 258 773.5 304 Q791 350 791 418 L791 1047 L1004 1047 L1004 0 L791 0 Z M385 1210 Q358 1210 334.5 1220 Q311 1230 293.5 1247.5 Q276 1265 266 1288.5 Q256 1312 256 1339 Q256 1366 266 1389.5 Q276 1413 293.5 1430.5 Q311 1448 334.5 1458 Q358 1468 385 1468 Q412 1468 435.5 1458 Q459 1448 476.5 1430.5 Q494 1413 504 1389.5 Q514 1366 514 1339 Q514 1312 504 1288.5 Q494 1265 476.5 1247.5 Q459 1230 435.5 1220 Q412 1210 385 1210 Z M754 1210 Q727 1210 703.5 1220 Q680 1230 662.5 1247.5 Q645 1265 635 1288.5 Q625 1312 625 1339 Q625 1366 635 1389.5 Q645 1413 662.5 1430.5 Q680 1448 703.5 1458 Q727 1468 754 1468 Q781 1468 804.5 1458 Q828 1448 845.5 1430.5 Q863 1413 873 1389.5 Q883 1366 883 1339 Q883 1312 873 1288.5 Q863 1265 845.5 1247.5 Q828 1230 804.5 1220 Q781 1210 754 1210 Z " />
<glyph glyph-name="dagger" unicode="&#x2020;" horiz-adv-x="1147" d="M659 899 L680 688 L616 -289 L535 -289 L467 688 L485 899 L246 866 L133 866 L133 1071 L246 1071 L483 1036 L467 1202 L467 1458 L680 1458 L680 1202 L662 1036 L901 1071 L1014 1071 L1014 866 L901 866 L659 899 Z " />
<glyph glyph-name="degree" unicode="&#xb0;" horiz-adv-x="819" d="M410 1124 Q442 1124 469.5 1136.5 Q497 1149 517 1170.5 Q537 1192 548 1221 Q559 1250 559 1284 Q559 1318 548 1347 Q537 1376 517 1397 Q497 1418 469.5 1430 Q442 1442 410 1442 Q378 1442 350 1430 Q322 1418 301.5 1397 Q281 1376 269.5 1347 Q258 1318 258 1284 Q258 1250 269.5 1221 Q281 1192 301.5 1170.5 Q322 1149 350 1136.5 Q378 1124 410 1124 Z M410 928 Q335 928 269 955.5 Q203 983 154 1031 Q105 1079 77 1144 Q49 1209 49 1284 Q49 1360 77 1425 Q105 1490 154 1537 Q203 1584 269 1611 Q335 1638 410 1638 Q485 1638 550.5 1611 Q616 1584 664 1537 Q712 1490 740 1425 Q768 1360 768 1284 Q768 1209 740 1144 Q712 1079 664 1031 Q616 983 550.5 955.5 Q485 928 410 928 Z " />
<glyph glyph-name="cent" unicode="&#xa2;" horiz-adv-x="1061" d="M434 -25 L434 184 Q356 204 294.5 249 Q233 294 190.5 361.5 Q148 429 125 518.5 Q102 608 102 717 Q102 825 125 914.5 Q148 1004 190.5 1071.5 Q233 1139 294.5 1184 Q356 1229 434 1249 L434 1458 L639 1458 L639 1260 Q753 1243 833.5 1179 Q914 1115 954 995 L752 926 Q729 986 682 1023.5 Q635 1061 567 1061 Q507 1061 461 1037 Q415 1013 383.5 968.5 Q352 924 335.5 860.5 Q319 797 319 717 Q319 637 335.5 573.5 Q352 510 382.5 466 Q413 422 457.5 398.5 Q502 375 559 375 Q631 375 682.5 414.5 Q734 454 756 528 L958 465 Q884 211 639 176 L639 -25 L434 -25 Z " />
<glyph glyph-name="sterling" unicode="&#xa3;" horiz-adv-x="1206" d="M164 0 L164 213 Q215 237 248.5 281 Q282 325 302 377.5 Q322 430 330 484 Q338 538 338 580 L154 580 L154 768 L289 768 Q276 795 262.5 824 Q249 853 238.5 886.5 Q228 920 221.5 959.5 Q215 999 215 1047 Q215 1125 243.5 1199 Q272 1273 330.5 1330.5 Q389 1388 478.5 1423 Q568 1458 690 1458 Q761 1458 820 1448.5 Q879 1439 931 1421 Q983 1403 1030.5 1376 Q1078 1349 1126 1315 L1042 1112 Q1017 1134 986 1159 Q955 1184 913.5 1205 Q872 1226 817 1239.5 Q762 1253 690 1253 Q622 1253 574 1235 Q526 1217 495.5 1188 Q465 1159 450.5 1122 Q436 1085 436 1047 Q436 1009 445 975.5 Q454 942 467.5 909 Q481 876 496.5 841.5 Q512 807 526 768 L868 768 L868 580 L559 580 Q559 476 522.5 381 Q486 286 408 205 L1145 205 L1145 0 L164 0 Z " />
<glyph glyph-name="section" unicode="&#xa7;" horiz-adv-x="1071" d="M543 -246 Q468 -246 402 -232 Q336 -218 279.5 -192.5 Q223 -167 178 -132 Q133 -97 102 -55 L258 78 Q276 60 302.5 39.5 Q329 19 364 1 Q399 -17 443.5 -29 Q488 -41 541 -41 Q584 -41 622 -34 Q660 -27 688 -10.5 Q716 6 732 32.5 Q748 59 748 98 Q748 140 719.5 171.5 Q691 203 644.5 230 Q598 257 539.5 280.5 Q481 304 422 330 Q366 354 313 380 Q260 406 219 442 Q178 478 152.5 527 Q127 576 127 647 Q127 723 164.5 780 Q202 837 264 868 Q198 913 162.5 979.5 Q127 1046 127 1133 Q127 1211 158 1271.5 Q189 1332 243 1373.5 Q297 1415 370.5 1436.5 Q444 1458 528 1458 Q603 1458 664 1444 Q725 1430 774.5 1406 Q824 1382 862 1351 Q900 1320 928 1286 L766 1157 Q751 1173 729.5 1190 Q708 1207 678.5 1221 Q649 1235 612 1244 Q575 1253 528 1253 Q445 1253 396.5 1222 Q348 1191 348 1133 Q348 1099 372 1071.5 Q396 1044 436.5 1020.5 Q477 997 530 975.5 Q583 954 641 932 Q703 907 762 880 Q821 853 867 814 Q913 775 941 720.5 Q969 666 969 586 Q969 435 850 365 Q912 314 940.5 250 Q969 186 969 104 Q969 21 940 -44 Q911 -109 856 -154 Q801 -199 722 -222.5 Q643 -246 543 -246 Z M748 569 Q748 606 724.5 634.5 Q701 663 661.5 686 Q622 709 570.5 728.5 Q519 748 463 768 Q409 759 378.5 731.5 Q348 704 348 662 Q348 627 374 600.5 Q400 574 445 551.5 Q490 529 549.5 508 Q609 487 676 463 Q710 477 729 504 Q748 531 748 569 Z " />
<glyph glyph-name="bullet" unicode="&#x2022;" horiz-adv-x="831" d="M414 436 Q352 436 298.5 458 Q245 480 206 518 Q167 556 145 607 Q123 658 123 717 Q123 775 145 826.5 Q167 878 206 917 Q245 956 298.5 978.5 Q352 1001 414 1001 Q476 1001 530 978.5 Q584 956 623.5 917 Q663 878 686 826.5 Q709 775 709 717 Q709 658 686 607 Q663 556 623.5 518 Q584 480 530 458 Q476 436 414 436 Z " />
<glyph glyph-name="paragraph" unicode="&#xb6;" horiz-adv-x="1286" d="M909 -244 L909 1229 L733 1229 L733 -313 L520 -410 L520 565 Q390 565 299 604.5 Q208 644 150.5 707 Q93 770 67 847 Q41 924 41 999 Q41 1080 65.5 1158 Q90 1236 145.5 1297.5 Q201 1359 291.5 1396.5 Q382 1434 514 1434 L1122 1434 L1122 -147 L909 -244 Z " />
<glyph glyph-name="germandbls" unicode="&#xdf;" horiz-adv-x="1143" d="M627 -25 Q570 -25 521 -16 Q472 -7 432 8 L541 184 Q583 172 629 172 Q666 172 705 187 Q744 202 776 233 Q808 264 828 312 Q848 360 848 426 Q848 474 832.5 520 Q817 566 783 601.5 Q749 637 695 658.5 Q641 680 565 680 L520 680 L520 877 L565 877 Q610 877 648.5 889 Q687 901 715 925.5 Q743 950 758.5 986.5 Q774 1023 774 1071 Q774 1159 721 1210.5 Q668 1262 569 1262 Q521 1262 480 1246.5 Q439 1231 409 1197 Q379 1163 362.5 1108 Q346 1053 346 975 L346 -311 L133 -410 L133 969 Q133 1102 170.5 1195.5 Q208 1289 269 1347 Q330 1405 408 1431.5 Q486 1458 567 1458 Q661 1458 738 1431 Q815 1404 870.5 1355 Q926 1306 956.5 1237 Q987 1168 987 1083 Q987 1035 975.5 989.5 Q964 944 940.5 905.5 Q917 867 881 837 Q845 807 795 788 Q859 769 908.5 735 Q958 701 992 655 Q1026 609 1043.5 552.5 Q1061 496 1061 432 Q1061 324 1028 239 Q995 154 936.5 95.5 Q878 37 799 6 Q720 -25 627 -25 Z " />
<glyph glyph-name="registered" unicode="&#xae;" horiz-adv-x="1729" d="M571 285 L571 1149 L911 1149 Q992 1149 1046.5 1127 Q1101 1105 1134 1069 Q1167 1033 1181.5 986.5 Q1196 940 1196 891 Q1196 853 1185.5 815.5 Q1175 778 1153 745 Q1131 712 1097 686 Q1063 660 1016 645 Q1058 558 1104 464.5 Q1150 371 1192 285 L1016 285 L850 631 L723 631 L723 285 L571 285 Z M911 776 Q947 776 971.5 785 Q996 794 1010 810 Q1024 826 1030 847 Q1036 868 1036 891 Q1036 911 1031 931 Q1026 951 1012 967.5 Q998 984 974 994 Q950 1004 911 1004 L723 1004 L723 776 L911 776 Z M864 -25 Q706 -25 571 32 Q436 89 336 188.5 Q236 288 179.5 423.5 Q123 559 123 717 Q123 822 148.5 917.5 Q174 1013 221.5 1095.5 Q269 1178 336 1245 Q403 1312 485.5 1359.5 Q568 1407 663.5 1432.5 Q759 1458 864 1458 Q969 1458 1065 1432.5 Q1161 1407 1243 1359.5 Q1325 1312 1392.5 1245 Q1460 1178 1507 1095.5 Q1554 1013 1580 917.5 Q1606 822 1606 717 Q1606 612 1580 516 Q1554 420 1507 338 Q1460 256 1392.5 188.5 Q1325 121 1243 74 Q1161 27 1065 1 Q969 -25 864 -25 Z M864 123 Q991 123 1098 168.5 Q1205 214 1283 293.5 Q1361 373 1404.5 481.5 Q1448 590 1448 717 Q1448 844 1404.5 952.5 Q1361 1061 1283 1140.5 Q1205 1220 1098 1265.5 Q991 1311 864 1311 Q737 1311 630 1265.5 Q523 1220 445.5 1140.5 Q368 1061 324.5 952.5 Q281 844 281 717 Q281 590 324.5 481.5 Q368 373 445.5 293.5 Q523 214 630 168.5 Q737 123 864 123 Z " />
<glyph glyph-name="copyright" unicode="&#xa9;" horiz-adv-x="1729" d="M872 270 Q771 270 702 310 Q633 350 591 413.5 Q549 477 530.5 557 Q512 637 512 717 Q512 766 520 818.5 Q528 871 546 920.5 Q564 970 592 1014 Q620 1058 660 1091 Q700 1124 752.5 1143.5 Q805 1163 872 1163 Q934 1163 984 1147 Q1034 1131 1071.5 1105 Q1109 1079 1134.5 1046 Q1160 1013 1174 979 L1038 915 Q1006 964 969.5 990 Q933 1016 872 1016 Q815 1016 776 988 Q737 960 713.5 916.5 Q690 873 680 820 Q670 767 670 717 Q670 664 681.5 610.5 Q693 557 718 514 Q743 471 781 444.5 Q819 418 872 418 Q930 418 968.5 448 Q1007 478 1038 524 L1176 475 Q1156 430 1128 392 Q1100 354 1062.5 327 Q1025 300 977.5 285 Q930 270 872 270 Z M864 -25 Q706 -25 571 32 Q436 89 336 188.5 Q236 288 179.5 423.5 Q123 559 123 717 Q123 822 148.5 917.5 Q174 1013 221.5 1095.5 Q269 1178 336 1245 Q403 1312 485.5 1359.5 Q568 1407 663.5 1432.5 Q759 1458 864 1458 Q969 1458 1065 1432.5 Q1161 1407 1243 1359.5 Q1325 1312 1392.5 1245 Q1460 1178 1507 1095.5 Q1554 1013 1580 917.5 Q1606 822 1606 717 Q1606 612 1580 516 Q1554 420 1507 338 Q1460 256 1392.5 188.5 Q1325 121 1243 74 Q1161 27 1065 1 Q969 -25 864 -25 Z M864 123 Q991 123 1098 168.5 Q1205 214 1283 293.5 Q1361 373 1404.5 481.5 Q1448 590 1448 717 Q1448 844 1404.5 952.5 Q1361 1061 1283 1140.5 Q1205 1220 1098 1265.5 Q991 1311 864 1311 Q737 1311 630 1265.5 Q523 1220 445.5 1140.5 Q368 1061 324.5 952.5 Q281 844 281 717 Q281 590 324.5 481.5 Q368 373 445.5 293.5 Q523 214 630 168.5 Q737 123 864 123 Z " />
<glyph glyph-name="trademark" unicode="&#x2122;" horiz-adv-x="1640" d="M424 1286 L424 569 L270 569 L270 1286 L41 1286 L41 1434 L651 1434 L651 1286 L424 1286 Z M1346 569 L1346 1085 L1327 1034 L1114 537 L899 1034 L879 1092 L879 569 L725 569 L725 1434 L883 1434 L1098 932 L1112 891 L1126 932 L1341 1434 L1497 1434 L1497 569 L1346 569 Z " />
<glyph glyph-name="acute" unicode="&#xb4;" horiz-adv-x="819" d="M369 1180 L152 1180 L442 1499 L733 1499 L369 1180 Z " />
<glyph glyph-name="dieresis" unicode="&#xa8;" horiz-adv-x="819" d="M225 1210 Q198 1210 174.5 1220 Q151 1230 133.5 1247.5 Q116 1265 106 1288.5 Q96 1312 96 1339 Q96 1366 106 1389.5 Q116 1413 133.5 1430.5 Q151 1448 174.5 1458 Q198 1468 225 1468 Q252 1468 275.5 1458 Q299 1448 316.5 1430.5 Q334 1413 344 1389.5 Q354 1366 354 1339 Q354 1312 344 1288.5 Q334 1265 316.5 1247.5 Q299 1230 275.5 1220 Q252 1210 225 1210 Z M594 1210 Q567 1210 543.5 1220 Q520 1230 502.5 1247.5 Q485 1265 475 1288.5 Q465 1312 465 1339 Q465 1366 475 1389.5 Q485 1413 502.5 1430.5 Q520 1448 543.5 1458 Q567 1468 594 1468 Q621 1468 644.5 1458 Q668 1448 685.5 1430.5 Q703 1413 713 1389.5 Q723 1366 723 1339 Q723 1312 713 1288.5 Q703 1265 685.5 1247.5 Q668 1230 644.5 1220 Q621 1210 594 1210 Z " />
<glyph glyph-name="notequal" unicode="&#x2260;" horiz-adv-x="1290" d="M614 399 L532 221 L307 221 L389 399 L164 399 L164 608 L487 608 L575 797 L164 797 L164 1006 L672 1006 L756 1184 L981 1184 L897 1006 L1126 1006 L1126 797 L801 797 L713 608 L1126 608 L1126 399 L614 399 Z " />
<glyph glyph-name="AE" unicode="&#xc6;" horiz-adv-x="1718" d="M827 0 L827 330 L385 330 L199 0 L-31 0 L801 1434 L1602 1434 L1602 1233 L1040 1233 L1040 840 L1362 840 L1362 639 L1040 639 L1040 201 L1647 201 L1647 0 L827 0 Z M827 520 L827 1118 Q819 1100 808.5 1079 Q798 1058 787 1036.5 Q776 1015 764.5 994.5 Q753 974 743 956 L496 520 L827 520 Z " />
<glyph glyph-name="Oslash" unicode="&#xd8;" horiz-adv-x="1495" d="M133 -25 L279 188 Q237 242 207.5 305 Q178 368 159.5 436 Q141 504 132 575 Q123 646 123 717 Q123 805 137.5 894.5 Q152 984 183 1066.5 Q214 1149 263 1220.5 Q312 1292 381.5 1344.5 Q451 1397 542 1427.5 Q633 1458 748 1458 Q851 1458 934 1433.5 Q1017 1409 1083 1366 L1147 1458 L1362 1458 L1214 1243 Q1256 1189 1285.5 1126.5 Q1315 1064 1334.5 996 Q1354 928 1363 857.5 Q1372 787 1372 717 Q1372 628 1357.5 538.5 Q1343 449 1312 366.5 Q1281 284 1232.5 212.5 Q1184 141 1114.5 88.5 Q1045 36 954 5.5 Q863 -25 748 -25 Q644 -25 561 -0.5 Q478 24 412 68 L348 -25 L133 -25 Z M344 717 Q344 632 361 546.5 Q378 461 416 387 L963 1188 Q919 1219 866 1236 Q813 1253 748 1253 Q673 1253 614 1229.5 Q555 1206 510 1166 Q465 1126 433.5 1072.5 Q402 1019 382 959.5 Q362 900 353 837.5 Q344 775 344 717 Z M748 180 Q823 180 882 203.5 Q941 227 985.5 267 Q1030 307 1061.5 360.5 Q1093 414 1113 473.5 Q1133 533 1142 595.5 Q1151 658 1151 717 Q1151 800 1134 886 Q1117 972 1079 1044 L532 246 Q576 215 628.5 197.5 Q681 180 748 180 Z " />
<glyph glyph-name="infinity" unicode="&#x221e;" horiz-adv-x="2048" d="M1489 242 Q1404 242 1334 264.5 Q1264 287 1207 327 Q1150 367 1104.5 420 Q1059 473 1024 535 Q988 473 943 420 Q898 367 841 327 Q784 287 714 264.5 Q644 242 559 242 Q457 242 368 273.5 Q279 305 213.5 366 Q148 427 110 515 Q72 603 72 717 Q72 831 110 919.5 Q148 1008 213.5 1069 Q279 1130 368 1162 Q457 1194 559 1194 Q644 1194 714 1171 Q784 1148 841 1108 Q898 1068 943 1014 Q988 960 1024 899 Q1059 960 1104 1014 Q1149 1068 1205.5 1108 Q1262 1148 1331.5 1171 Q1401 1194 1485 1194 Q1588 1194 1678 1162 Q1768 1130 1834 1069 Q1900 1008 1938 919.5 Q1976 831 1976 717 Q1976 603 1938 515 Q1900 427 1834.5 366 Q1769 305 1680 273.5 Q1591 242 1489 242 Z M1479 442 Q1539 442 1591 460.5 Q1643 479 1681.5 514 Q1720 549 1741.5 600.5 Q1763 652 1763 717 Q1763 782 1741.5 833.5 Q1720 885 1681.5 920.5 Q1643 956 1591 974.5 Q1539 993 1479 993 Q1417 993 1364.5 970.5 Q1312 948 1267 909.5 Q1222 871 1184.5 821 Q1147 771 1116 717 Q1147 662 1184.5 612.5 Q1222 563 1267 525 Q1312 487 1364.5 464.5 Q1417 442 1479 442 Z M569 442 Q630 442 683 464.5 Q736 487 781 525 Q826 563 863.5 612.5 Q901 662 932 717 Q901 771 863.5 821 Q826 871 781 909.5 Q736 948 683 970.5 Q630 993 569 993 Q509 993 457 974.5 Q405 956 366.5 920.5 Q328 885 306.5 833.5 Q285 782 285 717 Q285 652 306.5 600.5 Q328 549 366.5 514 Q405 479 457 460.5 Q509 442 569 442 Z " />
<glyph glyph-name="plusminus" unicode="&#xb1;" horiz-adv-x="1290" d="M752 723 L752 406 L539 406 L539 723 L164 723 L164 928 L539 928 L539 1245 L752 1245 L752 928 L1126 928 L1126 723 L752 723 Z M164 0 L164 205 L1126 205 L1126 0 L164 0 Z " />
<glyph glyph-name="lessequal" unicode="&#x2264;" horiz-adv-x="1290" d="M1126 352 L164 702 L164 883 L1126 1233 L1126 1018 L455 793 L1126 567 L1126 352 Z M164 0 L164 205 L1126 205 L1126 0 L164 0 Z " />
<glyph glyph-name="greaterequal" unicode="&#x2265;" horiz-adv-x="1290" d="M164 352 L164 567 L836 793 L164 1018 L164 1233 L1126 883 L1126 702 L164 352 Z M164 0 L164 205 L1126 205 L1126 0 L164 0 Z " />
<glyph glyph-name="yen" unicode="&#xa5;" horiz-adv-x="1174" d="M702 674 L985 674 L985 489 L692 489 L692 354 L985 354 L985 170 L692 170 L692 0 L479 0 L479 170 L178 170 L178 354 L479 354 L479 489 L178 489 L178 674 L467 674 L31 1434 L272 1434 L586 870 L899 1434 L1143 1434 L702 674 Z " />
<glyph glyph-name="mu" unicode="&#xb5;" horiz-adv-x="1157" d="M791 0 L791 100 Q740 35 676 5 Q612 -25 541 -25 Q419 -25 356 59 L356 -309 L143 -410 L143 1047 L356 1047 L356 422 Q356 350 371 302.5 Q386 255 413.5 227 Q441 199 479.5 187.5 Q518 176 565 176 Q613 176 654 188.5 Q695 201 725.5 229.5 Q756 258 773.5 304 Q791 350 791 418 L791 1047 L1004 1047 L1004 0 L791 0 Z " />
<glyph glyph-name="partialdiff" unicode="&#x2202;" horiz-adv-x="1194" d="M451 1458 Q620 1440 740 1382 Q860 1324 935.5 1226 Q1011 1128 1046 992 Q1081 856 1081 682 Q1081 591 1067.5 503 Q1054 415 1025.5 336.5 Q997 258 951.5 191.5 Q906 125 842.5 77 Q779 29 696.5 2 Q614 -25 510 -25 Q409 -25 326 5.5 Q243 36 184 92 Q125 148 93 227.5 Q61 307 61 406 Q61 520 102 611.5 Q143 703 212 767.5 Q281 832 370 866.5 Q459 901 555 901 Q616 901 664 890 Q712 879 749.5 859.5 Q787 840 815.5 813 Q844 786 868 754 Q868 889 828.5 983 Q789 1077 723.5 1136 Q658 1195 573.5 1223.5 Q489 1252 399 1257 L451 1458 Z M571 696 Q505 696 451 676 Q397 656 359 620 Q321 584 300 533.5 Q279 483 279 422 Q279 365 296 320 Q313 275 344.5 244 Q376 213 420 196.5 Q464 180 518 180 Q588 180 645 201 Q702 222 742 259.5 Q782 297 803.5 349 Q825 401 825 463 Q825 580 758.5 638 Q692 696 571 696 Z " />
<glyph glyph-name="summation" unicode="&#x2211;" horiz-adv-x="1253" d="M92 -287 L92 -94 L596 594 L121 1241 L121 1434 L1143 1434 L1143 1229 L393 1229 L862 594 L367 -82 L1182 -82 L1182 -287 L92 -287 Z " />
<glyph glyph-name="product" unicode="&#x220f;" horiz-adv-x="1468" d="M1071 -287 L1071 1229 L397 1229 L397 -287 L184 -287 L184 1434 L1284 1434 L1284 -287 L1071 -287 Z " />
<glyph glyph-name="pi" unicode="&#x3c0;" horiz-adv-x="1350" d="M1040 -25 Q978 -25 933.5 -6.5 Q889 12 861 46 Q833 80 820 128.5 Q807 177 807 236 L807 825 L522 825 L522 748 Q522 610 512.5 488 Q503 366 473 264.5 Q443 163 388 84.5 Q333 6 242 -45 L61 96 Q110 126 156.5 165 Q203 204 239 267.5 Q275 331 297 426.5 Q319 522 319 666 L319 825 L129 825 L129 1047 L1264 1047 L1264 825 L1020 825 L1020 287 Q1020 261 1024.5 239 Q1029 217 1040.5 201 Q1052 185 1071.5 176.5 Q1091 168 1122 168 Q1199 168 1278 217 L1247 23 Q1204 1 1153.5 -12 Q1103 -25 1040 -25 Z " />
<glyph glyph-name="integral" unicode="&#x222b;" horiz-adv-x="860" d="M297 -287 Q231 -287 179.5 -274 Q128 -261 82 -238 L82 -70 Q130 -87 164.5 -94.5 Q199 -102 231 -102 Q283 -102 303.5 -75 Q324 -48 324 -8 L324 1214 Q324 1286 344 1333.5 Q364 1381 397 1408.5 Q430 1436 473 1447 Q516 1458 563 1458 Q629 1458 680.5 1445 Q732 1432 778 1409 L778 1241 Q730 1258 695.5 1266 Q661 1274 629 1274 Q603 1274 585 1267 Q567 1260 556.5 1247 Q546 1234 541.5 1217 Q537 1200 537 1180 L537 -43 Q537 -115 517 -162.5 Q497 -210 464 -237.5 Q431 -265 387.5 -276 Q344 -287 297 -287 Z " />
<glyph glyph-name="ordfeminine" unicode="&#xaa;" horiz-adv-x="895" d="M602 580 L602 641 Q585 626 561.5 611 Q538 596 509 584.5 Q480 573 446.5 566 Q413 559 377 559 Q312 559 256 577.5 Q200 596 159 632 Q118 668 95 722 Q72 776 72 848 Q72 923 101 977 Q130 1031 177 1066 Q224 1101 282.5 1118 Q341 1135 401 1135 Q455 1135 507.5 1123.5 Q560 1112 602 1092 L602 1126 Q602 1220 560 1258 Q518 1296 430 1296 Q356 1296 297 1275 Q238 1254 188 1217 L135 1368 Q189 1406 269.5 1432 Q350 1458 453 1458 Q508 1458 566.5 1448 Q625 1438 673 1404.5 Q721 1371 751.5 1307 Q782 1243 782 1135 L782 580 L602 580 Z M410 721 Q438 721 465.5 727.5 Q493 734 518 745.5 Q543 757 564.5 771.5 Q586 786 602 801 L602 936 Q584 944 563 951 Q542 958 519 963.5 Q496 969 473.5 972 Q451 975 430 975 Q396 975 364.5 968 Q333 961 309 945.5 Q285 930 270.5 906 Q256 882 256 848 Q256 789 296.5 755 Q337 721 410 721 Z " />
<glyph glyph-name="ordmasculine" unicode="&#xba;" horiz-adv-x="950" d="M473 559 Q383 559 310.5 589.5 Q238 620 187.5 677.5 Q137 735 109.5 818.5 Q82 902 82 1008 Q82 1114 109.5 1197.5 Q137 1281 187.5 1339 Q238 1397 310.5 1427.5 Q383 1458 473 1458 Q563 1458 636 1427.5 Q709 1397 760.5 1339 Q812 1281 840 1197.5 Q868 1114 868 1008 Q868 902 840 818.5 Q812 735 760.5 677.5 Q709 620 636 589.5 Q563 559 473 559 Z M473 733 Q573 733 627.5 805.5 Q682 878 682 1008 Q682 1139 627.5 1211.5 Q573 1284 473 1284 Q376 1284 321 1211.5 Q266 1139 266 1008 Q266 879 321 806 Q376 733 473 733 Z " />
<glyph glyph-name="ae" unicode="&#xe6;" horiz-adv-x="1757" d="M1214 -25 Q1096 -25 1003.5 18 Q911 61 848 141 Q800 92 749 60 Q698 28 648 9 Q598 -10 551 -17.5 Q504 -25 465 -25 Q385 -25 317 -3 Q249 19 199 63.5 Q149 108 120.5 173.5 Q92 239 92 326 Q92 416 126 481.5 Q160 547 216 589.5 Q272 632 344.5 652 Q417 672 494 672 Q566 672 632.5 656.5 Q699 641 752 610 L752 668 Q752 727 738.5 768 Q725 809 697.5 834.5 Q670 860 628 871.5 Q586 883 528 883 Q430 883 358.5 857 Q287 831 229 788 L166 963 Q198 985 239 1004.5 Q280 1024 329 1039 Q378 1054 435 1062.5 Q492 1071 557 1071 Q598 1071 642.5 1066 Q687 1061 729.5 1046.5 Q772 1032 810 1005.5 Q848 979 877 936 Q940 1002 1024.5 1036.5 Q1109 1071 1214 1071 Q1307 1071 1389 1041.5 Q1471 1012 1532.5 951.5 Q1594 891 1629.5 799 Q1665 707 1665 582 Q1665 548 1663.5 510 Q1662 472 1657 444 L954 444 Q955 379 977.5 327.5 Q1000 276 1036 239.5 Q1072 203 1119 183.5 Q1166 164 1217 164 Q1282 164 1337.5 191 Q1393 218 1434 270 L1573 127 Q1516 59 1426.5 17 Q1337 -25 1214 -25 Z M504 164 Q584 164 647 197 Q710 230 752 276 L752 436 Q708 459 648 473 Q588 487 528 487 Q480 487 438 478 Q396 469 364.5 449.5 Q333 430 315 399.5 Q297 369 297 326 Q297 251 349.5 207.5 Q402 164 504 164 Z M1214 883 Q1164 883 1118.5 869 Q1073 855 1038 824 Q1003 793 980.5 744 Q958 695 954 625 L1450 625 Q1448 695 1427 744 Q1406 793 1373 824 Q1340 855 1298 869 Q1256 883 1214 883 Z " />
<glyph glyph-name="oslash" unicode="&#xf8;" horiz-adv-x="1161" d="M102 -25 L215 139 Q161 210 131.5 305.5 Q102 401 102 522 Q102 651 135.5 753 Q169 855 231 925.5 Q293 996 381.5 1033.5 Q470 1071 580 1071 Q719 1071 823 1012 L864 1071 L1059 1071 L944 907 Q1000 836 1029.5 739.5 Q1059 643 1059 522 Q1059 393 1025 291.5 Q991 190 929 119.5 Q867 49 778 12 Q689 -25 580 -25 Q508 -25 447.5 -9.5 Q387 6 336 35 L295 -25 L102 -25 Z M580 176 Q641 176 690.5 200 Q740 224 774.5 268.5 Q809 313 827.5 377 Q846 441 846 522 Q846 578 837 626.5 Q828 675 809 715 L457 207 Q509 176 580 176 Z M315 522 Q315 411 348 332 L702 840 Q676 855 645 862.5 Q614 870 580 870 Q519 870 470 846 Q421 822 386.5 777 Q352 732 333.5 667.5 Q315 603 315 522 Z " />
<glyph glyph-name="questiondown" unicode="&#xbf;" horiz-adv-x="1026" d="M639 659 L639 618 Q639 545 624 490 Q609 435 584 392.5 Q559 350 527 317.5 Q495 285 462 256.5 Q429 228 397 202 Q365 176 340 146 Q315 116 300 80 Q285 44 285 -4 Q285 -49 300 -86.5 Q315 -124 343.5 -151 Q372 -178 414 -193.5 Q456 -209 510 -209 Q635 -209 703.5 -136 Q772 -63 772 70 L985 70 Q985 -42 950 -131 Q915 -220 852 -282 Q789 -344 701.5 -377 Q614 -410 510 -410 Q403 -410 321.5 -379 Q240 -348 184.5 -293 Q129 -238 100.5 -164 Q72 -90 72 -4 Q72 80 98 138 Q124 196 163.5 240.5 Q203 285 249 322 Q295 359 334.5 400.5 Q374 442 400 494 Q426 546 426 621 L426 659 L639 659 Z M535 770 Q502 770 473.5 782 Q445 794 424.5 814.5 Q404 835 392.5 862 Q381 889 381 920 Q381 950 392.5 977.5 Q404 1005 424.5 1026 Q445 1047 473.5 1059 Q502 1071 535 1071 Q567 1071 595.5 1059 Q624 1047 645 1026 Q666 1005 678 977.5 Q690 950 690 920 Q690 889 678 862 Q666 835 645 814.5 Q624 794 595.5 782 Q567 770 535 770 Z " />
<glyph glyph-name="exclamdown" unicode="&#xa1;" horiz-adv-x="565" d="M176 -410 L176 43 L236 651 L330 651 L389 43 L389 -410 L176 -410 Z M283 770 Q250 770 222 782 Q194 794 173 814.5 Q152 835 140.5 862 Q129 889 129 920 Q129 950 140.5 977.5 Q152 1005 173 1026 Q194 1047 222 1059 Q250 1071 283 1071 Q315 1071 343.5 1059 Q372 1047 393 1026 Q414 1005 426 977.5 Q438 950 438 920 Q438 889 426 862 Q414 835 393 814.5 Q372 794 343.5 782 Q315 770 283 770 Z " />
<glyph glyph-name="logicalnot" unicode="&#xac;" horiz-adv-x="1290" d="M913 344 L913 764 L164 764 L164 969 L1126 969 L1126 344 L913 344 Z " />
<glyph glyph-name="radical" unicode="&#x221a;" horiz-adv-x="1139" d="M1077 1434 L641 0 L461 0 L92 700 L317 700 L528 291 L858 1434 L1077 1434 Z " />
<glyph glyph-name="florin" unicode="&#x192;" horiz-adv-x="748" d="M-35 -330 Q46 -312 101.5 -288.5 Q157 -265 192 -231.5 Q227 -198 242.5 -154 Q258 -110 258 -51 L258 862 L102 862 L102 1047 L258 1047 L258 1214 Q258 1286 279 1333.5 Q300 1381 333.5 1408.5 Q367 1436 410 1447 Q453 1458 498 1458 Q560 1458 610 1445 Q660 1432 707 1409 L707 1237 Q659 1254 624 1262 Q589 1270 557 1270 Q531 1270 514 1263 Q497 1256 487.5 1243 Q478 1230 474.5 1213 Q471 1196 471 1176 L471 1047 L707 1047 L707 862 L471 862 L471 -12 Q471 -58 467 -103.5 Q463 -149 452.5 -192 Q442 -235 423 -273.5 Q404 -312 373 -344 Q337 -382 299 -408 Q261 -434 223 -452 Q185 -470 147.5 -481 Q110 -492 76 -500 L-35 -330 Z " />
<glyph glyph-name="approxequal" unicode="&#x2248;" horiz-adv-x="1290" d="M852 752 Q787 752 731 770.5 Q675 789 625.5 811 Q576 833 530.5 851.5 Q485 870 440 870 Q385 870 353.5 837 Q322 804 317 752 L164 752 Q164 816 179 874.5 Q194 933 227 977.5 Q260 1022 312 1048.5 Q364 1075 438 1075 Q503 1075 559 1056.5 Q615 1038 664.5 1015.5 Q714 993 759.5 974.5 Q805 956 850 956 Q906 956 937 989.5 Q968 1023 973 1075 L1126 1075 Q1126 1011 1111 952.5 Q1096 894 1063.5 849.5 Q1031 805 979 778.5 Q927 752 852 752 Z M852 332 Q787 332 731 350.5 Q675 369 625.5 391.5 Q576 414 530.5 432.5 Q485 451 440 451 Q385 451 353.5 417.5 Q322 384 317 332 L164 332 Q164 396 179 454.5 Q194 513 227 557.5 Q260 602 312 628.5 Q364 655 438 655 Q503 655 559 636.5 Q615 618 664.5 596 Q714 574 759.5 555.5 Q805 537 850 537 Q906 537 937 570 Q968 603 973 655 L1126 655 Q1126 591 1111 532.5 Q1096 474 1063.5 429.5 Q1031 385 979 358.5 Q927 332 852 332 Z " />
<glyph glyph-name="Delta" unicode="&#x2206;" horiz-adv-x="1425" d="M86 0 L604 1434 L823 1434 L1339 0 L86 0 Z M764 1006 Q759 1022 752 1042.5 Q745 1063 738 1084.5 Q731 1106 725 1127.5 Q719 1149 715 1167 Q705 1130 692.5 1086.5 Q680 1043 666 1006 L379 205 L1049 205 L764 1006 Z " />
<glyph glyph-name="guillemotleft" unicode="&#xab;" horiz-adv-x="1073" d="M373 0 L61 524 L373 1047 L604 1047 L293 524 L604 0 L373 0 Z M811 0 L500 524 L811 1047 L1042 1047 L731 524 L1042 0 L811 0 Z " />
<glyph glyph-name="guillemotright" unicode="&#xbb;" horiz-adv-x="1073" d="M469 0 L780 524 L469 1047 L700 1047 L1012 524 L700 0 L469 0 Z M31 0 L342 524 L31 1047 L262 1047 L573 524 L262 0 L31 0 Z " />
<glyph glyph-name="ellipsis" unicode="&#x2026;" horiz-adv-x="1911" d="M317 -25 Q289 -25 264.5 -15 Q240 -5 222 12.5 Q204 30 194 53.5 Q184 77 184 104 Q184 131 194 155 Q204 179 222 197 Q240 215 264.5 225.5 Q289 236 317 236 Q345 236 370 225.5 Q395 215 413.5 197 Q432 179 442.5 155 Q453 131 453 104 Q453 77 442.5 53.5 Q432 30 413.5 12.5 Q395 -5 370 -15 Q345 -25 317 -25 Z M954 -25 Q926 -25 901.5 -15 Q877 -5 859 12.5 Q841 30 831 53.5 Q821 77 821 104 Q821 131 831 155 Q841 179 859 197 Q877 215 901.5 225.5 Q926 236 954 236 Q982 236 1007 225.5 Q1032 215 1050.5 197 Q1069 179 1079.5 155 Q1090 131 1090 104 Q1090 77 1079.5 53.5 Q1069 30 1050.5 12.5 Q1032 -5 1007 -15 Q982 -25 954 -25 Z M1591 -25 Q1563 -25 1538.5 -15 Q1514 -5 1496 12.5 Q1478 30 1468 53.5 Q1458 77 1458 104 Q1458 131 1468 155 Q1478 179 1496 197 Q1514 215 1538.5 225.5 Q1563 236 1591 236 Q1619 236 1644 225.5 Q1669 215 1687 197 Q1705 179 1715.5 155 Q1726 131 1726 104 Q1726 77 1715.5 53.5 Q1705 30 1687 12.5 Q1669 -5 1644 -15 Q1619 -25 1591 -25 Z " />
<glyph glyph-name="Agrave" unicode="&#xc0;" horiz-adv-x="1425" d="M1118 0 L1004 330 L424 330 L307 0 L86 0 L604 1434 L823 1434 L1339 0 L1118 0 Z M764 1006 Q752 1040 737.5 1085 Q723 1130 715 1167 Q705 1130 691.5 1085.5 Q678 1041 666 1006 L489 518 L938 518 L764 1006 Z M754 1569 L389 1888 L680 1888 L971 1569 L754 1569 Z " />
<glyph glyph-name="Atilde" unicode="&#xc3;" horiz-adv-x="1425" d="M1118 0 L1004 330 L424 330 L307 0 L86 0 L604 1434 L823 1434 L1339 0 L1118 0 Z M764 1006 Q752 1040 737.5 1085 Q723 1130 715 1167 Q705 1130 691.5 1085.5 Q678 1041 666 1006 L489 518 L938 518 L764 1006 Z M874 1591 Q820 1591 774.5 1606.5 Q729 1622 689 1640 Q649 1658 612 1673.5 Q575 1689 536 1689 Q498 1689 470.5 1667.5 Q443 1646 440 1599 L336 1599 Q336 1660 347.5 1709.5 Q359 1759 385 1794 Q411 1829 451.5 1847.5 Q492 1866 551 1866 Q605 1866 650.5 1850.5 Q696 1835 736 1816.5 Q776 1798 813 1782.5 Q850 1767 889 1767 Q927 1767 954.5 1789 Q982 1811 985 1857 L1089 1857 Q1089 1796 1077.5 1746.5 Q1066 1697 1040 1662.5 Q1014 1628 973 1609.5 Q932 1591 874 1591 Z " />
<glyph glyph-name="Otilde" unicode="&#xd5;" horiz-adv-x="1516" d="M758 -25 Q643 -25 552 5.5 Q461 36 391.5 88.5 Q322 141 273 212.5 Q224 284 193 366.5 Q162 449 147.5 538.5 Q133 628 133 717 Q133 805 147.5 894.5 Q162 984 193 1066.5 Q224 1149 273 1220.5 Q322 1292 391.5 1344.5 Q461 1397 552 1427.5 Q643 1458 758 1458 Q873 1458 964 1427.5 Q1055 1397 1124.5 1344.5 Q1194 1292 1243 1220.5 Q1292 1149 1323 1066.5 Q1354 984 1368 894.5 Q1382 805 1382 717 Q1382 628 1368 538.5 Q1354 449 1323 366.5 Q1292 284 1243 212.5 Q1194 141 1124.5 88.5 Q1055 36 964 5.5 Q873 -25 758 -25 Z M758 180 Q833 180 892 203.5 Q951 227 995.5 267 Q1040 307 1071.5 360.5 Q1103 414 1123 473.5 Q1143 533 1152 595.5 Q1161 658 1161 717 Q1161 779 1152 843.5 Q1143 908 1123 967.5 Q1103 1027 1071.5 1079 Q1040 1131 995.5 1169.5 Q951 1208 892 1230.5 Q833 1253 758 1253 Q683 1253 624 1229.5 Q565 1206 520 1166 Q475 1126 443.5 1072.5 Q412 1019 392 959.5 Q372 900 363 837.5 Q354 775 354 717 Q354 623 375 527.5 Q396 432 444 354.5 Q492 277 569 228.5 Q646 180 758 180 Z M921 1591 Q867 1591 821.5 1606.5 Q776 1622 736 1640 Q696 1658 659 1673.5 Q622 1689 583 1689 Q545 1689 517.5 1667.5 Q490 1646 487 1599 L383 1599 Q383 1660 394.5 1709.5 Q406 1759 432 1794 Q458 1829 498.5 1847.5 Q539 1866 598 1866 Q652 1866 697.5 1850.5 Q743 1835 783 1816.5 Q823 1798 860 1782.5 Q897 1767 936 1767 Q974 1767 1001.5 1789 Q1029 1811 1032 1857 L1136 1857 Q1136 1796 1124.5 1746.5 Q1113 1697 1087 1662.5 Q1061 1628 1020 1609.5 Q979 1591 921 1591 Z " />
<glyph glyph-name="OE" unicode="&#x152;" horiz-adv-x="1831" d="M936 0 Q894 -12 847 -18.5 Q800 -25 748 -25 Q633 -25 542 5.5 Q451 36 381.5 88.5 Q312 141 263 212.5 Q214 284 183 366.5 Q152 449 137.5 538.5 Q123 628 123 717 Q123 799 136 886 Q149 973 179 1055.5 Q209 1138 257 1211 Q305 1284 374.5 1339 Q444 1394 536.5 1426 Q629 1458 748 1458 Q850 1458 936 1434 L1714 1434 L1714 1233 L1141 1233 L1141 840 L1475 840 L1475 639 L1141 639 L1141 201 L1759 201 L1759 0 L936 0 Z M748 180 Q802 180 846.5 192 Q891 204 928 225 L928 1208 Q851 1255 748 1255 Q673 1255 613.5 1231.5 Q554 1208 509 1167.5 Q464 1127 432.5 1073.5 Q401 1020 381.5 960 Q362 900 353 837.5 Q344 775 344 717 Q344 622 365 526 Q386 430 434 353 Q482 276 559 228 Q636 180 748 180 Z " />
<glyph glyph-name="oe" unicode="&#x153;" horiz-adv-x="1860" d="M1317 -25 Q1198 -25 1105.5 18.5 Q1013 62 950 145 Q887 62 793.5 18.5 Q700 -25 580 -25 Q470 -25 381.5 12 Q293 49 231 119.5 Q169 190 135.5 291.5 Q102 393 102 522 Q102 651 135.5 753 Q169 855 231 925.5 Q293 996 381.5 1033.5 Q470 1071 580 1071 Q700 1071 793.5 1027 Q887 983 950 899 Q1012 983 1105 1027 Q1198 1071 1317 1071 Q1410 1071 1492 1041.5 Q1574 1012 1635 951.5 Q1696 891 1731.5 799 Q1767 707 1767 582 Q1767 548 1765.5 510 Q1764 472 1759 444 L1055 444 Q1056 379 1078.5 327.5 Q1101 276 1137.5 239.5 Q1174 203 1221 183.5 Q1268 164 1319 164 Q1384 164 1440 191 Q1496 218 1536 270 L1675 127 Q1618 59 1529 17 Q1440 -25 1317 -25 Z M1317 883 Q1267 883 1221.5 868.5 Q1176 854 1140 822.5 Q1104 791 1081.5 740 Q1059 689 1055 616 L1554 616 Q1552 689 1531 740 Q1510 791 1476.5 822.5 Q1443 854 1401 868.5 Q1359 883 1317 883 Z M580 176 Q641 176 690.5 200 Q740 224 774.5 268.5 Q809 313 827.5 377 Q846 441 846 522 Q846 603 827.5 667.5 Q809 732 774.5 777 Q740 822 690.5 846 Q641 870 580 870 Q519 870 470 846 Q421 822 386.5 777 Q352 732 333.5 667.5 Q315 603 315 522 Q315 441 333.5 377 Q352 313 386.5 268.5 Q421 224 470 200 Q519 176 580 176 Z " />
<glyph glyph-name="endash" unicode="&#x2013;" horiz-adv-x="1014" d="M102 496 L102 680 L911 680 L911 496 L102 496 Z " />
<glyph glyph-name="emdash" unicode="&#x2014;" horiz-adv-x="1178" d="M-10 496 L-10 680 L1188 680 L1188 496 L-10 496 Z " />
<glyph glyph-name="quotedblleft" unicode="&#x201c;" horiz-adv-x="913" d="M233 895 Q201 895 171.5 906.5 Q142 918 120 941 Q98 964 85 999 Q72 1034 72 1081 Q72 1140 89.5 1195.5 Q107 1251 137 1300 Q167 1349 207.5 1389 Q248 1429 293 1458 L373 1407 Q359 1395 339.5 1372.5 Q320 1350 301 1321.5 Q282 1293 267 1260.5 Q252 1228 248 1194 Q275 1192 299.5 1181 Q324 1170 343 1151 Q362 1132 373.5 1107 Q385 1082 385 1051 Q385 1015 372.5 986.5 Q360 958 339 937.5 Q318 917 290.5 906 Q263 895 233 895 Z M690 895 Q658 895 628.5 906.5 Q599 918 576.5 941 Q554 964 541 999 Q528 1034 528 1081 Q528 1140 545.5 1195.5 Q563 1251 593.5 1300 Q624 1349 664.5 1389 Q705 1429 750 1458 L829 1407 Q815 1395 796 1372.5 Q777 1350 758 1321.5 Q739 1293 724 1260.5 Q709 1228 705 1194 Q732 1192 756.5 1181 Q781 1170 800 1151 Q819 1132 830.5 1107 Q842 1082 842 1051 Q842 1015 829.5 986.5 Q817 958 796 937.5 Q775 917 747.5 906 Q720 895 690 895 Z " />
<glyph glyph-name="quotedblright" unicode="&#x201d;" horiz-adv-x="913" d="M84 946 Q98 958 117.5 980.5 Q137 1003 156 1031.5 Q175 1060 189.5 1092.5 Q204 1125 209 1159 Q182 1161 157 1172.5 Q132 1184 113.5 1202.5 Q95 1221 83.5 1246.5 Q72 1272 72 1303 Q72 1338 84.5 1366.5 Q97 1395 117.5 1415.5 Q138 1436 165.5 1447 Q193 1458 223 1458 Q255 1458 284.5 1446.5 Q314 1435 336.5 1412 Q359 1389 372 1354 Q385 1319 385 1272 Q385 1213 367.5 1157 Q350 1101 320 1052.5 Q290 1004 249.5 963.5 Q209 923 164 895 L84 946 Z M541 946 Q555 958 574.5 980.5 Q594 1003 612.5 1031.5 Q631 1060 646 1092.5 Q661 1125 666 1159 Q639 1161 614 1172.5 Q589 1184 570 1202.5 Q551 1221 539.5 1246.5 Q528 1272 528 1303 Q528 1338 540.5 1366.5 Q553 1395 574 1415.5 Q595 1436 622.5 1447 Q650 1458 680 1458 Q712 1458 741.5 1446.5 Q771 1435 793.5 1412 Q816 1389 829 1354 Q842 1319 842 1272 Q842 1213 824.5 1157 Q807 1101 776.5 1052.5 Q746 1004 706 963.5 Q666 923 621 895 L541 946 Z " />
<glyph glyph-name="quoteleft" unicode="&#x2018;" horiz-adv-x="457" d="M233 895 Q201 895 171.5 906.5 Q142 918 120 941 Q98 964 85 999 Q72 1034 72 1081 Q72 1140 89.5 1195.5 Q107 1251 137 1300 Q167 1349 207.5 1389 Q248 1429 293 1458 L373 1407 Q359 1395 339.5 1372.5 Q320 1350 301 1321.5 Q282 1293 267 1260.5 Q252 1228 248 1194 Q275 1192 299.5 1181 Q324 1170 343 1151 Q362 1132 373.5 1107 Q385 1082 385 1051 Q385 1015 372.5 986.5 Q360 958 339 937.5 Q318 917 290.5 906 Q263 895 233 895 Z " />
<glyph glyph-name="quoteright" unicode="&#x2019;" horiz-adv-x="457" d="M84 946 Q98 958 117.5 980.5 Q137 1003 156 1031.5 Q175 1060 189.5 1092.5 Q204 1125 209 1159 Q182 1161 157 1172.5 Q132 1184 113.5 1202.5 Q95 1221 83.5 1246.5 Q72 1272 72 1303 Q72 1338 84.5 1366.5 Q97 1395 117.5 1415.5 Q138 1436 165.5 1447 Q193 1458 223 1458 Q255 1458 284.5 1446.5 Q314 1435 336.5 1412 Q359 1389 372 1354 Q385 1319 385 1272 Q385 1213 367.5 1157 Q350 1101 320 1052.5 Q290 1004 249.5 963.5 Q209 923 164 895 L84 946 Z " />
<glyph glyph-name="divide" unicode="&#xf7;" horiz-adv-x="1290" d="M164 600 L164 805 L1126 805 L1126 600 L164 600 Z M643 965 Q614 965 590 975 Q566 985 548 1002.5 Q530 1020 520 1043.5 Q510 1067 510 1094 Q510 1121 520 1144.5 Q530 1168 548 1186 Q566 1204 590 1214.5 Q614 1225 643 1225 Q671 1225 696 1214.5 Q721 1204 739 1186 Q757 1168 767.5 1144.5 Q778 1121 778 1094 Q778 1067 767.5 1043.5 Q757 1020 739 1002.5 Q721 985 696 975 Q671 965 643 965 Z M643 180 Q614 180 590 190 Q566 200 548 217.5 Q530 235 520 258.5 Q510 282 510 309 Q510 336 520 360 Q530 384 548 401.5 Q566 419 590 429.5 Q614 440 643 440 Q671 440 696 429.5 Q721 419 739 401.5 Q757 384 767.5 360 Q778 336 778 309 Q778 282 767.5 258.5 Q757 235 739 217.5 Q721 200 696 190 Q671 180 643 180 Z " />
<glyph glyph-name="lozenge" unicode="&#x25ca;" horiz-adv-x="1229" d="M524 -25 L113 717 L524 1458 L705 1458 L1116 717 L705 -25 L524 -25 Z M614 1188 L332 717 L614 246 L897 717 L614 1188 Z " />
<glyph glyph-name="ydieresis" unicode="&#xff;" horiz-adv-x="1102" d="M498 -397 L281 -397 L442 18 L51 1047 L262 1047 L520 362 Q531 333 537 314 Q543 295 549 270 Q555 295 561 314 Q567 333 578 362 L838 1047 L1051 1047 L498 -397 Z M364 1210 Q337 1210 313.5 1220 Q290 1230 272.5 1247.5 Q255 1265 245 1288.5 Q235 1312 235 1339 Q235 1366 245 1389.5 Q255 1413 272.5 1430.5 Q290 1448 313.5 1458 Q337 1468 364 1468 Q391 1468 414.5 1458 Q438 1448 455.5 1430.5 Q473 1413 483 1389.5 Q493 1366 493 1339 Q493 1312 483 1288.5 Q473 1265 455.5 1247.5 Q438 1230 414.5 1220 Q391 1210 364 1210 Z M733 1210 Q706 1210 682.5 1220 Q659 1230 641.5 1247.5 Q624 1265 614 1288.5 Q604 1312 604 1339 Q604 1366 614 1389.5 Q624 1413 641.5 1430.5 Q659 1448 682.5 1458 Q706 1468 733 1468 Q760 1468 783.5 1458 Q807 1448 824.5 1430.5 Q842 1413 852 1389.5 Q862 1366 862 1339 Q862 1312 852 1288.5 Q842 1265 824.5 1247.5 Q807 1230 783.5 1220 Q760 1210 733 1210 Z " />
<glyph glyph-name="Ydieresis" unicode="&#x178;" horiz-adv-x="1364" d="M575 0 L575 561 L72 1434 L315 1434 L682 778 L1049 1434 L1292 1434 L788 563 L788 0 L575 0 Z M497 1599 Q470 1599 446.5 1609 Q423 1619 405.5 1636.5 Q388 1654 378 1677.5 Q368 1701 368 1728 Q368 1755 378 1778.5 Q388 1802 405.5 1819.5 Q423 1837 446.5 1847 Q470 1857 497 1857 Q524 1857 547.5 1847 Q571 1837 588.5 1819.5 Q606 1802 616 1778.5 Q626 1755 626 1728 Q626 1701 616 1677.5 Q606 1654 588.5 1636.5 Q571 1619 547.5 1609 Q524 1599 497 1599 Z M866 1599 Q839 1599 815.5 1609 Q792 1619 774.5 1636.5 Q757 1654 747 1677.5 Q737 1701 737 1728 Q737 1755 747 1778.5 Q757 1802 774.5 1819.5 Q792 1837 815.5 1847 Q839 1857 866 1857 Q893 1857 916.5 1847 Q940 1837 957.5 1819.5 Q975 1802 985 1778.5 Q995 1755 995 1728 Q995 1701 985 1677.5 Q975 1654 957.5 1636.5 Q940 1619 916.5 1609 Q893 1599 866 1599 Z " />
<glyph glyph-name="fraction" unicode="&#x2044;" horiz-adv-x="682" d="M-246 -25 L733 1458 L928 1458 L-51 -25 L-246 -25 Z " />
<glyph glyph-name="Euro" unicode="&#x20ac;" horiz-adv-x="1290" d="M496 444 Q511 387 534.5 339 Q558 291 593 255.5 Q628 220 674 200 Q720 180 780 180 Q859 180 921.5 220 Q984 260 1030 328 L1208 217 Q1176 163 1133 118 Q1090 73 1036.5 41.5 Q983 10 919 -7.5 Q855 -25 780 -25 Q660 -25 572 12.5 Q484 50 423 113.5 Q362 177 324.5 262.5 Q287 348 268 444 L80 444 L156 625 L246 625 Q244 648 244 671 Q244 694 244 717 Q244 732 244 747.5 Q244 763 246 780 L82 780 L158 961 L268 961 Q288 1058 328 1147.5 Q368 1237 432 1306 Q496 1375 587 1416.5 Q678 1458 801 1458 Q897 1458 988.5 1431 Q1080 1404 1176 1335 L1092 1133 Q1066 1155 1036.5 1176.5 Q1007 1198 971 1215 Q935 1232 893 1242.5 Q851 1253 801 1253 Q733 1253 682 1229.5 Q631 1206 593.5 1166.5 Q556 1127 531 1074 Q506 1021 492 961 L1020 961 L944 780 L467 780 Q465 763 465 747 Q465 731 465 717 Q465 694 465 671 Q465 648 467 625 L885 625 L809 444 L496 444 Z " />
<glyph glyph-name="guilsinglleft" unicode="&#x2039;" horiz-adv-x="635" d="M373 0 L61 524 L373 1047 L604 1047 L293 524 L604 0 L373 0 Z " />
<glyph glyph-name="guilsinglright" unicode="&#x203a;" horiz-adv-x="635" d="M31 0 L342 524 L31 1047 L262 1047 L573 524 L262 0 L31 0 Z " />
<glyph glyph-name="fi" unicode="&#xfb01;" horiz-adv-x="1194" d="M440 862 L440 0 L227 0 L227 862 L72 862 L72 1047 L227 1047 L227 1214 Q227 1286 248 1333.5 Q269 1381 302.5 1408.5 Q336 1436 379 1447 Q422 1458 467 1458 Q529 1458 579 1445 Q629 1432 676 1409 L676 1233 Q628 1253 593 1261.5 Q558 1270 526 1270 Q500 1270 483.5 1263 Q467 1256 457 1243 Q447 1230 443.5 1213 Q440 1196 440 1176 L440 1047 L676 1047 L676 862 L440 862 Z M825 0 L825 1047 L1038 1047 L1038 0 L825 0 Z M932 1210 Q905 1210 881.5 1220 Q858 1230 840.5 1247.5 Q823 1265 813 1288.5 Q803 1312 803 1339 Q803 1366 813 1389.5 Q823 1413 840.5 1430.5 Q858 1448 881.5 1458 Q905 1468 932 1468 Q959 1468 982.5 1458 Q1006 1448 1023.5 1430.5 Q1041 1413 1051 1389.5 Q1061 1366 1061 1339 Q1061 1312 1051 1288.5 Q1041 1265 1023.5 1247.5 Q1006 1230 982.5 1220 Q959 1210 932 1210 Z " />
<glyph glyph-name="fl" unicode="&#xfb02;" horiz-adv-x="1196" d="M440 862 L440 0 L227 0 L227 862 L72 862 L72 1047 L227 1047 L227 1214 Q227 1286 248 1333.5 Q269 1381 302.5 1408.5 Q336 1436 379 1447 Q422 1458 467 1458 Q529 1458 579 1445 Q629 1432 676 1409 L676 1233 Q628 1253 593 1261.5 Q558 1270 526 1270 Q500 1270 483.5 1263 Q467 1256 457 1243 Q447 1230 443.5 1213 Q440 1196 440 1176 L440 1047 L676 1047 L676 862 L440 862 Z M819 0 L819 1378 L1032 1479 L1032 0 L819 0 Z " />
<glyph glyph-name="daggerdbl" unicode="&#x2021;" horiz-adv-x="1147" d="M901 98 L662 133 L680 -33 L680 -289 L467 -289 L467 -33 L483 133 L246 98 L133 98 L133 303 L246 303 L485 270 L467 481 L467 688 L485 899 L246 866 L133 866 L133 1071 L246 1071 L483 1036 L467 1202 L467 1458 L680 1458 L680 1202 L662 1036 L901 1071 L1014 1071 L1014 866 L901 866 L659 899 L680 688 L680 481 L659 270 L901 303 L1014 303 L1014 98 L901 98 Z " />
<glyph glyph-name="periodcentered" unicode="&#xb7;" horiz-adv-x="457" d="M227 565 Q194 565 166 577 Q138 589 117.5 609.5 Q97 630 85.5 657 Q74 684 74 715 Q74 746 85.5 773.5 Q97 801 117.5 821.5 Q138 842 166 854 Q194 866 227 866 Q259 866 287.5 854 Q316 842 337 821.5 Q358 801 370.5 773.5 Q383 746 383 715 Q383 684 370.5 657 Q358 630 337 609.5 Q316 589 287.5 577 Q259 565 227 565 Z " />
<glyph glyph-name="quotesinglbase" unicode="&#x201a;" horiz-adv-x="457" d="M84 -238 Q98 -226 117.5 -203.5 Q137 -181 156 -152.5 Q175 -124 189.5 -91.5 Q204 -59 209 -25 Q182 -22 157 -11 Q132 0 113.5 19 Q95 38 83.5 63 Q72 88 72 119 Q72 154 84.5 182.5 Q97 211 117.5 231.5 Q138 252 165.5 263 Q193 274 223 274 Q255 274 284.5 262.5 Q314 251 336.5 228 Q359 205 372 170 Q385 135 385 88 Q385 29 367.5 -27 Q350 -83 320 -131.5 Q290 -180 249.5 -220.5 Q209 -261 164 -289 L84 -238 Z " />
<glyph glyph-name="quotedblbase" unicode="&#x201e;" horiz-adv-x="913" d="M84 -238 Q98 -226 117.5 -203.5 Q137 -181 156 -152.5 Q175 -124 189.5 -91.5 Q204 -59 209 -25 Q182 -22 157 -11 Q132 0 113.5 19 Q95 38 83.5 63 Q72 88 72 119 Q72 154 84.5 182.5 Q97 211 117.5 231.5 Q138 252 165.5 263 Q193 274 223 274 Q255 274 284.5 262.5 Q314 251 336.5 228 Q359 205 372 170 Q385 135 385 88 Q385 29 367.5 -27 Q350 -83 320 -131.5 Q290 -180 249.5 -220.5 Q209 -261 164 -289 L84 -238 Z M541 -238 Q555 -226 574.5 -203.5 Q594 -181 612.5 -152.5 Q631 -124 646 -91.5 Q661 -59 666 -25 Q639 -22 614 -11 Q589 0 570 19 Q551 38 539.5 63 Q528 88 528 119 Q528 154 540.5 182.5 Q553 211 574 231.5 Q595 252 622.5 263 Q650 274 680 274 Q712 274 741.5 262.5 Q771 251 793.5 228 Q816 205 829 170 Q842 135 842 88 Q842 29 824.5 -27 Q807 -83 776.5 -131.5 Q746 -180 706 -220.5 Q666 -261 621 -289 L541 -238 Z " />
<glyph glyph-name="perthousand" unicode="&#x2030;" horiz-adv-x="2542" d="M428 729 Q336 729 272 762 Q208 795 168 847 Q128 899 110 964 Q92 1029 92 1094 Q92 1154 109.5 1218 Q127 1282 167 1335.5 Q207 1389 271 1423.5 Q335 1458 428 1458 Q520 1458 584 1425.5 Q648 1393 688 1340.5 Q728 1288 746 1223 Q764 1158 764 1094 Q764 1035 747 970.5 Q730 906 690.5 852.5 Q651 799 586.5 764 Q522 729 428 729 Z M428 893 Q470 893 501 909 Q532 925 552.5 952.5 Q573 980 582.5 1016.5 Q592 1053 592 1094 Q592 1137 582 1174 Q572 1211 551.5 1237.5 Q531 1264 500.5 1279 Q470 1294 428 1294 Q386 1294 355 1278 Q324 1262 303.5 1235 Q283 1208 273.5 1171.5 Q264 1135 264 1094 Q264 1050 274 1013 Q284 976 304.5 949.5 Q325 923 355.5 908 Q386 893 428 893 Z M479 -25 L285 -25 L1264 1458 L1458 1458 L479 -25 Z M1315 -25 Q1223 -25 1159 8 Q1095 41 1055 93 Q1015 145 997 210 Q979 275 979 340 Q979 400 996.5 464.5 Q1014 529 1054 582.5 Q1094 636 1158 670.5 Q1222 705 1315 705 Q1407 705 1471 672 Q1535 639 1575 587 Q1615 535 1633 469.5 Q1651 404 1651 340 Q1651 281 1634 216.5 Q1617 152 1577.5 98.5 Q1538 45 1473.5 10 Q1409 -25 1315 -25 Z M1315 139 Q1357 139 1388 155 Q1419 171 1439 198.5 Q1459 226 1469 262.5 Q1479 299 1479 340 Q1479 384 1469 421 Q1459 458 1438.5 484.5 Q1418 511 1387 526 Q1356 541 1315 541 Q1273 541 1242 525 Q1211 509 1190.5 482 Q1170 455 1160.5 418.5 Q1151 382 1151 340 Q1151 296 1161 259 Q1171 222 1191.5 195.5 Q1212 169 1242.5 154 Q1273 139 1315 139 Z M2114 -25 Q2022 -25 1958 8 Q1894 41 1854 93 Q1814 145 1796 210 Q1778 275 1778 340 Q1778 400 1795.5 464.5 Q1813 529 1853 582.5 Q1893 636 1957 670.5 Q2021 705 2114 705 Q2206 705 2270 672 Q2334 639 2373.5 587 Q2413 535 2431 469.5 Q2449 404 2449 340 Q2449 300 2441.5 258 Q2434 216 2418 175.5 Q2402 135 2376 98.5 Q2350 62 2312.5 34.5 Q2275 7 2226 -9 Q2177 -25 2114 -25 Z M2114 139 Q2156 139 2186.5 155 Q2217 171 2237.5 198.5 Q2258 226 2267.5 262.5 Q2277 299 2277 340 Q2277 384 2267 421 Q2257 458 2236.5 484.5 Q2216 511 2185.5 526 Q2155 541 2114 541 Q2072 541 2041 525 Q2010 509 1989.5 482 Q1969 455 1959.5 418.5 Q1950 382 1950 340 Q1950 296 1960 259 Q1970 222 1990.5 195.5 Q2011 169 2041.5 154 Q2072 139 2114 139 Z " />
<glyph glyph-name="Acircumflex" unicode="&#xc2;" horiz-adv-x="1425" d="M1118 0 L1004 330 L424 330 L307 0 L86 0 L604 1434 L823 1434 L1339 0 L1118 0 Z M764 1006 Q752 1040 737.5 1085 Q723 1130 715 1167 Q705 1130 691.5 1085.5 Q678 1041 666 1006 L489 518 L938 518 L764 1006 Z M905 1569 L713 1730 L520 1569 L315 1569 L606 1888 L821 1888 L1110 1569 L905 1569 Z " />
<glyph glyph-name="Ecircumflex" unicode="&#xca;" horiz-adv-x="1231" d="M184 0 L184 1434 L1073 1434 L1073 1233 L397 1233 L397 840 L834 840 L834 639 L397 639 L397 201 L1118 201 L1118 0 L184 0 Z M817 1569 L625 1730 L432 1569 L227 1569 L518 1888 L733 1888 L1022 1569 L817 1569 Z " />
<glyph glyph-name="Aacute" unicode="&#xc1;" horiz-adv-x="1425" d="M1118 0 L1004 330 L424 330 L307 0 L86 0 L604 1434 L823 1434 L1339 0 L1118 0 Z M764 1006 Q752 1040 737.5 1085 Q723 1130 715 1167 Q705 1130 691.5 1085.5 Q678 1041 666 1006 L489 518 L938 518 L764 1006 Z M672 1569 L455 1569 L745 1888 L1036 1888 L672 1569 Z " />
<glyph glyph-name="Edieresis" unicode="&#xcb;" horiz-adv-x="1231" d="M184 0 L184 1434 L1073 1434 L1073 1233 L397 1233 L397 840 L834 840 L834 639 L397 639 L397 201 L1118 201 L1118 0 L184 0 Z M440 1599 Q413 1599 389.5 1609 Q366 1619 348.5 1636.5 Q331 1654 321 1677.5 Q311 1701 311 1728 Q311 1755 321 1778.5 Q331 1802 348.5 1819.5 Q366 1837 389.5 1847 Q413 1857 440 1857 Q467 1857 490.5 1847 Q514 1837 531.5 1819.5 Q549 1802 559 1778.5 Q569 1755 569 1728 Q569 1701 559 1677.5 Q549 1654 531.5 1636.5 Q514 1619 490.5 1609 Q467 1599 440 1599 Z M809 1599 Q782 1599 758.5 1609 Q735 1619 717.5 1636.5 Q700 1654 690 1677.5 Q680 1701 680 1728 Q680 1755 690 1778.5 Q700 1802 717.5 1819.5 Q735 1837 758.5 1847 Q782 1857 809 1857 Q836 1857 859.5 1847 Q883 1837 900.5 1819.5 Q918 1802 928 1778.5 Q938 1755 938 1728 Q938 1701 928 1677.5 Q918 1654 900.5 1636.5 Q883 1619 859.5 1609 Q836 1599 809 1599 Z " />
<glyph glyph-name="Egrave" unicode="&#xc8;" horiz-adv-x="1231" d="M184 0 L184 1434 L1073 1434 L1073 1233 L397 1233 L397 840 L834 840 L834 639 L397 639 L397 201 L1118 201 L1118 0 L184 0 Z M625 1569 L260 1888 L551 1888 L842 1569 L625 1569 Z " />
<glyph glyph-name="Iacute" unicode="&#xcd;" horiz-adv-x="602" d="M195 0 L195 1434 L408 1434 L408 0 L195 0 Z M264 1569 L47 1569 L337 1888 L628 1888 L264 1569 Z " />
<glyph glyph-name="Icircumflex" unicode="&#xce;" horiz-adv-x="602" d="M195 0 L195 1434 L408 1434 L408 0 L195 0 Z M497 1569 L305 1730 L112 1569 L-93 1569 L198 1888 L413 1888 L702 1569 L497 1569 Z " />
<glyph glyph-name="Idieresis" unicode="&#xcf;" horiz-adv-x="602" d="M195 0 L195 1434 L408 1434 L408 0 L195 0 Z M120 1599 Q93 1599 69.5 1609 Q46 1619 28.5 1636.5 Q11 1654 1 1677.5 Q-9 1701 -9 1728 Q-9 1755 1 1778.5 Q11 1802 28.5 1819.5 Q46 1837 69.5 1847 Q93 1857 120 1857 Q147 1857 170.5 1847 Q194 1837 211.5 1819.5 Q229 1802 239 1778.5 Q249 1755 249 1728 Q249 1701 239 1677.5 Q229 1654 211.5 1636.5 Q194 1619 170.5 1609 Q147 1599 120 1599 Z M489 1599 Q462 1599 438.5 1609 Q415 1619 397.5 1636.5 Q380 1654 370 1677.5 Q360 1701 360 1728 Q360 1755 370 1778.5 Q380 1802 397.5 1819.5 Q415 1837 438.5 1847 Q462 1857 489 1857 Q516 1857 539.5 1847 Q563 1837 580.5 1819.5 Q598 1802 608 1778.5 Q618 1755 618 1728 Q618 1701 608 1677.5 Q598 1654 580.5 1636.5 Q563 1619 539.5 1609 Q516 1599 489 1599 Z " />
<glyph glyph-name="Igrave" unicode="&#xcc;" horiz-adv-x="602" d="M195 0 L195 1434 L408 1434 L408 0 L195 0 Z M346 1569 L-19 1888 L272 1888 L563 1569 L346 1569 Z " />
<glyph glyph-name="Oacute" unicode="&#xd3;" horiz-adv-x="1516" d="M758 -25 Q643 -25 552 5.5 Q461 36 391.5 88.5 Q322 141 273 212.5 Q224 284 193 366.5 Q162 449 147.5 538.5 Q133 628 133 717 Q133 805 147.5 894.5 Q162 984 193 1066.5 Q224 1149 273 1220.5 Q322 1292 391.5 1344.5 Q461 1397 552 1427.5 Q643 1458 758 1458 Q873 1458 964 1427.5 Q1055 1397 1124.5 1344.5 Q1194 1292 1243 1220.5 Q1292 1149 1323 1066.5 Q1354 984 1368 894.5 Q1382 805 1382 717 Q1382 628 1368 538.5 Q1354 449 1323 366.5 Q1292 284 1243 212.5 Q1194 141 1124.5 88.5 Q1055 36 964 5.5 Q873 -25 758 -25 Z M758 180 Q833 180 892 203.5 Q951 227 995.5 267 Q1040 307 1071.5 360.5 Q1103 414 1123 473.5 Q1143 533 1152 595.5 Q1161 658 1161 717 Q1161 779 1152 843.5 Q1143 908 1123 967.5 Q1103 1027 1071.5 1079 Q1040 1131 995.5 1169.5 Q951 1208 892 1230.5 Q833 1253 758 1253 Q683 1253 624 1229.5 Q565 1206 520 1166 Q475 1126 443.5 1072.5 Q412 1019 392 959.5 Q372 900 363 837.5 Q354 775 354 717 Q354 623 375 527.5 Q396 432 444 354.5 Q492 277 569 228.5 Q646 180 758 180 Z M760 1569 L543 1569 L833 1888 L1124 1888 L760 1569 Z " />
<glyph glyph-name="Ocircumflex" unicode="&#xd4;" horiz-adv-x="1516" d="M758 -25 Q643 -25 552 5.5 Q461 36 391.5 88.5 Q322 141 273 212.5 Q224 284 193 366.5 Q162 449 147.5 538.5 Q133 628 133 717 Q133 805 147.5 894.5 Q162 984 193 1066.5 Q224 1149 273 1220.5 Q322 1292 391.5 1344.5 Q461 1397 552 1427.5 Q643 1458 758 1458 Q873 1458 964 1427.5 Q1055 1397 1124.5 1344.5 Q1194 1292 1243 1220.5 Q1292 1149 1323 1066.5 Q1354 984 1368 894.5 Q1382 805 1382 717 Q1382 628 1368 538.5 Q1354 449 1323 366.5 Q1292 284 1243 212.5 Q1194 141 1124.5 88.5 Q1055 36 964 5.5 Q873 -25 758 -25 Z M758 180 Q833 180 892 203.5 Q951 227 995.5 267 Q1040 307 1071.5 360.5 Q1103 414 1123 473.5 Q1143 533 1152 595.5 Q1161 658 1161 717 Q1161 779 1152 843.5 Q1143 908 1123 967.5 Q1103 1027 1071.5 1079 Q1040 1131 995.5 1169.5 Q951 1208 892 1230.5 Q833 1253 758 1253 Q683 1253 624 1229.5 Q565 1206 520 1166 Q475 1126 443.5 1072.5 Q412 1019 392 959.5 Q372 900 363 837.5 Q354 775 354 717 Q354 623 375 527.5 Q396 432 444 354.5 Q492 277 569 228.5 Q646 180 758 180 Z M952 1569 L760 1730 L567 1569 L362 1569 L653 1888 L868 1888 L1157 1569 L952 1569 Z " />
<glyph glyph-name="Ograve" unicode="&#xd2;" horiz-adv-x="1516" d="M758 -25 Q643 -25 552 5.5 Q461 36 391.5 88.5 Q322 141 273 212.5 Q224 284 193 366.5 Q162 449 147.5 538.5 Q133 628 133 717 Q133 805 147.5 894.5 Q162 984 193 1066.5 Q224 1149 273 1220.5 Q322 1292 391.5 1344.5 Q461 1397 552 1427.5 Q643 1458 758 1458 Q873 1458 964 1427.5 Q1055 1397 1124.5 1344.5 Q1194 1292 1243 1220.5 Q1292 1149 1323 1066.5 Q1354 984 1368 894.5 Q1382 805 1382 717 Q1382 628 1368 538.5 Q1354 449 1323 366.5 Q1292 284 1243 212.5 Q1194 141 1124.5 88.5 Q1055 36 964 5.5 Q873 -25 758 -25 Z M758 180 Q833 180 892 203.5 Q951 227 995.5 267 Q1040 307 1071.5 360.5 Q1103 414 1123 473.5 Q1143 533 1152 595.5 Q1161 658 1161 717 Q1161 779 1152 843.5 Q1143 908 1123 967.5 Q1103 1027 1071.5 1079 Q1040 1131 995.5 1169.5 Q951 1208 892 1230.5 Q833 1253 758 1253 Q683 1253 624 1229.5 Q565 1206 520 1166 Q475 1126 443.5 1072.5 Q412 1019 392 959.5 Q372 900 363 837.5 Q354 775 354 717 Q354 623 375 527.5 Q396 432 444 354.5 Q492 277 569 228.5 Q646 180 758 180 Z M760 1569 L395 1888 L686 1888 L977 1569 L760 1569 Z " />
<glyph glyph-name="Uacute" unicode="&#xda;" horiz-adv-x="1427" d="M713 -25 Q602 -25 503.5 4 Q405 33 332 99.5 Q259 166 216.5 274.5 Q174 383 174 543 L174 1434 L387 1434 L387 543 Q387 435 412 365 Q437 295 480.5 254 Q524 213 584 196.5 Q644 180 713 180 Q782 180 841.5 196.5 Q901 213 945.5 254 Q990 295 1015 365 Q1040 435 1040 543 L1040 1434 L1253 1434 L1253 543 Q1253 385 1212 276.5 Q1171 168 1098.5 101 Q1026 34 927 4.5 Q828 -25 713 -25 Z M713 1569 L496 1569 L786 1888 L1077 1888 L713 1569 Z " />
<glyph glyph-name="Ucircumflex" unicode="&#xdb;" horiz-adv-x="1427" d="M713 -25 Q602 -25 503.5 4 Q405 33 332 99.5 Q259 166 216.5 274.5 Q174 383 174 543 L174 1434 L387 1434 L387 543 Q387 435 412 365 Q437 295 480.5 254 Q524 213 584 196.5 Q644 180 713 180 Q782 180 841.5 196.5 Q901 213 945.5 254 Q990 295 1015 365 Q1040 435 1040 543 L1040 1434 L1253 1434 L1253 543 Q1253 385 1212 276.5 Q1171 168 1098.5 101 Q1026 34 927 4.5 Q828 -25 713 -25 Z M905 1569 L713 1730 L520 1569 L315 1569 L606 1888 L821 1888 L1110 1569 L905 1569 Z " />
<glyph glyph-name="Ugrave" unicode="&#xd9;" horiz-adv-x="1427" d="M713 -25 Q602 -25 503.5 4 Q405 33 332 99.5 Q259 166 216.5 274.5 Q174 383 174 543 L174 1434 L387 1434 L387 543 Q387 435 412 365 Q437 295 480.5 254 Q524 213 584 196.5 Q644 180 713 180 Q782 180 841.5 196.5 Q901 213 945.5 254 Q990 295 1015 365 Q1040 435 1040 543 L1040 1434 L1253 1434 L1253 543 Q1253 385 1212 276.5 Q1171 168 1098.5 101 Q1026 34 927 4.5 Q828 -25 713 -25 Z M754 1569 L389 1888 L680 1888 L971 1569 L754 1569 Z " />
<glyph glyph-name="dotlessi" unicode="&#x131;" horiz-adv-x="524" d="M156 0 L156 1047 L369 1047 L369 0 L156 0 Z " />
<glyph glyph-name="circumflex" unicode="&#x2c6;" horiz-adv-x="819" d="M602 1180 L410 1341 L217 1180 L12 1180 L303 1499 L518 1499 L807 1180 L602 1180 Z " />
<glyph glyph-name="tilde" unicode="&#x2dc;" horiz-adv-x="819" d="M571 1202 Q517 1202 471.5 1217.5 Q426 1233 386 1251 Q346 1269 309 1284.5 Q272 1300 233 1300 Q195 1300 167.5 1278.5 Q140 1257 137 1210 L33 1210 Q33 1271 44.5 1320.5 Q56 1370 82 1405 Q108 1440 148.5 1458.5 Q189 1477 248 1477 Q302 1477 347.5 1461.5 Q393 1446 433 1427.5 Q473 1409 510 1393.5 Q547 1378 586 1378 Q624 1378 651.5 1400 Q679 1422 682 1468 L786 1468 Q786 1407 774.5 1357.5 Q763 1308 737 1273.5 Q711 1239 670 1220.5 Q629 1202 571 1202 Z " />
<glyph glyph-name="macron" unicode="&#xaf;" horiz-adv-x="819" d="M72 1223 L72 1399 L748 1399 L748 1223 L72 1223 Z " />
<glyph glyph-name="breve" unicode="&#x2d8;" horiz-adv-x="819" d="M410 1180 Q311 1180 239.5 1207.5 Q168 1235 121.5 1281.5 Q75 1328 53 1389.5 Q31 1451 31 1520 L211 1520 Q211 1484 224.5 1453.5 Q238 1423 263.5 1400.5 Q289 1378 326 1365 Q363 1352 410 1352 Q457 1352 494 1365 Q531 1378 557 1400.5 Q583 1423 596.5 1453.5 Q610 1484 610 1520 L791 1520 Q791 1451 768.5 1389 Q746 1327 699 1280.5 Q652 1234 580 1207 Q508 1180 410 1180 Z " />
<glyph glyph-name="dotaccent" unicode="&#x2d9;" horiz-adv-x="819" d="M410 1210 Q383 1210 359.5 1220 Q336 1230 318.5 1247.5 Q301 1265 291 1288.5 Q281 1312 281 1339 Q281 1366 291 1389.5 Q301 1413 318.5 1430.5 Q336 1448 359.5 1458 Q383 1468 410 1468 Q437 1468 460.5 1458 Q484 1448 501.5 1430.5 Q519 1413 529 1389.5 Q539 1366 539 1339 Q539 1312 529 1288.5 Q519 1265 501.5 1247.5 Q484 1230 460.5 1220 Q437 1210 410 1210 Z " />
<glyph glyph-name="ring" unicode="&#x2da;" horiz-adv-x="819" d="M410 1243 Q448 1243 475 1270.5 Q502 1298 502 1339 Q502 1381 475 1408.5 Q448 1436 410 1436 Q371 1436 344 1408.5 Q317 1381 317 1339 Q317 1297 344 1270 Q371 1243 410 1243 Z M410 1090 Q358 1090 312.5 1109.5 Q267 1129 232.5 1163 Q198 1197 178 1242.5 Q158 1288 158 1339 Q158 1391 178 1436 Q198 1481 232.5 1514.5 Q267 1548 312.5 1567.5 Q358 1587 410 1587 Q461 1587 507 1567.5 Q553 1548 587.5 1514.5 Q622 1481 642 1436 Q662 1391 662 1339 Q662 1288 642 1242.5 Q622 1197 587.5 1163 Q553 1129 507 1109.5 Q461 1090 410 1090 Z " />
<glyph glyph-name="cedilla" unicode="&#xb8;" horiz-adv-x="819" d="M399 -489 Q325 -489 275.5 -467.5 Q226 -446 195 -412 L299 -336 Q311 -351 330.5 -359 Q350 -367 379 -367 Q425 -367 453 -342 Q481 -317 481 -276 Q481 -238 449.5 -213 Q418 -188 371 -188 Q322 -188 289 -209 L248 -158 L391 20 L508 20 L432 -102 Q492 -102 534.5 -116.5 Q577 -131 604.5 -155 Q632 -179 644.5 -211 Q657 -243 657 -279 Q657 -325 639 -363.5 Q621 -402 587.5 -430 Q554 -458 506 -473.5 Q458 -489 399 -489 Z " />
<glyph glyph-name="hungarumlaut" unicode="&#x2dd;" horiz-adv-x="819" d="M236 1180 L18 1180 L309 1499 L600 1499 L236 1180 Z M666 1180 L449 1180 L739 1499 L1030 1499 L666 1180 Z " />
<glyph glyph-name="ogonek" unicode="&#x2db;" horiz-adv-x="819" d="M424 -489 Q368 -489 322.5 -475 Q277 -461 244.5 -434 Q212 -407 194 -368 Q176 -329 176 -279 Q176 -176 251 -99.5 Q326 -23 457 20 L610 20 Q541 -8 492 -42 Q443 -76 412 -112.5 Q381 -149 366.5 -186.5 Q352 -224 352 -260 Q352 -313 381.5 -340 Q411 -367 455 -367 Q484 -367 505 -355 Q526 -343 539 -328 L643 -403 Q612 -438 558.5 -463.5 Q505 -489 424 -489 Z " />
<glyph glyph-name="caron" unicode="&#x2c7;" horiz-adv-x="819" d="M516 1180 L301 1180 L12 1499 L217 1499 L410 1337 L602 1499 L807 1499 L516 1180 Z " />
<glyph glyph-name="currency" unicode="&#xa4;" horiz-adv-x="1290" d="M645 176 Q484 176 371 250 L233 111 L74 270 L219 416 Q188 471 173 538 Q158 605 158 682 Q158 759 174 826 Q190 893 221 950 L74 1098 L227 1251 L367 1112 Q424 1149 494 1169.5 Q564 1190 645 1190 Q724 1190 793.5 1170.5 Q863 1151 920 1114 L1057 1251 L1217 1092 L1073 948 Q1102 891 1118.5 824 Q1135 757 1135 682 Q1135 604 1118 535.5 Q1101 467 1069 410 L1217 264 L1063 111 L922 252 Q865 215 795.5 195.5 Q726 176 645 176 Z M645 381 Q706 381 756.5 403.5 Q807 426 843 466 Q879 506 898.5 561.5 Q918 617 918 682 Q918 747 898.5 802.5 Q879 858 843 898.5 Q807 939 756.5 962 Q706 985 645 985 Q584 985 534.5 962 Q485 939 449.5 898.5 Q414 858 394.5 802.5 Q375 747 375 682 Q375 617 394.5 561.5 Q414 506 449.5 466 Q485 426 534.5 403.5 Q584 381 645 381 Z " />
<glyph glyph-name="uni00AD" unicode="&#xad;" horiz-adv-x="809" d="M154 506 L154 711 L655 711 L655 506 L154 506 Z " />
<glyph glyph-name="Amacron" unicode="&#x100;" horiz-adv-x="1425" d="M1118 0 L1004 330 L424 330 L307 0 L86 0 L604 1434 L823 1434 L1339 0 L1118 0 Z M764 1006 Q752 1040 737.5 1085 Q723 1130 715 1167 Q705 1130 691.5 1085.5 Q678 1041 666 1006 L489 518 L938 518 L764 1006 Z M375 1612 L375 1788 L1051 1788 L1051 1612 L375 1612 Z " />
<glyph glyph-name="amacron" unicode="&#x101;" horiz-adv-x="1090" d="M956 0 L752 0 L752 90 Q732 69 704 48.5 Q676 28 640.5 11.5 Q605 -5 561 -15 Q517 -25 465 -25 Q385 -25 317 -3 Q249 19 199 63.5 Q149 108 120.5 173.5 Q92 239 92 326 Q92 416 126 481.5 Q160 547 216 589.5 Q272 632 344.5 652 Q417 672 494 672 Q566 672 632.5 656.5 Q699 641 752 610 L752 668 Q752 727 738.5 768 Q725 809 697.5 834.5 Q670 860 628 871.5 Q586 883 528 883 Q430 883 358.5 857 Q287 831 229 788 L166 963 Q198 985 239 1004.5 Q280 1024 329 1039 Q378 1054 435 1062.5 Q492 1071 557 1071 Q601 1071 648 1066 Q695 1061 739.5 1046.5 Q784 1032 823.5 1005 Q863 978 892.5 934.5 Q922 891 939 828 Q956 765 956 678 L956 0 Z M504 164 Q585 164 647.5 197 Q710 230 752 276 L752 436 Q708 459 649 473 Q590 487 528 487 Q480 487 438 478 Q396 469 364.5 449.5 Q333 430 315 399.5 Q297 369 297 326 Q297 251 349.5 207.5 Q402 164 504 164 Z M219 1223 L219 1399 L895 1399 L895 1223 L219 1223 Z " />
<glyph glyph-name="Abreve" unicode="&#x102;" horiz-adv-x="1425" d="M1118 0 L1004 330 L424 330 L307 0 L86 0 L604 1434 L823 1434 L1339 0 L1118 0 Z M764 1006 Q752 1040 737.5 1085 Q723 1130 715 1167 Q705 1130 691.5 1085.5 Q678 1041 666 1006 L489 518 L938 518 L764 1006 Z M713 1569 Q614 1569 542.5 1596.5 Q471 1624 424.5 1670.5 Q378 1717 356 1778.5 Q334 1840 334 1909 L514 1909 Q514 1873 527.5 1842.5 Q541 1812 566.5 1789.5 Q592 1767 629 1754 Q666 1741 713 1741 Q760 1741 797 1754 Q834 1767 860 1789.5 Q886 1812 899.5 1842.5 Q913 1873 913 1909 L1094 1909 Q1094 1840 1071.5 1778 Q1049 1716 1002 1669.5 Q955 1623 883 1596 Q811 1569 713 1569 Z " />
<glyph glyph-name="abreve" unicode="&#x103;" horiz-adv-x="1090" d="M956 0 L752 0 L752 90 Q732 69 704 48.5 Q676 28 640.5 11.5 Q605 -5 561 -15 Q517 -25 465 -25 Q385 -25 317 -3 Q249 19 199 63.5 Q149 108 120.5 173.5 Q92 239 92 326 Q92 416 126 481.5 Q160 547 216 589.5 Q272 632 344.5 652 Q417 672 494 672 Q566 672 632.5 656.5 Q699 641 752 610 L752 668 Q752 727 738.5 768 Q725 809 697.5 834.5 Q670 860 628 871.5 Q586 883 528 883 Q430 883 358.5 857 Q287 831 229 788 L166 963 Q198 985 239 1004.5 Q280 1024 329 1039 Q378 1054 435 1062.5 Q492 1071 557 1071 Q601 1071 648 1066 Q695 1061 739.5 1046.5 Q784 1032 823.5 1005 Q863 978 892.5 934.5 Q922 891 939 828 Q956 765 956 678 L956 0 Z M504 164 Q585 164 647.5 197 Q710 230 752 276 L752 436 Q708 459 649 473 Q590 487 528 487 Q480 487 438 478 Q396 469 364.5 449.5 Q333 430 315 399.5 Q297 369 297 326 Q297 251 349.5 207.5 Q402 164 504 164 Z M557 1180 Q458 1180 386.5 1207.5 Q315 1235 268.5 1281.5 Q222 1328 200 1389.5 Q178 1451 178 1520 L358 1520 Q358 1484 371.5 1453.5 Q385 1423 410.5 1400.5 Q436 1378 473 1365 Q510 1352 557 1352 Q604 1352 641 1365 Q678 1378 704 1400.5 Q730 1423 743.5 1453.5 Q757 1484 757 1520 L938 1520 Q938 1451 915.5 1389 Q893 1327 846 1280.5 Q799 1234 727 1207 Q655 1180 557 1180 Z " />
<glyph glyph-name="Aogonek" unicode="&#x104;" horiz-adv-x="1425" d="M1120 -489 Q1065 -489 1019.5 -475 Q974 -461 941 -434 Q908 -407 890 -368 Q872 -329 872 -279 Q872 -188 934 -116.5 Q996 -45 1118 0 L1004 330 L424 330 L307 0 L86 0 L604 1434 L823 1434 L1339 0 Q1285 0 1233 -22 Q1181 -44 1140 -80 Q1099 -116 1074 -163 Q1049 -210 1049 -260 Q1049 -313 1078.5 -340 Q1108 -367 1151 -367 Q1180 -367 1201.5 -355 Q1223 -343 1235 -328 L1339 -403 Q1308 -438 1255 -463.5 Q1202 -489 1120 -489 Z M764 1006 Q752 1040 737.5 1085 Q723 1130 715 1167 Q705 1130 691.5 1085.5 Q678 1041 666 1006 L489 518 L938 518 L764 1006 Z " />
<glyph glyph-name="aogonek" unicode="&#x105;" horiz-adv-x="1090" d="M770 -489 Q715 -489 669.5 -475 Q624 -461 591 -434 Q558 -407 540 -368 Q522 -329 522 -279 Q522 -186 582.5 -115.5 Q643 -45 752 0 L752 90 Q732 69 704 48.5 Q676 28 640.5 11.5 Q605 -5 561 -15 Q517 -25 465 -25 Q385 -25 317 -3 Q249 19 199 63.5 Q149 108 120.5 173.5 Q92 239 92 326 Q92 416 126 481.5 Q160 547 216 589.5 Q272 632 344.5 652 Q417 672 494 672 Q566 672 632.5 656.5 Q699 641 752 610 L752 668 Q752 727 738.5 768 Q725 809 697.5 834.5 Q670 860 628 871.5 Q586 883 528 883 Q430 883 358.5 857 Q287 831 229 788 L166 963 Q198 985 239 1004.5 Q280 1024 329 1039 Q378 1054 435 1062.5 Q492 1071 557 1071 Q601 1071 648 1066 Q695 1061 739.5 1046.5 Q784 1032 823.5 1005 Q863 978 892.5 934.5 Q922 891 939 828 Q956 765 956 678 L956 0 Q891 -13 842.5 -42 Q794 -71 762 -107.5 Q730 -144 714 -184 Q698 -224 698 -260 Q698 -313 727.5 -340 Q757 -367 801 -367 Q830 -367 851 -355 Q872 -343 885 -328 L989 -403 Q958 -438 905 -463.5 Q852 -489 770 -489 Z M504 164 Q585 164 647.5 197 Q710 230 752 276 L752 436 Q708 459 649 473 Q590 487 528 487 Q480 487 438 478 Q396 469 364.5 449.5 Q333 430 315 399.5 Q297 369 297 326 Q297 251 349.5 207.5 Q402 164 504 164 Z " />
<glyph glyph-name="Cacute" unicode="&#x106;" horiz-adv-x="1331" d="M729 -25 Q618 -25 530.5 5.5 Q443 36 377 88.5 Q311 141 264.5 212.5 Q218 284 189 366.5 Q160 449 146.5 538.5 Q133 628 133 717 Q133 799 146.5 886 Q160 973 189.5 1055.5 Q219 1138 266 1211 Q313 1284 379 1339 Q445 1394 532 1426 Q619 1458 729 1458 Q830 1458 911 1433.5 Q992 1409 1052.5 1369 Q1113 1329 1154 1278 Q1195 1227 1217 1174 L1022 1083 Q996 1124 967.5 1155.5 Q939 1187 904.5 1209 Q870 1231 827 1242 Q784 1253 729 1253 Q657 1253 601.5 1230 Q546 1207 504.5 1167 Q463 1127 434 1074 Q405 1021 387.5 961.5 Q370 902 362 839 Q354 776 354 717 Q354 622 375.5 526 Q397 430 443 353 Q489 276 560 228 Q631 180 729 180 Q782 180 824.5 193.5 Q867 207 902.5 231.5 Q938 256 966.5 290 Q995 324 1020 365 L1219 289 Q1189 219 1144.5 161 Q1100 103 1039.5 62 Q979 21 901.5 -2 Q824 -25 729 -25 Z M729 1569 L512 1569 L802 1888 L1093 1888 L729 1569 Z " />
<glyph glyph-name="cacute" unicode="&#x107;" horiz-adv-x="1061" d="M559 -25 Q454 -25 369.5 12 Q285 49 225.5 119.5 Q166 190 134 291.5 Q102 393 102 522 Q102 651 134 753 Q166 855 225.5 925.5 Q285 996 369.5 1033.5 Q454 1071 559 1071 Q705 1071 806.5 1006 Q908 941 954 801 L752 731 Q729 791 682 828.5 Q635 866 567 866 Q507 866 461 842 Q415 818 383.5 773.5 Q352 729 335.5 665.5 Q319 602 319 522 Q319 442 335.5 378.5 Q352 315 382.5 271 Q413 227 457.5 203.5 Q502 180 559 180 Q631 180 682.5 220 Q734 260 756 334 L958 270 Q916 124 815.5 49.5 Q715 -25 559 -25 Z M512 1180 L295 1180 L585 1499 L876 1499 L512 1180 Z " />
<glyph glyph-name="Ccircumflex" unicode="&#x108;" horiz-adv-x="1331" d="M729 -25 Q618 -25 530.5 5.5 Q443 36 377 88.5 Q311 141 264.5 212.5 Q218 284 189 366.5 Q160 449 146.5 538.5 Q133 628 133 717 Q133 799 146.5 886 Q160 973 189.5 1055.5 Q219 1138 266 1211 Q313 1284 379 1339 Q445 1394 532 1426 Q619 1458 729 1458 Q830 1458 911 1433.5 Q992 1409 1052.5 1369 Q1113 1329 1154 1278 Q1195 1227 1217 1174 L1022 1083 Q996 1124 967.5 1155.5 Q939 1187 904.5 1209 Q870 1231 827 1242 Q784 1253 729 1253 Q657 1253 601.5 1230 Q546 1207 504.5 1167 Q463 1127 434 1074 Q405 1021 387.5 961.5 Q370 902 362 839 Q354 776 354 717 Q354 622 375.5 526 Q397 430 443 353 Q489 276 560 228 Q631 180 729 180 Q782 180 824.5 193.5 Q867 207 902.5 231.5 Q938 256 966.5 290 Q995 324 1020 365 L1219 289 Q1189 219 1144.5 161 Q1100 103 1039.5 62 Q979 21 901.5 -2 Q824 -25 729 -25 Z M921 1569 L729 1730 L536 1569 L331 1569 L622 1888 L837 1888 L1126 1569 L921 1569 Z " />
<glyph glyph-name="ccircumflex" unicode="&#x109;" horiz-adv-x="1061" d="M559 -25 Q454 -25 369.5 12 Q285 49 225.5 119.5 Q166 190 134 291.5 Q102 393 102 522 Q102 651 134 753 Q166 855 225.5 925.5 Q285 996 369.5 1033.5 Q454 1071 559 1071 Q705 1071 806.5 1006 Q908 941 954 801 L752 731 Q729 791 682 828.5 Q635 866 567 866 Q507 866 461 842 Q415 818 383.5 773.5 Q352 729 335.5 665.5 Q319 602 319 522 Q319 442 335.5 378.5 Q352 315 382.5 271 Q413 227 457.5 203.5 Q502 180 559 180 Q631 180 682.5 220 Q734 260 756 334 L958 270 Q916 124 815.5 49.5 Q715 -25 559 -25 Z M745 1180 L553 1341 L360 1180 L155 1180 L446 1499 L661 1499 L950 1180 L745 1180 Z " />
<glyph glyph-name="Cdotaccent" unicode="&#x10a;" horiz-adv-x="1331" d="M729 -25 Q618 -25 530.5 5.5 Q443 36 377 88.5 Q311 141 264.5 212.5 Q218 284 189 366.5 Q160 449 146.5 538.5 Q133 628 133 717 Q133 799 146.5 886 Q160 973 189.5 1055.5 Q219 1138 266 1211 Q313 1284 379 1339 Q445 1394 532 1426 Q619 1458 729 1458 Q830 1458 911 1433.5 Q992 1409 1052.5 1369 Q1113 1329 1154 1278 Q1195 1227 1217 1174 L1022 1083 Q996 1124 967.5 1155.5 Q939 1187 904.5 1209 Q870 1231 827 1242 Q784 1253 729 1253 Q657 1253 601.5 1230 Q546 1207 504.5 1167 Q463 1127 434 1074 Q405 1021 387.5 961.5 Q370 902 362 839 Q354 776 354 717 Q354 622 375.5 526 Q397 430 443 353 Q489 276 560 228 Q631 180 729 180 Q782 180 824.5 193.5 Q867 207 902.5 231.5 Q938 256 966.5 290 Q995 324 1020 365 L1219 289 Q1189 219 1144.5 161 Q1100 103 1039.5 62 Q979 21 901.5 -2 Q824 -25 729 -25 Z M729 1599 Q702 1599 678.5 1609 Q655 1619 637.5 1636.5 Q620 1654 610 1677.5 Q600 1701 600 1728 Q600 1755 610 1778.5 Q620 1802 637.5 1819.5 Q655 1837 678.5 1847 Q702 1857 729 1857 Q756 1857 779.5 1847 Q803 1837 820.5 1819.5 Q838 1802 848 1778.5 Q858 1755 858 1728 Q858 1701 848 1677.5 Q838 1654 820.5 1636.5 Q803 1619 779.5 1609 Q756 1599 729 1599 Z " />
<glyph glyph-name="cdotaccent" unicode="&#x10b;" horiz-adv-x="1061" d="M559 -25 Q454 -25 369.5 12 Q285 49 225.5 119.5 Q166 190 134 291.5 Q102 393 102 522 Q102 651 134 753 Q166 855 225.5 925.5 Q285 996 369.5 1033.5 Q454 1071 559 1071 Q705 1071 806.5 1006 Q908 941 954 801 L752 731 Q729 791 682 828.5 Q635 866 567 866 Q507 866 461 842 Q415 818 383.5 773.5 Q352 729 335.5 665.5 Q319 602 319 522 Q319 442 335.5 378.5 Q352 315 382.5 271 Q413 227 457.5 203.5 Q502 180 559 180 Q631 180 682.5 220 Q734 260 756 334 L958 270 Q916 124 815.5 49.5 Q715 -25 559 -25 Z M553 1210 Q526 1210 502.5 1220 Q479 1230 461.5 1247.5 Q444 1265 434 1288.5 Q424 1312 424 1339 Q424 1366 434 1389.5 Q444 1413 461.5 1430.5 Q479 1448 502.5 1458 Q526 1468 553 1468 Q580 1468 603.5 1458 Q627 1448 644.5 1430.5 Q662 1413 672 1389.5 Q682 1366 682 1339 Q682 1312 672 1288.5 Q662 1265 644.5 1247.5 Q627 1230 603.5 1220 Q580 1210 553 1210 Z " />
<glyph glyph-name="Ccaron" unicode="&#x10c;" horiz-adv-x="1331" d="M729 -25 Q618 -25 530.5 5.5 Q443 36 377 88.5 Q311 141 264.5 212.5 Q218 284 189 366.5 Q160 449 146.5 538.5 Q133 628 133 717 Q133 799 146.5 886 Q160 973 189.5 1055.5 Q219 1138 266 1211 Q313 1284 379 1339 Q445 1394 532 1426 Q619 1458 729 1458 Q830 1458 911 1433.5 Q992 1409 1052.5 1369 Q1113 1329 1154 1278 Q1195 1227 1217 1174 L1022 1083 Q996 1124 967.5 1155.5 Q939 1187 904.5 1209 Q870 1231 827 1242 Q784 1253 729 1253 Q657 1253 601.5 1230 Q546 1207 504.5 1167 Q463 1127 434 1074 Q405 1021 387.5 961.5 Q370 902 362 839 Q354 776 354 717 Q354 622 375.5 526 Q397 430 443 353 Q489 276 560 228 Q631 180 729 180 Q782 180 824.5 193.5 Q867 207 902.5 231.5 Q938 256 966.5 290 Q995 324 1020 365 L1219 289 Q1189 219 1144.5 161 Q1100 103 1039.5 62 Q979 21 901.5 -2 Q824 -25 729 -25 Z M835 1569 L620 1569 L331 1888 L536 1888 L729 1726 L921 1888 L1126 1888 L835 1569 Z " />
<glyph glyph-name="ccaron" unicode="&#x10d;" horiz-adv-x="1061" d="M559 -25 Q454 -25 369.5 12 Q285 49 225.5 119.5 Q166 190 134 291.5 Q102 393 102 522 Q102 651 134 753 Q166 855 225.5 925.5 Q285 996 369.5 1033.5 Q454 1071 559 1071 Q705 1071 806.5 1006 Q908 941 954 801 L752 731 Q729 791 682 828.5 Q635 866 567 866 Q507 866 461 842 Q415 818 383.5 773.5 Q352 729 335.5 665.5 Q319 602 319 522 Q319 442 335.5 378.5 Q352 315 382.5 271 Q413 227 457.5 203.5 Q502 180 559 180 Q631 180 682.5 220 Q734 260 756 334 L958 270 Q916 124 815.5 49.5 Q715 -25 559 -25 Z M659 1180 L444 1180 L155 1499 L360 1499 L553 1337 L745 1499 L950 1499 L659 1180 Z " />
<glyph glyph-name="Dcaron" unicode="&#x10e;" horiz-adv-x="1403" d="M184 1434 L586 1434 Q711 1434 810 1405.5 Q909 1377 985 1327 Q1061 1277 1115 1208.5 Q1169 1140 1203.5 1060.5 Q1238 981 1254 893 Q1270 805 1270 717 Q1270 635 1255.5 549.5 Q1241 464 1207.5 384.5 Q1174 305 1121 235 Q1068 165 991 112.5 Q914 60 811.5 30 Q709 0 578 0 L184 0 L184 1434 Z M612 201 Q694 201 758.5 222.5 Q823 244 871.5 281 Q920 318 953.5 368 Q987 418 1008.5 475.5 Q1030 533 1039.5 594.5 Q1049 656 1049 717 Q1049 814 1025.5 906.5 Q1002 999 952 1071.5 Q902 1144 823.5 1188.5 Q745 1233 635 1233 L397 1233 L397 201 L612 201 Z M739 1569 L524 1569 L235 1888 L440 1888 L633 1726 L825 1888 L1030 1888 L739 1569 Z " />
<glyph glyph-name="dcaron" unicode="&#x10f;" horiz-adv-x="1479" d="M537 -25 Q438 -25 357.5 12.5 Q277 50 220 120.5 Q163 191 132.5 293 Q102 395 102 524 Q102 653 134 754.5 Q166 856 223.5 926.5 Q281 997 361 1034 Q441 1071 537 1071 Q623 1071 683.5 1043 Q744 1015 784 973 L784 1380 L997 1479 L997 0 L784 0 L784 74 Q742 27 683.5 1 Q625 -25 537 -25 Z M567 176 Q639 176 694 207 Q749 238 784 295 L784 756 Q772 776 752 796 Q732 816 704.5 832.5 Q677 849 642.5 859.5 Q608 870 567 870 Q447 870 381 781.5 Q315 693 315 524 Q315 448 332.5 384.5 Q350 321 382.5 274.5 Q415 228 461.5 202 Q508 176 567 176 Z M1428 1462 L1428 1446 Q1428 1295 1377.5 1176.5 Q1327 1058 1227 960 L1161 1009 Q1175 1037 1186 1087 Q1197 1137 1205 1198 Q1213 1259 1217 1327.5 Q1221 1396 1221 1462 L1428 1462 Z " />
<glyph glyph-name="Dcroat" unicode="&#x110;" horiz-adv-x="1403" d="M184 618 L51 618 L51 815 L184 815 L184 1434 L586 1434 Q711 1434 810 1405.5 Q909 1377 985 1327 Q1061 1277 1115 1208.5 Q1169 1140 1203.5 1060.5 Q1238 981 1254 893 Q1270 805 1270 717 Q1270 635 1255.5 549.5 Q1241 464 1207.5 384.5 Q1174 305 1121 235 Q1068 165 991 112.5 Q914 60 811.5 30 Q709 0 578 0 L184 0 L184 618 Z M612 201 Q694 201 758.5 222.5 Q823 244 871.5 281 Q920 318 953.5 368 Q987 418 1008.5 475.5 Q1030 533 1039.5 594.5 Q1049 656 1049 717 Q1049 814 1025.5 906.5 Q1002 999 952 1071.5 Q902 1144 823.5 1188.5 Q745 1233 635 1233 L397 1233 L397 815 L707 815 L707 618 L397 618 L397 201 L612 201 Z " />
<glyph glyph-name="dcroat" unicode="&#x111;" horiz-adv-x="1151" d="M997 1110 L997 0 L784 0 L784 74 Q742 27 683.5 1 Q625 -25 537 -25 Q438 -25 357.5 12 Q277 49 220 117 Q163 185 132.5 280.5 Q102 376 102 494 Q102 611 134 706 Q166 801 223.5 867.5 Q281 934 361 970 Q441 1006 537 1006 Q623 1006 683.5 977.5 Q744 949 784 907 L784 1110 L524 1110 L524 1290 L784 1290 L784 1380 L997 1479 L997 1290 L1120 1290 L1120 1110 L997 1110 Z M567 176 Q639 176 694 207 Q749 238 784 295 L784 690 Q772 710 752 730.5 Q732 751 704.5 767.5 Q677 784 642.5 794.5 Q608 805 567 805 Q507 805 460.5 783.5 Q414 762 381.5 721.5 Q349 681 332 623.5 Q315 566 315 494 Q315 429 332.5 371.5 Q350 314 382.5 270.5 Q415 227 461.5 201.5 Q508 176 567 176 Z " />
<glyph glyph-name="Emacron" unicode="&#x112;" horiz-adv-x="1231" d="M184 0 L184 1434 L1073 1434 L1073 1233 L397 1233 L397 840 L834 840 L834 639 L397 639 L397 201 L1118 201 L1118 0 L184 0 Z M291 1612 L291 1788 L967 1788 L967 1612 L291 1612 Z " />
<glyph glyph-name="emacron" unicode="&#x113;" horiz-adv-x="1120" d="M578 -25 Q469 -25 381 12.5 Q293 50 231 120.5 Q169 191 135.5 293 Q102 395 102 524 Q102 653 136 754.5 Q170 856 232.5 926.5 Q295 997 382.5 1034 Q470 1071 578 1071 Q671 1071 752.5 1041.5 Q834 1012 895.5 951.5 Q957 891 992.5 799 Q1028 707 1028 582 Q1028 548 1026.5 510 Q1025 472 1020 444 L315 444 Q316 379 338.5 327.5 Q361 276 398 239.5 Q435 203 482 183.5 Q529 164 580 164 Q645 164 700.5 191 Q756 218 797 270 L936 127 Q879 59 790 17 Q701 -25 578 -25 Z M578 883 Q528 883 482 868.5 Q436 854 400.5 822.5 Q365 791 342 740 Q319 689 315 616 L815 616 Q813 689 792 740 Q771 791 737 822.5 Q703 854 661.5 868.5 Q620 883 578 883 Z M242 1223 L242 1399 L918 1399 L918 1223 L242 1223 Z " />
<glyph glyph-name="Ebreve" unicode="&#x114;" horiz-adv-x="1231" d="M184 0 L184 1434 L1073 1434 L1073 1233 L397 1233 L397 840 L834 840 L834 639 L397 639 L397 201 L1118 201 L1118 0 L184 0 Z M629 1569 Q530 1569 458.5 1596.5 Q387 1624 340.5 1670.5 Q294 1717 272 1778.5 Q250 1840 250 1909 L430 1909 Q430 1873 443.5 1842.5 Q457 1812 482.5 1789.5 Q508 1767 545 1754 Q582 1741 629 1741 Q676 1741 713 1754 Q750 1767 776 1789.5 Q802 1812 815.5 1842.5 Q829 1873 829 1909 L1010 1909 Q1010 1840 987.5 1778 Q965 1716 918 1669.5 Q871 1623 799 1596 Q727 1569 629 1569 Z " />
<glyph glyph-name="ebreve" unicode="&#x115;" horiz-adv-x="1120" d="M578 -25 Q469 -25 381 12.5 Q293 50 231 120.5 Q169 191 135.5 293 Q102 395 102 524 Q102 653 136 754.5 Q170 856 232.5 926.5 Q295 997 382.5 1034 Q470 1071 578 1071 Q671 1071 752.5 1041.5 Q834 1012 895.5 951.5 Q957 891 992.5 799 Q1028 707 1028 582 Q1028 548 1026.5 510 Q1025 472 1020 444 L315 444 Q316 379 338.5 327.5 Q361 276 398 239.5 Q435 203 482 183.5 Q529 164 580 164 Q645 164 700.5 191 Q756 218 797 270 L936 127 Q879 59 790 17 Q701 -25 578 -25 Z M578 883 Q528 883 482 868.5 Q436 854 400.5 822.5 Q365 791 342 740 Q319 689 315 616 L815 616 Q813 689 792 740 Q771 791 737 822.5 Q703 854 661.5 868.5 Q620 883 578 883 Z M580 1180 Q481 1180 409.5 1207.5 Q338 1235 291.5 1281.5 Q245 1328 223 1389.5 Q201 1451 201 1520 L381 1520 Q381 1484 394.5 1453.5 Q408 1423 433.5 1400.5 Q459 1378 496 1365 Q533 1352 580 1352 Q627 1352 664 1365 Q701 1378 727 1400.5 Q753 1423 766.5 1453.5 Q780 1484 780 1520 L961 1520 Q961 1451 938.5 1389 Q916 1327 869 1280.5 Q822 1234 750 1207 Q678 1180 580 1180 Z " />
<glyph glyph-name="Edotaccent" unicode="&#x116;" horiz-adv-x="1231" d="M184 0 L184 1434 L1073 1434 L1073 1233 L397 1233 L397 840 L834 840 L834 639 L397 639 L397 201 L1118 201 L1118 0 L184 0 Z M629 1599 Q602 1599 578.5 1609 Q555 1619 537.5 1636.5 Q520 1654 510 1677.5 Q500 1701 500 1728 Q500 1755 510 1778.5 Q520 1802 537.5 1819.5 Q555 1837 578.5 1847 Q602 1857 629 1857 Q656 1857 679.5 1847 Q703 1837 720.5 1819.5 Q738 1802 748 1778.5 Q758 1755 758 1728 Q758 1701 748 1677.5 Q738 1654 720.5 1636.5 Q703 1619 679.5 1609 Q656 1599 629 1599 Z " />
<glyph glyph-name="edotaccent" unicode="&#x117;" horiz-adv-x="1120" d="M578 -25 Q469 -25 381 12.5 Q293 50 231 120.5 Q169 191 135.5 293 Q102 395 102 524 Q102 653 136 754.5 Q170 856 232.5 926.5 Q295 997 382.5 1034 Q470 1071 578 1071 Q671 1071 752.5 1041.5 Q834 1012 895.5 951.5 Q957 891 992.5 799 Q1028 707 1028 582 Q1028 548 1026.5 510 Q1025 472 1020 444 L315 444 Q316 379 338.5 327.5 Q361 276 398 239.5 Q435 203 482 183.5 Q529 164 580 164 Q645 164 700.5 191 Q756 218 797 270 L936 127 Q879 59 790 17 Q701 -25 578 -25 Z M578 883 Q528 883 482 868.5 Q436 854 400.5 822.5 Q365 791 342 740 Q319 689 315 616 L815 616 Q813 689 792 740 Q771 791 737 822.5 Q703 854 661.5 868.5 Q620 883 578 883 Z M580 1210 Q553 1210 529.5 1220 Q506 1230 488.5 1247.5 Q471 1265 461 1288.5 Q451 1312 451 1339 Q451 1366 461 1389.5 Q471 1413 488.5 1430.5 Q506 1448 529.5 1458 Q553 1468 580 1468 Q607 1468 630.5 1458 Q654 1448 671.5 1430.5 Q689 1413 699 1389.5 Q709 1366 709 1339 Q709 1312 699 1288.5 Q689 1265 671.5 1247.5 Q654 1230 630.5 1220 Q607 1210 580 1210 Z " />
<glyph glyph-name="Eogonek" unicode="&#x118;" horiz-adv-x="1231" d="M831 -489 Q776 -489 730.5 -475 Q685 -461 652.5 -434 Q620 -407 602 -368 Q584 -329 584 -279 Q584 -234 600 -192.5 Q616 -151 645 -115 Q674 -79 716 -50 Q758 -21 809 0 L184 0 L184 1434 L1073 1434 L1073 1233 L397 1233 L397 840 L834 840 L834 639 L397 639 L397 201 L1118 201 L1118 0 L1063 0 Q989 0 932.5 -27 Q876 -54 837.5 -93.5 Q799 -133 779.5 -178 Q760 -223 760 -260 Q760 -313 789.5 -340 Q819 -367 862 -367 Q891 -367 912.5 -355 Q934 -343 946 -328 L1051 -403 Q1020 -438 966.5 -463.5 Q913 -489 831 -489 Z " />
<glyph glyph-name="eogonek" unicode="&#x119;" horiz-adv-x="1120" d="M610 -489 Q555 -489 509.5 -475 Q464 -461 431 -434 Q398 -407 380 -368 Q362 -329 362 -279 Q362 -198 410 -133 Q458 -68 543 -25 Q441 -18 359 22.5 Q277 63 220 133.5 Q163 204 132.5 302.5 Q102 401 102 524 Q102 653 136 754.5 Q170 856 232.5 926.5 Q295 997 382.5 1034 Q470 1071 578 1071 Q671 1071 752.5 1041.5 Q834 1012 895.5 951.5 Q957 891 992.5 799 Q1028 707 1028 582 Q1028 548 1026.5 510 Q1025 472 1020 444 L315 444 Q316 379 338.5 327.5 Q361 276 398 239.5 Q435 203 482 183.5 Q529 164 580 164 Q645 164 700.5 191 Q756 218 797 270 L936 127 Q908 92 868 64 Q828 36 784 10 Q740 -16 696 -42 Q652 -68 617 -99 Q582 -130 560.5 -169 Q539 -208 539 -260 Q539 -313 568.5 -340 Q598 -367 641 -367 Q670 -367 691.5 -355 Q713 -343 725 -328 L829 -403 Q798 -438 745 -463.5 Q692 -489 610 -489 Z M578 883 Q528 883 482 868.5 Q436 854 400.5 822.5 Q365 791 342 740 Q319 689 315 616 L815 616 Q813 689 792 740 Q771 791 737 822.5 Q703 854 661.5 868.5 Q620 883 578 883 Z " />
<glyph glyph-name="Ecaron" unicode="&#x11a;" horiz-adv-x="1231" d="M184 0 L184 1434 L1073 1434 L1073 1233 L397 1233 L397 840 L834 840 L834 639 L397 639 L397 201 L1118 201 L1118 0 L184 0 Z M735 1569 L520 1569 L231 1888 L436 1888 L629 1726 L821 1888 L1026 1888 L735 1569 Z " />
<glyph glyph-name="ecaron" unicode="&#x11b;" horiz-adv-x="1120" d="M578 -25 Q469 -25 381 12.5 Q293 50 231 120.5 Q169 191 135.5 293 Q102 395 102 524 Q102 653 136 754.5 Q170 856 232.5 926.5 Q295 997 382.5 1034 Q470 1071 578 1071 Q671 1071 752.5 1041.5 Q834 1012 895.5 951.5 Q957 891 992.5 799 Q1028 707 1028 582 Q1028 548 1026.5 510 Q1025 472 1020 444 L315 444 Q316 379 338.5 327.5 Q361 276 398 239.5 Q435 203 482 183.5 Q529 164 580 164 Q645 164 700.5 191 Q756 218 797 270 L936 127 Q879 59 790 17 Q701 -25 578 -25 Z M578 883 Q528 883 482 868.5 Q436 854 400.5 822.5 Q365 791 342 740 Q319 689 315 616 L815 616 Q813 689 792 740 Q771 791 737 822.5 Q703 854 661.5 868.5 Q620 883 578 883 Z M686 1180 L471 1180 L182 1499 L387 1499 L580 1337 L772 1499 L977 1499 L686 1180 Z " />
<glyph glyph-name="Gcircumflex" unicode="&#x11c;" horiz-adv-x="1413" d="M758 -25 Q647 -25 558 4 Q469 33 399.5 84 Q330 135 279.5 205.5 Q229 276 196.5 358 Q164 440 148.5 531.5 Q133 623 133 717 Q133 804 149.5 893 Q166 982 200 1064.5 Q234 1147 285 1219 Q336 1291 405.5 1344 Q475 1397 563 1427.5 Q651 1458 758 1458 Q861 1458 937.5 1435.5 Q1014 1413 1072 1375 Q1130 1337 1172 1288 Q1214 1239 1247 1186 L1055 1075 Q1030 1110 1001.5 1141.5 Q973 1173 937 1197 Q901 1221 857 1235 Q813 1249 758 1249 Q680 1249 619.5 1226 Q559 1203 514.5 1163.5 Q470 1124 439 1071.5 Q408 1019 389.5 960 Q371 901 362.5 838.5 Q354 776 354 717 Q354 614 377 518 Q400 422 449 347.5 Q498 273 574.5 228.5 Q651 184 758 184 Q825 184 881 207.5 Q937 231 977 272 Q1017 313 1039 368 Q1061 423 1061 487 L1061 516 L803 516 L803 717 L1280 717 L1280 530 Q1280 395 1240 291.5 Q1200 188 1129.5 117.5 Q1059 47 964 11 Q869 -25 758 -25 Z M950 1569 L758 1730 L565 1569 L360 1569 L651 1888 L866 1888 L1155 1569 L950 1569 Z " />
<glyph glyph-name="gcircumflex" unicode="&#x11d;" horiz-adv-x="1151" d="M397 -246 Q512 -239 587 -219 Q662 -199 706 -168.5 Q750 -138 767 -97 Q784 -56 784 -8 L784 84 Q697 -25 532 -25 Q442 -25 364 9.5 Q286 44 227.5 113 Q169 182 135.5 284.5 Q102 387 102 524 Q102 653 134 754.5 Q166 856 223.5 926.5 Q281 997 361 1034 Q441 1071 537 1071 Q583 1071 621 1062.5 Q659 1054 689.5 1040 Q720 1026 743.5 1008.5 Q767 991 784 973 L784 1047 L997 1047 L997 80 Q997 -40 973 -124 Q949 -208 891 -268 Q852 -308 805.5 -333.5 Q759 -359 708.5 -375 Q658 -391 606 -398.5 Q554 -406 504 -410 L397 -246 Z M571 176 Q636 176 692.5 208 Q749 240 784 299 L784 752 Q768 778 744.5 799.5 Q721 821 693.5 837 Q666 853 634.5 861.5 Q603 870 571 870 Q446 870 380.5 781.5 Q315 693 315 524 Q315 444 333 379.5 Q351 315 384 270 Q417 225 464.5 200.5 Q512 176 571 176 Z M786 1180 L594 1341 L401 1180 L196 1180 L487 1499 L702 1499 L991 1180 L786 1180 Z " />
<glyph glyph-name="Gbreve" unicode="&#x11e;" horiz-adv-x="1413" d="M758 -25 Q647 -25 558 4 Q469 33 399.5 84 Q330 135 279.5 205.5 Q229 276 196.5 358 Q164 440 148.5 531.5 Q133 623 133 717 Q133 804 149.5 893 Q166 982 200 1064.5 Q234 1147 285 1219 Q336 1291 405.5 1344 Q475 1397 563 1427.5 Q651 1458 758 1458 Q861 1458 937.5 1435.5 Q1014 1413 1072 1375 Q1130 1337 1172 1288 Q1214 1239 1247 1186 L1055 1075 Q1030 1110 1001.5 1141.5 Q973 1173 937 1197 Q901 1221 857 1235 Q813 1249 758 1249 Q680 1249 619.5 1226 Q559 1203 514.5 1163.5 Q470 1124 439 1071.5 Q408 1019 389.5 960 Q371 901 362.5 838.5 Q354 776 354 717 Q354 614 377 518 Q400 422 449 347.5 Q498 273 574.5 228.5 Q651 184 758 184 Q825 184 881 207.5 Q937 231 977 272 Q1017 313 1039 368 Q1061 423 1061 487 L1061 516 L803 516 L803 717 L1280 717 L1280 530 Q1280 395 1240 291.5 Q1200 188 1129.5 117.5 Q1059 47 964 11 Q869 -25 758 -25 Z M758 1569 Q659 1569 587.5 1596.5 Q516 1624 469.5 1670.5 Q423 1717 401 1778.5 Q379 1840 379 1909 L559 1909 Q559 1873 572.5 1842.5 Q586 1812 611.5 1789.5 Q637 1767 674 1754 Q711 1741 758 1741 Q805 1741 842 1754 Q879 1767 905 1789.5 Q931 1812 944.5 1842.5 Q958 1873 958 1909 L1139 1909 Q1139 1840 1116.5 1778 Q1094 1716 1047 1669.5 Q1000 1623 928 1596 Q856 1569 758 1569 Z " />
<glyph glyph-name="gbreve" unicode="&#x11f;" horiz-adv-x="1151" d="M397 -246 Q512 -239 587 -219 Q662 -199 706 -168.5 Q750 -138 767 -97 Q784 -56 784 -8 L784 84 Q697 -25 532 -25 Q442 -25 364 9.5 Q286 44 227.5 113 Q169 182 135.5 284.5 Q102 387 102 524 Q102 653 134 754.5 Q166 856 223.5 926.5 Q281 997 361 1034 Q441 1071 537 1071 Q583 1071 621 1062.5 Q659 1054 689.5 1040 Q720 1026 743.5 1008.5 Q767 991 784 973 L784 1047 L997 1047 L997 80 Q997 -40 973 -124 Q949 -208 891 -268 Q852 -308 805.5 -333.5 Q759 -359 708.5 -375 Q658 -391 606 -398.5 Q554 -406 504 -410 L397 -246 Z M571 176 Q636 176 692.5 208 Q749 240 784 299 L784 752 Q768 778 744.5 799.5 Q721 821 693.5 837 Q666 853 634.5 861.5 Q603 870 571 870 Q446 870 380.5 781.5 Q315 693 315 524 Q315 444 333 379.5 Q351 315 384 270 Q417 225 464.5 200.5 Q512 176 571 176 Z M594 1180 Q495 1180 423.5 1207.5 Q352 1235 305.5 1281.5 Q259 1328 237 1389.5 Q215 1451 215 1520 L395 1520 Q395 1484 408.5 1453.5 Q422 1423 447.5 1400.5 Q473 1378 510 1365 Q547 1352 594 1352 Q641 1352 678 1365 Q715 1378 741 1400.5 Q767 1423 780.5 1453.5 Q794 1484 794 1520 L975 1520 Q975 1451 952.5 1389 Q930 1327 883 1280.5 Q836 1234 764 1207 Q692 1180 594 1180 Z " />
<glyph glyph-name="Gdotaccent" unicode="&#x120;" horiz-adv-x="1413" d="M758 -25 Q647 -25 558 4 Q469 33 399.5 84 Q330 135 279.5 205.5 Q229 276 196.5 358 Q164 440 148.5 531.5 Q133 623 133 717 Q133 804 149.5 893 Q166 982 200 1064.5 Q234 1147 285 1219 Q336 1291 405.5 1344 Q475 1397 563 1427.5 Q651 1458 758 1458 Q861 1458 937.5 1435.5 Q1014 1413 1072 1375 Q1130 1337 1172 1288 Q1214 1239 1247 1186 L1055 1075 Q1030 1110 1001.5 1141.5 Q973 1173 937 1197 Q901 1221 857 1235 Q813 1249 758 1249 Q680 1249 619.5 1226 Q559 1203 514.5 1163.5 Q470 1124 439 1071.5 Q408 1019 389.5 960 Q371 901 362.5 838.5 Q354 776 354 717 Q354 614 377 518 Q400 422 449 347.5 Q498 273 574.5 228.5 Q651 184 758 184 Q825 184 881 207.5 Q937 231 977 272 Q1017 313 1039 368 Q1061 423 1061 487 L1061 516 L803 516 L803 717 L1280 717 L1280 530 Q1280 395 1240 291.5 Q1200 188 1129.5 117.5 Q1059 47 964 11 Q869 -25 758 -25 Z M758 1599 Q731 1599 707.5 1609 Q684 1619 666.5 1636.5 Q649 1654 639 1677.5 Q629 1701 629 1728 Q629 1755 639 1778.5 Q649 1802 666.5 1819.5 Q684 1837 707.5 1847 Q731 1857 758 1857 Q785 1857 808.5 1847 Q832 1837 849.5 1819.5 Q867 1802 877 1778.5 Q887 1755 887 1728 Q887 1701 877 1677.5 Q867 1654 849.5 1636.5 Q832 1619 808.5 1609 Q785 1599 758 1599 Z " />
<glyph glyph-name="gdotaccent" unicode="&#x121;" horiz-adv-x="1151" d="M397 -246 Q512 -239 587 -219 Q662 -199 706 -168.5 Q750 -138 767 -97 Q784 -56 784 -8 L784 84 Q697 -25 532 -25 Q442 -25 364 9.5 Q286 44 227.5 113 Q169 182 135.5 284.5 Q102 387 102 524 Q102 653 134 754.5 Q166 856 223.5 926.5 Q281 997 361 1034 Q441 1071 537 1071 Q583 1071 621 1062.5 Q659 1054 689.5 1040 Q720 1026 743.5 1008.5 Q767 991 784 973 L784 1047 L997 1047 L997 80 Q997 -40 973 -124 Q949 -208 891 -268 Q852 -308 805.5 -333.5 Q759 -359 708.5 -375 Q658 -391 606 -398.5 Q554 -406 504 -410 L397 -246 Z M571 176 Q636 176 692.5 208 Q749 240 784 299 L784 752 Q768 778 744.5 799.5 Q721 821 693.5 837 Q666 853 634.5 861.5 Q603 870 571 870 Q446 870 380.5 781.5 Q315 693 315 524 Q315 444 333 379.5 Q351 315 384 270 Q417 225 464.5 200.5 Q512 176 571 176 Z M594 1210 Q567 1210 543.5 1220 Q520 1230 502.5 1247.5 Q485 1265 475 1288.5 Q465 1312 465 1339 Q465 1366 475 1389.5 Q485 1413 502.5 1430.5 Q520 1448 543.5 1458 Q567 1468 594 1468 Q621 1468 644.5 1458 Q668 1448 685.5 1430.5 Q703 1413 713 1389.5 Q723 1366 723 1339 Q723 1312 713 1288.5 Q703 1265 685.5 1247.5 Q668 1230 644.5 1220 Q621 1210 594 1210 Z " />
<glyph glyph-name="Gcommaaccent" unicode="&#x122;" horiz-adv-x="1413" d="M758 -25 Q647 -25 558 4 Q469 33 399.5 84 Q330 135 279.5 205.5 Q229 276 196.5 358 Q164 440 148.5 531.5 Q133 623 133 717 Q133 804 149.5 893 Q166 982 200 1064.5 Q234 1147 285 1219 Q336 1291 405.5 1344 Q475 1397 563 1427.5 Q651 1458 758 1458 Q861 1458 937.5 1435.5 Q1014 1413 1072 1375 Q1130 1337 1172 1288 Q1214 1239 1247 1186 L1055 1075 Q1030 1110 1001.5 1141.5 Q973 1173 937 1197 Q901 1221 857 1235 Q813 1249 758 1249 Q680 1249 619.5 1226 Q559 1203 514.5 1163.5 Q470 1124 439 1071.5 Q408 1019 389.5 960 Q371 901 362.5 838.5 Q354 776 354 717 Q354 614 377 518 Q400 422 449 347.5 Q498 273 574.5 228.5 Q651 184 758 184 Q825 184 881 207.5 Q937 231 977 272 Q1017 313 1039 368 Q1061 423 1061 487 L1061 516 L803 516 L803 717 L1280 717 L1280 530 Q1280 395 1240 291.5 Q1200 188 1129.5 117.5 Q1059 47 964 11 Q869 -25 758 -25 Z M657 -496 Q669 -485 683.5 -470 Q698 -455 712 -436.5 Q726 -418 738.5 -396.5 Q751 -375 760 -352 Q732 -352 708 -342.5 Q684 -333 666 -316.5 Q648 -300 637.5 -277 Q627 -254 627 -227 Q627 -196 637.5 -171 Q648 -146 666 -128.5 Q684 -111 708 -101.5 Q732 -92 758 -92 Q786 -92 811 -102 Q836 -112 854.5 -130.5 Q873 -149 884 -176.5 Q895 -204 895 -240 Q895 -323 851.5 -399.5 Q808 -476 727 -541 L657 -496 Z " />
<glyph glyph-name="gcommaaccent" unicode="&#x123;" horiz-adv-x="1151" d="M397 -246 Q512 -239 587 -219 Q662 -199 706 -168.5 Q750 -138 767 -97 Q784 -56 784 -8 L784 84 Q697 -25 532 -25 Q442 -25 364 9.5 Q286 44 227.5 113 Q169 182 135.5 284.5 Q102 387 102 524 Q102 653 134 754.5 Q166 856 223.5 926.5 Q281 997 361 1034 Q441 1071 537 1071 Q583 1071 621 1062.5 Q659 1054 689.5 1040 Q720 1026 743.5 1008.5 Q767 991 784 973 L784 1047 L997 1047 L997 80 Q997 -40 973 -124 Q949 -208 891 -268 Q852 -308 805.5 -333.5 Q759 -359 708.5 -375 Q658 -391 606 -398.5 Q554 -406 504 -410 L397 -246 Z M571 176 Q636 176 692.5 208 Q749 240 784 299 L784 752 Q768 778 744.5 799.5 Q721 821 693.5 837 Q666 853 634.5 861.5 Q603 870 571 870 Q446 870 380.5 781.5 Q315 693 315 524 Q315 444 333 379.5 Q351 315 384 270 Q417 225 464.5 200.5 Q512 176 571 176 Z M596 1210 Q567 1210 542.5 1220 Q518 1230 499 1249 Q480 1268 469.5 1295.5 Q459 1323 459 1358 Q459 1441 502 1517.5 Q545 1594 627 1659 L696 1614 Q684 1603 669.5 1588 Q655 1573 641 1554.5 Q627 1536 614.5 1514.5 Q602 1493 594 1470 Q622 1470 646 1460.5 Q670 1451 688 1434.5 Q706 1418 716.5 1395.5 Q727 1373 727 1346 Q727 1315 716.5 1290 Q706 1265 688 1247 Q670 1229 646 1219.5 Q622 1210 596 1210 Z " />
<glyph glyph-name="Hcircumflex" unicode="&#x124;" horiz-adv-x="1448" d="M1051 0 L1051 639 L397 639 L397 0 L184 0 L184 1434 L397 1434 L397 840 L1051 840 L1051 1434 L1264 1434 L1264 0 L1051 0 Z M915 1569 L723 1730 L530 1569 L325 1569 L616 1888 L831 1888 L1120 1569 L915 1569 Z " />
<glyph glyph-name="hcircumflex" unicode="&#x125;" horiz-adv-x="1157" d="M801 0 L801 625 Q801 691 785 737.5 Q769 784 741 813.5 Q713 843 675 856.5 Q637 870 592 870 Q544 870 503 857.5 Q462 845 432 817 Q402 789 384.5 742.5 Q367 696 367 629 L367 0 L154 0 L154 1380 L367 1479 L367 946 Q418 1011 484 1041 Q550 1071 637 1071 Q719 1071 788 1047.5 Q857 1024 907.5 971 Q958 918 986 833 Q1014 748 1014 625 L1014 0 L801 0 Z M782 1567 L590 1728 L397 1567 L192 1567 L483 1886 L698 1886 L987 1567 L782 1567 Z " />
<glyph glyph-name="Hbar" unicode="&#x126;" horiz-adv-x="1448" d="M1051 0 L1051 639 L397 639 L397 0 L184 0 L184 1053 L0 1053 L0 1253 L184 1253 L184 1434 L397 1434 L397 1253 L1051 1253 L1051 1434 L1264 1434 L1264 1253 L1448 1253 L1448 1053 L1264 1053 L1264 0 L1051 0 Z M1051 840 L1051 1053 L397 1053 L397 840 L1051 840 Z " />
<glyph glyph-name="hbar" unicode="&#x127;" horiz-adv-x="1157" d="M367 1110 L367 885 Q418 950 484 980 Q550 1010 637 1010 Q719 1010 788 986.5 Q857 963 907.5 909.5 Q958 856 986 771 Q1014 686 1014 563 L1014 0 L801 0 L801 563 Q801 629 785 675.5 Q769 722 741 752 Q713 782 675 795.5 Q637 809 592 809 Q544 809 503 796.5 Q462 784 432 755.5 Q402 727 384.5 681 Q367 635 367 567 L367 0 L154 0 L154 1110 L31 1110 L31 1290 L154 1290 L154 1380 L367 1479 L367 1290 L657 1290 L657 1110 L367 1110 Z " />
<glyph glyph-name="Itilde" unicode="&#x128;" horiz-adv-x="602" d="M195 0 L195 1434 L408 1434 L408 0 L195 0 Z M466 1591 Q412 1591 366.5 1606.5 Q321 1622 281 1640 Q241 1658 204 1673.5 Q167 1689 128 1689 Q90 1689 62.5 1667.5 Q35 1646 32 1599 L-72 1599 Q-72 1660 -60.5 1709.5 Q-49 1759 -23 1794 Q3 1829 43.5 1847.5 Q84 1866 143 1866 Q197 1866 242.5 1850.5 Q288 1835 328 1816.5 Q368 1798 405 1782.5 Q442 1767 481 1767 Q519 1767 546.5 1789 Q574 1811 577 1857 L681 1857 Q681 1796 669.5 1746.5 Q658 1697 632 1662.5 Q606 1628 565 1609.5 Q524 1591 466 1591 Z " />
<glyph glyph-name="itilde" unicode="&#x129;" horiz-adv-x="524" d="M156 0 L156 1047 L369 1047 L369 0 L156 0 Z M428 1202 Q374 1202 328.5 1217.5 Q283 1233 243 1251 Q203 1269 166 1284.5 Q129 1300 90 1300 Q52 1300 24.5 1278.5 Q-3 1257 -6 1210 L-110 1210 Q-110 1271 -98.5 1320.5 Q-87 1370 -61 1405 Q-35 1440 5.5 1458.5 Q46 1477 105 1477 Q159 1477 204.5 1461.5 Q250 1446 290 1427.5 Q330 1409 367 1393.5 Q404 1378 443 1378 Q481 1378 508.5 1400 Q536 1422 539 1468 L643 1468 Q643 1407 631.5 1357.5 Q620 1308 594 1273.5 Q568 1239 527 1220.5 Q486 1202 428 1202 Z " />
<glyph glyph-name="Imacron" unicode="&#x12a;" horiz-adv-x="602" d="M195 0 L195 1434 L408 1434 L408 0 L195 0 Z M-33 1612 L-33 1788 L643 1788 L643 1612 L-33 1612 Z " />
<glyph glyph-name="imacron" unicode="&#x12b;" horiz-adv-x="524" d="M156 0 L156 1047 L369 1047 L369 0 L156 0 Z M-71 1223 L-71 1399 L605 1399 L605 1223 L-71 1223 Z " />
<glyph glyph-name="Ibreve" unicode="&#x12c;" horiz-adv-x="602" d="M195 0 L195 1434 L408 1434 L408 0 L195 0 Z M305 1569 Q206 1569 134.5 1596.5 Q63 1624 16.5 1670.5 Q-30 1717 -52 1778.5 Q-74 1840 -74 1909 L106 1909 Q106 1873 119.5 1842.5 Q133 1812 158.5 1789.5 Q184 1767 221 1754 Q258 1741 305 1741 Q352 1741 389 1754 Q426 1767 452 1789.5 Q478 1812 491.5 1842.5 Q505 1873 505 1909 L686 1909 Q686 1840 663.5 1778 Q641 1716 594 1669.5 Q547 1623 475 1596 Q403 1569 305 1569 Z " />
<glyph glyph-name="ibreve" unicode="&#x12d;" horiz-adv-x="524" d="M156 0 L156 1047 L369 1047 L369 0 L156 0 Z M267 1180 Q168 1180 96.5 1207.5 Q25 1235 -21.5 1281.5 Q-68 1328 -90 1389.5 Q-112 1451 -112 1520 L68 1520 Q68 1484 81.5 1453.5 Q95 1423 120.5 1400.5 Q146 1378 183 1365 Q220 1352 267 1352 Q314 1352 351 1365 Q388 1378 414 1400.5 Q440 1423 453.5 1453.5 Q467 1484 467 1520 L648 1520 Q648 1451 625.5 1389 Q603 1327 556 1280.5 Q509 1234 437 1207 Q365 1180 267 1180 Z " />
<glyph glyph-name="Iogonek" unicode="&#x12e;" horiz-adv-x="602" d="M211 -489 Q155 -489 109.5 -475 Q64 -461 31.5 -434 Q-1 -407 -19 -368 Q-37 -329 -37 -279 Q-37 -186 24.5 -114.5 Q86 -43 195 0 L195 1434 L408 1434 L408 0 Q335 -21 284 -50.5 Q233 -80 200.5 -114.5 Q168 -149 153.5 -186.5 Q139 -224 139 -260 Q139 -313 168.5 -340 Q198 -367 242 -367 Q271 -367 292 -355 Q313 -343 326 -328 L430 -403 Q399 -438 345.5 -463.5 Q292 -489 211 -489 Z " />
<glyph glyph-name="iogonek" unicode="&#x12f;" horiz-adv-x="524" d="M176 -489 Q121 -489 75.5 -475 Q30 -461 -3 -434 Q-36 -407 -54 -368 Q-72 -329 -72 -279 Q-72 -188 -12.5 -116.5 Q47 -45 156 0 L156 1047 L369 1047 L369 0 Q297 -21 247 -50.5 Q197 -80 165 -114.5 Q133 -149 118.5 -186.5 Q104 -224 104 -260 Q104 -313 134 -340 Q164 -367 207 -367 Q236 -367 257 -355 Q278 -343 291 -328 L395 -403 Q364 -438 311 -463.5 Q258 -489 176 -489 Z M262 1210 Q235 1210 211.5 1220 Q188 1230 170.5 1247.5 Q153 1265 143 1288.5 Q133 1312 133 1339 Q133 1366 143 1389.5 Q153 1413 170.5 1430.5 Q188 1448 211.5 1458 Q235 1468 262 1468 Q289 1468 312.5 1458 Q336 1448 353.5 1430.5 Q371 1413 381 1389.5 Q391 1366 391 1339 Q391 1312 381 1288.5 Q371 1265 353.5 1247.5 Q336 1230 312.5 1220 Q289 1210 262 1210 Z " />
<glyph glyph-name="Idotaccent" unicode="&#x130;" horiz-adv-x="602" d="M195 0 L195 1434 L408 1434 L408 0 L195 0 Z M305 1599 Q278 1599 254.5 1609 Q231 1619 213.5 1636.5 Q196 1654 186 1677.5 Q176 1701 176 1728 Q176 1755 186 1778.5 Q196 1802 213.5 1819.5 Q231 1837 254.5 1847 Q278 1857 305 1857 Q332 1857 355.5 1847 Q379 1837 396.5 1819.5 Q414 1802 424 1778.5 Q434 1755 434 1728 Q434 1701 424 1677.5 Q414 1654 396.5 1636.5 Q379 1619 355.5 1609 Q332 1599 305 1599 Z " />
<glyph glyph-name="IJ" unicode="&#x132;" horiz-adv-x="1686" d="M195 0 L195 1434 L408 1434 L408 0 L195 0 Z M1034 -25 Q957 -25 888 -7.5 Q819 10 760.5 44 Q702 78 656 128.5 Q610 179 579 246 L764 336 Q802 255 871 217.5 Q940 180 1034 180 Q1085 180 1132.5 193 Q1180 206 1216.5 242 Q1253 278 1275.5 342.5 Q1298 407 1298 510 L1298 1434 L1511 1434 L1511 481 Q1511 381 1490.5 304.5 Q1470 228 1435.5 171.5 Q1401 115 1354 77.5 Q1307 40 1254 17 Q1201 -6 1144.5 -15.5 Q1088 -25 1034 -25 Z " />
<glyph glyph-name="ij" unicode="&#x133;" horiz-adv-x="1036" d="M156 0 L156 1047 L369 1047 L369 0 L156 0 Z M262 1210 Q235 1210 211.5 1220 Q188 1230 170.5 1247.5 Q153 1265 143 1288.5 Q133 1312 133 1339 Q133 1366 143 1389.5 Q153 1413 170.5 1430.5 Q188 1448 211.5 1458 Q235 1468 262 1468 Q289 1468 312.5 1458 Q336 1448 353.5 1430.5 Q371 1413 381 1389.5 Q391 1366 391 1339 Q391 1312 381 1288.5 Q371 1265 353.5 1247.5 Q336 1230 312.5 1220 Q289 1210 262 1210 Z M383 -281 Q464 -263 518.5 -241.5 Q573 -220 606 -190 Q639 -160 653.5 -119.5 Q668 -79 668 -23 L668 1047 L881 1047 L881 49 Q881 3 877 -42.5 Q873 -88 862 -131 Q851 -174 832 -212.5 Q813 -251 782 -283 Q746 -321 708 -347 Q670 -373 632 -390.5 Q594 -408 557 -419.5 Q520 -431 485 -438 L383 -281 Z M774 1210 Q747 1210 723.5 1220 Q700 1230 682.5 1247.5 Q665 1265 655 1288.5 Q645 1312 645 1339 Q645 1366 655 1389.5 Q665 1413 682.5 1430.5 Q700 1448 723.5 1458 Q747 1468 774 1468 Q801 1468 824.5 1458 Q848 1448 865.5 1430.5 Q883 1413 893 1389.5 Q903 1366 903 1339 Q903 1312 893 1288.5 Q883 1265 865.5 1247.5 Q848 1230 824.5 1220 Q801 1210 774 1210 Z " />
<glyph glyph-name="Jcircumflex" unicode="&#x134;" horiz-adv-x="1157" d="M506 -25 Q429 -25 360 -7.5 Q291 10 232.5 44 Q174 78 128 128.5 Q82 179 51 246 L236 336 Q274 255 343 217.5 Q412 180 506 180 Q557 180 604.5 193 Q652 206 688.5 242 Q725 278 747.5 342.5 Q770 407 770 510 L770 1434 L983 1434 L983 481 Q983 381 962.5 304.5 Q942 228 907.5 171.5 Q873 115 826 77.5 Q779 40 726 17 Q673 -6 616.5 -15.5 Q560 -25 506 -25 Z M1065 1569 L873 1730 L680 1569 L475 1569 L766 1888 L981 1888 L1270 1569 L1065 1569 Z " />
<glyph glyph-name="jcircumflex" unicode="&#x135;" horiz-adv-x="524" d="M-129 -281 Q-48 -263 6.5 -241.5 Q61 -220 94 -190 Q127 -160 141.5 -119.5 Q156 -79 156 -23 L156 1047 L369 1047 L369 49 Q369 3 365 -42.5 Q361 -88 350 -131 Q339 -174 320 -212.5 Q301 -251 270 -283 Q234 -321 196 -347 Q158 -373 120 -390.5 Q82 -408 45 -419.5 Q8 -431 -27 -438 L-129 -281 Z M459 1180 L267 1341 L74 1180 L-131 1180 L160 1499 L375 1499 L664 1180 L459 1180 Z " />
<glyph glyph-name="Kcommaaccent" unicode="&#x136;" horiz-adv-x="1386" d="M1055 0 L651 750 L397 442 L397 0 L184 0 L184 1434 L397 1434 L397 739 L950 1434 L1196 1434 L795 930 L1305 0 L1055 0 Z M612 -496 Q624 -485 638.5 -470 Q653 -455 667 -436.5 Q681 -418 693.5 -396.5 Q706 -375 715 -352 Q687 -352 663 -342.5 Q639 -333 621 -316.5 Q603 -300 592.5 -277 Q582 -254 582 -227 Q582 -196 592.5 -171 Q603 -146 621 -128.5 Q639 -111 663 -101.5 Q687 -92 713 -92 Q741 -92 766 -102 Q791 -112 809.5 -130.5 Q828 -149 839 -176.5 Q850 -204 850 -240 Q850 -323 806.5 -399.5 Q763 -476 682 -541 L612 -496 Z " />
<glyph glyph-name="kcommaaccent" unicode="&#x137;" horiz-adv-x="1126" d="M154 0 L154 1378 L367 1479 L367 723 L676 1047 L938 1047 L651 756 L1044 0 L811 0 L502 602 L367 467 L367 0 L154 0 Z M465 -496 Q477 -485 491.5 -470 Q506 -455 520 -436.5 Q534 -418 546.5 -396.5 Q559 -375 568 -352 Q540 -352 516 -342.5 Q492 -333 474 -316.5 Q456 -300 445.5 -277 Q435 -254 435 -227 Q435 -196 445.5 -171 Q456 -146 474 -128.5 Q492 -111 516 -101.5 Q540 -92 566 -92 Q594 -92 619 -102 Q644 -112 662.5 -130.5 Q681 -149 692 -176.5 Q703 -204 703 -240 Q703 -323 659.5 -399.5 Q616 -476 535 -541 L465 -496 Z " />
<glyph glyph-name="kgreenlandic" unicode="&#x138;" horiz-adv-x="1116" d="M799 0 L539 485 L367 276 L367 0 L154 0 L154 1047 L367 1047 L367 561 L754 1047 L995 1047 L678 655 L1034 0 L799 0 Z " />
<glyph glyph-name="Lacute" unicode="&#x139;" horiz-adv-x="1190" d="M184 0 L184 1434 L397 1434 L397 205 L1098 205 L1098 0 L184 0 Z M303 1569 L86 1569 L376 1888 L667 1888 L303 1569 Z " />
<glyph glyph-name="lacute" unicode="&#x13a;" horiz-adv-x="541" d="M164 0 L164 1378 L377 1479 L377 0 L164 0 Z M240 1549 L23 1549 L313 1868 L604 1868 L240 1549 Z " />
<glyph glyph-name="Lcommaaccent" unicode="&#x13b;" horiz-adv-x="1190" d="M184 0 L184 1434 L397 1434 L397 205 L1098 205 L1098 0 L184 0 Z M536 -496 Q548 -485 562.5 -470 Q577 -455 591 -436.5 Q605 -418 617.5 -396.5 Q630 -375 639 -352 Q611 -352 587 -342.5 Q563 -333 545 -316.5 Q527 -300 516.5 -277 Q506 -254 506 -227 Q506 -196 516.5 -171 Q527 -146 545 -128.5 Q563 -111 587 -101.5 Q611 -92 637 -92 Q665 -92 690 -102 Q715 -112 733.5 -130.5 Q752 -149 763 -176.5 Q774 -204 774 -240 Q774 -323 730.5 -399.5 Q687 -476 606 -541 L536 -496 Z " />
<glyph glyph-name="lcommaaccent" unicode="&#x13c;" horiz-adv-x="541" d="M164 0 L164 1378 L377 1479 L377 0 L164 0 Z M172 -496 Q184 -485 198.5 -470 Q213 -455 227 -436.5 Q241 -418 253.5 -396.5 Q266 -375 275 -352 Q247 -352 223 -342.5 Q199 -333 181 -316.5 Q163 -300 152.5 -277 Q142 -254 142 -227 Q142 -196 152.5 -171 Q163 -146 181 -128.5 Q199 -111 223 -101.5 Q247 -92 273 -92 Q301 -92 326 -102 Q351 -112 369.5 -130.5 Q388 -149 399 -176.5 Q410 -204 410 -240 Q410 -323 366.5 -399.5 Q323 -476 242 -541 L172 -496 Z " />
<glyph glyph-name="Lcaron" unicode="&#x13d;" horiz-adv-x="1190" d="M184 0 L184 1434 L397 1434 L397 205 L1098 205 L1098 0 L184 0 Z M407 1569 L192 1569 L-97 1888 L108 1888 L301 1726 L493 1888 L698 1888 L407 1569 Z " />
<glyph glyph-name="lcaron" unicode="&#x13e;" horiz-adv-x="858" d="M164 0 L164 1378 L377 1479 L377 0 L164 0 Z M807 1462 L807 1446 Q807 1295 756.5 1176.5 Q706 1058 606 960 L540 1009 Q554 1037 565 1087 Q576 1137 584 1198 Q592 1259 596 1327.5 Q600 1396 600 1462 L807 1462 Z " />
<glyph glyph-name="Ldot" unicode="&#x13f;" horiz-adv-x="1190" d="M184 0 L184 1434 L397 1434 L397 205 L1098 205 L1098 0 L184 0 Z M887 589 Q860 589 836.5 599 Q813 609 795.5 626.5 Q778 644 768 667.5 Q758 691 758 718 Q758 745 768 768.5 Q778 792 795.5 809.5 Q813 827 836.5 837 Q860 847 887 847 Q914 847 937.5 837 Q961 827 978.5 809.5 Q996 792 1006 768.5 Q1016 745 1016 718 Q1016 691 1006 667.5 Q996 644 978.5 626.5 Q961 609 937.5 599 Q914 589 887 589 Z " />
<glyph glyph-name="ldot" unicode="&#x140;" horiz-adv-x="758" d="M164 0 L164 1378 L377 1479 L377 0 L164 0 Z M650 520 Q623 520 599.5 530 Q576 540 558.5 557.5 Q541 575 531 598.5 Q521 622 521 649 Q521 676 531 699.5 Q541 723 558.5 740.5 Q576 758 599.5 768 Q623 778 650 778 Q677 778 700.5 768 Q724 758 741.5 740.5 Q759 723 769 699.5 Q779 676 779 649 Q779 622 769 598.5 Q759 575 741.5 557.5 Q724 540 700.5 530 Q677 520 650 520 Z " />
<glyph glyph-name="Nacute" unicode="&#x143;" horiz-adv-x="1454" d="M1069 0 L449 973 L391 1079 L397 973 L397 0 L184 0 L184 1434 L399 1434 L1004 477 L1063 367 L1057 475 L1057 1434 L1270 1434 L1270 0 L1069 0 Z M748 1569 L531 1569 L821 1888 L1112 1888 L748 1569 Z " />
<glyph glyph-name="nacute" unicode="&#x144;" horiz-adv-x="1157" d="M801 0 L801 625 Q801 691 785 737.5 Q769 784 741 813.5 Q713 843 675 856.5 Q637 870 592 870 Q544 870 503 857.5 Q462 845 432 817 Q402 789 384.5 742.5 Q367 696 367 629 L367 0 L154 0 L154 1047 L367 1047 L367 946 Q418 1011 484 1041 Q550 1071 637 1071 Q719 1071 788 1047.5 Q857 1024 907.5 971 Q958 918 986 833 Q1014 748 1014 625 L1014 0 L801 0 Z M549 1180 L332 1180 L622 1499 L913 1499 L549 1180 Z " />
<glyph glyph-name="Ncommaaccent" unicode="&#x145;" horiz-adv-x="1454" d="M1069 0 L449 973 L391 1079 L397 973 L397 0 L184 0 L184 1434 L399 1434 L1004 477 L1063 367 L1057 475 L1057 1434 L1270 1434 L1270 0 L1069 0 Z M633 -496 Q645 -485 659.5 -470 Q674 -455 688 -436.5 Q702 -418 714.5 -396.5 Q727 -375 736 -352 Q708 -352 684 -342.5 Q660 -333 642 -316.5 Q624 -300 613.5 -277 Q603 -254 603 -227 Q603 -196 613.5 -171 Q624 -146 642 -128.5 Q660 -111 684 -101.5 Q708 -92 734 -92 Q762 -92 787 -102 Q812 -112 830.5 -130.5 Q849 -149 860 -176.5 Q871 -204 871 -240 Q871 -323 827.5 -399.5 Q784 -476 703 -541 L633 -496 Z " />
<glyph glyph-name="ncommaaccent" unicode="&#x146;" horiz-adv-x="1157" d="M801 0 L801 625 Q801 691 785 737.5 Q769 784 741 813.5 Q713 843 675 856.5 Q637 870 592 870 Q544 870 503 857.5 Q462 845 432 817 Q402 789 384.5 742.5 Q367 696 367 629 L367 0 L154 0 L154 1047 L367 1047 L367 946 Q418 1011 484 1041 Q550 1071 637 1071 Q719 1071 788 1047.5 Q857 1024 907.5 971 Q958 918 986 833 Q1014 748 1014 625 L1014 0 L801 0 Z M489 -496 Q501 -485 515.5 -470 Q530 -455 544 -436.5 Q558 -418 570.5 -396.5 Q583 -375 592 -352 Q564 -352 540 -342.5 Q516 -333 498 -316.5 Q480 -300 469.5 -277 Q459 -254 459 -227 Q459 -196 469.5 -171 Q480 -146 498 -128.5 Q516 -111 540 -101.5 Q564 -92 590 -92 Q618 -92 643 -102 Q668 -112 686.5 -130.5 Q705 -149 716 -176.5 Q727 -204 727 -240 Q727 -323 683.5 -399.5 Q640 -476 559 -541 L489 -496 Z " />
<glyph glyph-name="Ncaron" unicode="&#x147;" horiz-adv-x="1454" d="M1069 0 L449 973 L391 1079 L397 973 L397 0 L184 0 L184 1434 L399 1434 L1004 477 L1063 367 L1057 475 L1057 1434 L1270 1434 L1270 0 L1069 0 Z M854 1569 L639 1569 L350 1888 L555 1888 L748 1726 L940 1888 L1145 1888 L854 1569 Z " />
<glyph glyph-name="ncaron" unicode="&#x148;" horiz-adv-x="1157" d="M801 0 L801 625 Q801 691 785 737.5 Q769 784 741 813.5 Q713 843 675 856.5 Q637 870 592 870 Q544 870 503 857.5 Q462 845 432 817 Q402 789 384.5 742.5 Q367 696 367 629 L367 0 L154 0 L154 1047 L367 1047 L367 946 Q418 1011 484 1041 Q550 1071 637 1071 Q719 1071 788 1047.5 Q857 1024 907.5 971 Q958 918 986 833 Q1014 748 1014 625 L1014 0 L801 0 Z M696 1180 L481 1180 L192 1499 L397 1499 L590 1337 L782 1499 L987 1499 L696 1180 Z " />
<glyph glyph-name="napostrophe" unicode="&#x149;" horiz-adv-x="1542" d="M1186 0 L1186 625 Q1186 691 1170 737.5 Q1154 784 1126 813.5 Q1098 843 1060 856.5 Q1022 870 977 870 Q929 870 888 857.5 Q847 845 817 817 Q787 789 769.5 742.5 Q752 696 752 629 L752 0 L539 0 L539 1047 L752 1047 L752 946 Q803 1011 869 1041 Q935 1071 1022 1071 Q1104 1071 1173 1047.5 Q1242 1024 1292.5 971 Q1343 918 1371 833 Q1399 748 1399 625 L1399 0 L1186 0 Z M84 946 Q98 958 117.5 980.5 Q137 1003 156 1031.5 Q175 1060 189.5 1092.5 Q204 1125 209 1159 Q182 1161 157 1172.5 Q132 1184 113.5 1202.5 Q95 1221 83.5 1246.5 Q72 1272 72 1303 Q72 1338 84.5 1366.5 Q97 1395 117.5 1415.5 Q138 1436 165.5 1447 Q193 1458 223 1458 Q255 1458 284.5 1446.5 Q314 1435 336.5 1412 Q359 1389 372 1354 Q385 1319 385 1272 Q385 1213 367.5 1157 Q350 1101 320 1052.5 Q290 1004 249.5 963.5 Q209 923 164 895 L84 946 Z " />
<glyph glyph-name="Eng" unicode="&#x14a;" horiz-adv-x="1454" d="M760 -342 Q841 -324 895.5 -302.5 Q950 -281 983 -251 Q1016 -221 1030 -180.5 Q1044 -140 1044 -84 L1044 39 L449 973 L391 1079 L397 973 L397 0 L184 0 L184 1434 L399 1434 L1004 477 L1063 367 L1057 475 L1057 1434 L1270 1434 L1270 -12 Q1270 -58 1265 -103.5 Q1260 -149 1248 -192 Q1236 -235 1216 -273.5 Q1196 -312 1165 -344 Q1129 -382 1090 -408 Q1051 -434 1012 -452 Q973 -470 934.5 -481 Q896 -492 862 -500 L760 -342 Z " />
<glyph glyph-name="eng" unicode="&#x14b;" horiz-adv-x="1157" d="M516 -342 Q597 -324 651.5 -302.5 Q706 -281 739 -251 Q772 -221 786.5 -180.5 Q801 -140 801 -84 L801 625 Q801 691 785 737.5 Q769 784 741 813.5 Q713 843 675 856.5 Q637 870 592 870 Q544 870 503 857.5 Q462 845 432 817 Q402 789 384.5 742.5 Q367 696 367 629 L367 0 L154 0 L154 1047 L367 1047 L367 946 Q418 1011 484 1041 Q550 1071 637 1071 Q719 1071 788 1047.5 Q857 1024 907.5 971 Q958 918 986 833 Q1014 748 1014 625 L1014 -12 Q1014 -58 1010 -103.5 Q1006 -149 995 -192 Q984 -235 965 -273.5 Q946 -312 915 -344 Q879 -382 841 -408 Q803 -434 765 -452 Q727 -470 690 -481 Q653 -492 618 -500 L516 -342 Z " />
<glyph glyph-name="Omacron" unicode="&#x14c;" horiz-adv-x="1516" d="M758 -25 Q643 -25 552 5.5 Q461 36 391.5 88.5 Q322 141 273 212.5 Q224 284 193 366.5 Q162 449 147.5 538.5 Q133 628 133 717 Q133 805 147.5 894.5 Q162 984 193 1066.5 Q224 1149 273 1220.5 Q322 1292 391.5 1344.5 Q461 1397 552 1427.5 Q643 1458 758 1458 Q873 1458 964 1427.5 Q1055 1397 1124.5 1344.5 Q1194 1292 1243 1220.5 Q1292 1149 1323 1066.5 Q1354 984 1368 894.5 Q1382 805 1382 717 Q1382 628 1368 538.5 Q1354 449 1323 366.5 Q1292 284 1243 212.5 Q1194 141 1124.5 88.5 Q1055 36 964 5.5 Q873 -25 758 -25 Z M758 180 Q833 180 892 203.5 Q951 227 995.5 267 Q1040 307 1071.5 360.5 Q1103 414 1123 473.5 Q1143 533 1152 595.5 Q1161 658 1161 717 Q1161 779 1152 843.5 Q1143 908 1123 967.5 Q1103 1027 1071.5 1079 Q1040 1131 995.5 1169.5 Q951 1208 892 1230.5 Q833 1253 758 1253 Q683 1253 624 1229.5 Q565 1206 520 1166 Q475 1126 443.5 1072.5 Q412 1019 392 959.5 Q372 900 363 837.5 Q354 775 354 717 Q354 623 375 527.5 Q396 432 444 354.5 Q492 277 569 228.5 Q646 180 758 180 Z M422 1612 L422 1788 L1098 1788 L1098 1612 L422 1612 Z " />
<glyph glyph-name="omacron" unicode="&#x14d;" horiz-adv-x="1161" d="M580 -25 Q470 -25 381.5 12 Q293 49 231 119.5 Q169 190 135.5 291.5 Q102 393 102 522 Q102 651 135.5 753 Q169 855 231 925.5 Q293 996 381.5 1033.5 Q470 1071 580 1071 Q689 1071 778 1033.5 Q867 996 929 925.5 Q991 855 1025 753 Q1059 651 1059 522 Q1059 393 1025 291.5 Q991 190 929 119.5 Q867 49 778 12 Q689 -25 580 -25 Z M580 176 Q641 176 690.5 200 Q740 224 774.5 268.5 Q809 313 827.5 377 Q846 441 846 522 Q846 603 827.5 667.5 Q809 732 774.5 777 Q740 822 690.5 846 Q641 870 580 870 Q519 870 470 846 Q421 822 386.5 777 Q352 732 333.5 667.5 Q315 603 315 522 Q315 441 333.5 377 Q352 313 386.5 268.5 Q421 224 470 200 Q519 176 580 176 Z M242 1223 L242 1399 L918 1399 L918 1223 L242 1223 Z " />
<glyph glyph-name="Obreve" unicode="&#x14e;" horiz-adv-x="1516" d="M758 -25 Q643 -25 552 5.5 Q461 36 391.5 88.5 Q322 141 273 212.5 Q224 284 193 366.5 Q162 449 147.5 538.5 Q133 628 133 717 Q133 805 147.5 894.5 Q162 984 193 1066.5 Q224 1149 273 1220.5 Q322 1292 391.5 1344.5 Q461 1397 552 1427.5 Q643 1458 758 1458 Q873 1458 964 1427.5 Q1055 1397 1124.5 1344.5 Q1194 1292 1243 1220.5 Q1292 1149 1323 1066.5 Q1354 984 1368 894.5 Q1382 805 1382 717 Q1382 628 1368 538.5 Q1354 449 1323 366.5 Q1292 284 1243 212.5 Q1194 141 1124.5 88.5 Q1055 36 964 5.5 Q873 -25 758 -25 Z M758 180 Q833 180 892 203.5 Q951 227 995.5 267 Q1040 307 1071.5 360.5 Q1103 414 1123 473.5 Q1143 533 1152 595.5 Q1161 658 1161 717 Q1161 779 1152 843.5 Q1143 908 1123 967.5 Q1103 1027 1071.5 1079 Q1040 1131 995.5 1169.5 Q951 1208 892 1230.5 Q833 1253 758 1253 Q683 1253 624 1229.5 Q565 1206 520 1166 Q475 1126 443.5 1072.5 Q412 1019 392 959.5 Q372 900 363 837.5 Q354 775 354 717 Q354 623 375 527.5 Q396 432 444 354.5 Q492 277 569 228.5 Q646 180 758 180 Z M760 1569 Q661 1569 589.5 1596.5 Q518 1624 471.5 1670.5 Q425 1717 403 1778.5 Q381 1840 381 1909 L561 1909 Q561 1873 574.5 1842.5 Q588 1812 613.5 1789.5 Q639 1767 676 1754 Q713 1741 760 1741 Q807 1741 844 1754 Q881 1767 907 1789.5 Q933 1812 946.5 1842.5 Q960 1873 960 1909 L1141 1909 Q1141 1840 1118.5 1778 Q1096 1716 1049 1669.5 Q1002 1623 930 1596 Q858 1569 760 1569 Z " />
<glyph glyph-name="obreve" unicode="&#x14f;" horiz-adv-x="1161" d="M580 -25 Q470 -25 381.5 12 Q293 49 231 119.5 Q169 190 135.5 291.5 Q102 393 102 522 Q102 651 135.5 753 Q169 855 231 925.5 Q293 996 381.5 1033.5 Q470 1071 580 1071 Q689 1071 778 1033.5 Q867 996 929 925.5 Q991 855 1025 753 Q1059 651 1059 522 Q1059 393 1025 291.5 Q991 190 929 119.5 Q867 49 778 12 Q689 -25 580 -25 Z M580 176 Q641 176 690.5 200 Q740 224 774.5 268.5 Q809 313 827.5 377 Q846 441 846 522 Q846 603 827.5 667.5 Q809 732 774.5 777 Q740 822 690.5 846 Q641 870 580 870 Q519 870 470 846 Q421 822 386.5 777 Q352 732 333.5 667.5 Q315 603 315 522 Q315 441 333.5 377 Q352 313 386.5 268.5 Q421 224 470 200 Q519 176 580 176 Z M580 1180 Q481 1180 409.5 1207.5 Q338 1235 291.5 1281.5 Q245 1328 223 1389.5 Q201 1451 201 1520 L381 1520 Q381 1484 394.5 1453.5 Q408 1423 433.5 1400.5 Q459 1378 496 1365 Q533 1352 580 1352 Q627 1352 664 1365 Q701 1378 727 1400.5 Q753 1423 766.5 1453.5 Q780 1484 780 1520 L961 1520 Q961 1451 938.5 1389 Q916 1327 869 1280.5 Q822 1234 750 1207 Q678 1180 580 1180 Z " />
<glyph glyph-name="Ohungarumlaut" unicode="&#x150;" horiz-adv-x="1516" d="M758 -25 Q643 -25 552 5.5 Q461 36 391.5 88.5 Q322 141 273 212.5 Q224 284 193 366.5 Q162 449 147.5 538.5 Q133 628 133 717 Q133 805 147.5 894.5 Q162 984 193 1066.5 Q224 1149 273 1220.5 Q322 1292 391.5 1344.5 Q461 1397 552 1427.5 Q643 1458 758 1458 Q873 1458 964 1427.5 Q1055 1397 1124.5 1344.5 Q1194 1292 1243 1220.5 Q1292 1149 1323 1066.5 Q1354 984 1368 894.5 Q1382 805 1382 717 Q1382 628 1368 538.5 Q1354 449 1323 366.5 Q1292 284 1243 212.5 Q1194 141 1124.5 88.5 Q1055 36 964 5.5 Q873 -25 758 -25 Z M758 180 Q833 180 892 203.5 Q951 227 995.5 267 Q1040 307 1071.5 360.5 Q1103 414 1123 473.5 Q1143 533 1152 595.5 Q1161 658 1161 717 Q1161 779 1152 843.5 Q1143 908 1123 967.5 Q1103 1027 1071.5 1079 Q1040 1131 995.5 1169.5 Q951 1208 892 1230.5 Q833 1253 758 1253 Q683 1253 624 1229.5 Q565 1206 520 1166 Q475 1126 443.5 1072.5 Q412 1019 392 959.5 Q372 900 363 837.5 Q354 775 354 717 Q354 623 375 527.5 Q396 432 444 354.5 Q492 277 569 228.5 Q646 180 758 180 Z M586 1569 L368 1569 L659 1888 L950 1888 L586 1569 Z M1016 1569 L799 1569 L1089 1888 L1380 1888 L1016 1569 Z " />
<glyph glyph-name="ohungarumlaut" unicode="&#x151;" horiz-adv-x="1161" d="M580 -25 Q470 -25 381.5 12 Q293 49 231 119.5 Q169 190 135.5 291.5 Q102 393 102 522 Q102 651 135.5 753 Q169 855 231 925.5 Q293 996 381.5 1033.5 Q470 1071 580 1071 Q689 1071 778 1033.5 Q867 996 929 925.5 Q991 855 1025 753 Q1059 651 1059 522 Q1059 393 1025 291.5 Q991 190 929 119.5 Q867 49 778 12 Q689 -25 580 -25 Z M580 176 Q641 176 690.5 200 Q740 224 774.5 268.5 Q809 313 827.5 377 Q846 441 846 522 Q846 603 827.5 667.5 Q809 732 774.5 777 Q740 822 690.5 846 Q641 870 580 870 Q519 870 470 846 Q421 822 386.5 777 Q352 732 333.5 667.5 Q315 603 315 522 Q315 441 333.5 377 Q352 313 386.5 268.5 Q421 224 470 200 Q519 176 580 176 Z M406 1180 L188 1180 L479 1499 L770 1499 L406 1180 Z M836 1180 L619 1180 L909 1499 L1200 1499 L836 1180 Z " />
<glyph glyph-name="Racute" unicode="&#x154;" horiz-adv-x="1384" d="M184 0 L184 1434 L788 1434 Q920 1434 1009 1398 Q1098 1362 1152 1302.5 Q1206 1243 1228.5 1167 Q1251 1091 1251 1010 Q1251 948 1233 885 Q1215 822 1177.5 766.5 Q1140 711 1081 668.5 Q1022 626 940 604 L1235 0 L991 0 L709 586 L397 586 L397 0 L184 0 Z M793 791 Q860 791 905 809.5 Q950 828 978 859 Q1006 890 1018 929 Q1030 968 1030 1010 Q1030 1047 1019.5 1086 Q1009 1125 982 1157 Q955 1189 909 1209 Q863 1229 793 1229 L397 1229 L397 791 L793 791 Z M637 1569 L420 1569 L710 1888 L1001 1888 L637 1569 Z " />
<glyph glyph-name="racute" unicode="&#x155;" horiz-adv-x="827" d="M154 0 L154 1047 L367 1047 L367 920 Q404 1000 463 1035.5 Q522 1071 600 1071 Q704 1071 776 1008 L745 811 Q716 831 676.5 846.5 Q637 862 580 862 Q544 862 506.5 849.5 Q469 837 438 805.5 Q407 774 387 721.5 Q367 669 367 588 L367 0 L154 0 Z M453 1180 L236 1180 L526 1499 L817 1499 L453 1180 Z " />
<glyph glyph-name="Rcommaaccent" unicode="&#x156;" horiz-adv-x="1384" d="M184 0 L184 1434 L788 1434 Q920 1434 1009 1398 Q1098 1362 1152 1302.5 Q1206 1243 1228.5 1167 Q1251 1091 1251 1010 Q1251 948 1233 885 Q1215 822 1177.5 766.5 Q1140 711 1081 668.5 Q1022 626 940 604 L1235 0 L991 0 L709 586 L397 586 L397 0 L184 0 Z M793 791 Q860 791 905 809.5 Q950 828 978 859 Q1006 890 1018 929 Q1030 968 1030 1010 Q1030 1047 1019.5 1086 Q1009 1125 982 1157 Q955 1189 909 1209 Q863 1229 793 1229 L397 1229 L397 791 L793 791 Z M565 -496 Q577 -485 591.5 -470 Q606 -455 620 -436.5 Q634 -418 646.5 -396.5 Q659 -375 668 -352 Q640 -352 616 -342.5 Q592 -333 574 -316.5 Q556 -300 545.5 -277 Q535 -254 535 -227 Q535 -196 545.5 -171 Q556 -146 574 -128.5 Q592 -111 616 -101.5 Q640 -92 666 -92 Q694 -92 719 -102 Q744 -112 762.5 -130.5 Q781 -149 792 -176.5 Q803 -204 803 -240 Q803 -323 759.5 -399.5 Q716 -476 635 -541 L565 -496 Z " />
<glyph glyph-name="rcommaaccent" unicode="&#x157;" horiz-adv-x="827" d="M154 0 L154 1047 L367 1047 L367 920 Q404 1000 463 1035.5 Q522 1071 600 1071 Q704 1071 776 1008 L745 811 Q716 831 676.5 846.5 Q637 862 580 862 Q544 862 506.5 849.5 Q469 837 438 805.5 Q407 774 387 721.5 Q367 669 367 588 L367 0 L154 0 Z M161 -533 Q173 -522 187.5 -507 Q202 -492 216 -473.5 Q230 -455 242.5 -433.5 Q255 -412 264 -389 Q236 -389 212 -379.5 Q188 -370 170 -353.5 Q152 -337 141.5 -314 Q131 -291 131 -264 Q131 -233 141.5 -208 Q152 -183 170 -165.5 Q188 -148 212 -138.5 Q236 -129 262 -129 Q290 -129 315 -139 Q340 -149 358.5 -167.5 Q377 -186 388 -213.5 Q399 -241 399 -277 Q399 -360 355.5 -436.5 Q312 -513 231 -578 L161 -533 Z " />
<glyph glyph-name="Rcaron" unicode="&#x158;" horiz-adv-x="1384" d="M184 0 L184 1434 L788 1434 Q920 1434 1009 1398 Q1098 1362 1152 1302.5 Q1206 1243 1228.5 1167 Q1251 1091 1251 1010 Q1251 948 1233 885 Q1215 822 1177.5 766.5 Q1140 711 1081 668.5 Q1022 626 940 604 L1235 0 L991 0 L709 586 L397 586 L397 0 L184 0 Z M793 791 Q860 791 905 809.5 Q950 828 978 859 Q1006 890 1018 929 Q1030 968 1030 1010 Q1030 1047 1019.5 1086 Q1009 1125 982 1157 Q955 1189 909 1209 Q863 1229 793 1229 L397 1229 L397 791 L793 791 Z M764 1569 L549 1569 L260 1888 L465 1888 L658 1726 L850 1888 L1055 1888 L764 1569 Z " />
<glyph glyph-name="rcaron" unicode="&#x159;" horiz-adv-x="827" d="M154 0 L154 1047 L367 1047 L367 920 Q404 1000 463 1035.5 Q522 1071 600 1071 Q704 1071 776 1008 L745 811 Q716 831 676.5 846.5 Q637 862 580 862 Q544 862 506.5 849.5 Q469 837 438 805.5 Q407 774 387 721.5 Q367 669 367 588 L367 0 L154 0 Z M584 1180 L369 1180 L80 1499 L285 1499 L478 1337 L670 1499 L875 1499 L584 1180 Z " />
<glyph glyph-name="Sacute" unicode="&#x15a;" horiz-adv-x="1237" d="M854 1108 Q841 1139 818 1165.5 Q795 1192 762 1211.5 Q729 1231 686.5 1242 Q644 1253 592 1253 Q489 1253 431 1208 Q373 1163 373 1081 Q373 1030 405 994.5 Q437 959 489 932 Q541 905 607.5 882.5 Q674 860 743.5 833.5 Q813 807 879.5 772.5 Q946 738 998 688.5 Q1050 639 1082 569.5 Q1114 500 1114 403 Q1114 300 1076.5 220.5 Q1039 141 973 86.5 Q907 32 817.5 3.5 Q728 -25 625 -25 Q529 -25 445.5 -0.5 Q362 24 294.5 69.5 Q227 115 178 179.5 Q129 244 102 324 L303 397 Q325 349 357.5 309 Q390 269 432 240.5 Q474 212 524.5 196 Q575 180 633 180 Q691 180 739 194 Q787 208 821 236 Q855 264 874 305.5 Q893 347 893 401 Q893 465 861 508.5 Q829 552 777 584 Q725 616 658.5 640 Q592 664 522.5 689 Q453 714 386.5 745 Q320 776 268 821 Q216 866 184 929 Q152 992 152 1083 Q152 1159 182.5 1227 Q213 1295 271 1346.5 Q329 1398 414 1428 Q499 1458 608 1458 Q699 1458 773 1436.5 Q847 1415 902.5 1377 Q958 1339 995 1287 Q1032 1235 1051 1174 L854 1108 Z M609 1569 L392 1569 L682 1888 L973 1888 L609 1569 Z " />
<glyph glyph-name="sacute" unicode="&#x15b;" horiz-adv-x="973" d="M477 -25 Q415 -25 356 -13 Q297 -1 245.5 21 Q194 43 152 74.5 Q110 106 82 145 L233 274 Q249 259 272 240.5 Q295 222 325 206 Q355 190 392 179 Q429 168 473 168 Q513 168 547 174 Q581 180 605.5 193 Q630 206 643.5 227.5 Q657 249 657 281 Q657 318 631.5 344.5 Q606 371 565 392.5 Q524 414 472 433.5 Q420 453 367 475 Q318 496 271 521 Q224 546 187.5 581 Q151 616 128.5 664.5 Q106 713 106 782 Q106 852 134.5 906 Q163 960 212.5 996.5 Q262 1033 328.5 1052 Q395 1071 471 1071 Q538 1071 594.5 1058 Q651 1045 696.5 1023 Q742 1001 777 972.5 Q812 944 838 913 L684 791 Q670 805 650.5 820.5 Q631 836 605 849 Q579 862 546 870.5 Q513 879 471 879 Q403 879 363.5 854 Q324 829 324 782 Q324 752 345 729.5 Q366 707 402 688 Q438 669 484.5 651.5 Q531 634 582 614 Q636 593 688 567 Q740 541 780.5 503 Q821 465 845.5 411 Q870 357 870 281 Q870 206 842 148.5 Q814 91 762.5 52.5 Q711 14 638.5 -5.5 Q566 -25 477 -25 Z M402 1180 L185 1180 L475 1499 L766 1499 L402 1180 Z " />
<glyph glyph-name="Scircumflex" unicode="&#x15c;" horiz-adv-x="1237" d="M854 1108 Q841 1139 818 1165.5 Q795 1192 762 1211.5 Q729 1231 686.5 1242 Q644 1253 592 1253 Q489 1253 431 1208 Q373 1163 373 1081 Q373 1030 405 994.5 Q437 959 489 932 Q541 905 607.5 882.5 Q674 860 743.5 833.5 Q813 807 879.5 772.5 Q946 738 998 688.5 Q1050 639 1082 569.5 Q1114 500 1114 403 Q1114 300 1076.5 220.5 Q1039 141 973 86.5 Q907 32 817.5 3.5 Q728 -25 625 -25 Q529 -25 445.5 -0.5 Q362 24 294.5 69.5 Q227 115 178 179.5 Q129 244 102 324 L303 397 Q325 349 357.5 309 Q390 269 432 240.5 Q474 212 524.5 196 Q575 180 633 180 Q691 180 739 194 Q787 208 821 236 Q855 264 874 305.5 Q893 347 893 401 Q893 465 861 508.5 Q829 552 777 584 Q725 616 658.5 640 Q592 664 522.5 689 Q453 714 386.5 745 Q320 776 268 821 Q216 866 184 929 Q152 992 152 1083 Q152 1159 182.5 1227 Q213 1295 271 1346.5 Q329 1398 414 1428 Q499 1458 608 1458 Q699 1458 773 1436.5 Q847 1415 902.5 1377 Q958 1339 995 1287 Q1032 1235 1051 1174 L854 1108 Z M801 1569 L609 1730 L416 1569 L211 1569 L502 1888 L717 1888 L1006 1569 L801 1569 Z " />
<glyph glyph-name="scircumflex" unicode="&#x15d;" horiz-adv-x="973" d="M477 -25 Q415 -25 356 -13 Q297 -1 245.5 21 Q194 43 152 74.5 Q110 106 82 145 L233 274 Q249 259 272 240.5 Q295 222 325 206 Q355 190 392 179 Q429 168 473 168 Q513 168 547 174 Q581 180 605.5 193 Q630 206 643.5 227.5 Q657 249 657 281 Q657 318 631.5 344.5 Q606 371 565 392.5 Q524 414 472 433.5 Q420 453 367 475 Q318 496 271 521 Q224 546 187.5 581 Q151 616 128.5 664.5 Q106 713 106 782 Q106 852 134.5 906 Q163 960 212.5 996.5 Q262 1033 328.5 1052 Q395 1071 471 1071 Q538 1071 594.5 1058 Q651 1045 696.5 1023 Q742 1001 777 972.5 Q812 944 838 913 L684 791 Q670 805 650.5 820.5 Q631 836 605 849 Q579 862 546 870.5 Q513 879 471 879 Q403 879 363.5 854 Q324 829 324 782 Q324 752 345 729.5 Q366 707 402 688 Q438 669 484.5 651.5 Q531 634 582 614 Q636 593 688 567 Q740 541 780.5 503 Q821 465 845.5 411 Q870 357 870 281 Q870 206 842 148.5 Q814 91 762.5 52.5 Q711 14 638.5 -5.5 Q566 -25 477 -25 Z M668 1180 L476 1341 L283 1180 L78 1180 L369 1499 L584 1499 L873 1180 L668 1180 Z " />
</font>
</svg>
