<?xml version="1.0" standalone="no"?>
<!DOCTYPE svg PUBLIC "-//W3C//DTD SVG 1.1//EN" "http://www.w3.org/Graphics/SVG/1.1/DTD/svg11.dtd" >
<svg xmlns="http://www.w3.org/2000/svg" xmlns:xlink="http://www.w3.org/1999/xlink" version="1.1">
<metadata></metadata>
<defs>
<font id="openweb_iconsregular" horiz-adv-x="1024" >
<font-face units-per-em="1024" ascent="1024" descent="0" />
<missing-glyph horiz-adv-x="500" />
<glyph unicode="&#x2000;" horiz-adv-x="512" />
<glyph unicode="&#x2001;" />
<glyph unicode="&#x2002;" horiz-adv-x="512" />
<glyph unicode="&#x2003;" />
<glyph unicode="&#x2004;" horiz-adv-x="341" />
<glyph unicode="&#x2005;" horiz-adv-x="256" />
<glyph unicode="&#x2006;" horiz-adv-x="170" />
<glyph unicode="&#x2007;" horiz-adv-x="170" />
<glyph unicode="&#x2008;" horiz-adv-x="128" />
<glyph unicode="&#x2009;" horiz-adv-x="204" />
<glyph unicode="&#x200a;" horiz-adv-x="56" />
<glyph unicode="&#x202f;" horiz-adv-x="204" />
<glyph unicode="&#x205f;" horiz-adv-x="256" />
<glyph unicode="&#x25fc;" horiz-adv-x="500" d="M0 0v0v0v0v0z" />
<glyph unicode="&#xf000;" d="M820 800q4 -16 -54.5 -84t-229.5 -5l-25 12l-8 4l-334 -137l335 -163l18 7q18 8 49 24q150 86 201.5 208t47.5 134zM503 727h1h-1zM153 517v-348l312 -169v358zM847 517l-312 -159v-358l312 169v348z" />
<glyph unicode="&#xf001;" d="M271 799q-73 -1 -121 -49.5t-50 -120.5v-459q2 -73 50 -121t121 -50h458q73 2 121 50t50 121v459q-2 72 -50 120.5t-121 49.5h-458zM502 464q30 -1 50.5 -21t20.5 -50.5t-20.5 -50.5t-50.5 -20t-50.5 20t-20.5 50.5t20.5 50.5t50.5 21z" />
<glyph unicode="&#xf002;" d="M272 798q-73 -2 -121.5 -50.5t-50.5 -121.5v-456q2 -73 50.5 -121.5t121.5 -50.5h456q73 2 121.5 50.5t50.5 121.5v456q-2 73 -50.5 121.5t-121.5 50.5h-456zM414 735q62 0 117 -30h1v0q61 -33 95.5 -91.5t34.5 -127.5v-1q1 -70 -35 -128l211 -210l-87 -87l-210 210 q-30 -18 -65 -27h-2v0q-45 -12 -90.5 -6t-86.5 27q-30 15 -55 38t-43 53v0l-1 1v0q-43 74 -34 156.5t67 144.5l1 1q36 39 83.5 58t98.5 19zM414 660q-36 0 -69.5 -13.5t-58.5 -39.5l-1 -1q-39 -43 -45.5 -102t23.5 -109v-1q25 -41 69 -64q29 -15 61 -19t63 5h1 q56 15 93 62.5t38 106.5v1q-1 47 -25.5 88.5t-66.5 64.5l-1 1q-37 20 -81 20z" />
<glyph unicode="&#xf003;" d="M271 798q-73 -2 -121 -50.5t-50 -120.5v-459q2 -72 50 -120.5t121 -49.5h458q73 1 121 49.5t50 120.5v459q-2 72 -50 120.5t-121 50.5h-458zM502 688q123 -3 205 -85.5t85 -205.5q-3 -123 -85 -205t-205 -86q-124 4 -206 86t-85 205q3 123 85 205.5t206 85.5zM502 600 q-87 -2 -144 -59.5t-60 -143.5q3 -86 60 -143.5t144 -59.5q86 2 143 59.5t60 143.5q-3 86 -60 143.5t-143 59.5zM502 462q30 -1 50.5 -21t20.5 -50.5t-20.5 -50.5t-50.5 -20t-50.5 20t-20.5 50.5t20.5 50.5t50.5 21z" />
<glyph unicode="&#xf004;" d="M164 786q-22 -1 -36.5 -15t-14.5 -36v-673q0 -22 14.5 -36t36.5 -15h672q22 1 36.5 15t15.5 36v673q-1 22 -15.5 36t-36.5 15h-672zM483 703q122 -3 204 -84.5t85 -204.5v-290l-289 1q-123 3 -204.5 84.5t-84.5 204.5q3 123 84.5 204.5t204.5 84.5zM483 576 q-69 -2 -115 -47.5t-48 -114.5q2 -70 48 -116t115 -47q69 1 114.5 47t47.5 116q-2 69 -47.5 114.5t-114.5 47.5z" />
<glyph unicode="&#xf005;" d="M500 797q-170 -4 -283 -117t-117 -283q4 -170 117 -282.5t283 -116.5l400 -1v400q-4 170 -117 283t-283 117zM500 621q96 -2 159 -65.5t66 -158.5q-3 -96 -66 -159.5t-159 -65.5q-96 2 -159 65.5t-66 159.5q3 95 66 158.5t159 65.5z" />
<glyph unicode="&#xf006;" d="M271 798q-73 -2 -121 -50t-50 -121v-458q2 -73 50 -121t121 -50h458q73 2 121 50t50 121v458q-2 73 -50 121t-121 50h-458zM672 673q41 -1 68.5 -28t27.5 -68t-27.5 -68.5t-68.5 -28.5q-36 1 -62 23l-186 -95v-8q0 -8 -1 -15l184 -94q27 24 65 25q41 -1 68.5 -28.5 t27.5 -68.5t-27.5 -68t-68.5 -27t-68 27t-28 68v6l-191 97q-25 -18 -57 -19q-41 1 -68.5 28.5t-27.5 68.5t27.5 68t68.5 28q36 -1 62 -23l186 95v9q1 41 28 68t68 28z" />
<glyph unicode="&#xf007;" d="M751 798q-60 -2 -99.5 -41.5t-41.5 -99.5l1 -12l-271 -138q-18 16 -41 24.5t-50 8.5q-59 -1 -98.5 -40.5t-41.5 -99.5q2 -60 41.5 -99.5t98.5 -40.5q48 0 84 27l277 -141v-8q2 -60 41.5 -99.5t99.5 -40.5q59 1 98.5 40.5t41.5 99.5q-2 60 -41.5 99.5t-98.5 40.5 q-28 0 -52 -9.5t-43 -26.5l-268 136q2 11 2 22l-1 12l271 138q18 -15 41.5 -24t49.5 -9q59 1 98.5 41t41.5 99q-2 60 -41.5 99.5t-98.5 41.5z" />
<glyph unicode="&#xf008;" d="M504 796q-16 0 -33 -1q-35 -3 -70 -11.5t-60 -19.5q-19 -8 -39 -19.5t-38 -24.5q-44 -32 -78 -75.5t-55 -95.5q-10 -22 -17 -45q-13 -47 -13 -97.5t9 -93.5q24 -105 82 -171.5t139 -107.5q75 -39 171 -38t178 41q47 24 85 59.5t67 79t48 100t19 124.5q-1 63 -20.5 119 t-46.5 97q-47 76 -128 127t-200 53zM470 606h54q16 0 29 -9.5t18 -24.5l106 -320q7 -20 -2 -38t-29 -25q-8 -2 -16 -2q-16 0 -28.5 9t-18.5 25l-23 73h-120l-23 -73q-5 -15 -17.5 -24.5t-29.5 -9.5q-8 0 -15 2q-20 7 -29 24.5t-4 37.5l101 320q6 16 18.5 25.5t28.5 9.5z" />
<glyph unicode="&#xf009;" d="M258 849q-78 -2 -129.5 -53.5t-53.5 -129.5v-484q2 -78 53.5 -129.5t129.5 -53.5h484q78 2 129.5 53.5t53.5 129.5v484q-2 78 -53.5 129.5t-129.5 53.5h-484zM221 723q116 0 222.5 -44.5t188 -126t126 -188.5t44.5 -222h-116q0 92 -35.5 177.5t-101 151t-150.5 100.5 t-178 36v116zM221 527q77 0 147.5 -29.5t124.5 -83.5t83.5 -125t29.5 -147h-113q0 54 -20.5 104t-59 88t-88.5 59t-104 21v113zM299 301h2q34 -1 56.5 -23.5t22.5 -56t-22.5 -56t-56.5 -22.5t-56.5 22.5t-22.5 56t22 55.5t55 24z" />
<glyph unicode="&#xf00a;" d="M75 849v-170q67 0 132.5 -13.5t127.5 -39t117.5 -62.5t103 -84.5t85 -103t63 -117.5t38.5 -127.5t13 -132.5h170q0 83 -16.5 165.5t-48.5 159.5t-78.5 146.5t-105.5 129t-128.5 106t-147 78.5t-159.5 48.5t-166 16.5zM75 562v-165q79 0 152 -30.5t129 -86.5t86.5 -129 t30.5 -152h165q0 112 -43 215.5t-122 182.5t-182.5 122t-215.5 43zM192 232q-50 -2 -83 -34.5t-34 -82.5q1 -49 34 -82t83 -34q49 1 82 34t34 82q-1 50 -34 82.5t-82 34.5z" />
<glyph unicode="&#xf00b;" d="M256 798q-66 -2 -110 -46t-46 -110v-488q2 -66 46 -110t110 -46h488q66 2 110 46t46 110v488q-2 66 -46 110t-110 46h-488zM623 712q15 0 26 -10l150 -151q11 -11 11 -27t-10.5 -26.5t-26.5 -10.5t-27 11l-17 17l-116 -115q13 -43 3.5 -86t-42.5 -77l-238 239 q33 32 76 42t86 -3l116 115l-18 19q-10 10 -10 25.5t10.5 26.5t26.5 11zM188 412q55 1 107 -17.5t96 -54.5l-130 -131q-10 -10 -10 -25.5t11 -26.5t26.5 -11t25.5 10l129 129q35 -48 50 -104t9 -112h-209q-51 1 -84.5 34.5t-34.5 83.5v225h14z" />
<glyph unicode="&#xf00c;" d="M605 797q-12 0 -20 -8t-9 -21v-271q1 -12 9 -20.5t20 -8.5h277q12 0 20 8.5t9 20.5v271q-1 13 -9 21t-20 8h-277zM428 767q-43 -2 -70.5 -30.5t-28.5 -70.5v-318q1 -43 29.5 -71.5t71.5 -29.5h318q43 1 71.5 29.5t29.5 71.5v77h-244q-30 0 -50.5 20.5t-21.5 51.5v270 h-105zM212 662q-52 -1 -86.5 -35.5t-36.5 -86.5v-420q2 -52 36.5 -86.5t86.5 -36.5h421q52 2 86.5 36.5t36.5 86.5v84h-326q-61 1 -102 42t-42 102v314h-74z" />
<glyph unicode="&#xf00d;" d="M585 738l-121 -60v-606q-106 15 -173.5 65t-69.5 119q2 66 63 114.5t158 65.5v77q-149 -19 -244 -89t-98 -168q3 -101 104.5 -172.5t259.5 -86.5l121 57v684zM606 513v-77q72 -12 125 -43l-65 -37l234 -51l-17 173l-62 -35q-44 27 -98.5 45t-116.5 25z" />
<glyph unicode="&#xf00e;" d="M271 797q-73 -2 -121 -50t-50 -121v-459q2 -72 50 -120t121 -50h458q73 2 121 50t50 120v459q-2 73 -50 121t-121 50h-458zM500 636q74 -1 132 -39q17 -11 18 -33q0 -17 -11 -27.5t-27 -11.5q-12 0 -22 7v0q-39 26 -90 27q-58 -1 -100.5 -35t-56.5 -88l-1 -4 q-4 -11 -13.5 -18.5t-23.5 -8.5h-129v77h100q27 69 86.5 111t137.5 43zM500 490q39 -1 65 -27t26 -65t-26 -65.5t-65 -26.5t-65.5 26.5t-26.5 65.5t26.5 65t65.5 27zM695 390h129v-77h-101q-26 -68 -85.5 -110t-137.5 -44q-74 2 -132 40q-16 11 -17 32q0 16 11 27t27 12 q13 -1 22 -7q39 -26 89 -27q58 1 100.5 35t56.5 88v0l1 4q3 11 13 19t24 8v0z" />
<glyph unicode="&#xf00f;" d="M500 732q-120 -1 -212 -66t-133 -171h-155v-119h200q20 1 35 12.5t21 28.5l1 7q22 83 87.5 135.5t155.5 54.5q39 0 74.5 -11.5t65.5 -31.5v0q14 -10 33 -10q25 1 42 17.5t17 42.5q0 16 -7.5 29t-21.5 21q-44 29 -95 45t-108 16zM500 507q-61 -2 -101 -42t-42 -101 q2 -60 42 -100t101 -42q61 2 101 42t42 100q-2 61 -42 101t-101 42zM801 353v0q-21 -1 -36.5 -13t-20.5 -29l-1 -6v0q-22 -83 -87.5 -135.5t-155.5 -54.5q-38 0 -73 11t-64 30q-15 10 -34 10q-25 0 -42 -17t-17 -42q0 -15 7 -28t19 -21v0q44 -29 95.5 -45t108.5 -16 q120 1 212 66t133 171h155v119h-199z" />
<glyph unicode="&#xf010;" d="M251 798h-4h-8l-18 -3l-15 -4l-20 -8l-16 -9l-15 -10q-13 -11 -23 -24l-4 -5q-4 -6 -8 -13l-5 -9l-8 -21l-4 -14v0q-2 -12 -3 -23v-514l1 -11l4 -19q2 -9 5 -17l8 -17q9 -16 21 -29l3 -3q7 -8 16 -15l6 -4q7 -5 15 -10l17 -7l25 -8l22 -3h514l19 2l11 3q9 2 17 6l10 4 q12 6 22 13l6 4q9 7 16 15l3 3q13 14 22 32l7 14q3 8 5 17l4 19q1 9 1 19v502q0 10 -2 19l-1 8l-4 14v0q-3 9 -6 17l-7 13q-4 7 -8 12l-4 6q-10 13 -23 24l-6 4l-15 10l-13 7q-8 4 -17 6l-15 4l-18 3h-8h-502zM393 644q36 -1 65.5 -10t54.5 -18q39 -16 78.5 -20.5t97.5 19.5 q18 7 35.5 3.5t25 -21.5t0.5 -35t-25 -26q-35 -14 -65.5 -20.5t-56.5 -6.5q-36 1 -66 13l-54 21q-39 16 -76 18.5t-91 -26.5q-18 -9 -36 -7.5t-27.5 19t-4 35.5t22.5 28q35 19 65.5 26.5t56.5 7.5zM387 464h3q35 -1 64.5 -10t54.5 -18q40 -17 80 -21t101 22q18 8 35.5 5 t25.5 -21t1.5 -35.5t-24.5 -25.5q-38 -17 -70 -24t-59 -6q-37 1 -66 12l-55 21q-38 16 -74.5 19t-90.5 -25q-18 -10 -35.5 -8t-27 19.5t-4 35.5t22.5 27q34 18 63 25.5t55 7.5zM384 286q35 -1 64 -10t54 -19q41 -17 82.5 -20.5t104.5 24.5q18 9 35.5 6t26 -20.5t2 -34.5 t-23.5 -26q-41 -19 -74.5 -26.5t-62.5 -7.5q-36 1 -66 13l-54 21q-37 15 -72.5 18.5t-87.5 -22.5q-18 -9 -35.5 -6.5t-26.5 20t-3 34.5t23 27q31 15 58.5 22t50.5 7h5z" />
<glyph unicode="&#xf011;" d="M455 798q-21 0 -40 -8q-27 -10 -40.5 -33t-14.5 -53q0 -25 9 -52t27 -55l1 -1q-22 47 -13.5 85t45.5 54q44 15 96.5 -9.5t90.5 -77.5q27 -41 30.5 -79.5t-16.5 -64.5q38 26 39.5 77t-36.5 109q-35 50 -83 78.5t-95 29.5zM505 656q-18 0 -35 -12t-22.5 -31.5t1.5 -38.5 l-104 -76q6 -6 11.5 -13.5t8.5 -14.5l104 76q17 -12 36.5 -12.5t37.5 11.5q21 16 24.5 40t-10.5 46q-9 12 -22 18.5t-27 6.5h-3zM820 643q-24 0 -46.5 -12t-42.5 -32.5t-36 -50.5q31 41 68.5 51t68.5 -15q34 -32 37 -90t-26 -116q-14 -26 -32 -44l1 -2q11 -8 18 -19 q33 24 57 69q35 68 31.5 135.5t-43.5 104.5q-25 21 -55 21zM298 608q-47 0 -100 -32q-64 -40 -95.5 -100t-15.5 -113q9 -27 31 -42t52 -17q25 -1 53 6.5t56 24.5l1 1q-48 -19 -85.5 -9t-51.5 47q-13 45 13.5 96.5t81.5 86.5q43 26 81.5 27.5t63.5 -19.5q-12 20 -33.5 31 t-48.5 12h-3zM525 512q-17 -4 -34 0v-87q-10 -3 -19 -9q-21 -16 -25 -40t11 -46q13 -17 32 -23t38 1l67 -92q-8 -9 -11 -21l-1 -4l-1 -15l2 -16q3 -9 9 -18q16 -20 40.5 -24t45.5 11.5t25 39.5t-11 46q-9 12 -22 18.5t-27 6.5q-11 0 -21 -3l-67 91q13 17 13.5 37t-12 37 t-32.5 23v87zM725 498q-19 -1 -35 -12q-13 -9 -19.5 -22.5t-5.5 -28.5l-84 -27q9 -16 11 -33l52 17l32 8q16 -21 40.5 -25t45.5 11.5t25 40t-11 45.5q-9 13 -22 19.5t-27 6.5h-2zM287 497q-19 -1 -35 -12q-21 -16 -24.5 -40.5t11.5 -45.5t39.5 -25t45.5 11.5t25 39.5t-11 46 q-9 12 -22 18.5t-27 7.5h-2zM728 335q-7 -1 -15 -1q-24 -4 -50 -16.5t-51 -35.5v0q43 28 82 25t59 -37q22 -42 5.5 -97.5t-64.5 -100.5q-37 -33 -74.5 -41.5t-66.5 7.5q32 -34 82.5 -28t102.5 51q55 52 74.5 117t-6.5 113q-12 22 -32.5 33t-45.5 11zM445 309l-38 -54 q16 -7 28 -20l39 54q-16 7 -29 20zM266 290h-5q-10 -1 -19 -2q-30 -5 -50.5 -22t-27.5 -45q-10 -54 27 -110.5t105 -90.5q62 -29 112.5 -20.5t70.5 50.5q-23 -24 -61.5 -26t-83.5 19q-58 29 -90 78t-22 95q10 38 46.5 52t85.5 -1l-1 1q-46 22 -87 22zM371 239q-18 0 -34 -11 q-21 -16 -25 -40.5t11.5 -45.5t39.5 -25t46 11q17 13 23 32h129l-2 22q0 6 1 13h-128q-3 10 -9 19l-2 2l-11 11l-17 9q-10 3 -19 3h-3z" />
<glyph unicode="&#xf012;" d="M635 783q-4 0 -23.5 -8.5t-45 -21t-53 -27.5t-43.5 -26q-25 -19 -37.5 -20t-45.5 12q-19 7 -34 11t-18 2.5t-4.5 -9.5t-2 -18t-3.5 -31.5t-7.5 -44t-17.5 -58.5t-28.5 -69.5t-28 -63t-16 -41.5t-5 -32.5t-0.5 -44.5q2 -29 7.5 -49.5t17.5 -44.5q10 -19 26 -41t31 -37 t33.5 -30.5t32.5 -25t35.5 -22t41.5 -23t35 -17t19 -6.5t20.5 7.5t38 18.5t47.5 27.5t43.5 30.5t36.5 32.5t30.5 33.5t22 30.5t15 25t10 28t8.5 38.5q5 25 5 45t-5 48q-4 23 -15.5 55.5t-28.5 69.5q-15 34 -31.5 74t-25 68t-16 59t-9.5 51q-3 26 -7 38v0q6 0 4 3q-1 0 -5 -1 q-2 4 -4 4z" />
<glyph unicode="&#xf013;" d="M521 798q-46 -1 -90.5 -12t-85.5 -31q-66 -34 -115.5 -88.5t-76.5 -123.5q27 8 55.5 5t54.5 -16q28 55 76 94q37 30 81.5 47t92.5 19q56 2 108.5 -16t95.5 -55q35 -30 59 -69.5t35 -84.5q26 -8 41.5 -29.5t12.5 -48.5q-3 -22 -17.5 -38.5t-35.5 -21.5q-11 -41 -32 -78 q-32 -56 -83.5 -93t-113.5 -50q-43 -8 -85.5 -4t-82.5 20q-49 20 -88.5 56t-63.5 83q-26 -13 -54 -16t-56 5q33 -84 98 -145.5t151 -89.5q68 -22 139.5 -19t137 30.5t118 75.5t84.5 112q30 59 39.5 124.5t-2.5 130t-43 121t-79 99.5q-42 40 -94.5 65.5t-109.5 35.5 q-36 6 -71 6zM192 516q-14 -1 -27 -3q-24 -6 -44 -21.5t-32 -37.5q-10 -18 -12.5 -38.5t0.5 -40.5q5 -27 21 -48.5t41 -34.5q37 -19 78.5 -10t67.5 42q17 21 23 47t0 53q-6 28 -25.5 50.5t-46.5 33.5q-22 8 -44 8zM451 478q-11 0 -22 -3q-21 -7 -36.5 -23t-20.5 -38 q-5 -20 0 -39t17.5 -34.5t31 -23t38.5 -5.5q38 3 60.5 33t14.5 66q-6 30 -29.5 48.5t-53.5 18.5zM640 461q-8 0 -15 -1q-23 -6 -37 -24t-14 -40.5t13 -40.5t35 -24q14 -5 29.5 -2.5t28.5 11.5t20.5 24t7.5 31q0 21 -11.5 37.5t-30.5 24.5q-12 5 -26 4zM794 439q-8 0 -15 -2 q-14 -6 -22 -18q-10 -16 -6.5 -34t19 -27.5t32 -7t27.5 16t9.5 32t-15 30t-29.5 10.5zM871 54l-13 -53h8l7 29v3l2 -3l16 -30l16 30l1 3l7 -32h9l-14 53l-19 -39zM814 52v-7h15v-44h9v44h15v7h-39z" />
<glyph unicode="&#xf014;" d="M198 595q-12 0 -20 -6.5t-9 -22.5v-136h-140q-15 -1 -22 -9t-7 -20v-21q0 -12 6.5 -20t22.5 -9h140v-135q1 -9 7 -15.5t15 -6.5h107q3 0 7.5 3t4.5 10v49h-54q-12 0 -16.5 6.5t-3.5 18.5v227q-1 13 3.5 19t16.5 6h54v50q0 6 -4.5 9t-7.5 3h-100zM702 595q-3 0 -7.5 -3 t-4.5 -9v-50h54q12 0 16.5 -6t3.5 -19v-227q1 -12 -3.5 -18.5t-16.5 -6.5h-54v-49q0 -7 4.5 -10t7.5 -3h107q9 0 15 6.5t7 15.5v135h140q16 1 22.5 9t6.5 20v21q0 12 -7 20t-22 9h-140v136q-1 16 -9 22.5t-20 6.5h-100zM280 500q-10 -1 -11 -12v-191q1 -11 11 -12h220v54 l-54 54l54 53v54h-220zM533 500v-54l-54 -53l54 -54v-54h187q10 1 11 12v191q-1 11 -11 12h-187zM382 430q15 -1 25 -10.5t10 -24.5t-10 -25t-25 -10t-25 10t-10 25t10 24.5t25 10.5zM618 430q15 -1 25 -10.5t10 -24.5t-10 -25t-25 -10t-25 10t-10 25t10 24.5t25 10.5z" />
<glyph unicode="&#xf015;" d="M0 733q9 -183 133 -350.5t306 -274.5q-82 -64 -181 -91l-1 -14q43 5 83 16l5 1q78 18 155 55q25 -13 51 -24q95 -44 204 -54v15q-53 13 -100.5 38t-89.5 59q181 106 303.5 273t131.5 351l-130 -50l-45 -15l-130 -39q1 -11 1 -22q-1 -110 -51.5 -227.5t-141.5 -213.5 q-88 95 -137 211t-50 224q0 11 1 23l-130 38l-42 15z" />
<glyph unicode="&#xf016;" d="M148 798l64 -720l288 -80l288 79l65 721h-705zM279 650h221h221l-8 -88h-338l8 -90h322l-24 -271l-181 -51l-181 51l-13 141h89l7 -73l98 -27l98 27l11 114h-306z" />
<glyph unicode="&#xf017;" d="M190 798l-30 -149h604l-19 -96h-604l-30 -148h604l-33 -169l-244 -81l-211 81l15 73h-149l-35 -178l349 -133l402 133l133 667h-752z" />
<glyph unicode="&#xf018;" d="M-33 798l132 -132v0h274l96 -97l-141 -141l-97 96v75h-132v-130l229 -229l-93 -93l149 -149h649l-132 131h-462l-110 111l47 46l91 -91h188l-185 185l47 48l185 -185v187l-91 91l46 47l-229 230h-461zM752 663l-94 -94l110 -110v-263h133v317z" />
<glyph unicode="&#xf019;" d="M500 797l-400 -202v-133l400 202l400 -202v133zM500 565l-400 -202v-133l400 202l400 -202v133zM500 333l-400 -202v-133l400 202l400 -202v133z" />
<glyph unicode="&#xf020;" d="M499 779q-3 -1 -49 -27l-272 -157l-17 10q-24 13 -29.5 19.5t-4.5 23.5q-1 13 -3 20.5t-8 15.5q-20 26 -52.5 26t-51.5 -25q-15 -21 -11.5 -47t23.5 -42q13 -10 33 -12t34 5q8 4 14.5 2.5t26.5 -13.5l29 -17v-368l339 -196l11 6q85 50 192 110.5t119 66.5q2 0 10 -4 t18 -10l23 -13v-20q0 -27 15 -44.5t41 -21.5q34 -3 55 21.5t14 57.5q-9 30 -35.5 42.5t-54.5 0.5q-7 -4 -13.5 -2.5t-26.5 12.5l-28 16v370l-170 98l-120 68q-48 28 -51 28zM480 710v-96v-96h-8q-39 3 -64.5 7t-26.5 7q1 6 12 33t20 45t27.5 46t30.5 43zM526 700 q6 -1 27.5 -34t44.5 -80.5t21 -55.5q-1 -1 -8 -2l-16 -3l-23 -3l-51 -5v95q-1 46 0 67t5 21zM590 684l25 -15q58 -32 107 -61t52 -32q-1 -1 -10 -5t-22 -9q-38 -14 -60 -19.5t-24 -1.5q-16 47 -27.5 72.5t-28.5 50.5zM407 680v0l-3 -5l-6 -10q-12 -19 -26 -48t-22 -53 l-11 -28l-30 9q-29 8 -54.5 18t-27.5 13q1 1 26.5 16.5t63.5 37.5l62 35q25 15 28 15zM65 671q15 -1 22 -16q3 -9 -1 -19t-12 -13q-22 -9 -33 12q-3 7 -3.5 11t2.5 10q9 15 25 15zM201 540q2 -1 11 -4l20 -7q12 -5 29.5 -11t32.5 -10l35 -11l-1 -9l-10 -81h-58q-24 0 -41 1 t-19 2q-3 11 -2.5 66.5t3.5 63.5zM795 539q3 1 4 -11.5t1 -53.5v-67h-59q-24 0 -41 1t-18.5 2t-2.5 6.5t-1 13t-1 19.5t-3 23l-5 26l18 5q9 2 25 7zM630 490l4 -24l3 -22l2 -18l1 -17l-75 -2l-6 11q-5 9 -17 20.5t-18 12.5q-3 2 -3 15v15h24q11 0 26.5 1.5t28.5 3.5z M375 487q9 0 31 -2q14 -2 29 -3t24 -1h21v-14q0 -8 -2.5 -12.5t-11.5 -9.5q-6 -4 -12.5 -10.5t-9.5 -12.5l-8 -15h-78l3 25q2 21 5 36.5t5 18.5h4zM500 415q9 0 16 -5.5t8.5 -14t-2.5 -17t-12 -11.5t-11 -3q-24 7 -23.5 27.5t24.5 23.5zM318 371l2 -16l6 -45q3 -21 1 -28 t-11 -7q-3 0 -15 -3l-27 -9l-33 -11l-24 -9l-20 -8l2 134zM800 371v-68l-1 -48v-20l-11 5q-11 6 -46 18t-56 17l-16 4l6 43l4 47zM383 371h14h39l8 -13q3 -6 9.5 -12.5t12.5 -10.5q9 -6 11.5 -10.5t2.5 -12.5v-14l-39 -2l-33 -3q-15 -1 -22 -3q-13 -4 -16.5 1.5t-7.5 35.5 t-2 37.5t23 6.5zM565 371h36q16 0 26.5 -1t11.5 -2.5t0.5 -10.5t-1.5 -21l-4 -24q-1 -11 -3 -15l-2 -9l-31 4q-14 2 -29 3.5t-25 1.5h-23v14q-1 9 2 13.5t12 10.5q6 4 12.5 10.5t9.5 12.5zM480 260v-95v-67q-1 -27 -1 -28q-6 3 -28 36t-36 59q-15 29 -25 54t-8 29 q3 2 25.5 5t49.5 5zM521 260l23 -2q22 -2 46.5 -5t28.5 -5q1 -6 -14.5 -41t-28.5 -60q-8 -14 -18.5 -29.5t-18.5 -25.5l-18 -24v192zM340 242l8 -25q17 -50 44 -94l10 -18q4 -7 4 -8q-12 5 -89.5 50.5t-88.5 53.5q0 4 26.5 14t59.5 19zM663 240q5 0 22 -5q26 -8 56 -19 t33 -14q0 -1 -7 -6l-16 -9l-90 -52q-28 -17 -47 -27t-20 -10q1 4 8 14q13 20 29.5 57t26.5 67q0 4 5 4zM935 158q17 -2 23.5 -17t-4.5 -27q-13 -11 -28 -5t-16 22q0 9 8.5 17.5t16.5 9.5z" />
<glyph unicode="&#xf021;" d="M500 797q-18 0 -32 -13l-355 -354q-13 -14 -13 -32.5t13 -32.5l355 -354q14 -14 32 -14t32 14l355 354q13 14 13 32.5t-13 32.5l-52 51l-335 -335l-251 251l251 252l84 -84l-168 -168l84 -83l251 251l-219 219q-14 13 -32 13z" />
<glyph unicode="&#xf022;" d="M100 798v-54v-320h373v374h-373zM527 798v-54v-320h373v374h-373zM153 744h54h213v-266h-267v266zM580 744h53h214v-266h-267v266zM207 691v-53v-107h160v160h-160zM633 691v-53v-107h160v160h-160zM100 371v-53v-320h373v373h-373zM687 371v-53v-54h106v54h-53v53h-53z M687 264h-54h-106v-106h53v-54h-53v-53h53v-53h107v160h-54v53h54v53zM153 318h54h213v-267h-267v267zM207 264v-53v-107h160v160h-160zM847 264v-53h-54v-160h-53v-53h107v53h53v213h-53z" />
<glyph unicode="&#xf023;" d="M315 835q-121 -3 -201.5 -83.5t-83.5 -201.5q3 -118 80 -197.5t194 -86.5q22 -100 98 -163.5t182 -65.5q121 3 201 83t83 201q-2 119 -79.5 198.5t-194.5 86.5q-21 100 -97.5 163.5t-181.5 65.5zM315 785q99 -3 165 -69t69 -166q-3 -99 -69 -165t-165 -69q-100 3 -166 69 t-69 165q3 100 69 166t166 69zM227 636q-24 -1 -40.5 -17t-16.5 -40.5t16.5 -40.5t40.5 -16t40.5 16t16.5 40.5t-16.5 40.5t-40.5 17zM402 636q-25 -1 -41 -17t-16 -40.5t16 -40.5t40.5 -16t40.5 16t16 40.5t-16 40.5t-40 17zM599 555q94 -8 155.5 -73t63.5 -161 q-3 -99 -69 -165t-165 -69q-85 2 -147 52t-82 130q57 8 104 36q16 -13 37 -13q24 1 40.5 17t16.5 40q0 18 -9 32q26 36 40.5 79t14.5 90v5zM671 406q-25 0 -41 -16t-16 -40.5t16 -40.5t40.5 -16t40.5 16t16 40.5t-16 40.5t-40 16z" />
<glyph unicode="&#xf024;" d="M121 732q-51 -1 -85.5 -33.5t-35.5 -80.5v-437q1 -48 35.5 -80.5t85.5 -33.5h758q51 1 85.5 33.5t35.5 80.5v437q-1 48 -35.5 80.5t-85.5 33.5h-758zM120 632h760q7 0 11.5 -4t4.5 -11v-436q0 -7 -4.5 -11t-11.5 -4h-461q-7 0 -11.5 4t-4.5 11v178q-1 39 -28.5 66.5 t-68.5 28.5h-48q-18 0 -29 -12.5t-11 -29t11 -27t29 -11.5h48q7 0 11.5 -4.5t4.5 -10.5v-178q0 -7 -4.5 -11t-11.5 -4h-186q-7 0 -11.5 4t-4.5 11v436q0 7 4.5 11t11.5 4zM353 590q-23 -1 -38.5 -15.5t-15.5 -36.5t15.5 -38.5t38.5 -16.5t38.5 16.5t15.5 38.5t-15.5 36.5 t-38.5 15.5z" />
<glyph unicode="&#xf025;" d="M37 765q-16 -1 -26.5 -11t-10.5 -26v-694q0 -15 10.5 -25.5t26.5 -10.5h623q4 0 11 11v-11l329 383l-329 384v-12q-7 11 -11 12h-623zM110 649h137v-524h-137v524zM347 649h185q28 0 60.5 -5.5t64.5 -27.5q44 -30 65 -85t21 -135q0 -61 -12.5 -113.5t-47.5 -94.5 q-24 -30 -58.5 -46.5t-87.5 -16.5h-190v524zM482 538v-301h45q29 -4 48 27t20 137q-1 88 -21 114t-51 23h-41z" />
<glyph unicode="&#xf026;" d="M500 920l8 -437l392 206zM500 920l-400 -231l392 -206zM100 689v-462l374 226zM100 227l400 -231l-18 442zM500 -4l400 231l-383 211zM900 227v462l-374 -236z" />
<glyph unicode="&#xf027;" d="M37 764q-16 0 -26.5 -10.5t-10.5 -26.5v-694q0 -15 10.5 -25.5t26.5 -10.5h634l329 383l-329 384h-634zM411 629q41 0 69.5 -31.5t32.5 -84.5q7 -12 8 -26q-1 -21 -17 -38q-13 -44 -42 -70v-33l1 -1q14 -8 31.5 -12t58.5 -19q42 -24 54 -81.5t11 -64.5q2 -1 -45.5 -4 t-162 -3t-161.5 3t-46 4q-1 7 11.5 64.5t53.5 81.5q41 15 59 19t31 12l2 1v33q-29 26 -43 70q-16 17 -16 38q0 14 8 26q3 53 31.5 84.5t70.5 31.5z" />
<glyph unicode="&#xf028;" d="M242 798q-55 -10 -93.5 -49t-48.5 -94v-515q10 -54 48 -92t91 -49l4 -1h515l3 1q54 11 91.5 49.5t47.5 92.5v515q-10 54 -49 93t-94 49h-515zM802 699v-76q-142 -1 -284 0l1 75zM481 698q1 -38 1 -75h-282v75h281zM660 586h142v-76h-284v76h142zM482 586v-76l-282 1v74z M554 474q124 -1 248 -1l-1 -76l-283 -1v78h36zM482 474v-78h-282v77zM518 359h283q1 -37 0 -75h-282zM311 324q25 0 48 -10t40 -30q33 -41 23.5 -93t-55.5 -77.5t-94.5 -8t-66.5 67.5q-17 47 6 90.5t71 56.5q14 4 28 4z" />
<glyph unicode="&#xf029;" d="M922 705q-2 0 -3 -1h-10v0h-836q-19 0 -34.5 -8.5t-24.5 -22.5q-17 -26 -13 -57q-1 -230 0 -460v-1q2 -19 11.5 -33t23.5 -22q27 -14 55 -10v-1q421 0 842 1h1q19 1 33 11t22 24q14 26 10 55h1q0 228 -1 457v2q-1 18 -11 32.5t-24 22.5q-20 10 -42 11zM918 657h2 q12 -1 21.5 -5.5t9.5 -15.5q1 -228 1 -456v-3q1 -8 -0.5 -15.5t-4.5 -13.5q-5 -10 -16 -10q-420 -1 -840 -1h-3q-7 -1 -15 0.5t-13 4.5q-10 5 -11 16v458l-1 4q-1 6 0.5 13.5t5.5 12.5q6 11 18 10h837zM145 560v-327h96v188l96 -120l96 120v-188h96v327h-96l-96 -120 l-96 120h-96zM697 560v-168h-96l144 -159l144 159h-96v168h-96z" />
<glyph unicode="&#xf030;" d="M132 847q-37 -1 -60.5 -24.5t-23.5 -60t23.5 -60.5t60.5 -25h736q37 1 60.5 25t23.5 60.5t-23.5 60t-60.5 24.5h-736zM132 621q-37 -1 -60.5 -25t-23.5 -60.5t23.5 -60t60.5 -24.5h628q36 1 60 24.5t24 60t-24 60.5t-60 25h-628zM129 394q-35 -2 -58 -25.5t-23 -59.5 t23.5 -60t60.5 -25h700q36 1 60 25t24 60t-24 60t-60 25h-703zM132 167q-37 -1 -60.5 -24.5t-23.5 -60t23.5 -60.5t60.5 -25h374q36 1 60 25t24 60.5t-24 60t-60 24.5h-374z" />
<glyph unicode="&#xf031;" d="M137 803l172 -172h-233v-628h307l117 117l117 -117h307v628h-233l172 172h-184l-178 -179l-179 179h-185zM207 500h587v-367h-122l-172 171l-171 -171h-122v367z" />
<glyph unicode="&#xf032;" d="M75 795l-97 -96v-704h1044v638h-163v-475h-718v473l164 164h-230zM433 795l-163 -162h231l163 162h-231zM791 795l-163 -162h231l163 162h-231z" />
<glyph unicode="&#xf033;" d="M441 798q-170 -4 -283 -117t-117 -283q4 -170 117 -283t283 -117q123 1 222 67.5t147 178.5h149v307h-149q-48 112 -147 178.5t-222 68.5zM441 679q73 -1 134.5 -35t101.5 -93h-236q-65 -2 -108.5 -45t-44.5 -108q1 -65 44.5 -108.5t108.5 -45.5h236q-40 -59 -101.5 -93 t-134.5 -35q-120 4 -199 83t-82 199q3 119 82 198.5t199 82.5zM441 433h399v-70h-399q-15 1 -24.5 10.5t-9.5 24.5t9.5 24.5t24.5 10.5z" />
<glyph unicode="&#xf034;" d="M495 798q-27 0 -54 -4l-7 -2l-49 -116l-117 48q-53 -38 -90 -89l-4 -5l48 -117l-117 -48q-10 -64 -1 -126l2 -7l116 -49l-48 -116q17 -24 36 -45l13 -12q21 -20 45 -38l117 49l48 -117l7 -1q62 -10 126 0l49 118l117 -49l5 4q51 37 89 90l-49 117l117 48l1 7q10 63 0 126 l-117 49l48 116q-19 26 -41 49l-7 7q-22 21 -47 39l-116 -49l-48 117q-36 6 -72 6zM500 699q11 0 22 -1l51 -123v0l124 51l15 -15q8 -8 15 -16l-51 -123l1 -1v0l123 -51q2 -22 0 -44l-123 -51v0v0l51 -124q-15 -16 -31 -31l-123 51h-1v0l-51 -123q-22 -1 -44 0l-51 123v0v1 l-124 -52l-4 4l-23 23l-4 4l51 123v1v0l-123 51q-1 22 0 44l123 51v0l-51 124q15 16 31 31l123 -51h1l51 123q11 1 22 1zM500 574q-6 0 -13 -1l-29 -72l-73 30q-9 -8 -18 -18l30 -72l-72 -30v-25l72 -30l-30 -73q9 -9 19 -18l71 30l30 -72q13 -1 26 0l30 72v0l72 -30 q10 9 18 18l-30 72l72 30l1 13l-1 13l-72 30l30 72q-8 9 -18 18l-72 -30l-30 72zM500 447q21 -1 34.5 -14.5t13.5 -34.5t-13.5 -34.5t-34.5 -13.5t-34.5 13.5t-13.5 34.5t13.5 34.5t34.5 14.5z" />
<glyph unicode="&#xf035;" d="M499 796q-20 0 -36 -15l-73 -73l92 -92q17 6 33.5 2.5t29.5 -16.5t16.5 -30t-1.5 -34l88 -88q17 5 34 1.5t30 -16.5q18 -19 18 -43.5t-18.5 -42.5t-43 -18t-43.5 17q-14 14 -17 32t4 35l-83 83v-218q9 -4 16 -11q18 -19 18 -43.5t-18.5 -43t-43 -18.5t-42.5 18.5t-18 43 t18 43.5q8 8 20 13v220q-12 4 -20 13q-14 14 -17.5 32t3.5 35l-90 91l-240 -240q-15 -16 -15 -36.5t15 -36.5l349 -349q16 -15 36.5 -15t36.5 15l348 348q15 16 15 36.5t-15 36.5l-349 349q-16 15 -37 15z" />
<glyph unicode="&#xf036;" d="M482 798q-6 -1 -11 -2q-34 -4 -64.5 -18.5t-55.5 -38.5q-41 -38 -57 -91q-9 -31 -8 -63t12 -63q17 -45 52 -78l13 -12l-83 -135q-24 1 -45 -7q-29 -13 -45 -40q-7 -15 -9 -31t2 -32q8 -30 33 -48q15 -11 32.5 -15t36 -1.5t35 12t27.5 25.5q12 17 14.5 38.5t-5.5 41.5 q-4 11 -10 20l79 129q18 28 35 56q6 10 12 21q-12 3 -23 7q-24 10 -42 27t-28 40q-17 36 -9 75q4 23 17 43t32 34q36 27 81 27q27 1 52.5 -9.5t44.5 -30.5q17 -17 26.5 -39t10.5 -45q0 -22 -6 -42l70 -19l8 -1q13 42 7 86q-4 33 -19.5 63t-39.5 54q-21 21 -47.5 35t-55.5 21 q-16 4 -32 6h-37zM500 674q-17 0 -34 -7t-30.5 -20.5t-19.5 -31.5q-8 -21 -4 -44q3 -18 14 -33.5t28 -25.5q26 -15 56 -13q3 -4 5 -8l110 -188q3 -7 8 -12q25 25 58 35t65.5 4t59.5 -26q30 -24 42 -61t1 -74q-8 -28 -28.5 -50t-48.5 -33q-32 -13 -67 -8.5t-63 24.5 q-10 7 -18 16q-9 -8 -17 -16l-41 -40q23 -23 52 -38.5t61 -21.5l22 -4h39l28 5q31 6 59 21.5t50.5 38t37 51t19.5 59.5q5 36 -2 71t-26 66q-17 29 -43 50.5t-57 34.5q-34 14 -70 16t-72 -7l-17 -5l-26 42l-47 82q-4 6 -8 13q12 16 16 37q5 32 -13 60q-17 25 -44 35 q-17 6 -35 6zM218 410q-57 -13 -100 -53q-23 -21 -38.5 -48t-22.5 -57l-4 -24v-37q2 -15 6 -31q7 -32 24.5 -59.5t42.5 -48t54 -33t61 -16.5q38 -4 75.5 4.5t70.5 28.5q25 17 45 40t33 51q9 22 14 45q9 1 18 0l111 -2q17 0 34 -1q9 -18 24 -30t32.5 -17t35.5 -4q28 3 50 20 q26 22 32 54q2 17 -1.5 33t-13.5 30q-16 22 -41 32q-17 7 -35.5 6.5t-35.5 -7.5q-27 -12 -43 -37l-3 -6q-35 0 -69 1l-86 1l-74 2h-19l3 -17q4 -21 0.5 -41.5t-13.5 -39.5q-15 -27 -40.5 -44.5t-56.5 -22.5q-36 -6 -70 7.5t-57 42.5q-13 17 -20 37t-7 42q1 38 23 69 q13 19 32 32t41 19l9 3q-10 38 -21 76z" />
<glyph unicode="&#xf037;" d="M537 797l-227 -73l492 -160v-314l-328 -106l-277 90v307l268 -86l227 73l-493 160l-141 -46v-510l416 -135l468 151v518z" />
<glyph unicode="&#xf038;" d="M500 797q-176 -4 -292.5 -120.5t-120.5 -292.5q2 -135 75 -238t193 -149l95 254q-41 16 -66 51.5t-26 81.5q2 60 42 100.5t100 41.5q60 -1 100.5 -41.5t41.5 -100.5q-1 -46 -26 -81.5t-66 -51.5l95 -254q120 46 193 149t75 238q-4 176 -120.5 292.5t-292.5 120.5z M963 115l-23 -92h15l12 50v5l2 -5l29 -54l26 47l3 6l1 6l2 -12l11 -43h15l-24 92l-30 -58q-3 -6 -4 -10l-3 8zM862 111v-12h27v-76h16v76h26v12h-69z" />
<glyph unicode="&#xf039;" d="M704 797q-40 0 -74 -20t-54 -57q-23 -45 -15 -92l-2 2q4 0 -6.5 -25.5t-73.5 -67.5q-67 -38 -98.5 -34.5t-31.5 6.5l3 -3l-8 4q-55 28 -111 11t-86 -71q-28 -56 -11 -111.5t71 -86.5q41 -21 83.5 -16.5t76.5 31.5l-1 -2q-1 3 28 7t98 -30q54 -31 70.5 -56.5t15.5 -36.5 q-1 -42 19 -78t59 -57q55 -27 111 -10t86 71q28 55 11 111t-71 86q-8 4 -15 7l3 1q-2 -3 -16.5 20t-18.5 99q0 76 14.5 100.5t16.5 21.5h-5q39 20 62 62q28 55 11 111t-71 86q-34 18 -70 17zM706 774q38 0 66 -25v0q-15 13 -44 10t-59 -22q7 -8 8 -20t-7.5 -21t-21.5 -10h-8 l-2 1q-8 2 -13.5 -1.5t-7.5 -6.5q-16 -30 -16 -57t15 -42q-31 31 -30.5 74t32.5 80q19 19 41.5 29.5t46.5 10.5zM605 533q15 -1 18 -3l14 -8q13 -7 27 -11q9 -7 19.5 -33.5t12 -83.5t-10 -84t-21.5 -34q-20 -9 -36 -23q-8 -4 -36 -1t-81 31q-56 31 -73 54t-17 32q2 19 -1 37 v-1q-3 1 8 24t74 65q39 23 64.5 31t38.5 8zM279 499q37 0 66 -25h-1q-15 13 -43.5 10t-58.5 -22q7 -8 7.5 -20t-7.5 -21t-21 -10h-8l-2 1q-9 2 -14.5 -1.5t-7.5 -6.5q-15 -30 -15.5 -57t14.5 -42q-30 31 -29.5 74t32.5 80q18 19 41 29.5t47 10.5zM731 266q38 0 66 -25v0 q-15 13 -44 10t-59 -22q7 -8 8 -20t-7.5 -21t-21.5 -10q-4 0 -8 1h-2q-8 2 -13.5 -1.5t-7.5 -6.5q-16 -30 -16 -57t15 -42q-31 31 -30 74t32 80q19 20 41.5 30t46.5 10z" />
<glyph unicode="&#xf040;" d="M160 700q-67 0 -113.5 -47t-46.5 -113v-287q0 -66 46.5 -113t113.5 -47h680q67 0 113.5 47t46.5 113v287q0 66 -46.5 113t-113.5 47h-680zM320 619q80 0 80 -85q0 -17 -19.5 -72t-19.5 -65q0 -27 24.5 -48t54.5 -31t54.5 -22.5t24.5 -25.5v-53h-395v53q0 14 24.5 27.5 t53.5 24t54 30t25 44.5q0 6 -20 62.5t-20 75.5q0 47 21 66t58 19zM609 542q118 0 202.5 -84.5t84.5 -204.5h-55q0 97 -68 165.5t-164 68.5v55zM609 444q78 0 133.5 -55.5t55.5 -134.5h-55q0 55 -39.5 95t-94.5 40v55zM647 331q16 0 27 -11.5t11 -27.5t-11 -27t-27 -11 t-27 11t-11 27t11 27.5t27 11.5z" />
<glyph unicode="&#xf041;" d="M326 798q-42 0 -91.5 -12.5t-107.5 -43.5q-28 -16 -36.5 -45.5t7 -57.5t44.5 -30.5t58 12.5q89 47 149 43t123 -30l89 -35q48 -19 107 -21q42 0 91.5 10.5t106.5 34.5q30 13 41 41t-1.5 57.5t-40.5 35t-58 -6.5q-94 -39 -158 -32t-128 33q-40 16 -88 31t-107 16zM321 505 q-42 1 -91 -11t-105 -42q-29 -16 -37.5 -45t6.5 -57.5t44 -31.5t58 13q87 45 146.5 40.5t122.5 -30.5q40 -16 88.5 -34.5t106.5 -20.5q45 0 97 11t114 38q29 14 40 42.5t-2.5 57.5t-42 34.5t-57.5 -8.5q-98 -42 -164 -35.5t-131 33.5q-40 16 -87.5 30.5t-105.5 15.5z M310 215q-40 0 -85.5 -10.5t-98.5 -37.5q-28 -15 -37.5 -43t5 -56.5t43.5 -32t58 11.5q83 41 141.5 35.5t117.5 -29.5l89 -35q48 -19 107 -20q46 -1 101.5 11.5t120.5 42.5q29 15 39.5 42.5t-3.5 56.5t-42.5 33.5t-58.5 -9.5q-102 -46 -169.5 -40t-134.5 34q-40 15 -87.5 30 t-105.5 16z" />
<glyph unicode="&#xf042;" d="M160 700q-67 0 -113.5 -46.5t-46.5 -113.5v-286q0 -66 46.5 -113t113.5 -47h680q67 0 113.5 47t46.5 113v286q0 67 -46.5 113.5t-113.5 46.5h-680zM320 619q33 0 51 -13q4 -2 6 -4q23 -20 23 -67q0 -16 -12 -52q-2 -4 -4.5 -11.5t-3.5 -8.5q-19 -55 -19 -65v-8q1 -4 1 -7 q2 -6 6 -13q6 -11 17 -21h1q10 -9 25 -17q12 -6 29 -13l43 -17q21 -10 29 -18l3 -2v-1l4 -6v-58h-395v54q0 16 36 33q3 1 9 4q3 1 4 2q66 27 83 42q5 4 10 9l2 3q1 0 1.5 0.5t0.5 1.5l1 2h1l7 15l1 7q1 3 1 7.5t-7 23.5l-9 27q-8 20 -11 32q-6 17 -7 21q-3 10 -4 19l-2 7v8 q0 12 2 23v1q2 10 4 17q6 16 17 26q2 2 6 4q14 10 34 13h16zM743 526q35 0 65 -17t49 -45l35 34v-108h-109l34 34q-10 21 -30 34t-44 13q-34 0 -58 -24t-24 -57.5t24 -57.5t59 -24t60 28h64q-17 -37 -50.5 -59.5t-74.5 -22.5q-57 0 -96.5 39.5t-39.5 96t39.5 96.5t96.5 40z " />
<glyph unicode="&#xf043;" d="M160 699q-67 0 -113.5 -46.5t-46.5 -112.5v-287q0 -66 46.5 -113t113.5 -47h680q67 0 113.5 47t46.5 113v287q0 66 -46.5 112.5t-113.5 46.5h-680zM320 619q80 0 80 -85q0 -17 -19.5 -72t-19.5 -65q0 -28 24.5 -48.5t54.5 -30.5t54.5 -22.5t24.5 -25.5v-53h-395v53 q0 14 24.5 27.5t53.5 23.5t54 30t25 45q0 6 -20 62t-20 76q0 47 21 66t58 19zM717 532h51v-114h110v-50h-110v-115h-51v115h-110v50h110v114z" />
<glyph unicode="&#xf044;" d="M160 701q-67 0 -113.5 -46.5t-46.5 -112.5v-287q0 -66 46.5 -113t113.5 -47h680q67 0 113.5 47t46.5 113v287q0 66 -46.5 112.5t-113.5 46.5h-680zM320 620q33 0 51 -13q4 -2 6 -4q23 -20 23 -67q0 -15 -12 -52q-2 -4 -4.5 -11.5t-3.5 -8.5q-19 -55 -19 -65v-8q1 -4 1 -7 q2 -6 6 -13q6 -11 17 -21h1q10 -9 25 -17q12 -6 29 -13l43 -17q21 -9 29 -17l3 -3v-1l4 -6v-58h-395v54q0 16 36 33q3 1 9 4q3 1 4 2q66 28 83 42q5 4 10 9l2 3q1 0 2 1l1 3h1l7 15l1 7q1 3 1 8t-7 23q-2 7 -9.5 27t-10.5 32q-6 16 -7 21q-3 10 -4 19l-2 7v8q0 12 2 23v1 q2 11 4 17q6 16 17 26q2 2 6 4q14 10 34 13h16zM682 526h119v-131h76l-135 -141l-136 141h76v131z" />
<glyph unicode="&#xf045;" d="M75 848v-850h850v850h-850z" />
<glyph unicode="&#xf046;" d="M500 847q-180 -5 -300 -125t-124 -300q4 -180 124 -300t300 -124q180 4 300 124t125 300q-5 180 -125 300t-300 125z" />
<glyph unicode="&#xf047;" d="M1 552v-306h304v306h-304zM695 551v-306h305v306h-305zM502 544q-65 -1 -107.5 -44t-43.5 -107q1 -64 43.5 -107t107.5 -45q64 2 106.5 45t43.5 107q-1 64 -43.5 107t-106.5 44z" />
<glyph unicode="&#xf048;" d="M278 768q-95 0 -127.5 -28t-32.5 -113v-92q0 -57 -20 -79t-74 -22h-24v-55h24q53 0 73.5 -22t20.5 -80v-92q0 -84 32.5 -112.5t127.5 -28.5h25v55h-27q-54 0 -70 16.5t-16 71.5v95q0 60 -17.5 87t-59.5 37q42 10 59.5 37t17.5 87v95q0 55 16 71.5t70 16.5h27v55h-25z M697 768v-55h27q53 0 69.5 -16.5t16.5 -71.5v-95q0 -60 17 -87t60 -37q-43 -10 -60 -37t-17 -87v-95q0 -55 -16.5 -71.5t-69.5 -16.5h-27v-55h24q96 0 127.5 28.5t32.5 112.5v92q0 58 20.5 80t74.5 22h24v55h-24q-54 0 -74.5 22t-20.5 79v92q-1 85 -32.5 113t-127.5 28h-24z M617 683q-27 0 -50.5 -14t-37.5 -39q-16 -32 -11 -64l-1 2q2 -1 -5 -18.5t-51 -46.5q-46 -27 -68 -24.5t-21 5.5l2 -3l-6 3q-38 19 -77 7.5t-59 -49.5t-8 -77t49 -60q28 -14 57.5 -11t53.5 22l-1 -2q0 3 20 5.5t68 -21.5q37 -21 48.5 -38.5t10.5 -26.5q0 -28 13.5 -53 t40.5 -40q39 -19 77.5 -7t58.5 50t8.5 76.5t-49.5 59.5q-5 3 -10 5h2q-1 -1 -11.5 14.5t-12.5 68.5q0 53 10 70t11 15h-3q27 14 43 43q19 38 7.5 76.5t-49.5 60.5q-24 12 -49 11zM619 667q26 0 46 -17v0q-11 9 -31 7t-41 -15q6 -6 6 -14.5t-5.5 -14.5t-14.5 -7q-3 0 -6 1h-1 q-6 1 -10 -1.5t-5 -4.5q-10 -19 -11 -36.5t8 -29.5q-19 22 -18 51t22 53q13 14 29 21t32 7zM550 500q9 -1 11 -2l10 -5q9 -5 19 -8q6 -5 13.5 -23.5t8.5 -58t-7 -58t-15 -23.5q-14 -6 -25 -16q-6 -3 -25 -1t-56 21q-39 22 -51 38t-11 22q1 13 -2 26l1 -1q-3 1 5 17t51 45 q26 15 43 21t27 6h3zM323 476q26 1 46 -17h-1q-10 9 -30 7t-41 -15q5 -6 5.5 -14.5t-5.5 -14.5t-15 -7q-3 0 -5 1h-2q-6 2 -9.5 -0.5t-5.5 -5.5q-10 -19 -10.5 -36.5t8.5 -28.5q-20 21 -19 50t23 53q12 14 28 21t33 7zM637 315q26 0 46 -17h-1q-10 8 -30 6.5t-41 -15.5 q5 -5 5.5 -13.5t-5.5 -15t-15 -6.5h-5l-2 1q-6 1 -9.5 -1.5t-5.5 -4.5q-10 -19 -10.5 -37t8.5 -29q-20 21 -19 50t23 54q12 14 28 21t33 7z" />
<glyph unicode="&#xf049;" d="M500 848q-39 -1 -69.5 -21t-45.5 -56q-10 -23 -10 -48q-17 18 -40 27q-36 15 -72 7.5t-63.5 -35t-34.5 -63.5t7 -72q10 -23 28 -40q-25 0 -48 -9q-36 -16 -56.5 -46.5t-20.5 -69t20.5 -69t56.5 -45.5q23 -10 47 -10q-17 -17 -27 -40q-14 -36 -7 -72t34.5 -63.5t63.5 -35 t72 7.5q23 10 40 27q0 -25 10 -48q15 -35 45.5 -55.5t69.5 -20.5t69.5 20.5t45.5 55.5q10 23 10 48q17 -17 40 -27q36 -15 72 -7.5t63.5 35t34.5 63.5t-7 72q-10 23 -27 40q24 0 47 10q36 15 56.5 45.5t20.5 69t-20.5 69t-56.5 46.5q-23 9 -47 9q17 17 27 40q14 36 7 72 t-34.5 63.5t-63.5 35t-72 -7.5q-23 -10 -41 -27q1 25 -9 48q-15 36 -45.5 56t-69.5 21zM500 791q20 -1 37 -12t25 -30t4 -39t-18 -34v-138l97 97q0 20 11.5 37t30.5 25t39 4t34 -18.5t18 -34.5t-3.5 -38.5t-24.5 -30t-37 -11.5l-98 -98h138q14 15 34 18.5t39 -4t30.5 -24.5 t11.5 -37.5t-11.5 -37.5t-30.5 -24.5t-39 -3.5t-34 18h-138l98 -98q20 0 37 -11t24.5 -30t3.5 -39t-18 -34.5t-34 -18.5t-39 4t-30.5 25t-11.5 37l-97 98v-138q14 -15 18 -35t-4 -38.5t-25 -30t-37 -11.5t-37 11.5t-25 30t-4 38.5t18 35v138l-97 -98q0 -20 -11.5 -37 t-30.5 -25t-39 -4t-34 18.5t-18 34.5t3.5 39t24.5 30t37 11l98 98h-138q-14 -14 -34 -18t-39 3.5t-30.5 24.5t-11.5 37.5t11.5 37.5t30.5 24.5t39 4t34 -18.5h138l-98 98q-20 0 -37 11.5t-24.5 30t-3.5 38.5t18 34.5t34 18.5t39 -4t30.5 -25t11.5 -37l97 -97v138 q-14 14 -18 34t4 39t25 30t37 12z" />
<glyph unicode="&#xf04a;" d="M500 797q-170 -5 -283 -117.5t-117 -282.5q4 -170 117 -283t283 -117q170 4 283 117t117 283q-4 170 -117 282.5t-283 117.5zM500 722q38 -1 73 -10q111 -27 180.5 -112.5t71.5 -202.5q-4 -138 -95.5 -230t-229.5 -95q-138 3 -229.5 95t-95.5 230q4 138 95.5 229.5 t229.5 95.5zM477 592v-2h3v-105l-17 50q3 -2 4 -5l-4 10h-11l2 -1h-77l-104 -312h73l4 12l-2 -2l15 46h112l17 -56h61l13 -1l-2 8q0 -1 -1 -2l-15 47h53q56 0 84 22q10 8 17 18l2 4l1 3l1 3l3 8v3q4 12 4 28q0 29 -12.5 49.5t-36.5 28.5q19 8 28.5 24t9.5 38q0 20 -6 34 l-1 2v2q-9 24 -36 36l-7 1l8 -3q-9 3 -19 6q6 -1 11 -3q-7 3 -18 4q-19 4 -44 4h-31zM662 579q3 -1 6 -3t7 -5q-6 4 -13 8zM495 576h95q54 1 75.5 -15t22.5 -53q-1 -19 -8 -31.5t-21 -18.5q-9 -3 -9 -13t9 -13q19 -6 29.5 -22.5t10.5 -41.5q0 -39 -23 -57t-74 -18h-59 l-48 148v135zM542 552h-1h-1l-2 -1q-1 -2 -1 -3v-69q0 -3 1.5 -5t3.5 -2h44q20 -1 32.5 10t12.5 30t-12.5 30t-32.5 10h-44zM552 538h34q16 0 23 -6t6.5 -20t-7 -20t-22.5 -6h-34v52zM420 466l37 -125h-76zM540 416h-1h-1l-2 -2l-2 -4v-77q0 -3 2.5 -5t4.5 -2h50l2 1l1 1 q22 0 36 9q15 13 15 34.5t-15 33.5t-41 11h-49zM549 402h40q23 0 32.5 -7t9 -23.5t-9.5 -23.5t-30 -7h-42v61z" />
<glyph unicode="&#xf04b;" d="M500 796q-78 0 -150.5 -29t-131.5 -88t-88.5 -132t-29.5 -150.5t29.5 -150.5t88.5 -132t131.5 -88.5t150.5 -29.5t150.5 29.5t131.5 88.5t88.5 132t29.5 150.5t-29.5 150.5t-88.5 132t-131.5 88t-150.5 29zM500 721q66 0 124.5 -24.5t105 -70.5t71 -105t24.5 -124.5 t-24.5 -124.5t-71 -105.5t-105 -70.5t-124.5 -24t-124.5 24t-105.5 70q-95 100 -95 230t95 230q47 46 105.5 70.5t124.5 24.5zM469 618v-73q-29 -5 -47 -21q-26 -24 -26 -67q0 -35 18 -55t55 -29l3 -2l26 -6q24 -6 32 -13l1 -2q7 -7 7 -19t-7 -19q-2 -2 -4 -5q-12 -8 -34 -7 q-12 0 -23.5 1.5t-21.5 5.5q-24 7 -50 22v-63q26 -10 51 -16q10 -2 20 -3v-72h62v73q29 5 46 20q26 24 26 72q0 37 -18 56q-17 18 -54 28l-37 9q-17 4 -25 10l-3 1q-8 6 -8 18q0 15 11 23l1 1q11 7 35 7q13 0 26 -3l13 -3q20 -5 42 -16v62q-24 7 -47 11l-8 1v73h-62z M337 575q-16 -47 -23.5 -91t-7.5 -87t7.5 -86.5t23.5 -91.5h31q-14 46 -20.5 90.5t-6.5 87.5t7 87.5t20 90.5h-31zM634 575q14 -46 20.5 -90.5t6.5 -87.5t-6.5 -87.5t-20.5 -90.5h31q16 48 23.5 91.5t7.5 86.5t-7.5 87t-23.5 91h-31z" />
<glyph unicode="&#xf04c;" d="M500 797q-78 0 -150.5 -29.5t-131.5 -88.5t-88.5 -131.5t-29.5 -150.5t29.5 -150.5t88.5 -131.5t131.5 -88.5t150.5 -29.5t150.5 29.5t131.5 88.5t88.5 131.5t29.5 150.5t-29.5 150.5t-88.5 131.5t-131.5 88.5t-150.5 29.5zM500 722q66 0 124.5 -24.5t105 -71t71 -105 t24.5 -124.5t-24.5 -124.5t-71 -105t-105 -71t-124.5 -24.5t-124.5 24.5t-105.5 70.5q-95 100 -95 230t95 230q47 46 105.5 70.5t124.5 24.5zM554 627l47 -49l-46 49h-1zM316 624v-12v-442h368v318l-4 4l-125 132h-239zM341 599h204l5 -5v-109h-1v-3h70l-45 2h79l6 -6v-283 h-318v0h317l-3 191v-189h-312v397h-2v5zM545 594q2 -2 3 -9v9h-3zM685 489v-159v-160h2v318zM520 475l31 -94l-31 94v0zM448 474l-85 -253q0 -1 2 -1h55l-4 -1h7l4 10l-3 -5l13 43h93l13 -46q-2 2 -3 6l2 -10h11q-4 1 -8 3h56l-6 -2q9 1 9 2l-13 40l10 -33l-83 247h-70z M483 415l31 -102h-62zM439 264v-1l21 1h-21z" />
<glyph unicode="&#xf04d;" d="M857 808l-230 -214h111l-85 -368h-2l-120 368h-144l-121 -362h-2l-111 476h-153l185 -700h155l117 363h2l118 -363h153l157 586h113z" />
<glyph unicode="&#xf04e;" d="M75 847v-850h850v850h-850zM722 462q38 0 66 -15t47 -49l-62 -40q-10 18 -22 26t-29.5 8t-27.5 -9.5t-10 -24.5q-1 -18 11 -28t38 -21l20 -8q51 -21 78.5 -49t27.5 -77q-1 -54 -38 -82.5t-95 -28.5q-55 1 -91.5 23.5t-53.5 58.5l65 37q12 -21 31 -34.5t48 -13.5 q25 0 39.5 11t14.5 28q0 20 -15.5 31t-42.5 22l-20 9q-44 17 -70 44.5t-26 75.5q1 46 32 75.5t85 30.5zM458 457h80v-273q-1 -61 -33.5 -90.5t-86.5 -29.5q-47 1 -76.5 21.5t-43.5 51.5l66 39q8 -17 19.5 -28.5t31.5 -12t31 10t12 39.5v272z" />
<glyph unicode="&#xf04f;" d="M359 782q-153 -4 -254 -105.5t-105 -253.5q4 -153 105 -254t254 -105q75 1 141 29q65 -28 141 -29q153 4 254 105t105 254q-4 152 -105 253.5t-254 105.5q-76 -1 -141 -29q-66 28 -141 29zM352 669q40 0 77 -12.5t68 -34.5q30 22 67 34.5t78 12.5q105 -3 175 -73t73 -175 q-3 -106 -73 -176t-175 -73q-41 1 -78 13t-67 34q-31 -22 -68 -34t-77 -13q-106 3 -176 73t-73 176q3 105 73 175t176 73zM270 569q-54 -125 -29 -203.5t69 -97.5q42 -20 95.5 -16.5t91.5 64.5q32 -54 86.5 -63t102 13t70.5 104.5t-30 198.5h-120q31 -75 31 -146t-31 -78 t-41.5 21.5t-7.5 134.5h-117q6 -106 -10 -137t-43.5 -17.5t-27 71.5t28.5 151h-118z" />
<glyph unicode="&#xf050;" d="M471 766l-471 -702h471v702zM529 766v-18q-9 -233 53.5 -451t298.5 -233h119z" />
<glyph unicode="&#xf051;" d="M500 847q-180 -5 -300 -125t-125 -300q5 -180 125 -300t300 -125q180 5 300 125t125 300q-5 180 -125 300t-300 125zM496 760h4q144 -3 239.5 -98.5t98.5 -239.5q-3 -144 -98.5 -239.5t-239.5 -98.5q-144 3 -239.5 98.5t-98.5 239.5q3 143 97 238t237 100zM497 661 q-87 -2 -149.5 -53t-82.5 -132h114q16 34 47 55t71 21q55 -1 91.5 -38t38.5 -92q-2 -55 -38.5 -92t-91.5 -38q-40 0 -71 21t-47 54h-114q20 -80 82.5 -131t149.5 -53q101 3 168.5 70.5t69.5 168.5q-2 101 -69.5 168.5t-168.5 70.5z" />
<glyph unicode="&#xf052;" d="M268 846q-24 0 -49.5 -5t-52.5 -19t-45.5 -31.5t-33.5 -46.5t-19 -56t-2 -62t12.5 -62t33 -55t46.5 -41t59 -18q1 -15 0.5 -22.5t-9.5 -18t-7.5 -19.5t-15.5 -20t-18 -30q-1 -10 4.5 -13t13 2t14.5 5t13 -2q3 -2 9 -0.5t9.5 8t8.5 9t10 2.5q-2 -34 -1 -66t14 -67 t38 -65.5t70 -64.5q-35 34 -59.5 64t-37 70.5t-13 69.5t1.5 65q15 2 26.5 6.5t25.5 13.5l5 -33q1 -9 0.5 -18t1.5 -14.5t5.5 -4.5t5.5 -5t3 -18t2.5 -17.5t3 -5t4 0t6.5 -0.5t7 -3t3 -8.5t3.5 -8.5t9 -3t7.5 -2q3 -4 -1 -7l-4 -2q-2 -2 -3 -4q-1 -7 1 -16t9 -15 q4 -2 9.5 -2.5t8.5 -3t2.5 -6.5t2 -6t7 -1.5t7.5 -1t5.5 -3t1.5 -5t-5.5 -8t-6.5 -7.5q-4 -7 -2.5 -12t8.5 -13t16 -14l18 -12q6 -4 7 -9.5t-5 -9.5q-3 -3 -8 -4.5t-7 -4.5q-4 -6 -2 -13t7 -12q2 -3 5.5 -6t6.5 -4l-10 14q-3 7 1 13q2 2 5.5 2t7.5 2q6 2 10 7q2 3 3.5 6.5 t0.5 9t-5 13.5l-8 15q8 -6 15 -13q3 -4 5 -9t5 -9q7 -7 15 -14l-8 -11q-4 -5 -7 -12t-1.5 -14.5t6.5 -11.5t13 -11q-7 10 -10 19q-1 7 3.5 11t9.5 7l-1 -6q-1 -3 0 -6.5t5 -8.5l7 -8q8 -8 16.5 -14.5t16 -7.5t15.5 -1q-8 3 -15 8q-4 5 -7 12q7 -5 14.5 -9t17.5 -6 q14 -3 30 -4q-13 5 -19.5 11.5t-7.5 12.5q8 -4 15 -9t14 -7t13 -2.5t14 0.5q16 2 23 7q-13 -3 -31 0l7 4q3 1 12 9t15 16t8 13q-12 -13 -31 -18l8 8q3 4 4 10q-11 -5 -19.5 -1.5t-16 11.5t-9.5 15q0 5 2 7l6 4q4 3 9.5 6t9.5 7q6 7 8 15t0 16q-2 4 -4.5 8.5t-4 8t-1.5 6 t1 5.5q4 7 11 15l17 3q6 1 13.5 1t12 2.5t7 8.5t2.5 10q2 9 1.5 16.5t-1.5 16.5l15 7q8 3 13 10.5t4.5 13.5t-5.5 10q-2 3 -6 5.5t-7 5.5q-4 5 -6 9q9 6 16.5 12.5t13 11.5t8 8.5t4.5 8.5q3 10 3 23q0 7 -1.5 15t-3.5 13t-4 7l-5 3q-5 4 -10.5 5t-11.5 -2l-9 -1 q-5 -1 -8.5 0t-4.5 3l-4 4l-2 12q-1 6 -2.5 14.5t-4.5 16.5l5 -2q2 -1 6 -4l21 -14q11 -7 24 -9q8 -2 14.5 -6t14 -5.5t16.5 -1.5h17q14 0 22.5 4.5t10.5 12.5t-1 11q-6 4 -9 2q-6 -2 -9.5 2t-5 10t-2.5 14q41 6 72 35q17 16 32 41t21 46q7 27 6.5 60t-6.5 60 q-5 19 -12.5 35t-19.5 31q-11 13 -24 25.5t-27.5 21t-33 14.5t-34.5 8q-21 2 -43 1t-41 -8q-8 -4 -15 -8l-28 -18q-8 -5 -16.5 -4.5t-14.5 6.5q1 -9 3 -15t9 -12q11 -10 30.5 -10t33.5 1q11 1 21.5 3.5t22 2.5t24 -4.5t19.5 -8.5q12 -6 22.5 -16.5t18.5 -21.5 q9 -15 13.5 -32.5t4 -33.5t-3 -30.5t-14.5 -29.5t-30 -11q-17 6 -29 19t-22 27q-12 18 -27.5 38.5t-34.5 37.5q-11 9 -26.5 16t-30.5 9q-23 2 -38.5 -3t-35.5 -20q-6 -4 -10.5 -9t-10.5 -9q-12 8 -23 17.5t-26 15.5t-24.5 8t-28 1.5t-36.5 -6t-35 -19.5q-21 -19 -57 -61 t-50 -53q-9 -7 -15 -10t-18 -2.5t-26.5 15.5t-17 38.5t1 40.5t20.5 44.5t44 39.5t48 15t38 -1.5t39.5 -5t41.5 6.5t19 34q-8 -7 -24 -7q-9 1 -21 8l-27 17q-15 8 -33 11t-43 3h-7zM268 838h6q21 0 38.5 -2.5t32.5 -10t28 -15.5t22.5 -9t14 0t6.5 3q-5 -14 -20.5 -18.5 t-33.5 -4t-35 5t-41.5 2t-52.5 -15.5t-46 -43t-21.5 -47.5t-2.5 -41.5q3 -27 19.5 -44.5t32.5 -18.5q14 0 21 3t18 11q14 12 49 53.5t56 61.5q19 16 35.5 20t32.5 4.5t26.5 -1.5t24 -8t22.5 -14t19 -17l7 -8q6 2 13 2t12.5 -5t10 -12t3.5 -13.5t0 -13.5q2 -4 5 -5l6 -3 q4 -2 4 -7q3 4 0 8l-6 4q-3 2 -3 6q0 7 1 12.5t-2.5 14.5t-11 14.5t-15.5 9.5q7 -1 15 -5q12 -5 26 -14t19 -21q4 -9 2 -15.5t-8 -12.5q-4 -4 -11.5 -9t-10 -11t1.5 -12q2 -3 6 -5t5 -5q2 -6 -2 -10.5t-9 -4.5q7 5 5 13q-2 4 -6 7.5t-8 6.5q-8 4 -16 5.5t-18 9.5 q-6 4 -8.5 8.5t-4 11t-2 15t0.5 15.5t3 15q-3 -2 -4 -4l-2 -4l-27 24q-11 11 -32 15t-39 0t-37 -15q-27 -16 -44 -35l-37 -43q-17 -19 -31 -29t-37 -21l-17 -17l-13 16l-23 -3l-4 23l-21 6l4 30l-15 10l11 19l-11 21l14 24l-5 23l17 14l2 24l23 8l10 22h26l13 16l18 -1l20 2 l11 7l17 -10l19 10l40 -14l-26 21l-26 4l-21 4l-27 -8l-24 6l-24 -13l-24 1l-12 -20l-25 -2l-13 -23l-16 -7l-4 -29l-13 -12l6 -25l-16 -18l15 -21l-17 -12l21 -17l-21 -20l26 -8l-17 -21l21 -4l-14 -23h24l-12 -18l25 3l-6 -25l20 15l6 -31l14 22l7 -27l16 20v-29l18 26 l-10 -45q-36 5 -59.5 18t-43.5 37.5t-30.5 51.5t-13 60.5t1.5 60t19 54t34 45t45 31t50 17.5t45 4zM739 834q25 0 51 -4.5t48 -17.5q15 -9 27.5 -21t23.5 -25q12 -17 19.5 -31t13.5 -34q5 -24 5 -56.5t-6 -56.5q-5 -20 -20 -44.5t-30.5 -40t-32 -22.5t-37.5 -10q-6 10 -8 21 l-4 22l16 -25v28l14 -20l7 27l11 -22l6 30l17 -15l-5 24l22 -2l-10 17l20 -1l-12 23l18 3l-14 20l22 8l-18 19l18 16l-14 12l13 19l-14 18l5 24l-12 11l-3 27l-14 7l-12 22l-21 2l-11 19l-21 -1l-21 12l-21 -5l-24 7l-17 -4l-24 -4l-22 -19l34 13l18 -9l14 9l10 -7l17 -2 l16 1l11 -15h23l9 -21l20 -7l2 -24l15 -12l-5 -22l13 -23l-10 -20l10 -18l-13 -10l3 -29l-18 -5l-4 -22l-20 3l-12 -15l-15 15l-14 7q-7 3 -14 9q-15 12 -31 32q-9 11 -19 25t-19 23.5t-17 15.5t-16 11q-15 9 -28.5 13t-28.5 1q-12 -3 -24 -8q10 -7 21 -15.5t18 -19.5 t4 -22.5t-12 -18.5q17 1 31 -2l3 -11l3 -13q1 -6 5 -10l9 -8q5 -4 9 -13q1 -4 1.5 -13t-0.5 -13q-3 -7 -9 -14h-14q-14 -1 -27 -7q-1 8 1 14q1 2 3 3t3 3q2 5 4 12q5 1 9.5 1t7.5 -1.5t7 -5.5q-4 9 -10 10t-13 1q1 7 6 12l4 3q2 1 3 4q1 7 -5 9t-12 -0.5t-10 -8.5t-6 -13 q-4 -17 -2 -35q1 -11 4 -18q23 -30 43 -62q5 -10 9.5 -20.5t9.5 -18.5q11 -15 22 -20q5 -2 9 -1l8 1q3 1 6 2.5t6 0.5q8 -1 14 -9q2 -5 2.5 -12t0.5 -13q0 -12 -5.5 -21.5t-13 -16.5t-16.5 -12q-11 -8 -24 -13l-24 -9q16 0 38 4q4 -6 9 -11q3 -3 6.5 -4.5t6.5 -4.5 q3 -6 0 -11.5t-11.5 -8.5t-13.5 -2q-15 1 -27.5 1t-24.5 -3q-17 -4 -33.5 -7.5t-33.5 -1.5l-12 1q-8 2 -13 4q-14 6 -24.5 21.5t-18.5 28.5q2 12 4.5 21.5t11.5 19.5q-11 -7 -13.5 -14.5t-5.5 -20.5l-10 17q-6 11 -12 15q-4 2 -9 2h-9q9 -2 16 -7q3 -2 4 -5l6 -10l10 -19 q5 -12 10 -21q3 -5 11.5 -16t19.5 -18q10 -6 23 -8.5t25 -2t25 4t25 5.5q25 0 50 -3q2 -9 2.5 -17t-2.5 -17l-2 -6q0 -2 -4.5 -3t-11 -0.5t-12.5 1.5q-27 -1 -53 -5q-16 -3 -33.5 -6t-24.5 -8q9 -1 18 -3q5 -2 8.5 -5t9 -3t11.5 4t11 4.5t10 -0.5l9 -2q0 -5 -1.5 -9.5 t0.5 -8.5l6 -9q3 -4 5 -8q2 -8 -0.5 -14t-8.5 -11l-11 -9q0 10 -1 11q-5 -11 -19 -19l5 12q2 7 2 13l-1 9l-3 8v-10q0 -6 -2 -10.5t-5 -8t-8.5 -8t-15 -9t-15.5 -8.5q-10 -9 -9 -19q0 -5 3 -10l6 -10q-9 5 -14.5 12t-6 16t-0.5 19l-6 3q-3 1 -7 4q-10 5 -17 15t-6 20 q1 5 4 9l6 7q-9 -4 -17.5 -4t-9 5t0.5 11.5t0 14.5q-5 -6 -11 -12q-4 -3 -9.5 -5t-8 -8t-1 -12.5t2.5 -14.5q-4 4 -6 4.5t-8.5 7t-5 11.5t4.5 9q4 7 4.5 14.5t-4 15t-14.5 13.5q-5 2 -10.5 2.5t-9.5 2.5q-10 3 -14.5 9.5t-0.5 13.5q2 4 4.5 6.5t3.5 5.5q2 9 -4 13 q-4 2 -8.5 2t-8 1.5t-3 6t-0.5 6.5q-3 5 -8 9q-4 2 -9 1.5t-7.5 5t-2 14.5t-1 14.5t-5.5 6t-6 6t0 14.5t-1 18q-5 18 -3 36q18 14 26 23.5t20 28.5l8 -21q3 -7 9 -15l11 -15l-10 19q-10 22 -9 40.5t4 34.5t3 25t-1 14q-4 -33 -14.5 -58t-30 -46.5t-37.5 -31.5t-29.5 -13 t-24.5 -5.5t-22 -10.5q-14 -14 -19 -12l-9 2q-7 0 -14 -3t-12 -7q0 12 3 15l9 9q6 6 9.5 7t6 6t5 17t10 18.5t7.5 16v22.5q12 45 29 79t33 47q10 9 25 17.5t28 13.5q8 3 17 3t13 1q18 6 34.5 10t30.5 1q7 -2 13.5 -2.5t19.5 2.5q6 1 12 4.5t13 6.5q11 3 20 3q2 -10 4.5 -16 t12 -12.5t17.5 -8.5t17 -5.5t10 -9.5t-3 -8t-10 -2q11 -10 25 -2q6 3 7 10.5t-3.5 10.5t-8.5 7.5t-1.5 8t6.5 6.5l13 12q6 5 10.5 10.5t4.5 12.5q-1 10 -4.5 16.5t-11.5 13.5q-15 14 -34 22q-8 4 -16 6q19 16 33.5 22t39.5 4q15 -2 28.5 -8t24.5 -16q18 -16 33 -35.5 t28 -39.5q8 -11 24.5 -28t30.5 -21q23 -2 35 12t16 33q4 16 4 33.5t-4.5 35.5t-13.5 32.5t-19.5 24.5t-24.5 17q-7 5 -18.5 9t-27 4.5t-25 -2t-20.5 -3.5t-24 -1.5t-21 1.5t-13 6t-9 11q7 -4 17 0q14 6 26.5 15t27.5 15t41 8zM660 616q16 -3 30 -8.5t23 -14.5t18 -21t17 -26 q3 -8 5 -16.5t6 -17t10 -17.5l11 -15q5 -6 8.5 -9.5t6 -8.5t3 -11.5t1.5 -10.5q5 -10 11 -12t12 -1q-1 -6 -7 -9.5t-12.5 -4t-16.5 -0.5t-17 1t-13.5 5t-13.5 5.5t-12 3.5l-12 5q-6 3 -13 8l-11 8l-17 9l-8 23l9 9q-6 0 -12 -2.5t-11 -5t-13 -2.5l-5 8q5 -2 11 -2 q10 2 12 12q1 6 -1 11q4 0 7 -2t5.5 -4.5t5.5 -2.5v6t-1 8q-4 6 -7.5 8.5t-6.5 2.5q7 5 11 13q1 5 0.5 16t-2.5 17t-7 11l-10 10q-6 7 -4 15q1 4 4 6zM448 608q-5 -9 -14 -14q-3 -1 -6 -1.5t-5 -1.5t-2 -2.5t-3 -2.5t-7.5 -0.5t-8.5 -0.5q-7 -4 -10.5 -9.5t-5.5 -9.5l-1 -5 q0 -3 -3.5 -4t-6.5 -5q-2 -2 -2.5 -5.5t-2.5 -6.5q-3 -4 -9 -8l-10 -8q13 5 24 13l11 11q2 2 4.5 2.5t4 2.5t1.5 4t1 5q4 9 8 13t11 2l-1 -6v-9q0 -5 -1 -9q-3 -6 -7 -10q6 2 13 5q10 6 15 12.5t8.5 15t4 16t0.5 16.5zM502 593q0 -8 4 -13q5 -2 9 -3q1 -2 1.5 -3.5t2.5 -1.5 q4 -1 9 0l13 -27q2 -5 2 -7.5t2.5 -8t7.5 -13.5l11 -15l-8 18q-2 5 -3 11.5t-2.5 10.5t-3 4.5t-4.5 4.5q-10 19 -16 41l-3 -3q-2 -2 -5 -2q-8 2 -17 7zM490 558q-6 0 -12.5 -1.5t-10.5 -2.5q-16 -5 -29 -16l16 7q8 3 16 5q4 1 12.5 2t13 -2t5.5 -11l1 -13l-12 -2l-15 1 l-14 -3l-13 -2q-5 -1 -12 -5q-1 -9 1 -18q2 -6 9 -11.5t13 -7.5q16 -6 32 -6.5t24 13.5q2 5 3 13l-2 -7q-2 -4 -5 -8q-6 -5 -14 -6q-4 -1 -10 -1l-11 2q-8 1 -14.5 5t-10 7.5t-6.5 8.5q6 6 9 7t12 1q-1 -6 1 -12q5 -13 20 -10q5 0 9.5 4t4.5 11q0 9 -7 14q10 2 18 0 q4 -1 4 -3l2 -4q-1 5 -3 10l-4 7l-3 15q-1 6 -6 13q-2 4 -5 5t-7 1zM634 514q-3 -5 -4 -8t-1 -9l-8 13q4 3 6 3zM528 487q-3 -11 -7 -19q-5 -6 -12 -10l8 2q5 1 7.5 5t2.5 10zM664 477q5 -16 8.5 -27t4.5 -18t1 -15q-7 14 -14.5 27t-16.5 26q7 1 11 3t6 4zM556 417h-5 q-13 -3 -22 -8q-15 -10 -15 -28q-1 -10 4 -18.5t12 -14.5l-3 10v8q3 -3 7 -4l2 7v8q1 4 5 7q8 4 16 1q4 -2 8 -5q-4 11 -14.5 13t-19.5 -4q-3 -4 -7 -9q-2 12 9 20q5 5 13.5 7t15 2t13 -1.5t11 -3.5t9.5 -6l9 -7l17 -8q5 -4 9 -6l9 -8l7.5 -5t8.5 -4q6 -1 13 1q-8 1 -13.5 4 t-11.5 9t-14.5 12t-19 12.5t-21.5 13.5q-7 3 -16 4t-16 1zM570 371q-5 0 -10.5 -1t-7.5 -6q-3 -9 4 -16t17 -3q4 3 3.5 7t-2.5 6q3 0 8 -1q16 -9 24 -25q5 -10 7 -22q0 13 -2 23q-4 16 -15 28q-5 4 -10.5 7t-13.5 3h-2zM449 354q-5 0 -8 -2.5t-2 -6.5v-8q4 2 6 4.5t2 5.5 l19 5z" />
<glyph unicode="&#xf053;" d="M501 846q-102 0 -197 -46q-53 -27 -104 -79t-79 -107q-69 -146 -35 -291t160 -243q37 -28 85.5 -49.5t93.5 -29.5q15 -2 42 -3t54 0q169 10 280.5 120.5t122.5 278.5q3 61 -7 112t-37 105q-28 55 -79 107t-104 79q-95 46 -196 46zM694 720q22 0 43 -8.5t37 -26.5 q13 -9 10 -55.5t-25 -186.5q-27 -161 -25 -198t37 -19q21 7 18.5 0t-26.5 -21q-62 -35 -75 -11q-8 10 -4.5 51.5t23.5 171.5q24 148 25 192t-18 57q-16 15 -37.5 18.5t-40 -6.5t-33 -47t-22.5 -90l-4 -31h52q22 0 37.5 -1.5t17 -4t-3 -9t-12.5 -13.5q-12 -10 -18.5 -12 t-12.5 1t-16.5 5t-21.5 2h-25l-12 -105q-13 -134 -33.5 -197.5t-63.5 -108.5q-13 -14 -23 -24t-13 -10q-9 1 -8.5 9t11.5 19q30 27 46.5 86.5t31.5 187.5l16 140q0 1 -7 2t-17.5 1t-18.5 1.5t-10 2.5q-3 6 13.5 16.5t30.5 11.5q8 0 12 8.5t9 34.5q22 117 116 159q19 8 40 8z M348 514q26 0 47.5 -13t33.5 -39q10 -18 12 -34t0 -49q-4 -62 -32 -109t-78 -72q-26 -14 -42.5 -15.5t-36.5 8.5q-35 15 -52.5 53t-12.5 91q6 71 49 119q26 30 55 45t57 15zM321 478q-71 1 -88 -123q-4 -34 6 -67.5t30 -50.5q48 -36 87 5t41 129q0 34 -11 62.5t-26 37.5 q-6 3 -17 5t-22 2z" />
<glyph unicode="&#xf054;" d="M500 849q-180 -5 -300 -125t-125 -300q5 -181 125 -301t300 -124q180 4 300 124t125 301q-5 180 -125 300t-300 125zM500 829q172 -4 286.5 -118.5t118.5 -286.5q-4 -173 -118.5 -287.5t-286.5 -118.5q-172 4 -286.5 118.5t-118.5 287.5q4 172 118.5 286.5t286.5 118.5z M500 788q-97 -1 -176 -45t-129 -119l24 -1q31 1 63 3l34 2q15 -1 16 -13.5t-14 -16.5l-12 -1q-12 -2 -29 -3l132 -394l80 239l-57 155l-38 4q-14 3 -13 16t15 14l35 -2q32 -2 62.5 -2t61.5 2l35 2q15 -1 16 -13.5t-14 -16.5l-13 -1q-12 -2 -29 -3l132 -391l36 121 q12 38 20 66.5t8 51.5q0 33 -9.5 58t-20.5 43q-14 22 -24.5 42.5t-11.5 42.5q1 26 17.5 45t43.5 20l5 -1q-49 45 -111.5 70.5t-134.5 25.5zM820 598q2 -17 2 -37q1 -28 -5.5 -60t-21.5 -71l-112 -322q83 49 131.5 131.5t50.5 184.5q-1 96 -45 174zM167 572q-31 -69 -32 -148 q2 -110 57.5 -196.5t148.5 -132.5zM506 392l-109 -318q49 -15 103 -15q64 0 121 21l-2 5z" />
<glyph unicode="&#xf055;" d="M453 704q-58 -2 -95.5 -40t-39.5 -95q1 -47 28 -81q28 32 67.5 51t85.5 19t85 -18q3 14 3 29q-1 57 -39 95t-95 40zM277 642q-30 -1 -49.5 -21t-20.5 -50q0 -19 9 -34q36 20 79 21l9 -1l-1 12q0 33 13 61q-17 11 -39 12zM609 593h-9q3 -12 3 -24q0 -19 -5 -36 q52 -29 81 -81q29 15 63 18q-5 53 -42 87.5t-91 35.5zM500 543q-80 -2 -133.5 -55t-55.5 -133q2 -80 55.5 -133.5t133.5 -55.5q80 2 133 55.5t55 133.5q-2 80 -55 133t-133 55zM295 542q-62 -1 -103 -42.5t-43 -103.5q1 -36 16 -66t42 -50q11 22 32 35t47 13q6 0 12 -1 q-2 14 -2 28q0 34 10.5 64.5t29.5 56.5q-23 28 -30 66h-11zM753 455q-37 0 -67 -17q17 -38 18 -83q-1 -42 -16.5 -79t-42.5 -65q20 -22 48 -35t60 -13q63 2 104 43t42 103q-1 62 -42 103.5t-104 42.5zM130 436h-2q-55 -4 -91 -41.5t-37 -92.5q1 -58 39.5 -96t95.5 -39 q43 1 76 24q-14 21 -14 48q0 14 4 26q-31 23 -49 56.5t-18 74.5q0 21 5 40h-9zM926 320q-6 0 -11 -1v-10q0 -32 -12 -60.5t-33 -49.5q22 -25 56 -26q32 1 52.5 21.5t20.5 52t-20.5 52.5t-52.5 21zM286 313q-32 -1 -52.5 -22t-20.5 -52.5t20.5 -52t52.5 -21.5q24 0 42 13 t26 34q-40 41 -53 99q-7 1 -15 2z" />
<glyph unicode="&#xf056;" d="M500 847q-17 0 -34 -1q-74 -6 -141.5 -36.5t-120.5 -82.5q-62 -60 -96 -140t-33 -166q-1 -66 19.5 -129t59.5 -117q56 -78 141 -125t181 -52q17 -2 35 0l34 2q63 7 121 31.5t106 64.5q69 58 108.5 138t43.5 169q2 14 1 28.5t-2 28.5q-7 76 -40.5 146t-89.5 123 q-59 57 -135 87.5t-158 30.5zM499 762h5q39 1 77 -9q48 -12 90.5 -37t76.5 -61q39 -41 62.5 -92t29 -107.5t-8.5 -111.5q-14 -62 -50 -114t-88 -88q-43 -30 -92.5 -45.5t-101 -15.5t-100.5 15.5t-92 44.5t-75.5 70.5t-51.5 90.5q-21 55 -22 114.5t19 115.5q14 42 39 79 t58 66q40 36 88.5 57t100.5 27zM642 576q-4 0 -7 -1q-10 -3 -16.5 -10.5t-6.5 -18.5v-68q0 -9 2.5 -17t8.5 -13q14 -11 30.5 -5t19.5 24q1 39 1 79q-1 13 -10.5 21.5t-21.5 8.5zM729 576h-1q-4 0 -7 -1q-9 -3 -15.5 -10t-5.5 -16v-83q0 -7 5 -13t12 -9q14 -6 27.5 1.5 t15.5 23.5q1 39 0 77q0 13 -9.5 21.5t-21.5 8.5zM556 576q-4 0 -7 -1q-10 -2 -16.5 -10t-6.5 -19v-74q-1 -10 4.5 -17.5t14.5 -11.5q15 -5 28 3t14 23v80q-1 12 -10 19.5t-21 7.5zM365 576q-20 -1 -39.5 -6t-36.5 -16q-32 -21 -50.5 -55t-18.5 -73v-25q1 -13 4 -26 q7 -29 25 -53.5t44 -38t55.5 -14.5t57.5 9q20 8 36 22.5t30 30.5q2 5 -2 9l-7 6q-11 -12 -24 -22q-18 -13 -41 -13t-42 12q-14 10 -23 24t-14 30q-9 26 -10 54t1 55q2 16 7.5 31.5t17.5 27.5q9 9 22 11t23 -6q7 -7 7 -17v-18q0 -11 2.5 -22.5t10.5 -18.5t17.5 -7t18.5 1 q15 3 23 15t7 26q-2 22 -18.5 37.5t-38 22.5t-44.5 7z" />
<glyph unicode="&#xf057;" d="M657 848q-34 0 -70 -8q36 -14 68 -36q18 -10 31 -22.5t8 -27.5q-23 -34 -62.5 -29t-71 20.5t-66.5 31t-72 10.5q-37 -8 -58.5 -42t-32.5 -68q42 14 90 11.5t74 -44.5q19 -36 13.5 -83t-44.5 -67q-44 -15 -78 8l-66 46q-31 20 -75 33.5t-69 -24.5q-15 -32 -10.5 -66.5 t-8.5 -66.5q-23 -38 -62 -39.5t-76 5.5q16 -17 33.5 -31.5t38 -22.5t42.5 -5q19 4 33 13t27 22.5t23.5 27.5t29.5 21q16 4 32 2t31 -9q32 -16 54 -46.5t20 -66.5q-1 -19 -12.5 -34t-26.5 -25q-18 -13 -62 -19q28 -37 68 -43.5t89 -0.5q39 5 80 17.5t81 5.5 q41 -13 36.5 -45.5t-32.5 -56.5q-32 -24 -70.5 -31t-78.5 -4q56 -28 115 -45q393 -45 410 362.5t-323 471.5zM850 659q10 0 17 -8q36 -54 54.5 -115t18.5 -127t-19.5 -128t-57.5 -117q-5 -7 -12.5 -8t-14 3.5t-8 12t2.5 14.5q35 49 52.5 106t17.5 117t-17 115.5t-50 104.5 q-4 7 -2.5 14.5t8.5 12.5q5 3 10 3zM779 612q10 -1 16 -9q29 -43 44 -92t15 -102t-16 -103t-46 -93q-5 -7 -12.5 -8.5t-14 3.5t-8 12.5t3.5 13.5q26 39 40 83.5t14 91.5t-13.5 90.5t-38.5 81.5q-5 7 -3 14.5t7.5 11.5t11.5 5zM704 561q10 0 16 -8q21 -32 32 -68.5t11 -74.5 q0 -80 -45 -146q-5 -7 -12.5 -8.5t-14 3.5t-8 12.5t2.5 14.5q39 56 39 123t-37 122q-4 7 -3 14.5t7 11.5t12 4z" />
<glyph unicode="&#xf058;" d="M353 849q-33 1 -62 -17q-26 -22 -29 -54q-3 -26 10 -52q11 -22 42 -25q14 -1 38.5 3.5t36.5 11.5q22 20 25 47q2 13 2.5 28t-4.5 29q-9 14 -26.5 20t-32.5 9zM636 847q-22 -1 -40 -10q-23 -12 -27 -42q-9 -100 5 -200q4 -24 0 -49q1 -15 -2 -29q0 -8 -1.5 -13.5 t-8.5 -11.5q-16 -10 -35 -12l-29 -4q-15 -3 -30 -1q-8 0 -17 1t-15 6q-3 4 -3 10l1 12q0 27 -2 50q-5 28 -38 55.5t-81 17.5q-22 -11 -27 -52l-7 -66q-2 -18 -0.5 -50t5.5 -56q7 -41 10 -79q1 -58 -5 -113q-4 -72 -12 -145q-4 -30 7 -44q12 -19 39 -22q15 -2 40.5 1t38.5 8 q23 12 27 42q8 90 -2 183q-3 22 -3 44q0 9 0.5 20.5t7.5 21.5q4 5 10 7.5t12 4.5l34 7q27 4 54 0q10 0 20 -7q7 -8 8 -18t4 -19q7 -21 18 -42q7 -13 19 -23t27 -14q37 -5 58 30t23 62q2 20 0.5 64.5t-5.5 70.5q-6 41 -10 79q-1 58 5 113q5 73 13 145q3 30 -8 45 q-7 9 -29.5 14.5t-39.5 7.5h-9zM690 148q-17 0 -41.5 -4t-37.5 -11q-22 -20 -25.5 -46.5t0.5 -52.5q3 -29 32 -32q18 0 46 4t43 13q25 22 29 55q7 23 -5 49q-11 21 -41 25z" />
<glyph unicode="&#xf059;" d="M500 848q-181 -5 -300.5 -125t-124.5 -300q5 -181 124.5 -301t300.5 -124q181 4 300.5 124t124.5 301q-5 180 -124.5 300t-300.5 125zM502 783q155 -4 258 -107t107 -257q-4 -155 -107 -258t-258 -107q-154 4 -257 107t-107 258q4 154 107 257t257 107zM719 662v0h-192 v-67h17q15 0 18.5 -2.5t3.5 -7.5q0 -2 -2 -5.5t-11 -12.5l-134 -140v129q0 19 3 26t11 11q5 2 25 2h13v67h-210v-67h18q16 0 22 -3.5t9 -11t3 -28.5v-263q0 -23 -2.5 -29.5t-9 -10t-24.5 -3.5h-16v-67h210v67h-17q-18 0 -23.5 3t-8.5 10t-3 25v48l65 64l75 -121 q10 -16 10 -20t-5.5 -6.5t-28.5 -2.5h-9v-67h217v67h-8q-18 0 -28 7q-7 4 -23 28l-124 188l104 101q12 11 19.5 16.5t12.5 7t19 1.5l24 1v66h-20z" />
<glyph unicode="&#xf05a;" d="M411 787q-69 -5 -118.5 -31.5t-51.5 -30.5q-54 -37 -120 -93.5t-108 -100.5q10 -1 20 3.5t21 6.5l99 27q-35 -28 -83 -68.5t-70 -78.5q25 11 63.5 29.5t64.5 22.5q-23 -21 -56 -51.5t-49 -54.5q1 -1 1 -3v-3q20 12 53.5 30.5t55.5 22.5q-22 -24 -50 -59.5t-39 -65.5 q20 13 54.5 31.5t55.5 27.5q-4 -11 -12.5 -20.5t-14.5 -20.5q-11 -16 -25 -33.5t-17 -36.5q33 31 73 53q-9 -19 -21 -36.5t-17 -39.5q13 13 33.5 20.5t37.5 13.5l-3 -2l-16 -14q-14 -11 -27 -27l10 2l13 -3l-32 -13q74 -96 173.5 -136.5t221.5 -29.5l-13 28q17 43 26.5 96 t59.5 84q34 20 53 28.5t58 0.5q25 -5 64 -15t66 -6l35 21q15 9 33 23q23 -5 34 -1.5t19 16.5l14 38q9 26 19 48l1 15q-9 30 -10.5 65.5t-5.5 45.5q-37 39 -119 63.5t-138 77.5q7 28 -5.5 51t-31.5 40q-29 19 -63 16t-64 -12q-34 7 -65.5 17.5t-64.5 20.5q-9 1 -18 1h-4z M410 739q27 -1 52.5 -8.5t52.5 -12.5q-2 -5 -6 -8t-7 -7l-7 -11q-5 -5 -2 -11l32 12q33 10 66.5 21t70.5 8l24 -31q-39 27 -79.5 8.5t-79.5 -31.5q-15 -3 -30 -7.5t-29 -7.5q16 -12 35 -15.5t40 -1.5q3 -16 17.5 -34.5t29.5 -22.5q-4 14 -11.5 32t1.5 36q13 9 30 17.5 t32 -2.5q-10 -1 -18 -6l-16 -10q-6 -5 -8 -14.5t-1 -13.5q6 -19 39 -33t90 -14q-7 10 -24.5 28t-17.5 29q63 -55 141.5 -79.5t108.5 -47.5q-1 -9 -14 -23t-10 -22q-2 -9 8 -23.5t25 -31.5q-7 63 7.5 41t0.5 -75l-35 8q-81 6 -131.5 33.5t-113.5 71.5q-26 17 -51 37l-42 34 l-50 19q50 -55 62.5 -73.5t-12.5 -58.5l-17 31l-7 55q-17 -51 -11 -98t69 -79l50 -7q-18 14 -30 29t-8 31q25 -39 93 -61t114 -32q14 -5 24 -15q-10 -9 -19 -11.5t-22 -6.5q-32 10 -66 21t-49 31q-5 -12 -74 -23.5t-56 -14.5q-37 2 -72 22.5t-61 50.5l-9 3q2 -28 21 -51 t35 -47l38 -17q-14 -9 -28.5 -18.5t-23.5 -24.5q-3 -8 -6.5 -17t-0.5 -17q13 14 29 21.5t32 11.5l-16 -25q2 -21 -9 -49q-2 5 -5 10q-38 15 -71 39q7 -22 24.5 -44t37.5 -38q-6 -13 -12 -23q-14 10 -28.5 21t-25.5 21q8 -17 13 -32.5t13 -28.5q-62 4 -117 23.5t-100 58.5 l60 34q-13 -2 -35 -8l-42 -11l-7 8l54 27q30 15 41 33v0l-6 -2l-61 -3q-5 31 11.5 53.5t1.5 46.5q-30 39 -49 80.5t-15 89.5q5 -12 14 -22q1 11 2.5 22.5t4.5 20.5q4 -15 10.5 -29.5t21.5 -24.5l1 2q-14 47 -2.5 95t56.5 78q-12 -4 -29 -5.5t-35 -8.5q3 5 9.5 21t18.5 28 q9 7 16.5 14.5t17.5 13.5q19 16 43 28.5t59 18.5q8 1 16 1h4zM425 692q-32 -1 -60 -12l-13 -10q-10 -12 -19 -25.5t-12 -29.5l3 -4q16 17 37 28q0 -18 9.5 -33.5t25.5 -24.5h3q-3 19 -1 39.5t9 37.5q12 9 25 15.5t23 15.5q-15 4 -30 3zM625 633v0q8 0 15 -3q-6 -3 -8 -11 q-1 -4 0 -7q-11 8 -11 21h4zM462 632q3 -8 10 -16l13 -17q-31 -3 -60 -11q7 -5 14.5 -9t13.5 -9l-39 -14q-19 -7 -36 -21l5 -3q31 6 66 5.5t68 -7.5l2 2l-25 46l38 8q-15 15 -32.5 27.5t-37.5 18.5zM662 618q8 -7 15 -16q-11 -2 -22 0q5 3 7 10v6zM599 594q4 -12 12.5 -25.5 t24.5 -15.5q32 -6 62 -1q-25 11 -52 16.5t-47 25.5zM368 532q-23 -18 -32.5 -42.5t-5.5 -52.5q3 -20 -4 -41.5t6 -39.5q29 -32 63 -55l-2 8q-15 17 -27 35.5t-19 38.5l35 -12q18 -7 37 -10q-25 32 -49.5 66t-12.5 78q2 7 7 13.5t4 13.5zM728 403q4 -1 8.5 -2t5.5 -3 q-4 -2 -8 -6t-9 -7l1 10q0 5 2 8zM768 382v0q6 0 10 -4l-13 -13l1 17h2zM798 371v0l10 -6q-2 -1 -6 -7t-7 -7q1 3 1 11t2 9zM829 357v0l9 -2q-3 -4 -6 -10.5t-9 -7.5l4 8q-1 13 2 12zM861 351l12 -3l-13 -22zM896 345q3 0 12 -4l-15 -11q-2 16 3 15zM933 339q4 0 7 -2 q-1 -6 -5 -10t-7 -9l1 11q1 5 -1 10h5z" />
<glyph unicode="&#xf05b;" d="M340 803l-5 -1q-9 -3 -12 -7t-2 -17l1 -16l-10 -2q-7 -2 -9 -1.5t-3 4.5q-9 23 -13 27.5t-9 -2.5t-5 -9t8 -14l8 -14l-7 -6q-6 -7 -8.5 -7t-12.5 9q-16 13 -21 14q-1 -1 -1 -11v-10l14 -8q15 -8 12 -11l-4 -14q0 -3 -17.5 0.5t-21.5 0.5t4 -14q1 -4 4.5 -4.5t13.5 0.5 l16 2l2 -10q1 -10 -0.5 -12t-12.5 -6l-10 -4l-8 -4l-5 -3l5 -4q8 -6 12.5 -6t14.5 7l13 8l7 -7q7 -6 6 -9t-12 -16q-7 -9 -8.5 -13t0 -5t8.5 -1h11l7 14q7 14 11 14.5t2 -9.5l-21 -146h-14q-9 0 -11.5 1t-2.5 4q-1 7 -2 9t-5 -0.5t-2 -6t-10 -7.5q-10 -4 -8.5 -4.5t10.5 3 t11.5 1.5t-7.5 -4q-5 -1 -10.5 -7t-7.5 -12.5t2 -4.5t2 -4l-1 -6l13 10v-7q0 -7 1 -8t5 -7l8 -16q27 -52 50 -73q11 -9 15.5 -16t8.5 -20t4 -4q2 14 4.5 10.5t3.5 -20.5q1 -12 3 -15.5t2 5.5q1 6 3 14l3 8v-7q0 -8 2 -9.5t4 5.5l1 6l6 -5q2 -3 6 -9.5t8 -14.5 q6 -15 10.5 -20.5t10.5 -5t10 -3.5t11 -15.5t23.5 -28.5t26.5 -24q6 -2 20 -2t26 3q6 2 11.5 5.5t13.5 12.5q6 6 10 11t4.5 8t11 9t13.5 13t4 7q4 -3 14.5 -14.5t11 -15t2.5 0.5q4 8 6 -13l2 -14l1 11q3 18 7.5 18.5t17 12t18.5 18.5q3 6 5 7t8 -1.5t9 -2.5t10 12l8 12 q1 1 5 -4t12 -9.5t13.5 -4.5t11 3.5t8.5 8.5l10 17q4 5 7 11.5t4 11.5q3 8 4 9.5t2 -2.5q4 -11 10 7q4 11 8 11.5t5 4t6 -0.5t11 -1.5t10.5 17.5t11 25t22.5 27q9 9 15.5 17t7.5 10l2 6l3 -6q3 -5 3.5 -5t-0.5 7v8l13 -13l-1 8q-1 6 -0.5 7t3.5 0q6 -2 1 5l-4 6l5 -4 q8 -8 1 8q-3 7 -3 8t5 -1q11 -5 4 2q-4 5 -12 8.5t-16.5 5.5t-14.5 4.5t-14 2.5q-3 0 -8 1.5t-9 4.5q-10 4 -14 5t-10.5 11t-8.5 18q-1 5 0 8t5 7l16 15q6 7 12 6.5t25 -11.5q7 -3 13 -5.5t8 -2.5t9 2l14 6q10 4 16.5 7.5t10.5 8.5q7 8 9 11t15 5q6 1 12 2.5t9 2.5 q9 6 12.5 16t-1.5 17t-20 17t-25 13.5t-36 3.5q-17 1 -24 0t-14 -5q-11 -5 -21.5 -14.5t-15.5 -17.5q-2 -5 -2 -7.5t2.5 -7.5t1.5 -6.5t-4 0.5t-4.5 5.5t-5.5 8.5l-7 12q-10 12 -13 18t-2 12q0 14 15 14q8 0 13.5 5t11 16t4.5 23.5t-7 21.5q-11 13 -53 24q-14 4 -26 4.5 t-32 -3.5q-25 -3 -35.5 -9.5t-14.5 -20.5q-3 -9 -2.5 -19t4.5 -16t15.5 -12.5t26.5 -10.5q6 -2 12.5 -5t10.5 -5q10 -7 20 -9q25 -3 41 -31q7 -13 7.5 -19t-6.5 -13q-10 -11 -17 5q-4 9 -11 17t-13 10t-16 14.5t-20.5 17.5t-26.5 6t-35 -1.5t-33 -7.5q-11 -4 -17.5 -12 t-7.5 -17q0 -5 -1 -5q-4 0 -18.5 9.5t-22.5 16.5q-3 3 0.5 5t-0.5 2t0 2.5t0 2t0 2t0 2t0 2t0 2.5t0 2t0 2t-0.5 2t1 2.5t-2.5 10.5l-1 11l-1 -11q0 -11 -2.5 -11t1 -2t-0.5 -2t0 -2t0 -2t0 -2.5t0 -2t0 -2t0 -2t0 -2t0 -2.5t-0.5 -1.5t1 -4.5t-13.5 -11q-13 -11 -17 -9.5 t-12 22.5q-9 24 -18.5 29t-45.5 4q-32 0 -43 -2.5t-13 -10.5l-3 -5l-8 4q-9 4 -7 8t3.5 10t4.5 6l18 -3q15 -3 18 -1t-1 11l-4 9l-33 -3l-4 18q-2 3 14 9l12 5q5 3 7 4l5 4l-8 6q-8 5 -10 4l-27 -16l-15 15l10 12q17 20 14.5 22t-10 2t-10 -2t-7.5 -12l-8 -15l-10 3 q-7 2 -8.5 3.5t-0.5 4.5l1 8zM323 757v-11q0 -8 -1 -10.5t-4 -2.5l-6 -2q-2 2 -5 11t-2 10.5t9 3.5zM337 756q4 0 9.5 -2t5.5 -3.5t-4 -10.5q-7 -12 -14 -7q-2 2 -1.5 11t3.5 11zM291 746q2 -1 7 -10q5 -7 5 -9t-3.5 -5t-4.5 -3l-17 14l6 7q6 5 7 6zM364 744l7 -7l7 -6 l-9 -6q-8 -5 -11 -5.5t-5.5 2.5t-2 5t6.5 9zM324 729q4 1 5 -1t-1 -10l-2 -11l-5 -2q-6 0 -13.5 6t-5.5 9q5 4 11.5 6.5t10.5 2.5zM335 728q2 0 7 -3t9.5 -7.5t4.5 -7t-6 -4.5q-9 -3 -17 -1q-4 0 -2 10q1 13 4 13zM271 723l10 -6q10 -6 9 -8.5t-1 -5.5t-2 -3l-16 3 q-8 2 -2 14zM381 718q4 0 6 -12l1 -6h-12q-9 0 -11 0.5t-3 4.5q-2 6 6.5 9t11.5 4h1zM91 716q-20 0 -33 -5q-18 -7 -32 -21.5t-21 -31.5q-5 -14 -5 -34t5 -35q10 -29 36 -56q14 -14 18 -24t4 -25q-1 -12 1 -13t3 -11l2 -10h18q15 -1 18.5 1.5t2.5 11.5q0 8 3.5 8t3.5 5v5 l8 -4q18 -9 42.5 -11t41.5 3q9 3 3 2q-28 -5 -54 -1.5t-40 13.5l-4 4l3 14q2 8 6 14t16 18q15 14 23.5 27t14.5 29t6 35.5t-5 33.5q-7 17 -21 31t-32 22q-13 5 -32 5zM299 713q2 0 6.5 -4t5.5 -6t-1.5 -7.5t-7 -8t-7 -2t-2 11t2.5 14.5q1 2 3 2v0zM356 705q3 0 4 -5t-1 -13 q-4 -16 -12 -9q-4 5 -3.5 13.5t4.5 10.5zM570 705q-1 0 -0.5 -5t1 -1.5t-0.5 6.5v0zM264 691h13q8 0 10.5 -0.5t2.5 -4.5t-1.5 -6t-7.5 -4q-9 -4 -11.5 -3t-4.5 13zM366 691q1 0 5 -1l11 -2q7 -3 2 -14q-2 -3 -4 -3t-10.5 4.5t-7.5 7t1 5.5t3 3zM308 685q3 1 2 -7 q-1 -16 -10 -3q-4 5 -3.5 6.5t7.5 2.5zM322 685l0.5 -1t-0.5 -3.5t-1 0.5t1 4v0zM329 685q1 0 2.5 -1t-0.5 -5q-5 -8 -6 0q0 5 4 6zM344 676q2 0 4 -2t1 -4t-3 -1.5t-3 3.5t0 4h1zM320 674l0.5 -2t-0.5 -4t-1 1.5t1 4.5v0zM332 673q1 1 2 -4q2 -9 -3 -2q-2 4 0 6h1zM794 672 q4 0 7.5 -1.5t-2 -7t-7.5 -5.5t-8 6.5t-2.5 6t9.5 0.5zM357 672q1 0 6 -4t7.5 -6.5t2 -4.5t-4.5 -6l-6 -6l-6 8q-5 7 -5.5 10.5t2.5 6.5q2 1 3 1zM295 672q2 -1 5 -3l4 -4l-7 -9q-6 -8 -8 -8t-7 5t-5 7t9 7q7 4 9 4v1zM765 668q4 0 7 -6q5 -8 -1 -7t-13 4.5t-5.5 5t8.5 2.5z M326 667q1 0 4 -2.5t-2 -2.5t-5 2.5t2 2.5h1zM379 655l8 -7l8 -6l-6 -14q-6 -13 -7 -14q-2 1 -9 12t-7 13.5t6 9.5zM305 648q2 -1 0 -6q-1 -3 -3 -3t0 5q2 3 3 3v0v1zM337 643h0.5t0.5 -4t-4 -4.5t0 3.5zM316 642l1.5 -1t1.5 -3.5t-2 -2.5t-2 3.5t1 3.5zM350 633q3 -1 8 -16 l6 -13q2 -6 4 -6.5t7 5.5t-5 -15q-8 -16 -10 -19t-2 1q-2 8 -5 33.5t-3 29.5v0zM315 630q1 0 1 -1t-1.5 -2t-1.5 1t2 2zM338 630q2 0 2 -2t-1 -2t-2 2t1 2zM332 623q1 0 3 -1.5t2 -2.5t-2.5 -1t-3 2.5t0.5 2.5v0zM768 608q4 0 10 -7q6 -4 0 -5t-11.5 -1t-8 1.5t3.5 7.5 q3 4 6 4zM335 607q4 1 1 -2.5t-4 -3.5t-0.5 3t3.5 3zM342 601q2 -1 3 -10t0 -9.5t-7 4.5l-7 5l5 5q4 4 6 5zM310 599q2 -1 2.5 -5.5t2 -5.5t-3.5 -6l-5 -5l1 7q1 7 1 10.5t2 4.5zM782 593q2 0 3 -4t5.5 -8t4.5 -5.5t-2.5 -3.5t-5.5 -7l-6 -11q-3 -6 -8.5 -13.5t-10.5 -13.5 l-17 -19q-6 -7 -10 -7.5t-13 3.5q-23 9 -48 0q-22 -7 -40 0q-4 1 -5 3.5t-1 9.5v10h12q12 0 11.5 3t3.5 3.5t11.5 4t14.5 8.5l5 4h-17q-14 1 -24.5 3t-7.5 4t-3 2t-2 2t0.5 4t0 2.5t-1 5t-5.5 2t-6.5 -3t-3.5 5.5q0 4 2 5.5t7.5 2.5t10 0t10.5 -3l11 -5l22 5q10 2 18.5 3 t12.5 1q32 -3 38 3q3 5 12.5 3.5t16.5 -0.5q3 1 5 1zM327 586l8 -5q6 -5 6 -6t-12.5 -1t-13 1.5t5.5 6.5zM862 581q5 0 13.5 -2.5t9 -4.5t5.5 -9l5 -8l-5 -1q-4 -2 -7.5 -1t-16.5 7.5t-15 8.5t1.5 5.5t6.5 4.5h3zM932 580q10 0 11 -2q-1 -3 -10.5 -10.5t-13 -8t-7.5 -2.5 t1 6q3 6 3 10t3.5 5.5t9.5 1.5h3zM898 576q19 0 8 -11q-4 -4 -6.5 -4t-5.5 5q-7 6 -6 8t10 2zM620 567q2 0 4 -0.5t-3.5 -0.5t-3.5 1h3zM310 563h16h17l-7 -6q-7 -6 -9 -6t-9 6zM620 561q2 0 4 -1t-3.5 -1t-3.5 1zM304 557q3 -1 8.5 -5t5.5 -6t-9 -8l-10 -7l2 7q1 7 1 12.5 t2 6.5zM349 557l0.5 -0.5t0.5 -3t-4.5 -9t-8.5 -1.5q-3 1 -2.5 2.5t6.5 6t8 5.5zM326 540h2t3 -2q5 -3 4 -7t-13.5 -4t-12.5 1t7.5 6.5t9.5 5.5zM313 517q8 0 9 -0.5t-2 -4t-5 -3.5t-7 4l-5 4h10zM299 509q2 0 5.5 -2.5t3.5 -4t-3.5 -5t-7.5 -6.5t-2.5 7.5t4.5 10.5zM81 504 h8h24l-1 -8q-2 -7 -2.5 -8.5t-7.5 -1.5l-14 -1q-17 0 -20.5 2.5t-3.5 11.5q0 3 2.5 4t14.5 1zM810 347h1t3.5 -5t2.5 -7t-3 -1t-5 3l-1 5q-1 2 0 3.5t2 1.5zM802 346q1 0 0.5 -4t-1.5 -7t-3 -3t-1.5 4t2.5 7t3 3zM772 325q3 0 0 -14l-3 -9l-6 -16l1 9q1 14 2.5 20.5t3 8 t2.5 1.5zM759 305l-1 -7l-4 -15q-1 -6 -3 -7t-9 -1t-14 2.5t-7 4t7.5 0.5t13 2t10.5 12zM710 286l7 -7q6 -5 14.5 -8t13 -1.5t3.5 -2t-6.5 -8t-11 -3.5t-13.5 9q-6 6 -7.5 9t-0.5 6zM590 244q5 -1 19 -9q5 -4 11 -6.5t9 -3.5q13 -1 3 -8q-15 -11 -36 15q-7 9 -7.5 10.5 t1.5 1.5z" />
<glyph unicode="&#xf05c;" d="M502 827h-76t-21 -1.5v-40.5l-3 -235q0 -2 -2 -2l-228 74q-38 12 -40 12l-9 -28l-44 -139q-6 -21 -5 -21l127 -42q82 -27 105.5 -35.5t20.5 -8.5q-1 -3 -23 -36l-113 -164q-22 -33 -23 -35q10 -8 79.5 -57t80.5 -55l139 189q23 30 24 30.5t13 -15.5l142 -197 q12 -17 13 -17q11 7 80 57.5t79 59.5q-1 1 -22 33l-108 159q-22 32 -22.5 33t28.5 12l231 79q-4 12 -29 94t-29 94q-2 0 -38 -12l-219 -73q-2 -5 -3 20t-3 134l-3 101q-1 32 -2.5 32.5t-28.5 0.5h-68z" />
<glyph unicode="&#xf05d;" d="M444 999q-19 0 -42 -5q-103 -30 -115 -134t32 -196q42 -82 109 -163.5t102 -103.5q0 -1 -1 -3q-5 -31 -15.5 -55t-27.5 -47q-15 -19 -39 -41.5t-70 -63.5q-27 -23 -43.5 -50.5t-26.5 -63.5l-10 -42q-10 -47 -22 -73t-34 -46q-26 -24 -48.5 -34t-53.5 -14q-15 -2 -24 -4.5 t-17 -6.5q-11 -6 -21 -16q-4 -4 0 -8.5t9 -0.5q9 9 18 13q7 4 15 6t21 4q34 4 58 15t52 37q24 21 36.5 49t23.5 76l10 41q9 34 24.5 60.5t40.5 47.5q47 41 71.5 64.5t39.5 42.5q23 30 35 63q-6 -34 -25 -71l-20 -36q-19 -33 -24 -56t0 -50q5 -36 2 -46l-1 -1q-3 -5 1 -9t9 0 q2 2 3 6q5 14 -2 52q-4 24 0.5 45.5t22.5 51.5l21 37q33 62 27 121q0 2 -1 3q32 8 127 56.5t166 128.5q68 86 85.5 190t-63.5 167q-88 48 -155.5 8.5t-89.5 -49.5q-15 7 -53 52t-117 52zM464 87h-1h1z" />
<glyph unicode="&#xf05e;" d="M75 850v-170h510v170h-510zM755 850v-170h170v170h-170zM75 510v-170h850v170h-850zM75 170v-170h340v170h-340zM585 170v-170h340v170h-340z" />
<glyph unicode="&#xf080;" d="M499 798q-166 0 -280 -117q-58 -58 -88.5 -131t-30.5 -152.5t30 -152t87.5 -130t130 -87.5t152 -30t153.5 30.5t133 88.5q56 55 85 126.5t29 153.5t-29.5 154.5t-85.5 128.5q-118 118 -286 118zM501 725q135 0 232 -96q46 -46 70.5 -105.5t24.5 -125.5q0 -138 -94 -230 q-48 -47 -108.5 -72t-125 -25t-124 24.5t-106.5 71.5t-72.5 106.5t-25.5 124.5t25.5 124.5t72.5 107.5q94 95 231 95zM389 522q-50 0 -83.5 -33.5t-33.5 -91.5t33 -91t86 -33q34 0 62 17t43 46l-49 25q-14 -34 -49 -34q-27 0 -40.5 19t-13.5 52q0 70 54 70q11 0 23.5 -7 t20.5 -25l54 28q-32 58 -107 58zM621 522q-51 0 -84 -33.5t-33 -91.5t32.5 -91t86.5 -33q33 0 60.5 17t44.5 46l-50 25q-14 -34 -49 -34q-27 0 -40.5 19t-13.5 52q0 70 54 70q11 0 23.5 -7t21.5 -25l52 28q-31 58 -105 58z" />
<glyph unicode="&#xf081;" d="M499 796q-165 0 -281 -116q-118 -120 -118 -284t118.5 -282t280.5 -118q165 0 287 119q114 112 114 280.5t-116 284.5t-285 116zM501 724q135 0 231 -96t96 -233.5t-94 -227.5q-100 -98 -234 -98t-231 97t-97 229.5t98 232.5q94 96 231 96zM500 654q-56 0 -56 -56t56 -56 t56 56t-56 56zM418 521q-11 0 -18.5 -7.5t-7.5 -18.5v-163h46v-195h124v195h46v163q0 11 -8 18.5t-18 7.5h-164z" />
<glyph unicode="&#xf082;" d="M499 796q-165 0 -281 -116q-118 -120 -118 -284t118 -282t282 -118t286 119q114 112 114 280.5t-116 284.5t-285 116zM501 724q136 0 231 -96q96 -94 96 -232q0 -44 -10 -86l-355 159q-4 5 -4 10q0 17 15 24t33 7q35 0 69 -23l52 53q-45 34 -100 37v62h-47v-62 q-37 -2 -64.5 -21t-37.5 -50l-153 68q20 30 44 54q94 96 231 96zM190 504l204 -92l64 -28l47 -21l39 -16q10 -10 10 -25q0 -21 -14.5 -30.5t-35.5 -9.5q-50 0 -89 37l-55 -56q55 -47 121 -48v-61h47v61q41 4 71.5 28t38.5 61l151 -67q-20 -36 -55 -70q-98 -98 -232.5 -98 t-232 97t-97.5 230q0 58 18 108z" />
<glyph unicode="&#xf083;" d="M500 796q-167 0 -282 -116q-118 -120 -118 -284t118 -282t282.5 -118t285.5 119q114 113 114 281t-116 284t-284 116zM501 724q136 0 231.5 -95.5t95.5 -232.5q0 -45 -10 -85l-220 97h6v48h-113l-46 20q6 14 14 23q16 19 37 27.5t44.5 8.5t42.5 -5t33 -11l18 77 q-18 8 -43.5 13.5t-56.5 6.5q-48 -1 -87 -18.5t-68 -50.5q-12 -15 -22 -32l-132 58q19 29 45 55q94 96 231 96zM190 502l106 -46h-8v-48h38l-1 -31h-37v-48h44q9 -53 37 -87q29 -37 71.5 -56.5t91.5 -19.5q33 0 60 7.5t45 17.5l-16 74q-11 -6 -32 -11.5t-45.5 -5.5t-47 8 t-38 25.5t-22.5 47.5h146l206 -92q-21 -38 -54 -70q-99 -98 -233.5 -98t-231.5 97t-97 230q0 56 18 106zM473 377h1h-1z" />
<glyph unicode="&#xf084;" d="M499 796q-166 0 -281 -116q-118 -120 -118 -284t118 -282t282.5 -118t285.5 119q114 113 114 281t-116 284t-285 116zM501 724q136 0 231.5 -95.5t95.5 -232.5q0 -51 -13 -95l-163 72v29h-62l102 187h-107l-69 -155l-38 17l-63 138h-107l44 -82l-132 58q21 33 50 63 q94 96 231 96zM187 493l204 -91h-45v-63h94l9 -19v-30h-103v-62h103v-90h100v90h103v58l131 -59q-20 -32 -49 -60q-99 -98 -233.5 -98t-231.5 97t-97 230q0 51 15 97zM554 330l88 -40h-93v30z" />
<glyph unicode="&#xf085;" d="M499 796q-165 0 -281 -117q-118 -120 -118 -284t118.5 -281.5t280.5 -117.5q166 0 287 118q114 114 114 281.5t-116.5 284t-284.5 116.5zM501 724q136 0 231 -97q96 -94 96 -231.5t-94 -229.5q-100 -98 -234 -98t-231 97t-97 230t98 232q94 96 231 97zM498 606 q-69 0 -116.5 -40t-59.5 -114h-31l79 -79l79 79h-29q10 71 90 71q44 0 67.5 -33.5t23.5 -96.5q0 -61 -25.5 -97.5t-67.5 -36.5q-84 0 -88 73h-101q10 -75 59.5 -115.5t117.5 -40.5q92 0 150 61t58 153q0 95 -56 155.5t-150 60.5z" />
<glyph unicode="&#xf086;" d="M499 797q-165 0 -281 -117q-118 -120 -118 -284t118.5 -281.5t280.5 -117.5q166 0 287 118q114 114 114 281.5t-116.5 284t-284.5 116.5zM501 724q136 0 231 -96q96 -94 96 -231.5t-94 -229.5q-100 -98 -234 -98t-231 97t-97 230t98 232q94 96 231 96zM361 491v-69h290 v69h-290zM361 362v-68h290v68h-290z" />
<glyph unicode="&#xf087;" d="M500 797q-170 -4 -283 -117t-117 -283q4 -170 117 -283t283 -117q170 4 283 117t117 283q-4 170 -117 283t-283 117zM500 722q138 -4 230 -95.5t95 -229.5q0 -44 -11 -84l-1 1l-361 161q10 18 26 29.5t39 12.5q27 -2 43 -14q7 -5 12 -10l66 67q-34 27 -67.5 36t-58.5 8 q-58 0 -98.5 -22.5t-64.5 -60.5l-121 54q45 67 115.5 106.5t156.5 40.5zM193 504l127 -57q-5 -25 -5 -53q5 -117 69 -162t125 -42q33 0 61.5 9.5t51.5 25.5q8 6 15 12l-58 71l-5 -5q-18 -16 -33.5 -19.5t-20.5 -2.5q-45 3 -66 39t-20 77l350 -156h1q-43 -77 -117.5 -122.5 t-167.5 -46.5q-138 3 -229.5 95t-95.5 230q0 56 18 107z" />
<glyph unicode="&#xf088;" d="M486 796q-166 0 -280 -116q-58 -58 -88.5 -131.5t-30.5 -153t30 -151.5t87.5 -129.5t130 -88t152 -30.5t153.5 31t133 88q56 55 85 127t29 154t-29 154.5t-86 128.5q-118 117 -286 117zM488 724q136 0 232 -96q47 -47 71 -106.5t24 -125.5q0 -138 -94 -229 q-48 -47 -108.5 -72t-125 -25t-124 24.5t-106.5 71.5t-72.5 106.5t-25.5 124t25.5 124t72.5 107.5q94 96 231 96zM487 626q-97 -4 -132 -75t-33 -155q-2 -84 33 -155t132 -75q97 4 132.5 75t33.5 155q2 84 -33.5 155t-132.5 75zM487 539q8 0 15 -2q8 -6 10 -14.5t-5 -20.5 l-88 -161q-3 31 -3 55q-2 39 10 89t61 54zM553 465q3 -19 4 -37t1 -32q2 -40 -10 -89.5t-61 -53.5q-8 0 -15 1l-6 2q-12 5 -16.5 14.5t5.5 24.5z" />
<glyph unicode="&#xf089;" d="M499 796q-165 0 -281 -116q-118 -120 -118 -284t118.5 -282t280.5 -118q166 0 287 119q114 113 114 281t-116.5 284t-284.5 116zM501 724q136 0 231 -97q96 -94 96 -231.5t-94 -228.5q-100 -98 -234 -98t-231 96.5t-97 229.5t98 232q94 97 231 97zM334 620q-8 -2 -14 -8 t-6 -15v-294q0 -9 6.5 -15.5t15.5 -6.5h88v-87q0 -9 6 -15.5t16 -6.5h218q9 0 15.5 6.5t6.5 15.5v294q0 9 -6.5 15.5t-15.5 6.5h-88v87q0 10 -6 16.5t-16 6.5h-220zM358 575h175v-65h-90q-8 -1 -13.5 -7t-5.5 -15v-163h-66v250zM467 467h175v-251h-175v251z" />
<glyph unicode="&#xf08a;" d="M499 796q-165 0 -281 -116q-118 -120 -118 -284t118.5 -282t280.5 -118q166 0 287 119q114 113 114 281t-116.5 284t-284.5 116zM501 724q136 0 231 -97q96 -94 96 -231.5t-94 -228.5q-100 -98 -234 -98t-231 96.5t-97 229.5t98 232q94 97 231 97zM437 622l-108 -47v-113 v-1l-95 -40v-103l102 -44l103 43l217 -90l5 -1l4 1l97 42l7 3v113l-87 37v99zM464 406l183 -75v-3h1v-71l-1 1v-1l-183 76v73zM665 402l59 -25l-64 -27l-58 25zM744 358v-69l-71 -31v70z" />
<glyph unicode="&#xf08b;" d="M100 798v-174h101q4 10 12.5 16t19.5 6t20 -6.5t12 -16.5q43 -5 71 -36t29 -75q-1 -47 -33 -78.5t-79 -33.5h-153v-402h800v800h-800zM100 598v-171h153q36 1 60.5 25t24.5 60q0 33 -20.5 56.5t-52.5 28.5q-5 -9 -13 -15t-19 -6t-19.5 6t-12.5 16h-101z" />
<glyph unicode="&#xf08c;" d="M-6 796l506 -800l506 800h-361v-97q9 -4 14.5 -12t6.5 -18q-1 -14 -10.5 -23.5t-23.5 -9.5t-23 9.5t-9 23.5q0 10 5.5 18t14.5 12v97h-230v-97q9 -4 15 -12t6 -18q-1 -14 -10 -23.5t-23 -9.5t-23.5 9.5t-9.5 23.5q0 10 5.5 18t14.5 12v97h-371z" />
<glyph unicode="&#xf08d;" d="M500 798q-170 -5 -283 -117.5t-117 -282.5q4 -170 117 -283t283 -117q170 4 283 117t117 283v4h-203q-45 1 -75.5 31.5t-31.5 75.5q1 42 27.5 71.5t67.5 35.5q4 9 12.5 15t19 6t19 -5.5t12.5 -14.5h87q-55 82 -142 130.5t-193 50.5zM748 591q-4 -9 -12.5 -14.5t-19 -6 t-18.5 5t-12 14.5q-31 -4 -50.5 -26.5t-20.5 -54.5q1 -35 24.5 -58t57.5 -23h202q-7 89 -49 163h-102z" />
<glyph unicode="&#xf08e;" d="M442 848q-20 -1 -35 -14.5t-18 -33.5q-2 -28 9 -53q4 -9 8 -19t3 -21q-1 -33 -3 -66.5t-8 -67.5q-15 24 -28 48.5t-30 46.5q-8 11 -19 18.5t-25 9.5q-20 2 -36.5 -10.5t-19.5 -32.5q-1 -12 3 -24t9 -23q14 -34 25.5 -69.5t28.5 -69.5l16 -30q8 -15 11 -32q7 -32 11 -64 l10 -64l5 -31q3 -15 9 -30t15.5 -28.5t15.5 -29.5q7 -20 11 -42q12 -59 25 -118l281 53q21 5 42 12q-4 42 -15.5 83.5t-10.5 83.5q1 25 8.5 48t12.5 47l6 22q2 11 1 23q-5 18 -16 32.5t-20 30.5q-5 10 -5 21v22q1 69 9 138t2 138q-2 13 -4 25.5t-8 24.5q-10 19 -30 26 q-14 4 -28.5 1.5t-25.5 -12.5t-17 -23t-9 -27q-7 -31 -11 -63t-10 -63q-14 29 -27 59q-10 29 -13.5 60.5t-16.5 60.5q-7 14 -21 20t-30 6q-18 0 -37 1zM443 825h2l47 -3l5 -1q12 -3 19 -13l3 -5l4 -11q2 -8 4 -15v0q2 -11 3 -22v0q3 -19 6 -37.5t10 -36.5l12 -26 q7 -17 15 -33l15 -25l12 -18q3 15 4 29q4 43 10 86l6 42q2 21 10 40q3 9 9 17l2 2l7 6l7 3q5 2 10 2l3 1q5 0 10 -1l10 -3q10 -3 17 -11l3 -5l3 -5l3 -5q5 -12 6 -24l1 -6l1 -43q0 -21 -1 -42l-9 -119q-2 -45 -3 -90v-5l1 -13q2 -8 6 -16q6 -11 14.5 -21.5t12.5 -23.5 q2 -3 2 -7l1 -5v-12q-1 -15 -4 -29l-6 -25l-12 -49q-4 -15 -3 -30q0 -20 4 -39l15 -66q2 -9 3 -19l1 -9q1 -10 0 -20l-8 15l-4 7l-14 68l-6 30l-4 30l-28 -7q10 11 18 22l8 12q4 6 6 13q5 15 8 29l10 40l2 16l1 15l-2 9l-3 11q-6 12 -14 22l-18 24q-16 18 -34 35l-11 10 q-10 7 -22 11q-8 2 -17 3v0q-26 3 -52 2q0 -9 -1 -19l-3 -12l-3 -6q-2 -2 -4 -4.5t-5 -4.5l-6 -3q-8 -4 -16 -6l-10 -1l-25 -2l-19 -1q4 -5 10 -10l5 -4q14 -10 29 -17l13 -5l19 -6q10 -3 20 -4l10 -1h5l10 2l4 1q12 4 23 9.5t23 9.5l-5 -6q-10 -11 -23 -19l-11 -6l-14 -8 l9 -19l8 -12l10 -10l10 -5l8 -3q8 -2 17 -2h4l35 5l-9 -7q-7 -5 -15 -8l-5 -2q-4 -1 -9 -1h-3q-4 -1 -7 0l-8 1q-7 2 -14 5l-11 4l-7 2l-11 1q-9 -3 -17 -8.5t-15 -11.5q-5 -4 -10 -7q4 10 9 19l13 23v4q1 6 -2 12l-6 10l-3 5l-6 5q-13 7 -26.5 9.5t-26.5 7.5q-6 2 -12 5 q-13 7 -23 19l-3 4l-4 9l-3 8q-1 5 -1 10v14l2 14l4 13l6 12l4 4l2 2q2 1 5.5 2t7.5 1h9l17 -1l22 -1q26 2 52 2h12l28 -3l8 -1l11 -3l7 -3l10 -6l18 -16l17 -15q2 14 3 29l2 58l6 93l5 106q0 16 -3 31l-2 7q-2 8 -8 16q-2 3 -5 5l-5 4q-4 2 -8.5 2.5t-8.5 0.5 q-16 0 -26 -14l-4 -10q-2 -5 -4 -11q-4 -18 -6 -37q-8 -70 -13 -141l-1 -47q10 -2 19.5 -4t19.5 -4q-6 -3 -12 -5l-8 -2l-13 -3q-9 -1 -17 -2l-18 -1l15 19l-16 35l-14 26q-8 12 -14 25q-9 21 -19 42q-3 -33 -2 -66l-1 -35v-39l25 -10q-10 -4 -21 -8l-10 -2l-5 -1l-10 1 l-8 2l-8 4l-11 6l30 3q4 35 1 69q-16 5 -32.5 10t-31.5 14l16 -1l16 -2l33 -5q1 9 2 19l1 10v19q0 15 -1 29q-17 4 -33 6l-33 5q16 8 33.5 8t34.5 -3q-2 28 -6 55l-3 18l-3 18q-2 9 -7 17l-3 4l-5 3l-7 3l-5 1q-6 0 -11 -2l-2 -1q-2 -2 -4 -3l-3 -3l-5 -7q-3 -6 -5 -12 l-5 -15q-5 -24 -6 -49l-5 -46q-2 -16 -4 -33l-5 -114l-1 -34l27 5l-11 -13q-6 -7 -13.5 -11.5t-16.5 -7t-18 -4.5l15 20l-32 60q-20 40 -43 79l-12 19l-11 14q-5 6 -12 7l-2 1q-3 0 -6 -1l-4 -1l-9 -3l-4 -3l-4 -3l-2 -4t-1.5 -4t0.5 -5l1 -11l3 -10q2 -8 4 -15l18 -44 l18 -51l10 -26l7 -16l12 -24q12 -23 23 -46l10 -1q15 0 30 -2l-19 -8q-9 -4 -19 -7q3 -27 8 -53l7 -53q2 -14 4.5 -28t9.5 -27l7 -12l8 -10l6 -5q10 -7 20 -12l21 -11l-28 -1l5 -29l19 -87q1 -4 2 -9v-13l-2 -14q-13 37 -19 77l-6 29l-5 19l-3 9l-7 18q-3 7 -7 13l-13 19 q-6 10 -11 20q-2 5 -4 11q-3 11 -4 23l-9 63q-3 26 -8 52l-6 25l-3 9q-3 9 -7 17l-5 12l-9 16l-11 24l-7 16l-27 75l-17 40l-6 18l-3 14q-1 7 0 13l1 3l2 6l8 8l6 4l7 3q4 1 8.5 2t9.5 0h5q8 -2 14 -7l4 -5l8 -10l37 -62l26 -49q10 -21 23 -42q2 40 3 80l1 27l6 85v12l-1 4 l-2 11l-8 21q-3 8 -5 17v0q-2 7 -3 13l-1 9q-1 7 0 14l1 6l5 10l5 6l8 6l9 4zM453 817q-11 0 -21 -5t-13 -16q-3 -15 1.5 -30t11.5 -28l10 40q5 20 14 39h-3zM646 689h6l14 -1l13 -3q6 -2 13 -4l6 -3q-9 -2 -19 -3l-5 -1q-7 0 -13 1.5t-11 3.5l-16 9zM346 601l-4 -6v0 q-3 -5 -7 -9l-2 -3l-6 -4l-6 -4l-7 -3l-14 -3l4 5l8 8l14 10q10 6 20 9zM658 596h4l5 -1q10 -2 19 -8l6 -4q-15 -1 -31 2v0q-9 1 -19 4l-11 4l19 2zM377 539q-1 -2 -2 -3l-9 -8l-9 -7q-14 -9 -30 -16q10 16 26 27q5 3 12 4zM472 481q-6 -20 -11 -41l36 -3h9l9 1l9 1l9 3 q5 1 8 5l1 2q3 4 4 9l5 16q-30 4 -59 6z" />
<glyph unicode="&#xf08f;" d="M497 847q-146 -3 -258 -89.5t-151 -232.5q-40 -176 47.5 -321.5t261.5 -193.5q176 -39 321.5 48t193.5 261q40 177 -47.5 322t-261.5 193q-54 14 -106 13zM483 699l46 -12l-19 -75l38 -8l18 74l47 -11l-19 -77q45 -15 71.5 -40t21.5 -67q-5 -31 -20.5 -47.5t-38.5 -21.5 q32 -16 44.5 -43t-1.5 -70q-20 -52 -62.5 -63.5t-102.5 0.5l-19 -77l-47 12l19 76l-37 9l-19 -76l-47 11l20 78l-94 24l23 53l17 -5q15 -3 17 -3q10 -2 15 2t6 9l31 122l5 -1l-5 1l21 88q1 7 -3.5 15t-17.5 12q-2 0 -17 4l-17 4l12 50l65 -16h-1l30 -8zM498 557l-23 -93 q23 -8 64.5 -12.5t55.5 32.5q6 40 -33.5 55t-63.5 18zM463 417l-26 -102q28 -10 78 -16t66 34q5 44 -42 61.5t-76 22.5z" />
<glyph unicode="&#xf090;" d="M351 847v-129h-50v0h-108v-84l29 1q25 0 28 -1q23 0 33 -10.5t12 -23.5v-147h8h-8v-206q-1 -8 -7 -16.5t-22 -9.5h-29h-28l-16 -93h102l56 -1v-130h78v129q33 -1 63 -1v-128h78v130q101 4 163.5 39t72.5 126q6 73 -25 111t-88 51q35 17 53.5 49t14.5 83q-9 68 -61 97.5 t-130 34.5v129h-78v-125q-31 0 -63 -1v126h-78zM471 630q48 2 94 -12.5t50 -67.5q-8 -63 -75.5 -72t-108.5 -6v157zM479 394q57 2 112.5 -13.5t59.5 -73.5q-9 -69 -90 -79.5t-130 -6.5v172z" />
<glyph unicode="&#xf099;" d="M495 786q-89 -1 -167 -44t-115 -126q-11 -24 -15 -50q-28 29 -66 30q-45 -1 -74.5 -39.5t-30.5 -96.5q1 -59 30.5 -97.5t74.5 -39.5q18 0 35 8q-14 -35 -14 -72.5t16 -72.5q35 -77 107 -120t154 -54q98 -14 195 11.5t166 98.5q39 43 51 99t-8 109q16 -7 34 -7 q45 1 74.5 39.5t30.5 97.5q-1 58 -30.5 96.5t-74.5 39.5q-38 -1 -66 -31q-6 36 -22 68t-42 59q-47 47 -109.5 70.5t-128.5 23.5h-5zM622 681q18 0 36 -6q59 -20 85.5 -76.5t17.5 -116.5q-2 -31 -17 -59t17 -46q47 -49 44.5 -116.5t-46.5 -117.5q-57 -58 -135.5 -78.5 t-158.5 -14.5q-73 4 -141.5 34.5t-107.5 95.5q-27 50 -20.5 107.5t50.5 95.5q26 17 9 44t-16 55q-9 60 17.5 116.5t86.5 77.5q14 4 29 5q42 1 76 -23t52 -61q17 36 49.5 59.5t72.5 24.5zM416 502q-18 -1 -30 -16t-12 -37t12 -37t30 -15t29.5 15t11.5 37t-11.5 37t-29.5 16z M584 502q-18 -1 -29.5 -16t-11.5 -37t11.5 -37t29.5 -15t30 15t12 37t-12 37t-30 16zM721 353q-2 -1 -4 -1q-100 -37 -217 -37t-217 37q-3 1 -5 0q-8 -1 -9 -9t6 -11q104 -39 224.5 -39t224.5 39q8 3 6.5 11.5t-9.5 9.5z" />
</font>
</defs>
</svg>
