<?xml version="1.0" standalone="no"?>
<!DOCTYPE svg PUBLIC "-//W3C//DTD SVG 1.1//EN" "http://www.w3.org/Graphics/SVG/1.1/DTD/svg11.dtd" >
<svg xmlns="http://www.w3.org/2000/svg">
<metadata></metadata>
<defs>
<font id="openweb_iconsregular" horiz-adv-x="1024" >
<font-face units-per-em="1024" ascent="819" descent="-205" />
<missing-glyph horiz-adv-x="500" />
<glyph unicode="&#xd;" />
<glyph unicode="&#xe000;" horiz-adv-x="500" d="M0 0v0v0v0v0z" />
<glyph unicode="&#xf000;" d="M820 800q-1 -4 -3.5 -11t-12 -25t-22.5 -32.5t-36.5 -29t-51 -20t-69 1t-89.5 27.5q-30 14 -33 16l-334 -137l335 -164q26 11 67 32q58 27 104.5 72.5t72 90.5t43 86.5t23.5 66.5zM503 727h1h-1zM153 517v-348l312 -169v358zM847 517l-312 -159v-358l312 169v348z" />
<glyph unicode="&#xf001;" d="M271 799q-71 0 -121 -50t-50 -120v-459q0 -71 50 -121t121 -50h458q71 0 121 50t50 121v459q0 70 -50 120t-121 50h-458zM501.5 464q29.5 0 50.5 -21t21 -50.5t-21 -50.5t-50.5 -21t-50.5 21t-21 50.5t21 50.5t50.5 21z" />
<glyph unicode="&#xf002;" d="M272 798q-72 0 -122 -50.5t-50 -121.5v-456q0 -72 50 -122t122 -50h456q72 0 122 50t50 122v456q0 71 -50 121.5t-122 50.5h-456zM414 735q64 0 117 -30h1v0q60 -32 95.5 -91.5t34.5 -127.5v0v-1q1 -68 -35 -128l211 -210l-87 -87l-210 210q-31 -18 -65 -27h-1h-1 q-90 -24 -177 21q-63 32 -98 91v1h-1q-44 71 -34.5 156.5t67.5 144.5q0 1 0.5 1h0.5q35 38 83 57.5t99 19.5zM414 660q-78 0 -128 -53v-1h-1q-39 -40 -45.5 -101.5t22.5 -109.5h1v-1q24 -41 69 -64q61 -31 124 -14h1q55 13 93.5 62.5t37.5 106.5v1q0 46 -25.5 88.5 t-66.5 64.5l-1 1q-36 20 -81 20z" />
<glyph unicode="&#xf003;" d="M271 798q-71 0 -121 -50t-50 -121v-459q0 -70 50 -120t121 -50h458q71 0 121 50t50 120v459q0 71 -50 121t-121 50h-458zM501.5 688q120.5 0 205.5 -85.5t85 -205.5t-85 -205.5t-205.5 -85.5t-205.5 85.5t-85 205.5t85 205.5t205.5 85.5zM502 600q-84 0 -144 -59.5 t-60 -143.5t60 -143.5t144 -59.5t143.5 59.5t59.5 143.5t-59.5 143.5t-143.5 59.5zM501.5 462q29.5 0 50.5 -21t21 -50.5t-21 -50.5t-50.5 -21t-50.5 21t-21 50.5t21 50.5t50.5 21z" />
<glyph unicode="&#xf004;" d="M164 786q-22 0 -37 -15t-15 -36v-673q0 -21 15 -36t37 -15h672q22 0 37 15t15 36v673q0 21 -15 36t-37 15h-672zM482.5 703q119.5 0 204.5 -85t85 -204v-290l-289 1q-120 0 -204.5 84.5t-84.5 204t84.5 204.5t204 85zM482.5 576q-67.5 0 -115 -47.5t-47.5 -115t47.5 -115 t115 -47.5t115 47.5t47.5 115t-47.5 115t-115 47.5z" />
<glyph unicode="&#xf005;" d="M500 797q-109 0 -201 -53.5t-145.5 -145.5t-53.5 -201t53.5 -201t145.5 -145t201 -53l400 -1v400q0 109 -53.5 201t-145.5 145.5t-201 53.5zM500 621q93 0 159 -65.5t66 -158.5t-66 -159t-159 -66t-159 66t-66 159t66 158.5t159 65.5z" />
<glyph unicode="&#xf006;" d="M271 798q-71 0 -121 -50t-50 -121v-458q0 -71 50 -121t121 -50h458q71 0 121 50t50 121v458q0 71 -50 121t-121 50h-458zM672 673q40 0 68.5 -28t28.5 -68t-28.5 -68.5t-68.5 -28.5q-35 0 -62 23l-186 -95v-8q0 -8 -1 -15l184 -94q28 25 65 25q40 0 68.5 -28.5 t28.5 -68.5t-28.5 -68t-68.5 -28t-68 28t-28 68v6l-191 97q-25 -19 -57 -19q-40 0 -68.5 28.5t-28.5 68.5t28.5 68t68.5 28q35 0 62 -23l186 95v9q0 40 28 68t68 28z" />
<glyph unicode="&#xf007;" d="M750.5 798q-58.5 0 -99.5 -41t-41 -100q0 -6 1 -12l-271 -138q-39 33 -91 33q-58 0 -99 -41t-41 -99t41 -99t99 -41q47 0 84 27l277 -141v-8q0 -58 41 -99t99.5 -41t99.5 41t41 99t-41 99t-99 41q-55 0 -95 -36l-268 136q2 11 2 22q0 6 -1 12l271 138q39 -33 91 -33 q58 0 99 41t41 99.5t-41 99.5t-99.5 41z" />
<glyph unicode="&#xf008;" d="M504 796q-16 0 -33 -1q-71 -5 -130 -31q-38 -17 -77 -44q-91 -65 -133 -171q-16 -39 -17 -45q-26 -92 -4 -191.5t78 -166t143 -112.5q72 -39 171 -38t178 41q90 46 152 139q67 100 67 224q0 111 -67 216q-51 81 -133.5 130.5t-194.5 49.5zM470 606h54q16 0 29 -9.5 t18 -24.5l106 -320q7 -20 -2.5 -38.5t-28.5 -24.5q-8 -2 -16 -2q-16 0 -29 9t-18 25l-23 73h-120l-23 -73q-5 -15 -18 -24.5t-29 -9.5q-8 0 -15 2q-20 6 -29.5 24t-3.5 38l101 320q5 16 18 25.5t29 9.5z" />
<glyph unicode="&#xf009;" d="M272 798q-72 0 -122 -50t-50 -122v-456q0 -72 50 -122t122 -50h456q72 0 122 50t50 122v456q0 72 -50 122t-122 50h-456zM238 679q111 0 212 -43t174.5 -116.5t116.5 -174.5t43 -213h-109q0 89 -34.5 170t-93.5 140t-140 93.5t-169 34.5v109zM238 495q98 0 181.5 -48.5 t132 -132t48.5 -182.5h-106q0 106 -75 181.5t-181 75.5v106zM312.5 282q31.5 0 53.5 -22t22 -53t-22 -53t-53.5 -22t-53 22t-21.5 53t21.5 53t53 22z" />
<glyph unicode="&#xf00a;" d="M100 798v-160q130 0 248.5 -51t204.5 -136.5t136.5 -204t50.5 -248.5h160q0 162 -63.5 310.5t-170.5 255.5t-255 170.5t-311 63.5zM100 528v-156q102 0 188 -50t136.5 -136.5t50.5 -187.5h155q0 107 -42 205.5t-113 169.5t-169 113t-206 42zM209.5 217q-45.5 0 -77.5 -32 t-32 -77.5t32 -77.5t77.5 -32t77.5 32t32 77.5t-32 77.5t-77.5 32z" />
<glyph unicode="&#xf00b;" d="M256 798q-64 0 -110 -46t-46 -110v-488q0 -64 46 -110t110 -46h488q64 0 110 46t46 110v488q0 64 -46 110t-110 46h-488zM623 712q15 0 26 -10v-1h1l149 -150q12 -11 12 -27q0 -15 -11 -26t-27 -11t-27 11l-17 17l-116 -115q14 -42 4 -86.5t-43 -76.5l-238 239 q32 32 76.5 42t85.5 -3l116 115l-18 18v1q-11 11 -11 25q0 16 11 27t27 11zM188 412q116 1 203 -72l-129 -130l-1 -1q-10 -11 -10 -25q0 -16 11 -27t26 -11t26 10l1 1l128 128q71 -97 59 -217h-209q-50 0 -84.5 35t-34.5 84v225h14z" />
<glyph unicode="&#xf00c;" d="M605 797q-12 0 -20.5 -8.5t-8.5 -20.5v-271q0 -12 8.5 -20.5t20.5 -8.5h277q12 0 20.5 8.5t8.5 20.5v271q0 12 -8.5 20.5t-20.5 8.5h-277zM428 767q-42 -1 -70.5 -30.5t-28.5 -70.5v-318q0 -42 29.5 -71.5t71.5 -29.5h318q42 0 71.5 29.5t29.5 71.5v77h-244q-30 0 -51 21 t-21 51v270h-103h-2zM212 662q-51 0 -87 -36t-36 -86v-420q0 -51 36 -87t87 -36h421q51 0 87 36t36 87v84h-8h-318q-60 0 -102 42t-42 102v314h-74z" />
<glyph unicode="&#xf00d;" d="M585 738l-121 -60v-605v-1q-105 14 -174 65.5t-69 118.5q0 64 62 114t159 66v77q-147 -18 -244.5 -90t-97.5 -167q0 -98 104 -172t260 -87l121 57v684zM606 513v-77q71 -12 125 -43l-65 -37l234 -51l-17 173l-62 -35q-91 55 -215 70z" />
<glyph unicode="&#xf00e;" d="M271 797q-71 0 -121 -50t-50 -121v-459q0 -70 50 -120t121 -50h458q71 0 121 50t50 120v459q0 71 -50 121t-121 50h-458zM500 636q72 0 132 -39q18 -12 18 -33q0 -16 -11 -27.5t-27 -11.5q-12 0 -22 7q-41 27 -90 27q-57 0 -100.5 -34.5t-56.5 -88.5q-1 -3 -1 -4 q-4 -11 -14 -18.5t-23 -8.5h-129v77h100q26 69 87 111.5t137 42.5zM500 490q38 0 65 -27t27 -65t-27 -65t-65 -27t-65.5 27t-27.5 65t27.5 65t65.5 27zM695 390h129v-77h-101q-26 -68 -87 -111t-136 -43q-72 0 -132 40q-17 12 -17 32q0 16 11 27.5t27 11.5q12 0 22 -7 q40 -27 89 -27q56 0 100 35t57 88v1q1 2 1 3q3 11 13.5 19t23.5 8z" />
<glyph unicode="&#xf00f;" d="M500 732q-117 0 -211 -65.5t-134 -171.5h-155v-119h200q19 1 34.5 12.5t21.5 28.5q0 4 1 7q20 82 88 136t155 54q77 0 140 -43q15 -10 33 -10q24 0 41.5 17.5t17.5 42.5q0 33 -29 50q-92 61 -203 61zM500 507q-59 0 -101 -42t-42 -101t42 -100.5t101 -41.5t101 41.5 t42 100.5t-42 101t-101 42zM801 353q-20 0 -36 -12.5t-21 -29.5q0 -1 -1 -5v-1q-20 -82 -88 -136t-155 -54q-75 0 -137 41q-15 10 -34 10q-24 0 -41.5 -17t-17.5 -42q0 -32 26 -49q93 -62 204 -62q117 0 211 66t134 172h155v119h-199z" />
<glyph unicode="&#xf010;" d="M251 798h-4h-8q-1 0 -3 -1h-4t-4 -1q-4 0 -7 -1q-2 0 -4 -1q-2 0 -5 -1l-6 -2q-1 0 -3 -1q-2 0 -4 -1q-3 -1 -6.5 -2.5t-6.5 -3.5q-1 0 -1.5 -0.5l-0.5 -0.5h-0.5h-1.5l-6 -4l-6 -4q-2 -1 -3 -2q-3 -1 -5 -3t-3 -2q-2 -1 -4 -3q-13 -11 -23 -24q-2 -3 -4 -5q-4 -7 -8 -13 q-1 -2 -2 -3q-2 -3 -3 -6l-2 -4q-1 -3 -3 -7q-2 -5 -3 -10l-4 -14q-2 -12 -3 -23v-8v-498v-8q0 -5 1 -11q1 -4 1 -8q1 -5 3 -11q2 -9 5 -17q2 -3 3 -7q1 -2 2 -3q1 -3 3 -7q9 -16 21 -29l3 -3q7 -8 16 -15l6 -4q7 -5 15 -10q2 -1 3 -1q2 -1 3 -2h1l10 -4q1 -1 3 -2q2 0 4 -1 q3 -1 7 -2q1 -1 3 -1l8 -2q2 0 3 -1q4 0 8 -1q6 0 11 -1h8h498h8q5 1 11 1q4 1 8 1q1 1 3 1l8 2q9 2 17 6q6 2 10 4q12 6 22 13l6 4q9 7 16 15l3 3q13 14 22 32q2 4 4 7q1 4 3 7q3 8 5 17q1 4 2 7.5t1 7.5q1 2 1 4q1 9 1 19v498v4q0 10 -2 19q0 4 -1 8l-4 14q-2 9 -6 17 l-2 4q-2 4 -5 9l-8 12v1q-2 2 -4 5q-10 13 -23 24q-2 2 -5.5 4t-6.5 4q-1 1 -3 2l-6 4l-6 4q-4 1 -7 3q-8 4 -17 6q-3 1 -7 2t-7.5 2t-7.5 1q-6 1 -11 2h-8h-4h-498zM393 644q12 0 24 -1.5t20.5 -3t22 -5.5t18 -5.5t19 -7t16.5 -5.5q35 -13 54 -17.5t51.5 -2t69.5 18.5 q18 8 36.5 4t25.5 -21q7 -18 0 -36t-25 -26q-64 -27 -122 -27q-17 0 -35 4t-30 8.5t-29.5 11.5t-25.5 10q-26 9 -39.5 13t-35 5.5t-43.5 -5t-49 -21.5q-17 -10 -36 -7.5t-28 18.5q-9 17 -3.5 35.5t22.5 28.5q63 34 122 34zM387 464h3q11 0 23.5 -1.5t20.5 -3t21 -5.5 t18 -5.5t19 -6.5t17 -6q35 -13 54.5 -17.5t53.5 -1.5t73 20q17 9 35.5 5t26.5 -20q7 -18 0 -36t-24 -26q-68 -30 -129 -30q-17 0 -35.5 3.5t-30 8t-29.5 12t-26 9.5q-34 13 -51.5 17t-48 -0.5t-65.5 -22.5q-16 -10 -35 -7.5t-28 18.5q-9 17 -3.5 35.5t22.5 27.5 q61 33 118 33zM384 286q11 0 23 -1.5t20.5 -3t21.5 -5.5t18 -6t18.5 -7t16.5 -6q28 -10 42.5 -14t38.5 -6.5t49.5 4t56.5 20.5q17 9 35.5 5.5t26.5 -19.5q8 -18 1.5 -35.5t-23.5 -25.5q-73 -34 -137 -34q-17 0 -35 4t-30 8.5t-29.5 11.5t-25.5 10q-32 12 -49.5 16t-47 0.5 t-63.5 -20.5q-17 -9 -35.5 -6.5t-27.5 19.5q-8 17 -2 35t23 27q56 28 109 29h5z" />
<glyph unicode="&#xf011;" d="M455 798q-22 0 -40 -8q-54 -21 -55 -86q-1 -52 36 -107l1 -1q-22 46 -13 85t45 54q42 16 97 -9t90 -78q27 -40 30.5 -80t-16.5 -64q38 25 39.5 77.5t-36.5 108.5q-33 49 -82.5 78.5t-95.5 29.5zM505 656q-19 0 -34 -12q-17 -12 -23 -31.5t1 -38.5l-104 -76q7 -6 12 -13 t8 -15l104 76q16 -13 36.5 -13t37.5 12q21 15 25 40t-11 46q-19 25 -49 25h-1.5h-1.5zM820 643q-23 0 -47 -12q-47 -24 -78 -83q30 41 68.5 51t68.5 -15q34 -29 37.5 -89.5t-26.5 -116.5q-14 -25 -32 -44q1 -1 1 -2q10 -8 18 -19q34 25 57 69q35 65 31.5 135.5t-43.5 104.5 q-24 21 -55 21zM298 608q-49 0 -100 -32q-63 -38 -95.5 -100.5t-15.5 -112.5q18 -55 83 -59q53 -3 109 31l1 1q-47 -20 -85.5 -9.5t-51.5 47.5q-14 43 13.5 96.5t81.5 86.5q42 25 82 27t63 -20q-24 43 -82 44h-3zM525 512q-17 -4 -34 0v-87q-10 -3 -19 -9q-21 -15 -25 -40 t11 -46q12 -17 32 -23t38 1l67 -92q-8 -9 -11 -21q-1 -3 -1 -4v-1.5v-0.5q0 -1 -0.5 -1t-0.5 -0.5v-0.5v-1v-1.5v-1.5v-1v-1v-1v-4v-1v-2v-1v-1v-1q0 -1 1 -1v-2v-1v-1v0q0 -1 1 -2v-1v-1v-1q3 -9 9 -18q15 -20 40.5 -24t46 11t24.5 40t-11 46q-18 25 -49 25q-11 0 -21 -3 l-67 91q13 16 13.5 36.5t-11.5 37.5q-13 17 -33 23v87zM725 498q-19 -1 -35 -12q-26 -19 -25 -51l-84 -27q9 -16 11 -33l52 17l32 8q15 -21 40.5 -25t46 11t24.5 40.5t-11 45.5q-18 25 -49 26h-2zM287 497q-19 -1 -35 -12q-21 -15 -25 -40t11 -46t40.5 -25t46 11t24.5 40 t-11 46q-18 25 -49 26h-2zM728 335q-7 -1 -15 -1q-52 -7 -101 -52v0q41 28 81.5 25t59.5 -37q22 -39 5 -97t-64 -101q-36 -32 -75 -41.5t-66 7.5q30 -35 82.5 -28.5t102.5 51.5q54 50 74 117t-6 113q-24 44 -78 44zM445 309l-38 -54q16 -7 28 -20l39 54q-17 7 -29 20z M266 290h-5q-10 -1 -19 -2q-30 -5 -50.5 -22.5t-27.5 -44.5q-12 -51 26.5 -110t105.5 -91q60 -29 112 -20.5t71 50.5q-22 -24 -61 -26t-84 19q-57 27 -90 78t-22 95q8 37 46 51.5t86 -0.5q0 1 -1 1q-45 21 -87 22zM371 239q-19 0 -34 -11q-21 -15 -25 -40.5t11 -46t40 -24.5 t46 11q17 12 23 32h124h5l-2 22q0 6 1 13h-128q-3 10 -9 19l-2 2l-1 1v1l-2 2q-1 0 -1 1l-1.5 1.5l-1 1t-1 0.5t-1.5 1l-2 2q-1 1 -2 1l-1 1h-1q0 1 -2 2q-1 0 -1 1q-2 0 -2.5 0.5l-1.5 1.5q-3 1 -4 1q-1 1 -2 1q-10 3 -19 3h-1.5h-1.5z" />
<glyph unicode="&#xf012;" d="M635 783q-8 0 -68 -29.5t-97 -53.5q-27 -19 -37.5 -20t-45.5 12q-46 17 -52 13.5t-6 -27t-11 -75.5t-46.5 -129t-44 -103t-5 -77.5t25 -94.5t56.5 -77.5t66 -56t77 -45t54 -23.5t58.5 26t91 58t67 66.5t37 55t19 66t0 93.5t-44.5 125.5t-56.5 142t-25.5 109.5 q-2 26 -7 38q3 1 4 3q-1 0 -5 -1q-2 4 -4 4z" />
<glyph unicode="&#xf013;" d="M520 798q-93 -2 -175 -43q-65 -33 -115.5 -88.5t-76.5 -123.5q56 16 110 -11q30 57 76 94q76 63 174 66q55 3 108.5 -16t95.5 -55q71 -60 94 -154q26 -7 42 -30t12 -48q-3 -22 -17.5 -38.5t-35.5 -21.5q-15 -50 -32 -78q-31 -55 -83.5 -93t-114.5 -50q-85 -17 -167 16 q-49 20 -88.5 56t-63.5 83q-52 -27 -110 -11q32 -83 98.5 -145.5t150.5 -89.5q67 -22 139.5 -19t137.5 30t117.5 76t84.5 112q62 120 37 255q-24 130 -122 220q-87 82 -204 101q-35 6 -72 6zM192 516q-13 -1 -27 -3q-51 -12 -76 -59q-18 -31 -12 -79q5 -26 21.5 -48.5 t40.5 -34.5q36 -19 78.5 -10t67.5 42q35 42 23 100q-6 28 -25.5 51t-46.5 33q-21 8 -44 8zM451 478q-11 0 -22 -3q-21 -6 -37 -23t-20 -38q-10 -40 17 -73q28 -33 70 -29q37 1 60.5 32.5t14.5 66.5q-4 29 -29 48.5t-54 18.5zM640 461q-7 0 -16 -1q-21 -6 -35.5 -24 t-14.5 -41q0 -21 13.5 -40t34.5 -25q31 -9 57 9q30 20 29 56q0 20 -11.5 37.5t-30.5 24.5q-11 5 -26 4zM794 439q-8 0 -15 -2q-12 -4 -22 -18q-10 -15 -6 -34t19 -28q14 -9 31 -6.5t27 15.5q12 13 10.5 32.5t-15.5 30.5q-11 10 -29 10zM871 54l-13 -53h8l6 25q1 2 1 4v3 q1 -1 2 -3q0 -1 1 -3l15 -27l14 26l2 4q0 1 1 3v-1v-2q1 -3 1 -4l6 -25h9l-14 53l-16 -32q0 -1 -1 -1q-2 -4 -2 -6q-1 2 -2 5q-1 1 -1 2zM814 52v-7h15v-44h9v44h15v7h-39z" />
<glyph unicode="&#xf014;" d="M198 595q-29 0 -29 -29v-136h-140q-29 0 -29 -29v-21q0 -29 29 -29h140v-135q0 -9 6.5 -15.5t15.5 -6.5h107q3 0 7.5 3.5t4.5 9.5v49h-54q-12 0 -16 6t-4 19v227q0 13 4 19t16 6h54v50q0 5 -4.5 8.5t-7.5 3.5h-91h-9zM702 595q-3 0 -7.5 -3.5t-4.5 -8.5v-50h54 q12 0 16 -6t4 -19v-227q0 -13 -4 -19t-16 -6h-54v-49q0 -6 4.5 -9.5t7.5 -3.5h107q9 0 15.5 6.5t6.5 15.5v135h140q29 0 29 29v21q0 29 -29 29h-140v136q0 29 -29 29h-9h-91zM280 500q-5 0 -8 -3.5t-3 -8.5v-191q0 -5 3 -8.5t8 -3.5h220v54l-54 54l54 53v54h-220zM533 500 v-54l-54 -53l54 -54v-54h187q5 0 8 3.5t3 8.5v191q0 5 -3 8.5t-8 3.5h-187zM382.5 430q14.5 0 24.5 -10.5t10 -25t-10 -24.5t-24.5 -10t-25 10t-10.5 24.5t10.5 25t25 10.5zM617.5 430q14.5 0 25 -10.5t10.5 -25t-10.5 -24.5t-25 -10t-24.5 10t-10 24.5t10 25t24.5 10.5z " />
<glyph unicode="&#xf015;" d="M0 733q3 -116 63.5 -236.5t158 -219.5t217.5 -169q-86 -67 -181 -91v-5h-1v-9q42 5 83 16q1 0 2.5 0.5t2.5 0.5q77 18 155 55q27 -14 51 -24q99 -45 204 -54v10v5q-101 25 -190 97q119 69 215.5 167.5t156.5 219t63 237.5l-130 -50l-2 -1l-43 -14h-1l-129 -39 q1 -12 1 -22q0 -109 -52 -229t-141 -212q-86 92 -136.5 210t-50.5 225q0 13 1 23l-130 38h-1l-41 15l-2 1z" />
<glyph unicode="&#xf016;" d="M148 798l64 -720l288 -80l288 79l64 721h-704zM279 650h221h221l-8 -88h-213h-125l8 -90h117h205l-24 -271l-181 -51l-181 51l-13 141h89l7 -73l98 -27l98 27l11 114h-109h-197z" />
<glyph unicode="&#xf017;" d="M190 798l-30 -149h604l-19 -96h-604l-30 -148h604l-33 -169l-244 -81l-211 81l15 73h-149l-35 -178l349 -133l402 133l53 268l11 54l69 345h-752z" />
<glyph unicode="&#xf018;" d="M-33 798l132 -132h1h273l96 -97l-141 -141l-97 96v75h-132v-130l229 -229l-93 -93l149 -149h226h423l-132 131h-193h-269l-110 111l47 46l91 -91h188l-185 185l47 48l185 -185v187l-91 91l46 47l-229 230h-226h-235zM752 662l-94 -93l110 -110v-263h133v317z" />
<glyph unicode="&#xf019;" d="M500 797l-400 -202v-133l400 202l400 -202v133zM500 565l-400 -202v-133l400 202l400 -202v133zM500 333l-400 -202v-133l400 202l400 -202v133z" />
<glyph unicode="&#xf020;" d="M498.5 779.5q-2.5 -0.5 -161.5 -92.5l-159 -92l-17 10q-25 14 -29.5 19.5t-4.5 23.5q-1 22 -11 36q-20 26 -52.5 26t-51.5 -25q-15 -20 -11.5 -47t23.5 -42q12 -10 33 -12t34 5q9 4 14 2.5t27 -13.5l29 -17v-184v-185l170 -97l169 -98l11 6q75 44 191.5 110.5t119.5 66.5 q4 0 28 -14l23 -13v-20q0 -27 15 -44.5t41 -21.5q32 -4 54.5 22t14.5 57q-8 30 -35.5 43t-54.5 0q-8 -4 -13.5 -2.5t-26.5 12.5l-28 16v185v185l-170 98q-169 97 -171.5 96.5zM480 710v-96v-96h-8q-91 6 -91 14q0 4 12 33t20 45q7 16 27 46t31 43zM526 700q4 0 27 -33 q20 -29 45 -81t20 -56q-1 -2 -22.5 -5t-48.5 -5l-26 -3v95v17q0 71 5 71zM590 684l25 -15q159 -89 159 -93q0 -3 -32 -14q-81 -30 -84 -21q-28 79 -56 123zM407 680q0 -1 -9 -15q-28 -45 -48 -101q-3 -7 -5.5 -13.5t-4 -10.5l-1.5 -4l-30 9q-27 8 -54.5 18t-27.5 12.5 t90 54.5q85 49 90 50zM65 670.5q17 -0.5 22 -15.5q4 -8 -0.5 -19t-12.5 -13q-22 -9 -33 12q-5 11 -1 21q8 15 25 14.5zM201 540q4 0 31.5 -11t61.5 -21t35 -10.5t-3 -29.5t-6 -45l-2 -16h-58q-58 0 -60 3q-3 3 -2.5 66.5t3.5 63.5zM795 539q3 0 4 -11t1 -54v-67h-59 q-58 0 -60.5 2.5t-2.5 19.5t-4 43l-5 26l18 5q19 5 59 19q41 15 47 16q1 1 2 1zM630 490l4 -24q4 -24 5 -40l1 -17l-38 -1l-37 -1l-6 11q-4 8 -17 20.5t-18 12.5q-3 0 -3 15v15h24q25 0 55 5zM375 487q9 0 31 -2q32 -4 53 -4h21v-14q0 -9 -2.5 -13t-11.5 -9q-14 -9 -22 -23 l-8 -15h-39h-39l3 25q5 49 10 55h4zM500 415q9 0 16 -5.5t9 -13.5q1 -8 -3 -17t-11 -12q-9 -4 -12 -3q-15 2 -21 15t0.5 24.5t21.5 11.5zM318 371l2 -16q2 -16 6 -45q3 -22 1 -28.5t-11 -6.5q-5 0 -42.5 -12t-56.5 -20l-20 -8l1 67l1 67l60 1zM800 371v-68q0 -28 -0.5 -48 l-0.5 -20q-1 0 -11 5q-8 5 -46 18t-56 17l-16 4l3 21q3 21 5 45l2 24l60 1zM383 371h6h8h39l8 -13q8 -13 22 -23q9 -6 11.5 -10t2.5 -13v-14l-39 -2q-40 -3 -55 -6q-14 -2 -16.5 2t-6.5 36q-5 31 -3 37t23 6zM565 371h36q37 0 38.5 -3t-2 -32t-6.5 -39l-2 -9l-31 4 q-32 5 -54 5h-23v14q0 10 2 14t12 10q14 10 22 23zM480 260v-95q0 -95 -1 -95q-4 0 -28.5 36t-35.5 59q-15 28 -25 54.5t-8 28.5q5 5 75 10zM521 260l23 -2q70 -5 75 -10q2 -2 -14.5 -40.5t-28.5 -60.5q-19 -31 -37 -55l-18 -24v96v96zM340 242l8 -25q17 -50 44 -94 q15 -25 14 -26t-89.5 50.5t-89 54t27.5 13t59 19.5zM663 240q4 0 22 -5q24 -7 56.5 -19t32.5 -14t-23 -16q-31 -17 -90 -52q-18 -10 -33.5 -18.5t-24.5 -13l-9 -4.5q0 3 8 14q12 18 29.5 57t26.5 67q1 4 5 4zM935 158q16 0 23 -16.5t-4.5 -28t-27.5 -5t-16 22.5 q0 8 8.5 17.5t16.5 9.5z" />
<glyph unicode="&#xf021;" d="M500 797q-19 0 -32 -13l-355 -354q-13 -14 -13 -33t13 -32l355 -354q13 -14 32 -14t32 14l355 354q13 13 13 32t-13 33l-52 51l-335 -335l-251 251l251 252l84 -84l-168 -168l84 -83l251 251l-219 219q-13 13 -32 13z" />
<glyph unicode="&#xf022;" d="M100 798v-54v-53v-53v-54v-53v-53v-54h53h54h53h53h54h53h53v54v53v53v54v53v53v54h-53h-53h-54h-53h-53h-54h-53zM527 798v-54v-53v-53v-54v-53v-53v-54h53h53h54h53h53h54h53v54v53v53v54v53v53v54h-53h-54h-53h-53h-54h-53h-53zM153 744h54h53h53h54h53v-53v-53v-54 v-53v-53h-53h-54h-53h-53h-54v53v53v54v53v53zM580 744h53h54h53h53h54v-53v-53v-54v-53v-53h-54h-53h-53h-54h-53v53v53v54v53v53zM207 691v-53v-54v-53h53h53h54v53v54v53h-54h-53h-53zM633 691v-53v-54v-53h54h53h53v53v54v53h-53h-53h-54zM100 371v-53v-54v-53v-53v-54 v-53v-53h53h54h53h53h54h53h53v53v53v54v53v53v54v53h-53h-53h-54h-53h-53h-54h-53zM687 371v-53v-54h53h53v54h-53v53h-53zM687 264h-54h-53h-53v-53v-53h53v-54h-53v-53h53v-53h53h54v53v53v54h-54v53h54v53zM153 318h54h53h53h54h53v-54v-53v-53v-54v-53h-53h-54h-53h-53 h-54v53v54v53v53v54zM207 264v-53v-53v-54h53h53h54v54v53v53h-54h-53h-53zM847 264v-53h-54v-53v-54v-53h-53v-53h53h54v53h53v53v54v53v53h-53z" />
<glyph unicode="&#xf023;" d="M315 835q-118 0 -201.5 -83.5t-83.5 -201.5q0 -115 80 -197.5t194 -86.5q20 -99 98.5 -164t181.5 -65q118 0 201 83t83 201q0 116 -79.5 198.5t-194.5 86.5q-20 99 -98 164t-181 65zM315 785q97 0 165.5 -69t68.5 -166t-68.5 -165.5t-165.5 -68.5t-166 68.5t-69 165.5 t69 166t166 69zM227 636q-24 0 -40.5 -17t-16.5 -40.5t16.5 -40.5t40.5 -17t40.5 17t16.5 40.5t-16.5 40.5t-40.5 17zM401.5 636q-23.5 0 -40.5 -17t-17 -40.5t17 -40.5t40.5 -17t40.5 17t17 40.5t-17 40.5t-40.5 17zM599 555q92 -6 155.5 -73.5t63.5 -160.5 q0 -97 -68.5 -165.5t-165.5 -68.5q-83 0 -146.5 51.5t-82.5 130.5q56 8 104 36q16 -13 37 -13q24 0 40.5 17t16.5 40q0 18 -9 32q55 76 55 169v5zM670.5 406q-23.5 0 -40.5 -16.5t-17 -40t17 -40.5t40.5 -17t40.5 17t17 40.5t-17 40t-40.5 16.5z" />
<glyph unicode="&#xf024;" d="M121 732q-50 0 -85.5 -33.5t-35.5 -80.5v-437q0 -47 35.5 -80.5t85.5 -33.5h758q50 0 85.5 33.5t35.5 80.5v437q0 47 -35.5 80.5t-85.5 33.5h-758zM120 632h760q6 0 11 -4.5t5 -10.5v-436q0 -6 -5 -10.5t-11 -4.5h-461q-7 0 -11.5 4.5t-4.5 10.5v178q0 38 -28.5 66.5 t-68.5 28.5h-48q-17 0 -29 -13t-12 -29t12 -27t29 -11h48q7 0 11.5 -4.5t4.5 -10.5v-178q0 -6 -4.5 -10.5t-11.5 -4.5h-186q-7 0 -11.5 4.5t-4.5 10.5v436q0 6 4.5 10.5t11.5 4.5zM352.5 590q-22.5 0 -38.5 -15t-16 -37q0 -21 16 -38t38.5 -17t38.5 17t16 38q0 22 -16 37 t-38.5 15z" />
<glyph unicode="&#xf025;" d="M37 765q-16 0 -26.5 -11t-10.5 -26v-694q0 -15 10.5 -25.5t26.5 -10.5h623q4 0 11 11v-11l329 383l-329 384v-12q-8 12 -11 12h-623zM110 649h137v-524h-137v524zM347 649h185q79 0 125 -33q86 -59 86 -220q0 -137 -60 -208q-52 -63 -146 -63h-190v524zM482 538v-301h45 q16 0 26.5 5.5t21 21.5t15.5 50t5 87q0 44 -5.5 72.5t-16 42t-22 18t-28.5 4.5h-41z" />
<glyph unicode="&#xf026;" d="M500 920l8 -437l392 206zM500 920l-400 -231l392 -206zM100 689v-462l374 226zM100 227l400 -231l-18 442zM500 -4l400 231l-383 211zM900 227v462l-374 -236z" />
<glyph unicode="&#xf027;" d="M37 764q-16 0 -26.5 -10.5t-10.5 -26.5v-694q0 -15 10.5 -25.5t26.5 -10.5h634l329 383l-329 384h-634zM410.5 629q41.5 0 70.5 -32t32 -84q8 -13 8 -26q0 -21 -17 -38q-13 -45 -42 -70v-33q0 -1 1 -1q10 -6 36 -13t54 -18q26 -10 42 -48.5t19.5 -64t3.5 -33.5 q-53 -7 -207 -7q-69 0 -121 1.5t-69 3.5l-18 2q1 5 1.5 13.5t5 31t11 41t19 36.5t28.5 24q29 11 54.5 18t35.5 13q1 0 2 1v33q-29 25 -43 70q-16 17 -16 38q0 13 8 26q2 52 31 84t70.5 32z" />
<glyph unicode="&#xf028;" d="M242 798q-54 -9 -93.5 -49t-48.5 -94v-515q9 -53 48 -92t91 -49q2 -1 4 -1h515q1 0 3 1q53 10 91.5 49.5t47.5 92.5v515q-9 53 -49 93t-94 49h-515zM802 699v-37v-39q-106 -1 -284 0v75q48 0 142.5 0.5t141.5 0.5zM481 698q1 -25 1 -75h-137.5h-144.5v75h281zM660 586 h142v-76h-284v76h142zM482 586v-76h-282v24.5v27.5v23q31 0 129.5 0.5t152.5 0.5zM554 474l248 -1q0 -51 -1 -76q-31 0 -283 -1v39v39h36zM482 474v-25v-29v-24h-282v77h89h104t89 1zM518 359h141.5h141.5v-75h-283v75zM311 324q55 0 88 -40q34 -38 24 -93.5t-56 -78.5 q-43 -25 -94.5 -6t-66.5 67q-18 45 6 91t71 56q14 4 28 4z" />
<glyph unicode="&#xf029;" d="M922 704q-1 1 -3 0h-3h-7h-836v0q-37 1 -59 -31q-17 -26 -13 -57v-230v-230v-1q2 -37 35 -55q25 -14 55 -10v-1h421t421 1h1q37 2 55 35q14 24 10 55h1v228.5t-1 228.5v1v1q-2 36 -35 55q-19 10 -42 10zM918 657h2q12 0 20 -5q10 -6 11 -16q1 -89 1 -228v-228v-2v-1 q2 -16 -5 -29q-5 -10 -16 -10q-71 -1 -419.5 -1h-420.5h-1h-2q-16 -2 -28 5q-10 5 -11 16v229v229v2l-1 2q-2 14 6 26q7 10 18 10h1h836h2h1q3 1 6 1zM145 560v-327h96v188l96 -120l96 120v-188h96v327h-96l-96 -120l-96 120h-96zM697 560v-168h-96l144 -159l144 159h-96 v168h-96z" />
<glyph unicode="&#xf030;" d="M132 847q-36 0 -60.5 -24.5t-24.5 -60t24.5 -60.5t60.5 -25h736q36 0 60.5 25t24.5 60.5t-24.5 60t-60.5 24.5h-736zM132 621q-36 0 -60.5 -25t-24.5 -60.5t24.5 -60t60.5 -24.5h628q35 0 60 24.5t25 60t-25 60.5t-60 25h-628zM129 394q-34 -1 -58 -25.5t-24 -59.5 t24.5 -60t60.5 -25h700q35 0 60 25t25 60t-25 60t-60 25h-700h-1h-2zM132 167q-36 0 -60.5 -24.5t-24.5 -60t24.5 -60.5t60.5 -25h374q35 0 60 25t25 60.5t-25 60t-60 24.5h-374z" />
<glyph unicode="&#xf031;" d="M137 803l172 -172h-233v-628h123h133h51l117 117l117 -117h68h116h123v628h-233l172 172h-184l-179 -179l-178 179h-185zM207 500h587v-367h-122l-172 171l-171 -171h-122v367z" />
<glyph unicode="&#xf032;" d="M74 795l-96 -96v-704h1044v638h-163v-475h-719v473l165 164h-231zM433 795l-163 -162h231l163 162h-231zM791 795l-163 -162h231l163 162h-231z" />
<glyph unicode="&#xf033;" d="M441 798q-109 0 -201 -53.5t-145.5 -145.5t-53.5 -201t53.5 -201t145.5 -145.5t201 -53.5q121 0 221.5 67.5t147.5 178.5h149v307h-149q-46 111 -147 179t-222 68zM441 679q71 0 134 -34.5t101 -93.5h-235q-63 0 -108 -45t-45 -108.5t44.5 -108.5t108.5 -45h235 q-38 -59 -100.5 -93.5t-134.5 -34.5q-117 0 -199 82.5t-82 199t82 199t199 82.5zM441 433h399v-70h-399q-14 0 -24.5 10.5t-10.5 24.5t10 24.5t25 10.5z" />
<glyph unicode="&#xf034;" d="M495 798q-27 0 -54 -4l-2 -1q-3 0 -5 -1l-49 -116l-117 48q-53 -38 -90 -89l-1 -1q-1 -2 -3 -4l48 -117l-117 -49q-10 -63 -1 -125l1 -2q0 -2 1 -5l116 -49l-48 -117q18 -24 36 -44q1 0 3.5 -3t3.5 -4t4 -3l2 -2q19 -19 45 -38l117 49l48 -117q5 -1 6 -1h1q63 -10 126 1 l49 117l117 -49q2 2 4 3l1 1q52 38 89 90l-49 117l117 48q0 1 0.5 3t0.5 3v1q10 63 0 126l-117 49l48 116q-20 28 -41 49q-1 2 -2 2l-5 5q-20 19 -47 39l-116 -49l-49 117q-35 6 -71 6zM500 699q11 0 22 -1l51 -123l123 51q6 -5 16 -15t15 -16l-51 -123l1 -1l123 -51 q2 -21 0 -44l-123 -51v0l51 -124q-14 -16 -31 -31l-123 51h-1l-51 -123q-21 -1 -44 0l-51 123v1l-124 -52q0 1 -1.5 2t-2.5 2q-2 2 -12 11q-11 11 -11 12l-2 2l-2 2l51 123v1l-123 51q-1 23 0 44l123 51v0l-51 124q15 17 31 31l123 -51h1l51 123q11 1 22 1zM500.5 574 q-6.5 0 -13.5 -1l-29 -72h-1l-72 30l-18 -18l30 -72v0l-72 -30v-3q-1 -1 -1 -5v-5q0 -8 0.5 -9.5t0.5 -2.5l72 -30v-1l-30 -72q8 -9 19 -18l71 30h1l29 -72q13 -1 26 0l30 72v0l72 -30q9 8 18 18l-30 72h1l-1 1l72 29q1 5 1 13t-1 13l-72 30l30 72q-7 9 -18 18l-72 -30v0 l-30 72q-6 1 -12.5 1zM500 447q20 0 34.5 -14.5t14.5 -34.5t-14.5 -34t-34.5 -14t-34 14t-14 34t14 34.5t34 14.5z" />
<glyph unicode="&#xf035;" d="M499.5 796q-21.5 0 -36.5 -15l-73 -73l92 -92q36 13 63 -14t15 -64l88 -88q37 12 64 -15q18 -18 18 -43.5t-18 -43t-43.5 -17.5t-43.5 17q-13 14 -16.5 32.5t3.5 34.5l-83 83v-218q9 -4 16 -11q18 -18 18 -43.5t-18 -43.5t-43.5 -18t-43 18t-17.5 43.5t17 43.5q9 8 21 13 v220q-12 4 -21 13q-13 13 -16.5 32t3.5 35l-90 91l-240 -240q-15 -15 -15 -36.5t15 -36.5l349 -349q15 -15 36.5 -15t36.5 15l348 348q15 15 15 36.5t-15 36.5l-349 349q-15 15 -36.5 15z" />
<glyph unicode="&#xf036;" d="M482 798q-8 -1 -11 -2q-69 -9 -120 -57q-41 -37 -57 -91q-19 -64 4 -126q17 -45 52 -78q2 -2 6.5 -6t6.5 -6q-8 -13 -22.5 -37t-19.5 -31q-5 -8 -19 -31.5t-22 -35.5q-26 1 -45 -7q-30 -13 -45 -40q-16 -30 -7 -63q8 -30 33 -48q31 -22 68 -17q40 6 63 38q27 37 9 80 q0 2 -10 20q15 25 42.5 69.5t36.5 59.5q2 3 35 56q0 1 5 8.5t7 12.5q-3 1 -11 3.5t-12 3.5q-49 20 -70 67q-17 36 -9 75q9 48 48 77q37 27 82 27q58 1 97 -40q35 -35 37 -84q0 -17 -6 -42q12 -4 35.5 -10t34.5 -9q3 0 8 -1q14 43 7 86q-9 68 -59 117q-42 42 -103 56 q-6 2 -17 3.5t-15 2.5h-37zM500.5 674q-17.5 0 -34.5 -7q-37 -15 -50 -52q-8 -20 -4 -44q7 -39 42 -59q24 -15 56 -13q3 -4 5 -8q10 -17 39 -66.5t45 -76.5q17 -30 26 -45q6 -10 8 -12q27 26 59 36q31 10 64.5 3.5t59.5 -26.5q31 -25 42 -61q12 -37 1 -74q-8 -28 -28.5 -50 t-48.5 -33q-31 -13 -66.5 -8.5t-63.5 24.5l-18 16q-4 -3 -10 -9l-7 -7q-5 -5 -19 -18.5t-22 -21.5q46 -47 113 -60q2 -1 10 -2t12 -2h39q4 1 13.5 2t14.5 3q64 13 110 60q46 46 56 110q11 75 -28 137q-36 59 -100 85q-69 28 -142 9l-9 -3t-8 -2q-5 8 -14 23t-12 19 q-8 14 -23.5 41t-23.5 41q-6 10 -8 13q13 19 16 37q5 32 -13 60q-16 25 -44 35q-17 6 -34.5 6zM218 410q-58 -13 -100 -53q-47 -44 -61 -105q-1 -4 -2 -12t-2 -12v-37q0 -2 2 -13.5t4 -17.5q15 -64 67 -108q50 -41 115 -49q79 -9 146 33q53 34 78 91q7 17 14 45q6 1 18 0 q16 0 53.5 -0.5t57.5 -1.5h16t18 -1q11 -20 25 -30q29 -24 67 -21q28 3 50 20q27 21 32 54q5 35 -15 63q-16 22 -41 32q-35 14 -71 -1q-28 -12 -43 -37q-1 -3 -3 -6q-13 0 -37.5 0.5t-31.5 0.5q-30 1 -86 1q-14 1 -39.5 1.5t-34.5 0.5h-19q0 -3 1.5 -9t1.5 -8q8 -43 -13 -81 q-14 -27 -40 -45t-57 -22q-35 -6 -70 7.5t-57 42.5q-28 35 -27 79q1 37 23 69q27 39 73 51q4 1 9 3q-2 10 -21 76z" />
<glyph unicode="&#xf037;" d="M537 797l-227 -73l492 -160v-314l-328 -106l-277 90v307l268 -86l227 73l-493 160l-141 -46v-510l416 -135l468 151v518z" />
<glyph unicode="&#xf038;" d="M500 797q-112 0 -207.5 -55t-150.5 -150.5t-55 -207.5q0 -131 74.5 -236.5t193.5 -150.5l95 254q-41 15 -66.5 51.5t-25.5 81.5q0 59 41.5 100.5t100.5 41.5t100.5 -41.5t41.5 -100.5q0 -45 -25.5 -81.5t-66.5 -51.5l95 -254q119 45 193.5 150.5t74.5 236.5 q0 112 -55 207.5t-150.5 150.5t-207.5 55zM963 115l-23 -92h15l11 43q0 3 1 7v5q1 -2 2 -5l3 -6l26 -48l26 47q1 4 2 6l2 6q1 -4 1 -6q1 -4 1 -6l11 -43h15l-24 92l-28 -56q-1 0 -1 -1t-1 -1q-3 -7 -4 -10q-2 5 -3 8q-1 1 -3 4zM862 111v-12h27v-76h16v76h26v12h-69z" />
<glyph unicode="&#xf039;" d="M704 797q-40 0 -74.5 -20.5t-53.5 -56.5q-23 -43 -15 -92l-2 2q-1 -1 0.5 -4t-3 -12.5t-11 -19.5t-24 -25.5t-42.5 -31t-47.5 -24.5t-37 -10t-25 0t-15.5 4l-5 2l3 -3l-8 4q-53 29 -111 11t-86.5 -71.5t-10.5 -111.5t71 -86q41 -21 84 -16.5t76 31.5l-1 -2q2 1 4.5 2.5 t13 3.5t23.5 1t36 -8.5t49 -21.5q82 -44 86 -93q-1 -42 19.5 -78.5t58.5 -56.5q53 -28 111 -10.5t86.5 71t10.5 111.5t-71 86q-7 4 -15 7l3 1q-1 0 -3.5 1.5t-8 10t-10 20t-8.5 34.5t-5 52.5t2 53t7.5 36t9.5 21t8 10.5l4 2h-5q41 21 62 62q29 53 11 111t-71 86 q-33 18 -70 17zM706 774q39 0 66 -25q-13 13 -43.5 10t-59.5 -22q8 -8 8 -19q1 -13 -7.5 -22.5t-21.5 -9.5h-8l-2 1q-12 4 -21 -8q-16 -29 -16 -56.5t15 -42.5q-31 29 -30.5 74t32.5 80q37 40 88 40zM605 533q11 0 18 -3l14 -8q13 -7 27 -11q30 -29 33 -117q2 -88 -33 -118 q-20 -9 -36 -23q-37 -13 -117 29q-34 19 -56 39t-27 30t-7 18q2 18 -1 37v-1v4.5t3.5 11t11 18t25 24.5t42.5 31q62 38 103 39zM279 499q39 0 66 -25h-1q-13 13 -43.5 10t-58.5 -22q7 -8 8 -19q0 -13 -8.5 -22.5t-20.5 -9.5q-4 -1 -8 0q-1 0 -2 1q-13 4 -22 -8 q-15 -29 -15.5 -56.5t14.5 -42.5q-30 29 -29.5 74t32.5 80q37 40 88 40zM731 266q39 0 66 -25q-13 13 -43.5 10t-59.5 -22q8 -8 8 -19q1 -13 -7.5 -22.5t-21.5 -9.5h-8l-2 1q-12 4 -21 -8q-16 -29 -16 -56.5t15 -42.5q-31 29 -30 74t32 80q37 40 88 40z" />
<glyph unicode="&#xf040;" d="M160 700q-67 0 -113.5 -47t-46.5 -113v-287q0 -66 46.5 -113t113.5 -47h680q67 0 113.5 47t46.5 113v287q0 66 -46.5 113t-113.5 47h-680zM320 619q80 0 80 -85q0 -17 -19.5 -72t-19.5 -65q0 -27 24.5 -48t54.5 -31t54.5 -22.5t24.5 -25.5v-53h-395v53q0 14 24.5 27.5 t53.5 24t54 30t25 44.5q0 6 -20 62.5t-20 75.5q0 47 21 66t58 19zM609 542q118 0 202.5 -84.5t84.5 -204.5h-55q0 97 -68 165.5t-164 68.5v55zM609 444q78 0 133.5 -55.5t55.5 -134.5h-55q0 55 -40 95q-39 40 -94 40v55zM647 331q16 0 27 -11.5t11 -27.5t-11 -27t-27 -11 t-27 11t-11 27t11 27.5t27 11.5z" />
<glyph unicode="&#xf041;" d="M326 798q-96 0 -199 -56q-27 -15 -36 -45.5t6 -58.5q14 -26 45 -29.5t58 12.5q36 19 67.5 29t54.5 13t52.5 -2t46.5 -10t51 -17q13 -5 42 -17t48 -19t48.5 -13.5t57.5 -6.5q94 0 198 45q29 12 41 41t-1 58q-11 28 -41 34.5t-58 -6.5q-47 -20 -85 -28t-75 -3.5t-60 11 t-66 21.5q-2 1 -26.5 10t-31.5 11.5t-29 9t-35.5 9t-33.5 5t-39 2.5zM321 505q-95 1 -196 -53q-28 -15 -37.5 -45t5.5 -58q14 -27 45 -31t58 12q35 19 66.5 28.5t54 12.5t51.5 -2t46 -10.5t51 -17.5q12 -4 41 -16t48.5 -19t49 -13.5t56.5 -6.5q100 0 211 49q28 13 39.5 42.5 t-1.5 58.5q-12 27 -42 33.5t-58 -8.5q-39 -17 -74.5 -25.5t-60.5 -10.5t-56.5 4t-50 11.5t-53.5 18.5q-4 1 -27 9.5t-31 11.5t-29 9t-34.5 8.5t-33 5t-38.5 2.5zM310 215q-89 0 -184 -48q-28 -14 -38 -43t4 -57q14 -27 44.5 -31.5t58.5 11.5q41 21 75.5 30t68 5.5t54.5 -9.5 t61 -20q13 -5 42 -17t48 -19t48.5 -13t57.5 -6q104 0 222 54q28 14 39 42.5t-2 56.5t-43.5 33.5t-58.5 -9.5q-40 -19 -77 -28.5t-62.5 -12t-58.5 3.5t-51 12t-55 18q-4 2 -26.5 10.5t-31 11t-29.5 9t-34.5 9t-33.5 5t-38 2.5z" />
<glyph unicode="&#xf042;" d="M160 700q-67 0 -113.5 -46.5t-46.5 -113.5v-286q0 -66 46.5 -113t113.5 -47h680q67 0 113.5 47t46.5 113v286q0 67 -46.5 113.5t-113.5 46.5h-680zM320 619q33 0 51 -13q4 -2 6 -4q23 -20 23 -67q0 -16 -12 -52q-2 -4 -4.5 -11.5t-3.5 -8.5q-19 -55 -19 -65v-8q1 -4 1 -7 q2 -6 6 -13q6 -11 17 -21h1q10 -9 25 -17q12 -6 29 -13q7 -3 21.5 -8.5t21.5 -8.5q21 -10 29 -18l3 -2v-1q3 -4 4 -6v-4v-54h-395v54q0 16 36 33q3 1 9 4q3 1 4 2q66 27 83 42q5 4 10 9q1 1 2 3q1 0 1.5 0.5t0.5 1.5q1 1 1 1.5t1 0.5q4 8 7 15q1 5 1 7q1 3 1 7q0 5 -7 24 q-2 6 -9.5 26.5t-10.5 32.5q-6 17 -7 21q-3 10 -4 19q-1 4 -2 7v1v7q0 12 2 23v1q2 10 4 17q6 16 17 26q2 2 6 4q14 10 34 13h16zM743 526q35 0 65 -17t49 -45l35 34v-108h-109l34 34q-10 21 -30 34t-44 13q-34 0 -58 -24t-24 -57.5t24 -57.5t58 -24q36 0 61 28h64 q-17 -37 -50.5 -59.5t-74.5 -22.5q-57 0 -96.5 39.5t-39.5 96t39.5 96.5t96.5 40z" />
<glyph unicode="&#xf043;" d="M160 699q-67 0 -113.5 -46.5t-46.5 -112.5v-287q0 -66 46.5 -113t113.5 -47h680q67 0 113.5 47t46.5 113v287q0 66 -46.5 112.5t-113.5 46.5h-680zM320 619q80 0 80 -85q0 -17 -19.5 -72t-19.5 -65q0 -28 24.5 -48.5t54.5 -30.5t54.5 -22.5t24.5 -25.5v-53h-395v53 q0 14 24.5 27.5t53.5 23.5t54 30t25 45q0 6 -20 62t-20 76q0 47 21 66t58 19zM717 532h51v-114h110v-50h-110v-115h-51v115h-110v50h110v114z" />
<glyph unicode="&#xf044;" d="M160 701q-67 0 -113.5 -46.5t-46.5 -112.5v-287q0 -66 46.5 -113t113.5 -47h680q67 0 113.5 47t46.5 113v287q0 66 -46.5 112.5t-113.5 46.5h-680zM320 620q33 0 51 -13q4 -2 6 -4q23 -20 23 -67q0 -15 -12 -52q-2 -4 -4.5 -11.5t-3.5 -8.5q-19 -55 -19 -65v-8q1 -4 1 -7 q2 -6 6 -13q6 -11 17 -21h1q10 -9 25 -17q12 -6 29 -13q7 -3 21.5 -8.5t21.5 -8.5q21 -9 29 -17l3 -3v-1q3 -4 4 -6v-4v-54h-395v54q0 16 36 33q3 1 9 4q3 1 4 2q66 28 83 42q5 4 10 9q1 2 2 3q1 0 2 1v1q1 1 1 1.5t1 0.5q4 8 7 15q1 5 1 7q1 3 1 7q0 6 -7 24q-2 7 -9.5 27 t-10.5 32q-6 16 -7 21q-3 10 -4 19q-1 4 -2 7v1v7q0 12 2 23v1q2 11 4 17q6 16 17 26q2 2 6 4q14 10 34 13h16zM682 526h119v-131h76l-135 -141l-136 141h76v131z" />
<glyph unicode="&#xf080;" d="M499 798q-166 0 -280 -117q-58 -58 -88.5 -131t-30.5 -152q0 -80 30 -152.5t87.5 -130t130 -87.5t152 -30t153.5 30.5t133 88.5q56 55 85 127t29 154q0 81 -29.5 153.5t-85.5 128.5q-118 118 -286 118zM501 725q135 0 232 -96q46 -47 70.5 -106t24.5 -125 q0 -138 -94 -230q-48 -47 -108.5 -72t-124.5 -25q-65 0 -124.5 24.5t-106.5 71.5t-72.5 106.5t-25.5 124.5t25.5 124.5t72.5 107.5q94 95 231 95zM389 522q-50 0 -83.5 -33.5t-33.5 -90.5q0 -59 33 -92t86 -33q34 0 62 17t43 46l-49 25q-14 -34 -49 -34q-27 0 -40.5 19 t-13.5 52q0 70 54 70q11 0 23.5 -7t20.5 -25l54 28q-32 58 -107 58zM621 522q-51 0 -84 -33.5t-33 -90.5q0 -59 32.5 -92t86.5 -33q33 0 60.5 17t44.5 46l-50 25q-14 -34 -49 -34q-27 0 -40.5 19t-13.5 52q0 70 54 70q11 0 23.5 -7t21.5 -25l52 28q-31 58 -105 58z" />
<glyph unicode="&#xf081;" d="M499 796q-165 0 -281 -116q-118 -120 -118 -284t118 -282q119 -118 281 -118q165 0 287 119q114 112 114 281q0 168 -116 284t-285 116zM501 724q135 0 231 -96t96 -232q0 -139 -94 -229q-100 -98 -233 -98q-135 0 -232 97t-97 230q0 132 98 232q94 96 231 96zM500 654 q-56 0 -56 -56t56 -56t56 56t-56 56zM418 521q-11 0 -18.5 -7.5t-7.5 -18.5v-163h46v-195h124v195h46v163q0 11 -8 18.5t-18 7.5h-164z" />
<glyph unicode="&#xf082;" d="M499 796q-165 0 -281 -116q-118 -120 -118 -284t118 -282t281 -118q165 0 287 119q114 112 114 280.5t-116 284.5t-285 116zM500.5 724q136.5 0 231.5 -96q96 -94 96 -232q0 -44 -10 -86l-205 92l-64 28l-35 16l-51 23q-4 5 -4 10q0 17 15 24t33 7q35 0 69 -23l52 53 q-45 34 -100 37v62h-47v-62q-37 -2 -64.5 -21t-37.5 -50l-153 68q20 30 44 54q94 96 230.5 96zM190 504l204 -92l64 -28l47 -21l39 -16q10 -10 10 -25q0 -21 -14.5 -30.5t-35.5 -9.5q-50 0 -89 37l-55 -56q55 -47 121 -48v-61h47v61q41 4 71.5 28t38.5 61l151 -67 q-20 -36 -55 -70q-98 -98 -233 -98q-134 0 -232 97q-97 97 -97 230q0 58 18 108z" />
<glyph unicode="&#xf083;" d="M500 796q-167 0 -282 -116q-118 -120 -118 -284t118 -282t282 -118q165 0 286 119q114 113 114 281t-116 284t-284 116zM500.5 724q136.5 0 231.5 -96q96 -95 96 -232q0 -45 -10 -85l-220 97h6v48h-113l-46 20q6 14 14 23q29 36 82 36q37 0 75 -16l18 77q-45 20 -100 20 q-94 0 -155 -69q-11 -13 -22 -32l-132 58q19 29 45 55q94 96 230.5 96zM190 502l106 -46h-8v-48h38q0 -3 -0.5 -10t-0.5 -10v-12h-37v-47h44q8 -51 37 -87q28 -37 71 -56.5t92 -19.5q59 0 105 25l-16 74q-33 -17 -77 -17q-56 0 -86 34q-15 17 -22 47h146l206 -92 q-21 -38 -54 -70q-99 -98 -233.5 -98t-231.5 97t-97 230q0 56 18 106zM473 377l1 -1z" />
<glyph unicode="&#xf084;" d="M499 796q-166 0 -281 -116q-118 -120 -118 -284t118 -282t281 -118q166 0 287 119q114 113 114 281t-116 284t-285 116zM500.5 724q136.5 0 231.5 -96q96 -95 96 -232q0 -51 -13 -95l-163 72v29h-62l102 187h-107l-69 -155l-38 16l-64 139h-106l44 -82l-132 58 q21 33 50 63q94 96 230.5 96zM187 493l204 -91h-45v-63h94l9 -19v-30h-103v-62h103v-90h100v90h103v58l131 -59q-20 -32 -49 -60q-99 -98 -233.5 -98t-231.5 97t-97 230q0 51 15 97zM554 330l88 -40h-93v30z" />
<glyph unicode="&#xf085;" d="M499 796q-165 0 -281 -117q-118 -120 -118 -283q0 -165 118 -282q119 -118 281 -118q166 0 287 118q114 114 114 281.5t-116 283.5q-117 117 -285 117zM500.5 723.5q136.5 0.5 231.5 -96.5q96 -94 96 -231q0 -138 -94 -230q-100 -98 -233 -98q-135 0 -232 98 q-97 96 -97 230q0 132 98 231q94 96 230.5 96.5zM498 606q-69 0 -116.5 -40t-59.5 -114h-31l79 -79l79 79h-29q10 71 90 71q44 0 67.5 -33.5t23.5 -96.5q0 -61 -25.5 -97.5t-67.5 -36.5q-84 0 -88 73h-101q10 -75 59.5 -115.5t117.5 -40.5q92 0 150 61t58 153 q0 95 -56 155.5t-150 60.5z" />
<glyph unicode="&#xf086;" d="M499 797q-165 0 -281 -117q-118 -120 -118 -283q0 -165 118 -283q119 -117 281 -117q166 0 287 118q114 114 114 281.5t-116 283.5q-117 117 -285 117zM500.5 724q136.5 0 231.5 -96q96 -94 96 -231q0 -138 -94 -230q-100 -98 -233 -98q-135 0 -232 98q-97 96 -97 230 q0 132 98 231q94 96 230.5 96zM361 491v-69h290v69h-290zM361 362v-68h290v68h-290z" />
<glyph unicode="&#xf087;" d="M500 797q-109 0 -201 -53.5t-145.5 -145.5t-53.5 -201t53.5 -201t145.5 -145.5t201 -53.5t201 53.5t145.5 145.5t53.5 201t-53.5 201t-145.5 145.5t-201 53.5zM500 722q88 0 163 -43.5t118.5 -118.5t43.5 -163q0 -43 -11 -84l-1 1l-361 161q23 41 65 41q23 0 43 -13 q7 -5 12 -10l66 67q-52 44 -126 44q-110 0 -163 -83l-121 54q45 68 116.5 107.5t155.5 39.5zM193 504l127 -57q-5 -26 -5 -53q0 -45 13 -82t33.5 -59t47 -37t51.5 -20.5t49 -5.5q62 0 113 35q8 6 15 12l-58 71l-5 -5q-23 -22 -54 -22q-42 0 -64 35.5t-22 80.5l350 -156h1 q-42 -77 -118 -123t-167 -46q-88 0 -163 43.5t-118.5 118.5t-43.5 163q0 55 18 107z" />
<glyph unicode="&#xf088;" d="M486 796q-166 0 -280 -116q-58 -58 -89 -132q-30 -73 -30 -152q0 -80 30 -152t87 -130q58 -57 130 -88q73 -30 152.5 -30t153.5 31t133 88q57 56 85 127q29 72 29 154t-29 154t-86 129q-117 117 -286 117zM488 724q136 0 232 -96q47 -47 71 -106.5t24 -125.5 q0 -137 -94 -229q-48 -48 -109 -72q-60 -25 -124 -25q-65 0 -124 24q-60 25 -107 71q-47 47 -73 107q-25 60 -25 124q0 65 25 124q26 60 73 108q94 96 231 96zM487 626q-47 0 -81 -20.5t-51.5 -55.5t-25 -73t-7.5 -81t7.5 -81t25 -73t51.5 -55.5t81 -20.5t81 20.5t51.5 55.5 t25 73t7.5 81t-7.5 81t-25 73t-51.5 55.5t-81 20.5zM487 539q7 0 15 -2q17 -14 5 -35l-88 -161q-3 23 -3 55q0 143 71 143zM553 465q5 -28 5 -69q0 -143 -71 -143q-8 0 -15 1q-1 1 -2 1q-3 1 -4 1q-29 13 -11 39z" />
<glyph unicode="&#xf089;" d="M499 796q-165 0 -281 -116q-118 -120 -118 -284t118 -282q119 -118 281 -118q166 0 287 119q114 113 114 281t-116 284q-117 116 -285 116zM500.5 724q136.5 0 231.5 -97q96 -94 96 -231q0 -138 -94 -229q-100 -98 -233 -98q-135 0 -232 97q-97 96 -97 230q0 132 98 231 q94 97 230.5 97zM334 620q-8 -2 -14 -8t-6 -15v-294q0 -9 6.5 -15.5t15.5 -6.5h88v-87q0 -9 6 -15.5t16 -6.5h218q9 0 15.5 6.5t6.5 15.5v294q0 9 -6.5 15.5t-15.5 6.5h-88v87q0 10 -6 16.5t-16 6.5h-218h-2zM358 575h175v-65h-87h-3q-8 -1 -13.5 -7t-5.5 -15v-163h-66v250z M467 467h175v-251h-175v251z" />
<glyph unicode="&#xf08a;" d="M499 796q-165 0 -281 -116q-118 -120 -118 -284t118 -282q119 -118 281 -118q166 0 287 119q114 113 114 281t-116 284q-117 116 -285 116zM500.5 724q136.5 0 231.5 -97q96 -94 96 -231q0 -138 -94 -229q-100 -98 -233 -98q-135 0 -232 97q-97 96 -97 230q0 132 98 231 q94 97 230.5 97zM437 622l-108 -47v-113v-1l-95 -40v-103l102 -44l103 43l7 -3l210 -87l5 -1l4 1l97 42l7 3v113l-8 4l-79 33v99zM464 406l183 -75v-3h1v-71l-1 1v-1l-183 76v73zM665 402l59 -25l-64 -27l-58 25zM744 358v-69l-71 -31v70z" />
<glyph unicode="&#xf08b;" d="M100 798v-174h101q9 22 32 22q24 0 32 -23q43 -5 71.5 -36.5t28.5 -74.5q0 -46 -33 -79t-79 -33h-153v-402h800v800h-800zM100 598v-171h153q35 0 60 24.5t25 60.5q0 32 -21 56.5t-52 28.5q-10 -21 -32 -21q-23 0 -32 22h-101z" />
<glyph unicode="&#xf08c;" d="M-6 796l506 -800l506 800h-361v-97q21 -8 21 -30q0 -14 -10 -23.5t-23.5 -9.5t-23 9.5t-9.5 23.5q0 22 20 30v97h-230v-97q21 -8 21 -30q0 -14 -10 -23.5t-23.5 -9.5t-23 9.5t-9.5 23.5q0 22 20 30v97h-371z" />
<glyph unicode="&#xf08d;" d="M500 798q-109 0 -201 -53.5t-145.5 -146t-53.5 -201t53.5 -200.5t145.5 -145.5t201 -53.5t201 53.5t145.5 145.5t53.5 201v4h-203q-44 0 -75.5 31.5t-31.5 75.5q0 41 27.5 71.5t67.5 35.5q8 21 31 21t32 -21h87q-54 84 -142.5 133t-192.5 49zM748 591q-9 -21 -32 -21 q-21 0 -30 20q-30 -4 -50.5 -27t-20.5 -54q0 -34 24 -57.5t58 -23.5h202q-6 87 -49 163h-102z" />
<glyph unicode="&#xf099;" d="M495 786q-91 -1 -170 -45.5t-112 -124.5q-11 -24 -15 -50q-29 30 -66 30q-44 0 -74.5 -40t-30.5 -96.5t30.5 -96.5t74.5 -40q18 0 35 8q-29 -77 2 -145q31 -73 103 -117.5t158 -56.5q102 -14 199.5 12.5t161.5 97.5q39 42 51 98.5t-8 109.5q17 -7 34 -7q44 0 74.5 40 t30.5 96.5t-30.5 96.5t-74.5 40q-37 0 -66 -31q-13 76 -64 127q-45 46 -107.5 70t-130.5 24h-5zM622 681q18 0 36 -6q57 -17 85 -74.5t18 -118.5q2 -13 -4.5 -30t-12.5 -29t-3.5 -25t20.5 -21q47 -47 44.5 -116.5t-46.5 -117.5q-97 -104 -294 -93q-79 5 -147 36.5t-102 93.5 q-28 47 -20.5 107.5t50.5 95.5q14 8 15 20t-6 24t-13 27.5t-3 27.5q-10 61 18.5 119t85.5 75q15 4 29 5q40 2 75 -22t53 -62q16 36 50 59.5t72 24.5zM415.5 502q-17.5 0 -29.5 -15.5t-12 -37.5t12 -37.5t29.5 -15.5t30 15.5t12.5 37.5t-12.5 37.5t-30 15.5zM584.5 502 q-17.5 0 -30 -15.5t-12.5 -37.5t12.5 -37.5t30 -15.5t29.5 15.5t12 37.5t-12 37.5t-29.5 15.5zM721 353q-2 -1 -4 -1q-97 -37 -217 -37t-217 37h-4h-1q-10 0 -10 -10q0 -8 7 -10q102 -39 225 -39t224 39q8 2 8 10q0 4 -3 7.5t-8 3.5z" />
</font>
</defs>
</svg>
