<?xml version="1.0" standalone="no"?>
<!DOCTYPE svg PUBLIC "-//W3C//DTD SVG 1.1//EN" "http://www.w3.org/Graphics/SVG/1.1/DTD/svg11.dtd" >
<svg xmlns="http://www.w3.org/2000/svg">
<metadata></metadata>
<defs>
<font id="p_yekanregular" horiz-adv-x="0" >
<font-face units-per-em="2048" ascent="1638" descent="-410" />
<missing-glyph horiz-adv-x="469" />
<glyph unicode="&#x651;&#x64b;" d="M546 1523q0 -62 -35 -105q-37 -47 -97 -47q-45 0 -110 57q-47 -57 -110 -57q-57 0 -91 49q-29 43 -29 103h45q0 -100 81 -100q80 0 83 100h50q0 -100 83 -100q81 0 82 100h48zM483 1927l-316 -172l-27 50l315 174zM482 1810l-315 -168l-28 47l315 173z" />
<glyph unicode="&#x651;&#x64c;" arabic-form="isolated" d="M577 1516q0 -62 -35 -105q-37 -47 -97 -47q-45 0 -110 57q-47 -57 -110 -57q-57 0 -91 49q-29 43 -29 103h45q0 -100 81 -100q80 0 83 100h50q0 -100 83 -100q81 0 82 100h48zM548 1937q0 -91 -49 -117l-283 -151l-28 48q51 33 63 53q0 34 -45 34q-29 0 -49 -11l-20 36 q56 19 85 19q57 0 72 -78l77 45q-79 45 -79 114q0 90 87 124q29 11 37 11q54 0 93 -37t39 -90zM502 1938q0 33 -26.5 56t-59.5 23q-79 0 -79 -87q0 -78 85 -78q26 0 53 29.5t27 56.5z" />
<glyph unicode="&#x651;&#x64d;" arabic-form="isolated" d="M566 1946q0 -62 -35 -105q-37 -47 -97 -47q-45 0 -110 57q-47 -57 -110 -57q-57 0 -91 49q-29 43 -29 103h45q0 -100 81 -100q80 0 83 100h50q0 -100 83 -100q81 0 82 100h48zM472 1670l-315 -169l-27 47l315 174zM472 1526l-315 -169l-27 48l315 175z" />
<glyph unicode="&#x651;&#x64e;" arabic-form="isolated" d="M566 1482q0 -62 -35 -105q-37 -47 -97 -47q-45 0 -110 57q-47 -57 -110 -57q-57 0 -91 49q-29 43 -29 103h45q0 -100 81 -100q80 0 83 100h50q0 -100 83 -100q81 0 82 100h48zM483 1755l-315 -168l-28 47l315 176z" />
<glyph unicode="&#x651;&#x64f;" arabic-form="isolated" d="M587 1493q0 -62 -35 -105q-37 -47 -97 -47q-45 0 -110 57q-47 -57 -110 -57q-57 0 -91 49q-29 43 -29 103h45q0 -100 81 -100q80 0 83 100h50q0 -100 83 -100q81 0 82 100h48zM496 1868q0 -89 -50 -116l-227 -121l-28 47l126 70q-78 45 -78 113q0 91 90 125q26 10 33 10 q55 0 94.5 -37t39.5 -91zM449 1870q0 33 -26.5 55.5t-60.5 22.5q-78 0 -78 -86q0 -79 86 -79q26 0 52.5 30t26.5 57z" />
<glyph unicode="&#x651;&#x650;" arabic-form="isolated" d="M556 1789q0 -62 -35 -105q-37 -47 -97 -47q-45 0 -110 57q-47 -57 -110 -57q-57 0 -91 49q-29 43 -29 103h45q0 -100 81 -100q80 0 83 100h50q0 -100 83 -100q81 0 82 100h48zM478 1534l-314 -169l-29 48l315 175z" />
<glyph unicode="&#xfedf;&#xfee0;&#xfeea;" horiz-adv-x="2253" arabic-form="isolated" d="M1638 1415q0 -62 -35 -105q-38 -46 -98 -46q-45 0 -110 56q-46 -56 -104 -56q-117 0 -126 151h45q0 -100 81 -100q80 0 83 100h50q0 -100 84 -100q81 0 81 100h49zM2123 275q0 -130 -77.5 -202.5t-209.5 -72.5h-173q-176 0 -262 70q-65 -54 -117 -64q-33 -6 -216 -6 q-118 0 -172 31q-27 16 -188 165q-102 -216 -329 -216q-149 0 -246 97t-97 246q0 156 209 365l-51 58l121 122l539 -573q68 -72 92 -87q49 -30 230 -30q87 0 114 48q19 34 19 128v800h180v-836q0 -98 59 -122q40 -16 277 -16q80 0 106 43q15 24 15 131v800h177v-879z M553 311q0 66 -34 99l-145 144q-84 -79 -105 -106q-53 -68 -53 -137q0 -70 47 -113.5t118 -43.5q69 0 120.5 44.5t51.5 112.5z" />
<glyph unicode="&#xfedf;&#xfe82;" horiz-adv-x="1054" arabic-form="isolated" d="M935 275q0 -130 -77.5 -202.5t-208.5 -72.5h-169q-351 0 -351 275v879h180v-800q0 -111 30.5 -142.5t140.5 -31.5h158q79 0 106 43q15 24 15 131v800h176v-879zM621 1360h-451q-30 0 -105 -9q-42 -5 -61 -20q-24 -19 -61 -100l-164 64q65 139 116 180q61 49 236 61 q53 4 257 4q76 0 233 -3v-177z" />
<glyph unicode="&#xfee0;&#xfe82;" horiz-adv-x="1054" arabic-form="final" d="M1084 0q-157 0 -246 118q-90 -118 -243 -118h-165q-351 0 -351 275v879h176v-800q0 -121 34 -154q20 -20 141 -20h154q78 0 105 43q16 26 16 131v800h180v-818q0 -156 199 -156v-180zM555 1426h-451q-31 0 -105 -9q-43 -4 -62 -20q-23 -18 -61 -100l-164 64 q66 139 117 180q61 49 236 61q52 4 256 4q76 0 234 -2v-178z" />
<glyph unicode="&#xfedf;&#xfe84;" horiz-adv-x="1054" arabic-form="isolated" d="M935 275q0 -130 -77.5 -202.5t-208.5 -72.5h-169q-351 0 -351 275v879h180v-800q0 -111 30.5 -142.5t140.5 -31.5h158q79 0 106 43q15 24 15 131v800h176v-879zM347 1419l-246 -124l-20 40l84 48q-75 38 -75 110q0 49 34.5 84.5t83.5 35.5q24 0 69 -19l-17 -36 q-22 13 -54 13q-70 0 -70 -82q0 -68 67 -68q54 0 122 42z" />
<glyph unicode="&#xfee0;&#xfe84;" horiz-adv-x="1054" arabic-form="final" d="M1084 0q-157 0 -246 118q-90 -118 -243 -118h-165q-351 0 -351 275v879h176v-800q0 -121 34 -154q20 -20 141 -20h154q78 0 105 43q16 26 16 131v800h180v-818q0 -156 199 -156v-180zM311 1412l-247 -124l-20 40l84 48q-75 38 -75 110q0 49 35 84.5t84 35.5q24 0 69 -19 l-18 -36q-21 13 -54 13q-70 0 -70 -82q0 -68 68 -68q54 0 121 42z" />
<glyph unicode="&#xfedf;&#xfe88;" horiz-adv-x="1054" arabic-form="isolated" d="M935 275q0 -130 -77.5 -202.5t-208.5 -72.5h-169q-351 0 -351 275v879h180v-800q0 -111 30.5 -142.5t140.5 -31.5h158q79 0 106 43q15 24 15 131v800h176v-879zM443 -330l-246 -124l-20 40l84 47q-75 39 -75 110q0 50 34.5 85t83.5 35q24 0 69 -18l-17 -37q-22 14 -54 14 q-70 0 -70 -82q0 -68 67 -68q54 0 122 41z" />
<glyph unicode="&#xfee0;&#xfe88;" horiz-adv-x="1054" arabic-form="final" d="M1084 0q-157 0 -246 118q-90 -118 -243 -118h-165q-351 0 -351 275v879h176v-800q0 -121 34 -154q20 -20 141 -20h154q78 0 105 43q16 26 16 131v800h180v-818q0 -156 199 -156v-180zM369 -323l-246 -124l-20 40l84 48q-75 39 -75 110q0 49 35 84.5t84 35.5q23 0 68 -19 l-17 -36q-21 14 -54 14q-70 0 -70 -83q0 -67 68 -67q53 0 121 41z" />
<glyph unicode="&#xfedf;&#xfe8e;" horiz-adv-x="1054" arabic-form="isolated" d="M935 275q0 -130 -77.5 -202.5t-208.5 -72.5h-169q-351 0 -351 275v879h180v-800q0 -111 30.5 -142.5t140.5 -31.5h158q79 0 106 43q15 24 15 131v800h176v-879z" />
<glyph unicode="&#xfee0;&#xfe8e;" horiz-adv-x="1054" arabic-form="final" d="M1084 0q-157 0 -246 118q-90 -118 -243 -118h-165q-351 0 -351 275v879h176v-800q0 -121 34 -154q20 -20 141 -20h154q78 0 105 43q16 26 16 131v800h180v-818q0 -156 199 -156v-180z" />
<glyph unicode="&#x652;&#x64e;" horiz-adv-x="1" d="M170 1352l2 -289l-80 2v287h78z" />
<glyph unicode="&#x652;&#x64b;" horiz-adv-x="1" d="M582 1059q0 -46 -33.5 -76t-80.5 -30q-50 0 -86 27q-39 30 -39 79q0 100 114 100q125 0 125 -100zM237 1059q0 -46 -33.5 -76t-80.5 -30q-50 0 -86 27q-39 30 -39 79q0 100 114 100q125 0 125 -100z" />
<glyph unicode="&#x652;&#x64d;" horiz-adv-x="1" d="M873 -637q0 -46 -33.5 -76t-80.5 -30q-50 0 -86 27q-39 30 -39 79q0 100 114 100q125 0 125 -100zM528 -637q0 -46 -33.5 -76t-80.5 -30q-50 0 -86 27q-39 30 -39 79q0 100 114 100q125 0 125 -100z" />
<glyph unicode="&#x6c0;" horiz-adv-x="809" arabic-form="isolated" d="M466 1093l-303 -153l-25 49l103 56q-90 50 -90 131q0 67 39.5 111t104.5 44q25 0 86 -22l-22 -48q-30 17 -55 17q-99 0 -99 -102q0 -81 76 -81q63 0 160 51zM758 305q0 -140 -107 -234q-103 -91 -245 -91q-147 0 -241.5 100.5t-94.5 248.5q0 154 205 359l-52 58l122 122 l329 -340q84 -87 84 -223zM579 316q0 55 -29 85l-145 153q-161 -153 -161 -243q0 -69 52 -113.5t123 -44.5t115.5 46t44.5 117z" />
<glyph unicode="&#x6a9;" horiz-adv-x="1606" arabic-form="isolated" d="M1533 244q0 -112 -85 -180q-79 -64 -193 -64h-926q-115 0 -188 91q-68 85 -68 202v272h180v-247q0 -76 28.5 -107t103.5 -31h863q95 0 95 84q0 38 -29 67l-471 487l-25 205l656 236l24 -180l-473 -183l421 -446q87 -91 87 -206z" />
<glyph unicode="&#x6cc;" horiz-adv-x="1289" arabic-form="isolated" d="M1225 9q0 -265 -191 -390q-113 -74 -250 -74h-279q-185 0 -308 141q-118 135 -118 323v372h169v-392q0 -120 88 -196q84 -72 205 -72h232q106 0 190 69q90 72 90 176q0 89 -123 117q-33 7 -45 7h-250v309q0 139 89 229.5t229 90.5h216l7 -169h-216q-97 0 -134 -86 q-17 -42 -22 -205q213 0 284 -26q137 -52 137 -224z" />
<glyph unicode="&#x67e;" horiz-adv-x="1713" arabic-form="final" d="M1746 0q-214 0 -286 70q-92 -70 -174 -70h-948q-112 0 -187 92q-70 86 -70 201v272h180v-247q0 -77 30 -107.5t105 -30.5h837q75 0 103.5 30.5t28.5 107.5v247h183v-247q0 -138 198 -138v-180zM1138 -314q0 -94 -122 -94q-117 0 -117 94q0 47 32 79t79 32q128 0 128 -111 zM793 -314q0 -94 -122 -94q-117 0 -117 94q0 47 32 79t79 32q128 0 128 -111zM958 -568q0 -97 -114 -97q-125 0 -125 97q0 48 32 79t80 31q52 0 88 -28q39 -31 39 -82z" />
<glyph unicode="&#x67e;" horiz-adv-x="703" arabic-form="initial" d="M621 293q0 -117 -68 -202q-74 -91 -188 -91h-385v180h329q75 0 103.5 30.5t28.5 107.5v247h180v-272zM599 -314q0 -96 -116 -96q-125 0 -125 96q0 48 32.5 79.5t80.5 31.5q128 0 128 -111zM254 -314q0 -96 -116 -96q-125 0 -125 96q0 48 32.5 79.5t80.5 31.5 q128 0 128 -111zM419 -568q0 -98 -115 -98q-126 0 -126 98q0 110 112 110q52 0 89 -28q40 -31 40 -82z" />
<glyph unicode="&#x67e;" horiz-adv-x="739" arabic-form="medial" d="M778 0q-111 -1 -165 9q-46 19 -93 61q-86 -70 -171 -70h-388v180h334q75 0 104 30.5t29 107.5v247h181v-247q0 -89 41 -117q32 -21 128 -21v-180zM569 -314q0 -96 -116 -96q-125 0 -125 96q0 48 32.5 79.5t80.5 31.5q128 0 128 -111zM224 -314q0 -96 -116 -96 q-126 0 -126 96q0 48 33 79.5t81 31.5q128 0 128 -111zM389 -568q0 -98 -115 -98q-126 0 -126 98q0 110 112 110q52 0 89 -28q40 -31 40 -82z" />
<glyph unicode="&#x686;" horiz-adv-x="1104" arabic-form="final" d="M1011 -223q0 -95 -121 -95q-120 0 -120 95q0 48 33 79t81 31q51 0 88 -28q39 -31 39 -82zM1160 0q-163 5 -220 36q-77 43 -91 90q-10 33 -24 85l-352 -195q-240 -133 -240 -334q0 -146 113.5 -259.5t259.5 -113.5h525l15 -177h-492q-253 0 -421 155q-172 158 -172 409 q0 296 264 442l551 303q-76 117 -397 109q-317 -7 -201 -7l-23 176h434q376 0 376 -371l-164 -93q23 -55 114 -70q30 -5 145 -5v-180zM665 -223q0 -95 -122 -95q-119 0 -119 95q0 48 32 79t80 31q52 0 89 -28q40 -31 40 -82zM826 -478q0 -97 -113 -97q-127 0 -127 97 q0 110 112 110q51 0 88 -28q40 -31 40 -82z" />
<glyph unicode="&#x686;" horiz-adv-x="1031" arabic-form="initial" d="M996 348l-412 -235q-145 -83 -304 -103q-79 -10 -323 -10v180q349 0 493 68q11 5 130 68q74 40 220 123q-35 74 -116 94q-35 8 -159 8l-315 2l-25 176h444q367 0 367 -371zM683 -314q0 -94 -122 -94q-118 0 -118 94q0 48 32 79.5t80 31.5q128 0 128 -111zM339 -314 q0 -94 -123 -94q-118 0 -118 94q0 48 32 79.5t80 31.5q53 0 89 -28q40 -31 40 -83zM503 -568q0 -97 -114 -97q-128 0 -128 97q0 110 113 110q51 0 88 -28q41 -31 41 -82z" />
<glyph unicode="&#x686;" horiz-adv-x="1031" arabic-form="medial" d="M1059 0q-254 6 -281 118q-12 45 -23 93q-260 -154 -376 -183q-107 -28 -422 -28v180q348 0 493 68q30 13 350 191q-35 73 -116 94q-33 8 -159 8l-315 2l-25 176h444q367 0 367 -371l-167 -92q0 -76 230 -76v-180zM705 -314q0 -96 -116 -96q-125 0 -125 96q0 45 34 77 t80 32q52 0 89.5 -29t37.5 -80zM360 -314q0 -96 -116 -96q-124 0 -124 96q0 45 34 77t80 32q126 0 126 -109zM525 -568q0 -98 -115 -98q-126 0 -126 98q0 108 115 108q126 0 126 -108z" />
<glyph unicode="&#x698;" horiz-adv-x="915" arabic-form="final" d="M744 1059q0 -48 -33.5 -79t-81.5 -31q-50 0 -88 31t-38 79q0 97 115 97q126 0 126 -97zM920 804q0 -48 -33.5 -79t-81.5 -31q-49 0 -86 30q-40 32 -40 80q0 97 114 97q127 0 127 -97zM573 804q0 -47 -34 -78.5t-80 -31.5q-51 0 -88 30.5t-37 79.5q0 97 115 97 q124 0 124 -97zM946 0q-142 2 -193 85q0 -226 -112 -375q-123 -165 -343 -165h-233l-29 180h248q112 0 197 75q89 78 89 189v576h180v-259q0 -126 196 -126v-180z" />
<glyph unicode="&#x6af;" horiz-adv-x="1760" arabic-form="final" d="M1419 1361l-626 -227l-9 69l631 227zM1794 0q-203 0 -298 129q-47 -129 -232 -129h-944q-116 0 -189 90q-68 84 -68 203v272h181v-247q0 -77 28.5 -107.5t103.5 -30.5h879q90 0 90 68q0 34 -42 78l-472 492l-31 202l664 239l25 -180l-469 -175l499 -555q0 -1 127 -130 q33 -34 148 -39v-180z" />
<glyph unicode="&#x6af;" horiz-adv-x="856" arabic-form="initial" d="M660 1361l-629 -227l-8 69l632 227zM769 239q0 -115 -89 -180q-79 -59 -197 -59h-526v180h526q103 0 103 68q0 37 -33 72l-479 498l-34 202l665 239l25 -180l-474 -180l463 -511q50 -56 50 -149z" />
<glyph unicode="&#x6af;" horiz-adv-x="1031" arabic-form="medial" d="M680 1361l-629 -227l-8 69l633 227zM1054 0q-222 0 -315 144q-61 -144 -228 -144h-536v180h539q92 0 92 68q0 34 -42 78l-471 492l-30 202l661 239l29 -180l-480 -180l502 -550q53 -59 158 -150q44 -22 121 -19v-180z" />
<glyph unicode="&#x622;" horiz-adv-x="575" arabic-form="final" d="M725 1258h-450q-10 -2 -106 -10q-41 -4 -60 -20q-25 -22 -61 -99l-166 62q65 141 112 177q74 56 225 61q113 4 366 4h140v-175zM604 0q-182 0 -266 46q-117 64 -117 229v851h180v-772q0 -123 40 -151q32 -23 163 -23v-180z" />
<glyph unicode="&#x623;" horiz-adv-x="469" arabic-form="final" d="M509 0q-228 0 -321 88q-62 57 -62 187v851h180v-772q0 -125 42 -153q26 -17 161 -21v-180zM345 1382l-246 -124l-20 40l84 48q-75 38 -75 110q0 49 34.5 84.5t83.5 35.5q24 0 69 -19l-17 -36q-22 13 -54 13q-70 0 -70 -82q0 -68 67 -68q54 0 122 42z" />
<glyph unicode="&#x624;" horiz-adv-x="893" arabic-form="final" d="M484 890l-304 -154l-25 50l104 57q-90 49 -90 131q0 66 39.5 110.5t105.5 44.5q23 0 85 -23l-23 -47q-29 16 -51 16q-43 0 -71.5 -29t-28.5 -72q0 -81 79 -81q59 0 156 51zM919 0h-119q0 -201 -132.5 -328t-333.5 -127h-233l-22 180h227q125 0 211 74q92 79 92 201 q-221 0 -325 58q-140 77 -140 280q0 185 62 274q75 107 253 107q221 0 295 -174q46 -109 46 -365h119v-180zM615 180v171q0 112 -59 155q-47 35 -90 35q-137 0 -137 -185q0 -122 90 -157q48 -19 196 -19z" />
<glyph unicode="&#x625;" horiz-adv-x="469" arabic-form="final" d="M509 0q-228 0 -321 88q-62 57 -62 187v851h180v-772q0 -125 42 -153q26 -17 161 -21v-180zM434 -367l-247 -124l-20 40l84 48q-75 38 -75 110q0 49 35 84.5t84 35.5q24 0 69 -19l-18 -36q-21 13 -54 13q-70 0 -70 -82q0 -68 68 -68q54 0 121 42z" />
<glyph unicode="&#x626;" horiz-adv-x="1289" arabic-form="final" d="M450 781l-304 -152l-25 49l104 57q-92 49 -92 130q0 63 41.5 108.5t104.5 45.5q36 0 86 -21l-22 -47q-28 15 -54 15q-43 0 -71.5 -29t-28.5 -72q0 -81 79 -81q56 0 156 52zM1318 0h-167q9 -31 9 -88q0 -159 -118 -265q-114 -102 -276 -102h-277q-217 0 -337 155 q-109 140 -109 363v322h180v-391q0 -129 90 -202q83 -67 215 -67h231q95 0 157 52q67 56 67 149q0 46 -53 58q-58 12 -321 16l-16 180h725v-180z" />
<glyph unicode="&#x626;" horiz-adv-x="609" arabic-form="initial" d="M446 773l-303 -153l-25 49l103 56q-92 52 -92 134q0 63 41.5 107.5t104.5 44.5q24 0 85 -22l-22 -48q-26 19 -54 19q-99 0 -99 -101q0 -81 79 -81q57 0 155 51zM520 293q0 -116 -72 -202q-76 -91 -189 -91h-295v180q283 0 315 11q60 22 60 162q0 35 -1.5 106t-1.5 106 h184v-272z" />
<glyph unicode="&#x626;" horiz-adv-x="703" arabic-form="medial" d="M441 780l-303 -154l-25 50l103 57q-92 48 -92 130q0 63 41.5 109.5t104.5 46.5q25 0 86 -23l-22 -47q-28 15 -54 15q-43 0 -71.5 -29.5t-28.5 -71.5q0 -82 79 -82q56 0 156 53zM728 0h-29q-93 0 -121 8q-43 11 -103 62q-90 -70 -169 -70h-326v180q29 0 123 -1l93 -1 q116 -2 150 34.5t34 153.5v182q0 17 -1 22v-5h185v-247q0 -90 39 -115q28 -19 125 -23v-180z" />
<glyph unicode="&#x627;" horiz-adv-x="469" arabic-form="final" d="M509 0q-228 0 -321 88q-62 57 -62 187v851h180v-772q0 -125 42 -153q26 -17 161 -21v-180z" />
<glyph unicode="&#x628;" horiz-adv-x="1713" arabic-form="final" d="M1746 0q-214 0 -286 70q-92 -70 -174 -70h-948q-112 0 -187 92q-70 86 -70 201v272h180v-247q0 -77 30 -107.5t105 -30.5h837q75 0 103.5 30.5t28.5 107.5v247h183v-247q0 -138 198 -138v-180zM938 -334q0 -53 -36.5 -88.5t-88.5 -35.5q-135 0 -135 124q0 109 128 109 q132 0 132 -109z" />
<glyph unicode="&#x628;" horiz-adv-x="586" arabic-form="initial" d="M520 293q0 -116 -72 -202q-76 -91 -189 -91h-295v180q283 0 315 11q60 22 60 162q0 35 -1.5 106t-1.5 106h184v-272zM308 -336q0 -53 -36.5 -88.5t-88.5 -35.5q-134 0 -134 124q0 108 129 108q130 0 130 -108z" />
<glyph unicode="&#x628;" horiz-adv-x="703" arabic-form="medial" d="M739 0h-56q-153 0 -233 70q-90 -70 -172 -70h-296v180q279 0 314 13q60 21 60 161q0 35 -1 105.5t-1 105.5h185v-247q0 -88 60 -117q36 -17 140 -21v-180zM314 -326q0 -53 -36 -89t-89 -36q-135 0 -135 125q0 107 129 107q131 0 131 -107z" />
<glyph unicode="&#x629;" horiz-adv-x="1031" arabic-form="final" d="M450 1143l-304 -154l-25 50l104 56q-92 49 -92 130q0 63 41.5 108.5t104.5 45.5q40 0 86 -20l-22 -48q-31 17 -54 17q-43 0 -71.5 -30t-28.5 -73q0 -80 79 -80q58 0 156 51zM1068 0q-118 0 -172 31q-27 16 -188 165q-102 -216 -329 -216q-149 0 -246 97t-97 246 q0 156 209 365l-51 58l121 122l539 -573q71 -75 91 -87q38 -23 123 -28v-180zM553 311q0 66 -34 99l-145 144q-84 -79 -105 -106q-53 -68 -53 -137q0 -70 47 -113.5t118 -43.5q69 0 120.5 44.5t51.5 112.5z" />
<glyph unicode="&#x62a;" horiz-adv-x="1713" arabic-form="final" d="M1113 865q0 -46 -33.5 -76t-80.5 -30q-128 0 -128 106q0 99 118 99q124 0 124 -99zM766 865q0 -46 -33.5 -76t-79.5 -30q-128 0 -128 106q0 99 116 99q125 0 125 -99zM1746 0q-214 0 -286 70q-92 -70 -174 -70h-948q-112 0 -187 92q-70 86 -70 201v272h180v-247 q0 -77 30 -107.5t105 -30.5h837q75 0 103.5 30.5t28.5 107.5v247h183v-247q0 -138 198 -138v-180z" />
<glyph unicode="&#x62a;" horiz-adv-x="680" arabic-form="initial" d="M709 856q0 -46 -33.5 -77t-80.5 -31q-52 0 -88 27q-39 31 -39 81q0 99 116 99q125 0 125 -99zM364 856q0 -46 -33.5 -77t-80.5 -31q-52 0 -88 27q-39 31 -39 81q0 99 116 99q125 0 125 -99zM606 293q0 -117 -69 -202q-74 -91 -188 -91h-385v180h329q75 0 104 30.5 t29 107.5v247h180v-272z" />
<glyph unicode="&#x62a;" horiz-adv-x="739" arabic-form="medial" d="M725 863q0 -47 -33 -77t-79 -30q-127 0 -127 107q0 100 115 100q124 0 124 -100zM380 863q0 -47 -33 -77t-79 -30q-127 0 -127 107q0 100 115 100q124 0 124 -100zM778 0q-111 -1 -165 9q-46 19 -93 61q-86 -70 -171 -70h-388v180h334q75 0 104 30.5t29 107.5v247h181 v-247q0 -89 41 -117q32 -21 128 -21v-180z" />
<glyph unicode="&#x62b;" horiz-adv-x="1713" arabic-form="final" d="M930 1054q0 -47 -34 -77.5t-81 -30.5q-126 0 -126 108q0 100 115 100q126 0 126 -100zM1106 800q0 -46 -34.5 -77.5t-81.5 -31.5q-50 0 -86 29q-39 31 -39 80q0 99 115 99q126 0 126 -99zM759 800q0 -45 -33.5 -77t-79.5 -32q-50 0 -86 29q-40 31 -40 80q0 99 115 99 q124 0 124 -99zM1746 0q-214 0 -286 70q-92 -70 -174 -70h-948q-112 0 -187 92q-70 86 -70 201v272h180v-247q0 -77 30 -107.5t105 -30.5h837q75 0 103.5 30.5t28.5 107.5v247h183v-247q0 -138 198 -138v-180z" />
<glyph unicode="&#x62b;" horiz-adv-x="680" arabic-form="initial" d="M529 1054q0 -48 -34 -79t-82 -31q-52 0 -88 29q-40 31 -40 81q0 100 116 100q128 0 128 -100zM704 800q0 -46 -34.5 -78.5t-80.5 -32.5q-51 0 -88 30q-40 32 -40 81q0 99 117 99q126 0 126 -99zM358 800q0 -46 -34 -78.5t-80 -32.5q-51 0 -88 30q-40 32 -40 81 q0 99 117 99q125 0 125 -99zM606 293q0 -117 -69 -202q-74 -91 -188 -91h-385v180h329q75 0 104 30.5t29 107.5v247h180v-272z" />
<glyph unicode="&#x62b;" horiz-adv-x="739" arabic-form="medial" d="M599 1054q0 -48 -34 -79t-82 -31q-52 0 -88 29q-40 31 -40 81q0 100 116 100q128 0 128 -100zM774 800q0 -46 -34.5 -78.5t-80.5 -32.5q-51 0 -88 30q-40 32 -40 81q0 99 117 99q126 0 126 -99zM428 800q0 -46 -34 -78.5t-80 -32.5q-51 0 -88 30q-40 32 -40 81 q0 99 117 99q125 0 125 -99zM778 0q-111 -1 -165 9q-46 19 -93 61q-86 -70 -171 -70h-388v180h334q75 0 104 30.5t29 107.5v247h181v-247q0 -89 41 -117q32 -21 128 -21v-180z" />
<glyph unicode="&#x62c;" horiz-adv-x="1104" arabic-form="final" d="M1149 0q-164 5 -220 36q-78 43 -91 90q-10 33 -24 85l-353 -195q-240 -133 -240 -334q0 -146 114 -259.5t260 -113.5h525l15 -177h-492q-254 0 -421 155q-172 158 -172 409q0 296 264 442l551 303q-76 117 -397 109q-317 -7 -202 -7l-22 176h434q376 0 376 -371l-164 -93 q22 -55 114 -70q30 -5 145 -5v-180zM823 -326q0 -52 -37 -89.5t-88 -37.5q-58 0 -96 32q-41 34 -41 90q0 110 130 110q132 0 132 -105z" />
<glyph unicode="&#x62c;" horiz-adv-x="1031" arabic-form="initial" d="M996 348l-412 -235q-145 -83 -304 -103q-79 -10 -323 -10v180q349 0 493 68q11 5 130 68q74 40 220 123q-35 74 -116 94q-35 8 -159 8l-315 2l-25 176h444q367 0 367 -371zM349 -323q0 -52 -35.5 -89t-88.5 -37q-58 0 -96 32q-41 34 -41 91q0 112 131 112q130 0 130 -109 z" />
<glyph unicode="&#x62c;" horiz-adv-x="1031" arabic-form="medial" d="M1059 0q-254 6 -281 118q-12 45 -23 93q-260 -154 -376 -183q-107 -28 -422 -28v180q348 0 493 68q30 13 350 191q-35 73 -116 94q-33 8 -159 8l-315 2l-25 176h444q367 0 367 -371l-167 -92q0 -76 230 -76v-180zM519 -334q0 -51 -36 -88.5t-88 -37.5q-58 0 -96 32 q-41 34 -41 90q0 110 131 110q130 0 130 -106z" />
<glyph unicode="&#x62d;" horiz-adv-x="1104" arabic-form="final" d="M1151 0q-272 0 -311 126q-8 25 -25 85l-351 -195q-241 -134 -241 -334q0 -145 114.5 -259t260.5 -114h525l15 -177h-494q-286 0 -459 203q-134 157 -134 351v39q1 1 5 39q31 249 259 374l555 303q-39 71 -120 89q-29 6 -159 10q-86 2 -321 3l-25 176h435q370 0 376 -371 l-163 -93q11 -75 258 -75v-180z" />
<glyph unicode="&#x62d;" horiz-adv-x="1031" arabic-form="initial" d="M996 348l-412 -235q-138 -79 -304 -100q-68 -9 -323 -13v180h144q198 0 367 76q29 14 332 183q-29 67 -122 92q-24 6 -468 12l-25 176h444q365 0 367 -371z" />
<glyph unicode="&#x62d;" horiz-adv-x="1031" arabic-form="medial" d="M1059 0q-249 0 -281 118q-6 21 -13 50l-10 43q-243 -147 -377 -181q-106 -26 -421 -30v180h144q192 0 367 76q50 22 332 183q-30 69 -122 92q-15 4 -110 7q-48 1 -358 5l-25 176h444q361 0 367 -374l-167 -90q0 -75 230 -75v-180z" />
<glyph unicode="&#x62e;" horiz-adv-x="1104" arabic-form="final" d="M739 1045q0 -53 -36 -89.5t-89 -36.5q-136 0 -136 126q0 109 131 109q130 0 130 -109zM1149 0q-164 5 -220 36q-78 43 -91 90q-10 33 -24 85l-353 -195q-240 -133 -240 -334q0 -146 114 -259.5t260 -113.5h525l15 -177h-492q-254 0 -421 155q-172 158 -172 409 q0 296 264 442l551 303q-76 117 -397 109q-317 -7 -202 -7l-22 176h434q376 0 376 -371l-164 -93q22 -55 114 -70q30 -5 145 -5v-180z" />
<glyph unicode="&#x62e;" horiz-adv-x="1031" arabic-form="initial" d="M649 1041q0 -51 -37 -88t-88 -37q-136 0 -136 125q0 108 131 108q130 0 130 -108zM996 348l-412 -235q-145 -83 -304 -103q-79 -10 -323 -10v180q349 0 493 68q11 5 130 68q74 40 220 123q-35 74 -116 94q-35 8 -159 8l-315 2l-25 176h444q367 0 367 -371z" />
<glyph unicode="&#x62e;" horiz-adv-x="1031" arabic-form="medial" d="M609 1070q0 -53 -36 -89.5t-89 -36.5q-58 0 -96.5 34.5t-38.5 91.5q0 106 129 106q131 0 131 -106zM1059 0q-254 6 -281 118q-12 45 -23 93q-260 -154 -376 -183q-107 -28 -422 -28v180q348 0 493 68q30 13 350 191q-35 73 -116 94q-33 8 -159 8l-315 2l-25 176h444 q367 0 367 -371l-167 -92q0 -76 230 -76v-180z" />
<glyph unicode="&#x62f;" horiz-adv-x="1171" arabic-form="final" d="M1225 0h-82q-102 0 -228 124q-81 -124 -239 -124h-558l-25 180h572q99 0 99 68q0 38 -28 67l-405 431l122 122l541 -573q71 -75 97 -90q45 -25 134 -25v-180z" />
<glyph unicode="&#x630;" horiz-adv-x="1171" arabic-form="final" d="M475 1076q0 -51 -36.5 -87t-88.5 -36q-136 0 -136 123q0 109 131 109q130 0 130 -109zM1224 0h-84q-101 0 -225 124q-50 -72 -100.5 -98t-138.5 -26h-561l-25 180h573q98 0 98 68q0 39 -26 67l-406 431l121 122l541 -573q67 -71 98 -89q45 -26 135 -26v-180z" />
<glyph unicode="&#x631;" horiz-adv-x="915" arabic-form="final" d="M946 0q-136 0 -193 85q0 -226 -112 -375q-123 -165 -343 -165h-233l-29 180h248q116 0 199 73q87 76 87 191v576h180v-259q0 -122 196 -126v-180z" />
<glyph unicode="&#x632;" horiz-adv-x="915" arabic-form="final" d="M744 1045q0 -53 -36 -89.5t-89 -36.5q-138 0 -138 126q0 106 132 106q131 0 131 -106zM946 0q-142 2 -193 85q0 -226 -112 -375q-123 -165 -343 -165h-233l-29 180h248q112 0 197 75q89 78 89 189v576h180v-259q0 -126 196 -126v-180z" />
<glyph unicode="&#x633;" horiz-adv-x="2298" arabic-form="final" d="M2334 0q-105 2 -141 13q-69 18 -109 83q-80 -114 -223 -114q-134 0 -238 122q-97 -127 -229 -127q-95 0 -180 77q0 -212 -115 -355q-124 -154 -330 -154h-280q-194 0 -321 137q-123 133 -123 329v374h180v-382q0 -123 81.5 -200.5t204.5 -77.5h235q126 0 207 76t81 202 v562h180v-267q0 -64 45 -104t109 -40q121 0 121 112v299h180v-265q0 -62 45.5 -104t108.5 -42q123 0 123 112v299h178v-276q0 -62 66 -93q19 -8 144 -16v-180z" />
<glyph unicode="&#x633;" horiz-adv-x="1455" arabic-form="initial" d="M1390 289q0 -134 -61 -216q-68 -93 -198 -93q-127 0 -243 121q-103 -119 -219 -119q-122 0 -245 142q-108 -124 -235 -124h-229v180h216q125 0 125 134v251h177v-265q0 -64 46 -105t111 -41q123 0 123 112v299h175v-265q0 -63 45.5 -104.5t109.5 -41.5q126 0 126 112v299 h176v-276z" />
<glyph unicode="&#x633;" horiz-adv-x="1561" arabic-form="medial" d="M1589 0q-105 2 -140 13q-70 19 -106 83q-83 -116 -208 -116q-126 0 -247 119q-105 -119 -262 -119q-146 0 -241 126q-59 -77 -201 -97q-63 -9 -234 -9v180h151q99 0 138 25q51 33 51 131v229h176v-267q0 -63 46 -103.5t109 -40.5q123 0 123 112v299h177v-265 q0 -63 47 -105q44 -41 108 -41q125 0 125 112v299h178v-276q0 -63 65 -93q19 -9 145 -16v-180z" />
<glyph unicode="&#x634;" horiz-adv-x="2298" arabic-form="final" d="M1568 941q-53 0 -89 28q-39 30 -39 81q0 99 121 99q45 0 81 -24q41 -27 41 -69q0 -48 -34 -81.5t-81 -33.5zM1856 795q0 -46 -34 -76.5t-81 -30.5q-52 0 -88 27q-40 30 -40 80q0 100 117 100q126 0 126 -100zM1508 795q0 -45 -34.5 -76t-79.5 -31q-52 0 -88 27 q-40 30 -40 80q0 100 117 100q125 0 125 -100zM2328 0h-64q-125 0 -189 99q-81 -115 -224 -115q-141 0 -236 122q-96 -126 -225 -126q-98 0 -182 74q-3 -212 -117 -354q-124 -155 -330 -155h-278q-192 0 -320 138q-124 135 -124 328v374h180v-382q0 -126 80 -202t206 -76 h234q123 0 206 77.5t83 200.5v562h180v-267q0 -62 43 -103t105 -41q127 0 127 112v299h180v-265q0 -65 44 -105.5t109 -40.5q124 0 124 112v299h178v-276q0 -109 210 -109v-180z" />
<glyph unicode="&#x634;" horiz-adv-x="1455" arabic-form="initial" d="M933 1054q0 -48 -34 -79t-81 -31q-50 0 -87 30q-40 32 -40 80q0 97 115 97q127 0 127 -97zM1109 800q0 -48 -33.5 -79.5t-81.5 -31.5q-50 0 -88 31t-38 80q0 96 113 96q128 0 128 -96zM761 800q0 -46 -33.5 -78.5t-79.5 -32.5q-51 0 -88 31t-37 80q0 96 115 96 q123 0 123 -96zM1390 289q0 -130 -60 -213q-67 -94 -192 -94q-143 0 -248 122q-104 -120 -219 -120q-130 0 -245 142q-121 -126 -237 -126h-229v180h216q125 0 125 131v253l177 1v-265q0 -65 44 -105.5t109 -40.5q127 0 127 112v299h175v-265q0 -64 45 -105t110 -41 q126 0 126 112v299h176v-276z" />
<glyph unicode="&#x634;" horiz-adv-x="1561" arabic-form="medial" d="M778 995q-52 0 -89 29q-40 32 -40 82q0 97 121 97q46 0 81 -23q42 -26 42 -69q0 -49 -33 -82.5t-82 -33.5zM1065 851q0 -47 -33.5 -78.5t-81.5 -31.5q-51 0 -89 30t-38 80q0 98 116 98q126 0 126 -98zM716 851q0 -46 -33.5 -78t-79.5 -32q-51 0 -88 30q-40 31 -40 80 q0 98 116 98q125 0 125 -98zM1589 0h-69l-65 11q-73 13 -116 88q-83 -117 -205 -117q-128 0 -249 122q-108 -122 -256 -122t-244 127q-69 -78 -202 -99q-63 -10 -233 -10v180h165q93 0 124 23q51 37 51 133v229h176v-267q0 -64 47 -105q44 -39 108 -39q123 0 123 112v299 h177v-265q0 -64 45.5 -105t109.5 -41q125 0 125 112v299h178v-276q0 -109 210 -109v-180z" />
<glyph unicode="&#x635;" horiz-adv-x="2253" arabic-form="final" d="M2284 0h-818q-202 0 -241 95q0 -238 -104 -384q-120 -166 -348 -166h-278q-201 0 -321 145q-113 136 -113 341v354h175v-396q0 -110 81 -187t192 -77h252q105 0 193.5 80t88.5 184v576h181v-267q0 -117 171 -118q214 541 495 541q184 0 278 -180q42 -81 42 -205 q0 -67 -27 -156h101v-180zM2025 361q0 178 -107 178q-157 0 -339 -359h347q99 0 99 181z" />
<glyph unicode="&#x635;" horiz-adv-x="1548" arabic-form="initial" d="M1449 349q0 -76 -23 -158q-34 -122 -106 -161q-56 -30 -186 -30h-456q-187 0 -257 146q-107 -146 -243 -146h-218v180h200q126 0 126 134v251h178v-231q0 -153 174 -154q208 539 497 539q66 0 140 -41q174 -98 174 -329zM1269 354q0 121 -55 166q-23 19 -54 19 q-159 0 -345 -359h353q101 0 101 174z" />
<glyph unicode="&#x635;" horiz-adv-x="1561" arabic-form="medial" d="M1589 0h-911q-187 0 -257 146q-107 -146 -243 -146h-218v180h200q126 0 126 134v251h178v-231q0 -153 174 -154q208 539 497 539q72 0 143 -41q171 -100 171 -330q0 -69 -28 -168h168v-180zM1269 354q0 121 -55 166q-23 19 -54 19q-159 0 -345 -359h353q101 0 101 174z " />
<glyph unicode="&#x636;" horiz-adv-x="2253" arabic-form="final" d="M1863 1039q0 -52 -37 -88t-88 -36q-137 0 -137 124q0 107 132 107q130 0 130 -107zM2283 0h-819q-213 0 -240 95q-4 -240 -106 -384q-118 -166 -348 -166h-276q-197 0 -320 147q-115 139 -115 339v354h175v-396q0 -107 82.5 -185.5t189.5 -78.5h253q101 0 191.5 82 t90.5 182v576h180v-267q0 -118 172 -118q222 541 495 541q70 0 146 -43q171 -99 171 -333q0 -86 -26 -165h104v-180zM2023 354q0 185 -108 185q-87 0 -200 -139q-86 -106 -137 -220h346q99 0 99 174z" />
<glyph unicode="&#x636;" horiz-adv-x="1548" arabic-form="initial" d="M1023 1064q0 -52 -37 -88.5t-88 -36.5q-134 0 -134 125q0 107 129 107q130 0 130 -107zM1449 351q0 -79 -23 -160q-33 -121 -106 -161q-55 -30 -186 -30h-456q-180 0 -259 146q-105 -146 -243 -146h-216v180h200q126 0 126 131v253l178 1v-231q0 -154 176 -154 q222 539 498 539q71 0 140 -41q171 -103 171 -327zM1160 539q-90 0 -204 -138q-86 -104 -141 -221h350q101 0 101 168q0 191 -106 191z" />
<glyph unicode="&#x636;" horiz-adv-x="1561" arabic-form="medial" d="M1028 1068q0 -52 -37.5 -88t-89.5 -36q-135 0 -135 124q0 108 130 108q132 0 132 -108zM1589 0h-911q-180 0 -259 146q-105 -146 -243 -146h-216v180h200q126 0 126 131v253l178 1v-231q0 -154 176 -154q222 539 498 539q72 0 140 -41q168 -104 168 -330q0 -85 -27 -168 h170v-180zM1160 539q-90 0 -204 -138q-86 -104 -141 -221h350q101 0 101 168q0 191 -106 191z" />
<glyph unicode="&#x637;" horiz-adv-x="1043" arabic-form="final" d="M1061 0h-985l-36 180h154v974h176v-643q171 208 313 208q57 0 132 -41q174 -97 174 -367q0 -58 -25 -131h97v-180zM809 369q0 170 -109 170q-89 0 -202 -139q-84 -102 -139 -220h346q44 0 79 56q25 40 25 133z" />
<glyph unicode="&#x637;" horiz-adv-x="986" arabic-form="initial" d="M629 0h-665v180h154v974h180v-643q173 205 308 205q139 0 230 -123q82 -111 82 -257t-70 -236q-77 -100 -219 -100zM621 536q-88 0 -203 -137q-92 -109 -139 -221h350q104 0 104 163q0 195 -112 195z" />
<glyph unicode="&#x637;" horiz-adv-x="949" arabic-form="medial" d="M966 0h-1016v180h131v974h175v-643q172 208 314 208q58 0 133 -41q168 -94 168 -338q0 -95 -23 -160h118v-180zM696 369q0 170 -108 170q-89 0 -203 -139q-85 -104 -140 -220h348q43 0 78 56q25 40 25 133z" />
<glyph unicode="&#x638;" horiz-adv-x="1043" arabic-form="final" d="M829 1053q0 -52 -37 -88.5t-88 -36.5q-134 0 -134 125q0 107 129 107q130 0 130 -107zM1061 0h-987l-34 180h154v974h176v-643q166 208 310 208q64 0 134 -41q175 -104 175 -304q0 -118 -26 -194h98v-180zM806 359q0 180 -107 180q-89 0 -204 -138q-91 -109 -139 -221 h347q103 0 103 179z" />
<glyph unicode="&#x638;" horiz-adv-x="986" arabic-form="initial" d="M744 1036q0 -53 -36 -89.5t-89 -36.5q-136 0 -136 126q0 107 130 107q131 0 131 -107zM629 0h-665v180h154v974h180v-643q173 205 308 205q139 0 230 -123q82 -111 82 -257t-70 -236q-77 -100 -219 -100zM621 536q-88 0 -203 -137q-92 -109 -139 -221h350q104 0 104 163 q0 195 -112 195z" />
<glyph unicode="&#x638;" horiz-adv-x="949" arabic-form="medial" d="M753 1068q0 -53 -36.5 -90t-88.5 -37q-137 0 -137 127q0 106 130 106q132 0 132 -106zM966 0h-1017l1 180h131v974h175v-643q166 208 312 208q66 0 132 -41q171 -108 171 -302q0 -117 -26 -196h121v-180zM694 359q0 180 -108 180q-88 0 -203 -138q-92 -109 -139 -221h346 q104 0 104 179z" />
<glyph unicode="&#x639;" horiz-adv-x="1115" arabic-form="final" d="M1154 0q-184 0 -266 15q-152 27 -233 118q-432 -183 -432 -456q0 -138 122 -261q108 -107 243 -107h525l18 -177h-496q-240 0 -412 163t-172 402q0 357 472 559l-239 235q58 104 121 228h384q185 0 237 -131q17 -41 17 -68q0 -111 -64 -186q-47 -56 -165 -120 q80 -34 340 -34v-180zM860 491q0 25 -33 41q-27 13 -54 13h-284l199 -209q172 95 172 155z" />
<glyph unicode="&#x639;" horiz-adv-x="904" arabic-form="initial" d="M865 0h-905v180h256q-56 129 -56 231t59.5 182t156.5 107q67 19 150 19q144 0 277 -133l-89 -140q-142 108 -241 108q-142 0 -142 -173q0 -75 35 -133q41 -68 112 -68h358z" />
<glyph unicode="&#x639;" horiz-adv-x="831" arabic-form="medial" d="M860 0q-168 0 -235 18q-92 23 -204 113q-113 -93 -225 -120q-26 -6 -239 -11v180q251 0 316 65l-250 246q58 104 121 228h386q185 0 235 -130q16 -43 16 -69q0 -110 -61 -181q-39 -45 -155 -118q107 -41 295 -41v-180zM586 489q0 24 -31 41q-26 15 -52 15h-287l197 -207 q173 88 173 151z" />
<glyph unicode="&#x63a;" horiz-adv-x="1115" arabic-form="final" d="M838 1045q0 -53 -36 -89.5t-88 -36.5q-138 0 -138 126q0 106 132 106q130 0 130 -106zM1156 180l-2 -180l-163 5q-227 8 -337 128q-433 -193 -433 -456q0 -141 112 -254.5t253 -113.5h527l18 -177h-496q-241 0 -411 158q-173 162 -173 401q0 379 472 565l-239 235 q58 104 121 228h384q192 0 240 -131q14 -38 14 -68q0 -28 -9 -90q-14 -98 -219 -216q89 -34 341 -34zM860 494l-9 22q-31 29 -78 29h-284l199 -207q172 91 172 156z" />
<glyph unicode="&#x63a;" horiz-adv-x="904" arabic-form="initial" d="M599 1041q0 -51 -37 -88t-88 -37q-136 0 -136 125q0 108 131 108q130 0 130 -108zM865 0h-905v180h256q-58 117 -58 221q0 144 92 232t236 88q175 0 317 -135l-89 -140q-148 108 -239 108q-144 0 -144 -169q0 -78 34 -135q40 -70 113 -70h358z" />
<glyph unicode="&#x63a;" horiz-adv-x="831" arabic-form="medial" d="M503 1068q0 -52 -37 -88t-88 -36q-134 0 -134 124q0 108 127 108q132 0 132 -108zM860 0q-153 -1 -231 19q-103 26 -210 112q-143 -119 -276 -128q-34 -3 -82 -3h-106l2 180q254 5 316 65q-161 163 -250 246q66 115 120 228h387q190 0 240 -130q16 -43 16 -69 q0 -17 -8 -90q-12 -94 -210 -209q114 -41 292 -41v-180zM586 489l-10 27q-10 29 -73 29h-287l197 -207q173 90 173 151z" />
<glyph unicode="&#x641;" horiz-adv-x="1618" arabic-form="final" d="M1359 1054q0 -53 -36 -89.5t-89 -36.5q-136 0 -136 126q0 106 130 106q131 0 131 -106zM1643 0q-314 0 -388 40q-25 -37 -342 -37q-45 -1 -300 -2l-299 -1q-109 0 -178 94q-62 86 -62 199v272h181v-247q0 -138 133 -138h623q-101 113 -101 246q0 134 97 216q92 77 228 77 q139 0 221 -100q78 -93 78 -234q0 -112 -65 -205h174v-180zM1370 385q0 66 -43.5 113t-108.5 47q-55 0 -97 -40.5t-42 -94.5q0 -105 182 -191q109 67 109 166z" />
<glyph unicode="&#x641;" horiz-adv-x="915" arabic-form="initial" d="M573 1098q0 -52 -37.5 -88.5t-89.5 -36.5q-132 0 -132 125q0 107 127 107q132 0 132 -107zM800 284q6 -116 -85 -202q-89 -82 -206 -82h-540v180h542q99 0 99 134q-140 1 -317 17q-149 55 -149 245q0 131 82 211.5t213 80.5q107 0 196 -57q143 -90 154 -302zM599 484 q-7 199 -169 199q-119 0 -119 -95q0 -76 45 -94q19 -8 112 -9z" />
<glyph unicode="&#x641;" horiz-adv-x="856" arabic-form="medial" d="M556 1041q0 -51 -36.5 -88t-88.5 -37q-133 0 -133 125q0 108 128 108q130 0 130 -108zM904 0q-20 4 -106 5l-178 3q-93 1 -171 40q-83 -48 -512 -48v180h266q-99 111 -99 238q0 141 92 222q89 79 232 79q134 0 218 -95q82 -90 82 -226q0 -125 -65 -218h241v-180zM564 385 q0 60 -44 110t-104 50q-59 0 -101 -39.5t-42 -97.5q0 -111 182 -189q109 81 109 166z" />
<glyph unicode="&#x642;" horiz-adv-x="1350" arabic-form="final" d="M1156 773q0 -47 -33.5 -77t-79.5 -30q-128 0 -128 107q0 98 116 98q125 0 125 -98zM809 773q0 -47 -33.5 -77t-80.5 -30q-127 0 -127 107q0 98 116 98q125 0 125 -98zM1385 0h-149q0 -189 -133.5 -322t-322.5 -133h-280q-182 0 -308 142q-122 137 -122 322v376h180v-396 q0 -102 104 -188q86 -71 182 -71h234q116 0 196.5 77t89.5 193q-258 0 -326 25q-160 59 -160 259q0 131 99 209q90 72 225 72q159 0 255 -115q90 -107 92 -270h144v-180zM1061 180q0 86 -52.5 143.5t-138.5 57.5q-124 0 -124 -91q0 -70 60 -96q32 -14 255 -14z" />
<glyph unicode="&#x642;" horiz-adv-x="915" arabic-form="initial" d="M733 1061q0 -46 -33.5 -76t-80.5 -30q-125 0 -125 106q0 99 114 99q125 0 125 -99zM388 1061q0 -46 -33.5 -76t-80.5 -30q-125 0 -125 106q0 99 115 99q124 0 124 -99zM800 284q6 -116 -85 -202q-89 -82 -206 -82h-540v180h542q99 0 99 134q-140 1 -317 17 q-149 55 -149 245q0 131 82 211.5t213 80.5q107 0 196 -57q143 -90 154 -302zM599 484q-7 199 -169 199q-119 0 -119 -95q0 -76 45 -94q19 -8 112 -9z" />
<glyph unicode="&#x642;" horiz-adv-x="856" arabic-form="medial" d="M691 1064q0 -47 -32.5 -76.5t-79.5 -29.5q-126 0 -126 106q0 99 115 99q123 0 123 -99zM348 1064q0 -47 -33.5 -76.5t-80.5 -29.5q-125 0 -125 106q0 99 114 99q125 0 125 -99zM904 0q-20 4 -106 5l-178 3q-93 1 -171 40q-83 -48 -512 -48v180h266q-99 111 -99 238 q0 141 92 222q89 79 232 79q134 0 218 -95q82 -90 82 -226q0 -125 -65 -218h241v-180zM564 385q0 60 -44 110t-104 50q-59 0 -101 -39.5t-42 -97.5q0 -111 182 -189q109 81 109 166z" />
<glyph unicode="&#x643;" horiz-adv-x="1760" arabic-form="final" d="M1806 0q-202 0 -297 129q-48 -129 -231 -129h-944q-114 0 -188 91q-70 85 -70 202v272h180v-247q0 -76 29.5 -107t104.5 -31h879q90 0 90 65q0 35 -44 81l-467 492l-34 202l664 239l25 -180l-469 -175l500 -555l129 -130q33 -34 143 -39v-180z" />
<glyph unicode="&#x643;" horiz-adv-x="843" arabic-form="initial" d="M803 245q0 -245 -275 -245h-562v180h562q71 0 71 84q0 39 -23 62l-467 492l-30 201l660 240l27 -180l-466 -175l369 -413q39 -44 100 -142q34 -55 34 -104z" />
<glyph unicode="&#x643;" horiz-adv-x="1009" arabic-form="medial" d="M1064 0q-230 0 -325 131q-53 -131 -248 -131h-534v180h537q71 0 71 93q0 32 -20 53l-469 492l-33 202l662 239l25 -180l-469 -175l497 -550q84 -94 132 -125q71 -46 174 -49v-180z" />
<glyph unicode="&#x644;" horiz-adv-x="1408" arabic-form="final" d="M1446 0q-145 0 -202 85q0 -226 -111 -375q-124 -165 -344 -165h-278q-185 0 -311 141q-121 136 -121 323v376h176v-396q0 -116 88 -192q84 -72 202 -72h233q117 0 198 73q85 75 85 191v1165h180v-848q0 -124 205 -126v-180z" />
<glyph unicode="&#x644;" horiz-adv-x="516" arabic-form="initial" d="M388 275q0 -130 -77.5 -202.5t-209.5 -72.5h-137v180q140 0 122 -1q87 6 110 44q15 23 15 131v800h177v-879z" />
<glyph unicode="&#x644;" horiz-adv-x="598" arabic-form="medial" d="M635 0h-54q-175 0 -261 70q-65 -54 -117 -64q-34 -6 -237 -6v180q54 -2 129 -2q86 0 114 47q19 32 19 129v800h180v-836q0 -98 58 -122q28 -11 169 -16v-180z" />
<glyph unicode="&#x645;" horiz-adv-x="1233" arabic-form="final" d="M1281 0q-112 0 -158 20q-59 25 -114 111q-56 -142 -228 -142q-147 0 -239 93t-92 241v220q-82 0 -139 -48q-61 -50 -61 -130v-820h-176v798q0 175 88 273q93 103 266 103h365q288 0 288 -421q0 -116 200 -118v-180zM906 331q0 138 -30 169q-38 40 -252 43v-253 q0 -57 45 -91q41 -30 100 -30q137 0 137 162z" />
<glyph unicode="&#x645;" horiz-adv-x="843" arabic-form="initial" d="M781 338q0 -155 -77 -254q-84 -109 -235 -109q-115 0 -203 68q-87 -38 -305 -43v180q153 0 179 30q8 10 11 138q9 371 323 371q150 0 234 -120q73 -105 73 -261zM624 348q0 195 -155 195q-158 0 -158 -202q0 -187 158 -187q155 0 155 194z" />
<glyph unicode="&#x645;" horiz-adv-x="904" arabic-form="medial" d="M930 0q-89 0 -129 16q-52 22 -93 88q-77 -129 -248 -129q-63 0 -131.5 38t-103.5 91q-20 -102 -273 -104v180q150 0 177 30q14 15 14 138q0 164 77 262q85 109 245 109q146 0 230 -116q75 -103 78 -255q1 -57 2 -73q6 -65 48 -82q20 -9 107 -13v-180zM610 353 q0 190 -152 190q-158 0 -158 -202q0 -187 158 -187q152 0 152 199z" />
<glyph unicode="&#x646;" horiz-adv-x="1361" arabic-form="final" d="M736 606q0 -51 -36.5 -87t-88.5 -36q-136 0 -136 123q0 108 131 108q130 0 130 -108zM1440 0q-148 0 -199 85q0 -226 -111 -375q-123 -165 -344 -165h-277q-185 0 -311 141q-122 136 -122 323v376h177v-396q0 -116 88 -192q84 -72 202 -72h232q117 0 200.5 74t83.5 190 v576h180v-259q0 -124 201 -126v-180z" />
<glyph unicode="&#x646;" horiz-adv-x="586" arabic-form="initial" d="M343 848q0 -53 -36.5 -90t-88.5 -37q-137 0 -137 127q0 107 130 107q132 0 132 -107zM520 293q0 -116 -72 -202q-76 -91 -189 -91h-295v180q283 0 315 11q60 22 60 162q0 35 -1.5 106t-1.5 106h184v-272z" />
<glyph unicode="&#x646;" horiz-adv-x="703" arabic-form="medial" d="M343 848q0 -53 -36.5 -90t-88.5 -37q-137 0 -137 127q0 107 130 107q132 0 132 -107zM735 0h-59q-170 0 -250 70q-90 -70 -173 -70h-296v180q279 0 314 13q60 21 60 160q0 35 -1 106t-1 106h182v-247q0 -133 224 -138v-180z" />
<glyph unicode="&#x647;" horiz-adv-x="1031" arabic-form="final" d="M1068 0q-118 0 -172 31q-27 16 -188 165q-102 -216 -329 -216q-149 0 -246 97t-97 246q0 156 209 365l-51 58l121 122l539 -573q71 -75 91 -87q38 -23 123 -28v-180zM553 311q0 66 -34 99l-145 144q-84 -79 -105 -106q-53 -68 -53 -137q0 -70 47 -113.5t118 -43.5 q69 0 120.5 44.5t51.5 112.5z" />
<glyph unicode="&#x647;" horiz-adv-x="1171" arabic-form="initial" d="M1093 239q0 -119 -89 -214t-206 -95q-143 0 -370 133q-116 -59 -259 -60l-200 -3v180h250q-99 130 -99 248q0 128 82 210.5t211 82.5q116 0 216 -97l-118 122l135 122q447 -427 447 -629zM904 228q0 108 -238 348q55 -62 55 -171q0 -172 -111 -229q102 -61 176 -61 q118 0 118 113zM548 415q0 61 -45 101t-107 40q-49 0 -79 -41q-28 -37 -28 -87q0 -117 144 -173q115 51 115 160z" />
<glyph unicode="&#x647;" horiz-adv-x="798" arabic-form="medial" d="M831 0h-227q132 -91 132 -264q0 -209 -265 -209q-322 0 -350 277l-20 196h-155v180h147q-14 184 -14 201q0 335 336 335q136 0 218 -74q86 -78 86 -212q0 -152 -120 -250h232v-180zM550 433q0 117 -120 117q-171 0 -171 -229q0 -14 5 -141q115 0 197 68q89 72 89 185z M586 -208q0 104 -111 168q-94 54 -207 54q0 -334 183 -334q135 0 135 112z" />
<glyph unicode="&#x648;" horiz-adv-x="893" arabic-form="final" d="M919 0h-119q0 -198 -132.5 -326.5t-331.5 -128.5h-232l-25 180h227q128 0 213 74t90 201q-223 0 -328 61q-137 80 -137 287q0 226 109 317q63 54 213 54q215 0 288 -178q42 -104 46 -361h119v-180zM615 180v171q0 75 -36 129q-41 61 -113 61q-86 0 -116 -58 q-21 -42 -21 -139q0 -114 95 -146q51 -18 191 -18z" />
<glyph unicode="&#x649;" horiz-adv-x="1289" arabic-form="final" d="M1318 0h-167l9 -88q0 -157 -119 -264q-116 -103 -275 -103h-277q-213 0 -335 156q-111 143 -111 362v322h180v-391q0 -129 90 -202q83 -67 215 -67h231q96 0 158 51q66 55 66 150q0 58 -165 71q-30 3 -209 3l-16 180h725v-180z" />
<glyph unicode="&#x64a;" horiz-adv-x="1289" arabic-form="final" d="M1318 0h-167l9 -88q0 -157 -119 -264q-116 -103 -275 -103h-277q-213 0 -335 156q-111 143 -111 362v322h180v-391q0 -129 90 -202q83 -67 215 -67h231q96 0 158 51q66 55 66 150q0 58 -165 71q-30 3 -209 3l-16 180h725v-180z" />
<glyph unicode="&#x64a;" horiz-adv-x="680" arabic-form="initial" d="M606 293q0 -117 -69 -202q-74 -91 -188 -91h-385v180h329q75 0 104 30.5t29 107.5v247h180v-272zM575 -345q0 -46 -33.5 -76t-80.5 -30q-50 0 -86 27q-39 30 -39 79q0 100 114 100q125 0 125 -100zM230 -345q0 -46 -33.5 -76t-80.5 -30q-50 0 -86 27q-39 30 -39 79 q0 100 114 100q125 0 125 -100z" />
<glyph unicode="&#x64a;" horiz-adv-x="739" arabic-form="medial" d="M775 0q-110 -1 -165 9q-43 17 -91 61q-86 -70 -171 -70h-388v180h333q75 0 104 30.5t29 107.5v247h180v-247q0 -89 42 -117q32 -21 127 -21v-180zM615 -343q0 -46 -33 -76t-79 -30q-51 0 -87 28q-40 30 -40 78q0 99 115 99q124 0 124 -99zM270 -343q0 -46 -33 -76 t-79 -30q-51 0 -87 28q-40 30 -40 78q0 99 115 99q124 0 124 -99z" />
<glyph unicode="&#xd;" horiz-adv-x="469" />
<glyph unicode=" "  horiz-adv-x="469" />
<glyph unicode="&#x09;" horiz-adv-x="469" />
<glyph unicode="&#xa0;" horiz-adv-x="469" />
<glyph unicode="!" horiz-adv-x="469" d="M326 759q0 -12 -12 -136l-28 -274h-95l-42 410v395h177v-395zM371 120q0 -120 -137 -120q-125 0 -125 120q0 110 135 110q127 0 127 -110z" />
<glyph unicode="%" horiz-adv-x="1471" d="M1401 45q0 -109 -92 -188q-87 -76 -198 -76q-108 0 -195 80q-90 81 -90 189t91.5 197t200.5 89q113 0 198 -88.5t85 -202.5zM1278 56q0 60 -50.5 109t-109.5 49q-66 0 -117.5 -51.5t-51.5 -117.5q0 -73 76 -121q43 -28 93 -28q61 0 110.5 49t49.5 111zM1129 930 l-646 -1174h-174l640 1174h180zM643 658q0 -110 -95 -191q-90 -77 -202 -77q-110 0 -194 81.5t-84 191.5q0 111 88 194.5t200 83.5q108 0 197.5 -88t89.5 -195zM516 664q0 62 -53 109t-117 47q-65 0 -111 -51t-46 -116q0 -64 54 -107q50 -41 115 -41q64 0 111 47.5t47 111.5 z" />
<glyph unicode="(" horiz-adv-x="721" d="M643 1399q-162 -313 -229 -511q-94 -277 -94 -550q0 -346 74 -619q73 -266 246 -573h-99q-205 295 -297 539q-109 286 -109 605q0 299 120 585q82 197 293 524h95z" />
<glyph unicode=")" horiz-adv-x="721" d="M584 266q0 -307 -118 -591q-82 -199 -295 -529h-95q323 599 323 1062q0 371 -73 621q-58 199 -247 570h99q204 -303 295 -535q111 -286 111 -598z" />
<glyph unicode="*" horiz-adv-x="680" d="M610 113l-20 -40l-236 132v-273h-45v273l-235 -135l-26 39l236 135l-236 137l25 43l236 -134v271h45v-271l234 136l22 -41l-234 -137zM376 248l-22 42h-45l-25 -46l25 -39h45z" />
<glyph unicode="+" horiz-adv-x="1275" d="M1191 239h-466v-464h-171v464h-464v176h464v464h171v-464h466v-176z" />
<glyph unicode="," horiz-adv-x="264" d="M4 34q0 110 136 110q82 0 109 -43q19 -30 19 -117q0 -162 -25 -228q-43 -111 -177 -124v65q79 8 107 75q14 38 18 138q-187 0 -187 124z" />
<glyph unicode="-" horiz-adv-x="1149" d="M1076 239h-981v177h981v-177z" />
<glyph unicode="." horiz-adv-x="564" d="M416 96q0 -119 -137 -119q-128 0 -128 119q0 112 138 112q127 0 127 -112z" />
<glyph unicode="/" horiz-adv-x="971" d="M904 930l-648 -1174h-172l640 1174h180z" />
<glyph unicode="0" horiz-adv-x="1210" d="M926 318q0 -118 -100.5 -206.5t-219.5 -88.5q-124 0 -223 88.5t-99 211.5q0 126 100.5 223.5t226.5 97.5q122 0 218.5 -102t96.5 -224zM781 323q0 71 -54 124t-126 53q-71 0 -124 -56t-53 -128q0 -69 60 -118q56 -45 127 -45q67 0 118.5 51.5t51.5 118.5z" />
<glyph unicode="&#x660;" horiz-adv-x="1210" d="M926 318q0 -118 -100.5 -206.5t-219.5 -88.5q-124 0 -223 88.5t-99 211.5q0 126 100.5 223.5t226.5 97.5q122 0 218.5 -102t96.5 -224zM781 323q0 71 -54 124t-126 53q-71 0 -124 -56t-53 -128q0 -69 60 -118q56 -45 127 -45q67 0 118.5 51.5t51.5 118.5z" />
<glyph unicode="1" horiz-adv-x="1210" d="M736 -200h-175v551q0 276 -86 562l171 56l62 -241q1 -5 8 -65q20 -161 20 -312v-551z" />
<glyph unicode="&#x661;" horiz-adv-x="1210" d="M736 -200h-175v551q0 276 -86 562l171 56l62 -241q1 -5 8 -65q20 -161 20 -312v-551z" />
<glyph unicode="2" horiz-adv-x="1210" d="M958 641q0 -100 -89 -170q-83 -66 -185 -66q-77 0 -168 59l3 -664h-181v525q0 357 -85 588l173 56l72 -295q27 -113 133 -113q74 0 115 59q29 42 24 83l-29 215q55 18 167 53q50 -246 50 -330z" />
<glyph unicode="&#x662;" horiz-adv-x="1210" d="M958 641q0 -100 -89 -170q-83 -66 -185 -66q-77 0 -168 59l3 -664h-181v525q0 357 -85 588l173 56l72 -295q27 -113 133 -113q74 0 115 59q29 42 24 83l-29 215q55 18 167 53q50 -246 50 -330z" />
<glyph unicode="3" horiz-adv-x="1210" d="M1161 654q0 -98 -82 -167q-78 -66 -178 -66q-111 0 -221 124q0 -130 -189 -130q-94 0 -177 46l1 -661h-175v525q0 334 -90 588l178 56l67 -295q26 -113 140 -113q58 0 95 38q51 51 43 104l-34 215l169 62q41 -213 41 -304q0 -11 -3 -63q46 -57 115 -57q52 0 90.5 37.5 t38.5 89.5q0 10 -1 20l-29 215l166 51l34 -291q1 -11 1 -24z" />
<glyph unicode="&#x663;" horiz-adv-x="1210" d="M1161 654q0 -98 -82 -167q-78 -66 -178 -66q-111 0 -221 124q0 -130 -189 -130q-94 0 -177 46l1 -661h-175v525q0 334 -90 588l178 56l67 -295q26 -113 140 -113q58 0 95 38q51 51 43 104l-34 215l169 62q41 -213 41 -304q0 -11 -3 -63q46 -57 115 -57q52 0 90.5 37.5 t38.5 89.5q0 10 -1 20l-29 215l166 51l34 -291q1 -11 1 -24z" />
<glyph unicode="4" horiz-adv-x="1210" d="M1075 466q-194 -90 -370 -90q-150 0 -311 70l2 -646h-175v538q0 264 -86 575l169 56q51 -188 79 -351l92 -43q0 403 328 403q102 0 217 -57l-60 -155q-74 54 -151 54q-72 0 -126 -48.5t-54 -120.5q0 -117 135 -117q102 0 255 76z" />
<glyph unicode="&#x664;" horiz-adv-x="1210" d="M1075 466q-194 -90 -370 -90q-150 0 -311 70l2 -646h-175v538q0 264 -86 575l169 56q51 -188 79 -351l92 -43q0 403 328 403q102 0 217 -57l-60 -155q-74 54 -151 54q-72 0 -126 -48.5t-54 -120.5q0 -117 135 -117q102 0 255 76z" />
<glyph unicode="5" horiz-adv-x="1210" d="M1163 74q0 -145 -106 -233q-99 -82 -247 -82q-133 0 -224 70q-126 -73 -245 -73q-136 0 -219 108q-74 99 -74 240q0 220 177 439l196 241l-70 50l115 137q697 -520 697 -897zM974 118q0 212 -420 560q-318 -334 -318 -557q0 -169 152 -169q139 0 140 158q-2 11 -9 68h177 q12 -24 12 -69q0 -85 -19 -120q53 -34 117 -34q168 0 168 163z" />
<glyph unicode="&#x665;" horiz-adv-x="1210" d="M1163 74q0 -145 -106 -233q-99 -82 -247 -82q-133 0 -224 70q-126 -73 -245 -73q-136 0 -219 108q-74 99 -74 240q0 220 177 439l196 241l-70 50l115 137q697 -520 697 -897zM974 118q0 212 -420 560q-318 -334 -318 -557q0 -169 152 -169q139 0 140 158q-2 11 -9 68h177 q12 -24 12 -69q0 -85 -19 -120q53 -34 117 -34q168 0 168 163z" />
<glyph unicode="6" horiz-adv-x="1210" d="M971 483q-72 -64 -140 -147l-151 -185q-117 -143 -261 -396l-158 96q85 163 327 480q-157 0 -251 83q-98 86 -98 241q0 141 88.5 234.5t228.5 93.5q99 0 225 -65l-57 -160q-75 40 -145 40q-67 0 -113.5 -42t-46.5 -107q0 -144 164 -144q111 0 243 85z" />
<glyph unicode="&#x666;" horiz-adv-x="1210" d="M971 483q-72 -64 -140 -147l-151 -185q-117 -143 -261 -396l-158 96q85 163 327 480q-157 0 -251 83q-98 86 -98 241q0 141 88.5 234.5t228.5 93.5q99 0 225 -65l-57 -160q-75 40 -145 40q-67 0 -113.5 -42t-46.5 -107q0 -144 164 -144q111 0 243 85z" />
<glyph unicode="7" horiz-adv-x="1210" d="M1109 893l-149 -255q-72 -123 -129 -264q-90 -222 -157 -574h-140q-45 306 -155 570q-84 202 -275 520l157 81q166 -283 233 -462q6 -16 34 -119l70 -259l20 -2q73 363 193 581l144 261q70 -37 154 -78z" />
<glyph unicode="&#x667;" horiz-adv-x="1210" d="M1109 893l-149 -255q-72 -123 -129 -264q-90 -222 -157 -574h-140q-45 306 -155 570q-84 202 -275 520l157 81q166 -283 233 -462q6 -16 34 -119l70 -259l20 -2q73 363 193 581l144 261q70 -37 154 -78z" />
<glyph unicode="8" horiz-adv-x="1210" d="M1109 -113q-83 -37 -156 -81q-165 282 -232 464q-12 32 -38 134l-65 245l-20 2q-37 -164 -104 -378q-52 -163 -235 -467q-88 49 -158 84q198 332 277 520q102 244 158 570l140 -2q73 -446 262 -793q56 -104 171 -298z" />
<glyph unicode="&#x668;" horiz-adv-x="1210" d="M1109 -113q-83 -37 -156 -81q-165 282 -232 464q-12 32 -38 134l-65 245l-20 2q-37 -164 -104 -378q-52 -163 -235 -467q-88 49 -158 84q198 332 277 520q102 244 158 570l140 -2q73 -446 262 -793q56 -104 171 -298z" />
<glyph unicode="9" horiz-adv-x="1210" d="M933 -200h-175v615q-109 -36 -202 -36q-129 0 -203 71t-74 199q0 140 85 235q88 99 226 99q85 0 185 -59q158 -93 158 -539v-585zM739 599q-7 46 -26 134q-24 64 -73 76q-4 1 -59 11q-68 0 -108 -48t-40 -117q0 -119 121 -119q76 0 185 63z" />
<glyph unicode="&#x669;" horiz-adv-x="1210" d="M933 -200h-175v615q-109 -36 -202 -36q-129 0 -203 71t-74 199q0 140 85 235q88 99 226 99q85 0 185 -59q158 -93 158 -539v-585zM739 599q-7 46 -26 134q-24 64 -73 76q-4 1 -59 11q-68 0 -108 -48t-40 -117q0 -119 121 -119q76 0 185 63z" />
<glyph unicode=":" horiz-adv-x="564" d="M426 543q0 -119 -136 -119q-130 0 -130 119q0 111 140 111q126 0 126 -111zM428 120q0 -120 -138 -120q-54 0 -90.5 33t-36.5 87q0 110 140 110q125 0 125 -110z" />
<glyph unicode="=" horiz-adv-x="1225" d="M1110 374h-989v176h989v-176zM1110 0h-989v176h989v-176z" />
<glyph unicode="A" horiz-adv-x="1228" d="M-10 0l502 1489h244l502 -1489h-209l-135 416h-569l-135 -416h-200zM839 585l-230 702l-229 -702h459z" />
<glyph unicode="B" horiz-adv-x="1207" d="M1161 457q0 -111 -42 -196t-113 -140q-84 -66 -180 -93.5t-248 -27.5h-427v1489h395q159 0 238.5 -10.5t152.5 -49.5q80 -43 117 -112.5t37 -163.5q0 -105 -55.5 -188t-153.5 -130v-8q133 -36 206 -131.5t73 -238.5zM885 1125q0 54 -18 93.5t-58 62.5q-48 27 -107 33 t-163 6h-190v-436h225q93 0 137 9.5t91 39.5q45 29 64 76t19 116zM955 449q0 84 -24 138.5t-97 92.5q-47 25 -102.5 32t-157.5 7h-225v-550h161q130 0 205 12t132 51q56 39 82 88.5t26 128.5z" />
<glyph unicode="C" horiz-adv-x="1230" d="M733 -27q-146 0 -268.5 49t-211.5 146t-138 242t-49 333q0 187 47.5 326t138.5 242q89 100 211 152.5t273 52.5q75 0 140.5 -11t121.5 -28q48 -15 98.5 -37.5t99.5 -49.5v-239h-16q-26 24 -67 58t-100 67q-57 31 -124 51t-155 20q-95 0 -180 -39t-149 -115 q-63 -76 -98 -191t-35 -259q0 -153 37 -263.5t101 -186.5q62 -74 146 -111.5t178 -37.5q86 0 159 21t130 53q55 31 95 63.5t63 55.5h15v-236q-49 -23 -92.5 -44t-105.5 -41q-65 -21 -120.5 -32t-144.5 -11z" />
<glyph unicode="D" horiz-adv-x="1389" d="M1325 743q0 -204 -82.5 -368t-221.5 -256q-113 -71 -229.5 -95t-297.5 -24h-343v1489h339q210 0 329.5 -31.5t203.5 -86.5q144 -95 223 -252.5t79 -375.5zM1119 746q0 172 -57 293.5t-169 189.5q-79 48 -169 69t-224 21h-151v-1149h151q132 0 231 21t181 78 q103 70 155 186.5t52 290.5z" />
<glyph unicode="E" horiz-adv-x="1149" d="M151 0v1489h931v-176h-733v-408h683v-176h-683v-553h733v-176h-931z" />
<glyph unicode="F" horiz-adv-x="1068" d="M1042 1313h-693v-420h664v-176h-664v-717h-198v1489h891v-176z" />
<glyph unicode="G" horiz-adv-x="1367" d="M774 -29q-158 0 -289 48t-225 146q-94 99 -144 245t-50 336q0 180 50.5 322.5t144.5 243.5q91 98 224 151t291 53q75 0 144 -11t132 -30q50 -15 111.5 -41.5t99.5 -45.5v-239h-17q-37 33 -76.5 62.5t-111.5 63.5q-60 30 -138 50t-168 20q-215 0 -347.5 -162t-132.5 -431 q0 -150 35 -262t101 -190q64 -77 154.5 -117.5t203.5 -40.5q84 0 167 12t140 36v385h-344v174h540v-650q-38 -17 -101.5 -43t-118.5 -41q-73 -22 -132 -33t-143 -11z" />
<glyph unicode="H" horiz-adv-x="1383" d="M1232 0h-198v729h-685v-729h-198v1489h198v-584h685v584h198v-1489z" />
<glyph unicode="I" horiz-adv-x="764" d="M671 0h-578v152h190v1185h-190v152h578v-152h-190v-1185h190v-152z" />
<glyph unicode="J" horiz-adv-x="853" d="M712 387q0 -196 -119.5 -302t-320.5 -106q-48 0 -128.5 8.5t-134.5 20.5v189h11q41 -14 101.5 -31t123.5 -17q92 0 146.5 21t80.5 60q27 40 34.5 98t7.5 134v869h-315v158h513v-1102z" />
<glyph unicode="K" horiz-adv-x="1204" d="M1236 0h-257l-543 693l-87 -98v-595h-198v1489h198v-685l610 685h241l-616 -665z" />
<glyph unicode="L" horiz-adv-x="1019" d="M1014 0h-863v1489h198v-1313h665v-176z" />
<glyph unicode="M" horiz-adv-x="1578" d="M1427 0h-198v1283l-388 -873h-120l-385 873v-1283h-185v1489h270l372 -829l359 829h275v-1489z" />
<glyph unicode="N" horiz-adv-x="1367" d="M1216 0h-222l-658 1284v-1284h-185v1489h281l599 -1179v1179h185v-1489z" />
<glyph unicode="O" horiz-adv-x="1449" d="M1204 1318q85 -98 132 -243t47 -331q0 -181 -46 -327t-133 -245q-91 -104 -212.5 -153.5t-267.5 -49.5q-151 0 -272 51t-208 152q-86 99 -132 244t-46 328q0 188 46.5 330t132.5 244q86 99 207.5 150.5t271.5 51.5q152 0 274 -53t206 -149zM1177 744q0 148 -32 262 t-90 189q-59 77 -142.5 115.5t-187.5 38.5q-108 0 -188.5 -37.5t-142.5 -116.5q-59 -76 -90.5 -191t-31.5 -260q0 -293 123 -448.5t330 -155.5t329.5 155.5t122.5 448.5z" />
<glyph unicode="P" horiz-adv-x="1129" d="M1091 1040q0 -97 -34.5 -183.5t-95.5 -147.5q-77 -76 -181 -115t-263 -39h-168v-555h-198v1489h374q132 0 225 -22t164 -71q83 -57 130 -144.5t47 -211.5zM885 1035q0 77 -26.5 134t-80.5 93q-47 31 -109.5 44t-155.5 13h-164v-595h135q120 0 194 19.5t123 69.5 q44 45 64 98t20 124z" />
<glyph unicode="Q" horiz-adv-x="1449" d="M1388 -364q-54 -14 -113.5 -21t-118.5 -7q-167 0 -271.5 94t-114.5 268h-25h-21q-151 0 -272.5 51.5t-207.5 150.5t-132 244t-46 328q0 188 46.5 330t132.5 244q86 99 207.5 150.5t271.5 51.5q152 0 274 -53t206 -149q85 -98 132 -243t47 -331q0 -289 -113 -477 t-309 -255q5 -56 19.5 -100.5t37.5 -70.5q27 -31 65.5 -45.5t105.5 -14.5q40 0 94 12.5t78 22.5h27v-180zM1177 744q0 148 -32 262t-90 189q-59 77 -142.5 115.5t-187.5 38.5q-108 0 -188.5 -37.5t-142.5 -116.5q-59 -76 -90.5 -191t-31.5 -260q0 -293 123 -449t330 -156 t329.5 156t122.5 449z" />
<glyph unicode="R" horiz-adv-x="1271" d="M1304 0h-257l-472 592h-226v-592h-198v1489h384q128 0 214.5 -14t164.5 -65q78 -50 123.5 -129t45.5 -196q0 -164 -83 -274t-226 -163zM876 1070q0 65 -23 115.5t-71 82.5q-42 28 -98 39.5t-139 11.5h-196v-562h174q85 0 153 15t116 62q43 42 63.5 100t20.5 136z" />
<glyph unicode="S" horiz-adv-x="1141" d="M566 -27q-162 0 -275.5 33.5t-213.5 82.5v248h14q98 -92 222 -142.5t239 -50.5q164 0 248 68.5t84 180.5q0 89 -44 145t-140 83q-69 20 -126 33t-143 35q-77 20 -138 51t-108 81q-46 49 -71.5 115.5t-25.5 153.5q0 181 141 303.5t360 122.5q125 0 236.5 -25t206.5 -71 v-237h-15q-71 65 -182 113.5t-233 48.5q-138 0 -223 -64.5t-85 -169.5q0 -95 50 -151t145 -82q63 -17 154 -38.5t151 -39.5q154 -47 225 -142t71 -234q0 -87 -35.5 -172t-99.5 -144q-72 -65 -162.5 -100t-226.5 -35z" />
<glyph unicode="T" horiz-adv-x="1196" d="M499 0v1313h-500v176h1198v-176h-500v-1313h-198z" />
<glyph unicode="U" horiz-adv-x="1343" d="M671 -31q-131 0 -229 34.5t-167 102.5q-78 78 -110 186.5t-32 267.5v929h198v-929q0 -103 13 -173.5t51 -126.5q40 -60 108.5 -91t167.5 -31q93 0 165 31t112 91q37 57 50.5 126t13.5 169v934h198v-929q0 -155 -31.5 -266t-110.5 -188q-71 -69 -165.5 -103t-231.5 -34z " />
<glyph unicode="V" horiz-adv-x="1222" d="M1230 1489l-512 -1489h-214l-512 1489h212l412 -1236l412 1236h202z" />
<glyph unicode="W" horiz-adv-x="1847" d="M1821 1489l-374 -1489h-223l-303 1236l-296 -1236h-218l-381 1489h203l300 -1238l298 1238h201l301 -1250l298 1250h194z" />
<glyph unicode="X" horiz-adv-x="1189" d="M1181 0h-227l-363 596l-369 -596h-214l473 745l-459 744h226l356 -585l361 585h215l-466 -734z" />
<glyph unicode="Y" horiz-adv-x="1180" d="M1193 1489l-503 -830v-659h-198v638l-503 851h220l384 -657l390 657h210z" />
<glyph unicode="Z" horiz-adv-x="1145" d="M1100 0h-1040v184l797 1129h-761v176h984v-179l-806 -1134h826v-176z" />
<glyph unicode="[" horiz-adv-x="770" d="M696 -834h-537l2 2603h535v-169h-350l-3 -2265h353v-169z" />
<glyph unicode="]" horiz-adv-x="783" d="M157 -845h536l-2 2605h-534v-169h350l2 -2267h-352v-169z" />
<glyph unicode="a" horiz-adv-x="1075" d="M760 275v310q-67 -6 -169.5 -16.5t-165.5 -29.5q-75 -23 -124 -70.5t-49 -132.5q0 -96 54 -145t158 -49q89 0 161 38.5t135 94.5zM760 119q-23 -17 -61.5 -47.5t-74.5 -48.5q-50 -26 -96.5 -40t-130.5 -14q-69 0 -131 26t-109 73q-45 46 -72 113.5t-27 142.5 q0 116 49 197.5t155 129.5q94 43 222 59.5t276 24.5v36q0 66 -20 106.5t-56 62.5q-36 23 -88 30.5t-107 7.5q-65 0 -153 -19.5t-176 -56.5h-11v191q52 15 149 33t192 18q115 0 194 -18t142 -65q61 -46 91 -119t30 -178v-764h-187v119z" />
<glyph unicode="b" horiz-adv-x="1132" d="M879 562q0 200 -61 303.5t-196 103.5q-77 0 -155.5 -36t-142.5 -91v-640q71 -35 126 -49.5t121 -14.5q144 0 226 102t82 322zM1073 577q0 -274 -133 -441t-333 -167q-91 0 -155.5 22.5t-127.5 60.5l-12 -52h-176v1556h188v-556q71 64 154 106t188 42q189 0 298 -151.5 t109 -419.5z" />
<glyph unicode="c" horiz-adv-x="945" d="M580 -25q-115 0 -211 35.5t-165 107.5t-107 181.5t-38 257.5q0 147 39.5 254t105.5 180t164.5 112.5t211.5 39.5q92 0 177.5 -26t152.5 -60v-211h-11q-20 17 -51.5 39t-76.5 45q-39 20 -92 35t-102 15q-146 0 -234.5 -110.5t-88.5 -312.5q0 -198 85.5 -308.5 t237.5 -110.5q92 0 175 38t147 98h11v-211q-28 -13 -70 -31.5t-76 -27.5q-48 -14 -86 -21.5t-98 -7.5z" />
<glyph unicode="d" horiz-adv-x="1132" d="M996 0h-188v114q-44 -37 -76 -61t-75 -44q-40 -19 -83 -29.5t-100 -10.5q-91 0 -168.5 38t-131.5 111q-55 74 -85 182.5t-30 249.5q0 147 38 254.5t105 187.5q61 73 147.5 114.5t181.5 41.5q84 0 146 -18.5t131 -57.5v484h188v-1556zM808 272v644q-70 34 -125.5 47 t-120.5 13q-145 0 -227 -108.5t-82 -313.5q0 -197 63 -301.5t202 -104.5q74 0 149 33.5t141 90.5z" />
<glyph unicode="e" horiz-adv-x="1078" d="M621 -26q-267 0 -414.5 150.5t-147.5 427.5q0 273 143 434.5t374 161.5q104 0 184 -30t140 -94t92 -156.5t32 -226.5v-102h-774q0 -195 98 -298t271 -103q62 0 121.5 14t107.5 36q51 23 86 44.5t58 40.5h11v-205q-33 -13 -82 -32.5t-88 -30.5q-55 -15 -99.5 -23 t-112.5 -8zM841 683q-2 76 -18 131t-46 93q-33 42 -84.5 64t-127.5 22q-75 0 -127.5 -22.5t-95.5 -65.5q-42 -44 -64 -97.5t-28 -124.5h591z" />
<glyph unicode="f" horiz-adv-x="652" d="M724 1376h-10q-25 9 -72 17.5t-84 8.5q-119 0 -169.5 -53.5t-50.5 -193.5v-38h311v-156h-305v-961h-188v961h-127v156h127v37q0 202 97 307t278 105q52 0 102 -5.5t91 -12.5v-172z" />
<glyph unicode="g" horiz-adv-x="1132" d="M808 303v613q-70 34 -129.5 48.5t-118.5 14.5q-143 0 -225 -105t-82 -301q0 -186 62.5 -283t202.5 -97q73 0 150.5 29t139.5 81zM176 -179q19 -8 56 -21.5t84 -25.5q52 -13 96 -21t96 -8q87 0 147.5 23t94.5 64q32 41 45 95t13 123v98q-76 -66 -149 -97.5t-183 -31.5 q-191 0 -304 142t-113 408q0 139 39 246.5t105 182.5q63 72 149 111t178 39q87 0 150.5 -20.5t127.5 -58.5l11 48h177v-990q0 -284 -124 -417t-379 -133q-82 0 -167.5 13t-159.5 35v196h10z" />
<glyph unicode="h" horiz-adv-x="1142" d="M1014 0h-188v636q0 77 -7.5 143.5t-28.5 106.5q-23 42 -64 62.5t-112 20.5q-70 0 -144.5 -37.5t-145.5 -97.5v-834h-188v1556h188v-563q84 75 166 115t173 40q165 0 258 -108.5t93 -314.5v-725z" />
<glyph unicode="i" horiz-adv-x="468" d="M328 0h-188v1117h188v-1117zM341 1304h-214v195h214v-195z" />
<glyph unicode="j" horiz-adv-x="577" d="M441 -32q0 -191 -102.5 -291t-282.5 -100q-31 0 -69.5 3t-76.5 9v168h11q22 -5 48.5 -9.5t50.5 -4.5q75 0 123.5 18.5t72.5 58.5q22 36 29.5 91t7.5 134v916h-202v156h390v-1149zM442 1304h-214v195h214v-195z" />
<glyph unicode="k" horiz-adv-x="1020" d="M1062 0h-247l-417 539l-74 -72v-467h-188v1556h188v-911l442 472h234l-459 -467z" />
<glyph unicode="l" horiz-adv-x="468" d="M328 0h-188v1556h188v-1556z" />
<glyph unicode="m" horiz-adv-x="1720" d="M1404 0v646q0 77 -6 142.5t-25 102.5q-20 40 -57 59t-100 19q-58 0 -124.5 -35.5t-137.5 -102.5q1 -17 2.5 -40.5t1.5 -55.5v-735h-188v646q0 77 -6 142.5t-25 102.5q-20 40 -57 59t-100 19q-61 0 -128 -38t-130 -97v-834h-188v1117h188v-124q74 74 146.5 114.5 t159.5 40.5q99 0 175.5 -45t116.5 -148q85 95 166 144t176 49q72 0 131 -22.5t103 -72.5q45 -51 69.5 -127t24.5 -191v-735h-188z" />
<glyph unicode="n" horiz-adv-x="1142" d="M1014 0h-188v636q0 77 -7.5 143.5t-28.5 106.5q-23 42 -64 62.5t-112 20.5q-70 0 -144.5 -37.5t-145.5 -97.5v-834h-188v1117h188v-124q84 75 166 115t173 40q165 0 258 -108.5t93 -314.5v-725z" />
<glyph unicode="o" horiz-adv-x="1112" d="M1055 558q0 -282 -136 -435.5t-362 -153.5q-233 0 -366.5 158.5t-133.5 430.5q0 280 137.5 435t362.5 155q226 0 362 -154.5t136 -435.5zM861 558q0 217 -79 322.5t-225 105.5q-147 0 -226.5 -105.5t-79.5 -322.5q0 -210 79.5 -318.5t226.5 -108.5q145 0 224.5 106.5 t79.5 320.5z" />
<glyph unicode="p" horiz-adv-x="1132" d="M1073 588q0 -279 -133.5 -444.5t-337.5 -165.5q-83 0 -147 19t-131 59v-468h-188v1529h188v-117q70 63 155.5 105.5t186.5 42.5q192 0 299.5 -152t107.5 -408zM879 567q0 191 -61 296.5t-198 105.5q-80 0 -154.5 -35.5t-141.5 -91.5v-633q74 -36 126.5 -49t120.5 -13 q146 0 227 107t81 313z" />
<glyph unicode="q" horiz-adv-x="1132" d="M996 -412h-188v534q-82 -75 -160 -109.5t-173 -34.5q-190 0 -303 152.5t-113 424.5q0 144 39.5 254.5t104.5 185.5q62 73 148 113t179 40q86 0 149 -20t129 -59l12 48h176v-1529zM808 280v636q-71 35 -127 49t-120 14q-148 0 -228 -107t-80 -308q0 -196 64 -301.5 t199 -105.5q79 0 154 34t138 89z" />
<glyph unicode="r" horiz-adv-x="738" d="M728 915h-10q-21 6 -44.5 7.5t-56.5 1.5q-76 0 -151 -33t-142 -98v-793h-188v1117h188v-166q103 91 179.5 128.5t148.5 37.5q29 0 43.5 -1.5t32.5 -4.5v-196z" />
<glyph unicode="s" horiz-adv-x="914" d="M438 -27q-112 0 -209.5 30t-161.5 64v211h10q24 -19 56.5 -42t86.5 -48q48 -22 105.5 -39t119.5 -17q45 0 96 10.5t76 26.5q35 23 50.5 49t15.5 78q0 67 -36.5 101t-129.5 57q-36 9 -94 21t-107 26q-128 37 -186 114.5t-58 187.5q0 151 114 246t303 95q93 0 187 -23 t158 -58v-201h-10q-72 57 -160.5 90t-178.5 33q-93 0 -157 -39t-64 -118q0 -70 38 -104.5t122 -56.5q42 -11 93.5 -21.5t108.5 -24.5q124 -31 186.5 -103t62.5 -196q0 -72 -28.5 -136.5t-83.5 -110.5q-60 -50 -135.5 -76t-189.5 -26z" />
<glyph unicode="t" horiz-adv-x="685" d="M474 -22q-154 0 -240 87.5t-86 276.5v619h-127v156h127v321h188v-321h346v-156h-346v-531q0 -85 3 -131t23 -86q17 -35 55 -52.5t103 -17.5q46 0 89 13.5t62 22.5h11v-169q-53 -15 -107.5 -23.5t-100.5 -8.5z" />
<glyph unicode="u" horiz-adv-x="1142" d="M1006 0h-188v124q-87 -76 -165 -115.5t-174 -39.5q-73 0 -137.5 24t-112.5 76t-74.5 131t-26.5 192v725h188v-636q0 -89 6.5 -147.5t29.5 -102.5q23 -43 62.5 -63t113.5 -20q69 0 147 39t143 96v834h188v-1117z" />
<glyph unicode="v" horiz-adv-x="1020" d="M1014 1117l-421 -1117h-169l-418 1117h203l306 -862l303 862h196z" />
<glyph unicode="w" horiz-adv-x="1520" d="M1490 1117l-283 -1117h-174l-273 861l-271 -861h-173l-286 1117h196l197 -865l265 865h155l272 -865l186 865h189z" />
<glyph unicode="x" horiz-adv-x="1014" d="M1004 0h-231l-271 422l-279 -422h-213l388 554l-384 563h231l269 -418l276 418h214l-386 -550z" />
<glyph unicode="y" horiz-adv-x="1020" d="M1014 1117l-601 -1529h-201l200 466l-406 1063h203l305 -827l304 827h196z" />
<glyph unicode="z" horiz-adv-x="910" d="M870 0h-821v139l584 823h-560v155h786v-134l-587 -826h598v-157z" />
<glyph unicode="{" horiz-adv-x="1050" d="M847 -705q-212 39 -345 177q-141 146 -141 356q0 88 36 243q28 122 28 154q0 133 -99 225q-92 84 -229 100v51q328 72 328 302q0 58 -23 166q-36 169 -36 259q0 211 137 356q132 138 344 171v-53q-130 -18 -215 -100q-92 -88 -92 -215q0 -61 18 -156q41 -219 41 -290 q0 -309 -392 -463q387 -159 387 -481q0 -68 -36 -246q-23 -114 -23 -184q0 -249 312 -320v-52z" />
<glyph unicode="}" horiz-adv-x="970" d="M131 -700q211 37 344 175q139 146 139 355q0 94 -33 244q-28 126 -28 153q0 134 100 226q92 84 228 99v52q-328 71 -328 302q0 70 20 166q39 180 39 259q0 211 -138 355q-131 138 -343 175v-57q132 -21 215 -100q89 -85 89 -212q0 -77 -15 -159q-44 -233 -44 -289 q0 -307 395 -461q-390 -161 -390 -481q0 -64 39 -246q23 -109 23 -187q0 -248 -312 -320v-49z" />
<glyph unicode="&#xab;" horiz-adv-x="926" d="M829 5l-320 250v194l320 250v-145l-259 -200l259 -203v-146zM419 5l-323 250v194l323 250v-145l-264 -200l264 -203v-146z" />
<glyph unicode="&#xad;" horiz-adv-x="1149" d="M1076 239h-981v177h981v-177z" />
<glyph unicode="&#xb7;" horiz-adv-x="512" d="M253 653q-97 0 -97 105q0 107 97 107q95 0 95 -107q0 -43 -26 -74t-69 -31z" />
<glyph unicode="&#x2d9;" horiz-adv-x="512" d="M253 653q-97 0 -97 105q0 107 97 107q95 0 95 -107q0 -43 -26 -74t-69 -31z" />
<glyph unicode="&#xbb;" horiz-adv-x="926" d="M826 255l-321 -250v144l264 200l-264 204v146l321 -250v-194zM415 255l-320 -250v144l259 200l-259 204v146l320 -250v-194z" />
<glyph unicode="&#xd7;" horiz-adv-x="1275" d="M1180 -90l-126 -126l-410 416l-419 -416l-124 123l419 418l-421 419l124 124l417 -418l419 420l121 -126l-414 -419z" />
<glyph unicode="&#xf7;" horiz-adv-x="1171" d="M710 744q0 -55 -42.5 -97.5t-96.5 -42.5q-56 0 -93 45q-34 42 -34 100q0 52 39.5 89.5t92.5 37.5t93.5 -39.5t40.5 -92.5zM1095 225h-1022v179h1022v-179zM700 -120q0 -55 -42 -94t-97 -39q-54 0 -91 44q-35 41 -35 96q0 57 40 93t98 36q53 0 90 -41t37 -95z" />
<glyph unicode="&#x60c;" horiz-adv-x="516" d="M388 110q0 -110 -137 -110q-81 0 -107 43q-20 32 -20 117q0 162 25 228q42 111 176 123v-65q-79 -7 -106 -75q-15 -37 -19 -137q188 0 188 -124z" />
<glyph unicode="&#x61b;" horiz-adv-x="564" d="M424 516q0 -111 -136 -111q-86 0 -113 43q-20 31 -20 117q0 161 25 225q41 105 176 123v-62q-80 -17 -105 -77q-15 -36 -18 -134q191 0 191 -124zM426 110q0 -110 -136 -110q-130 0 -130 110q0 120 140 120q126 0 126 -120z" />
<glyph unicode="&#x61f;" horiz-adv-x="809" d="M741 775h-176q0 223 -157 223q-147 0 -147 -138q0 -51 23 -76l87 -96q84 -92 102 -138q23 -61 32 -212h-171q0 105 -30 167q-21 44 -93 110q-76 73 -98 109q-37 58 -37 142q0 141 98 219q90 71 235 71q102 0 186 -48q91 -53 123 -144q21 -62 23 -189zM534 109 q0 -50 -40 -81q-36 -28 -88 -28q-45 0 -79 32t-34 77q0 101 120 101q121 0 121 -101z" />
<glyph unicode="&#x621;" horiz-adv-x="530" d="M471 194l-376 -194l-32 61l131 70q-115 61 -115 169q0 81 51 133.5t131 52.5q53 0 104 -22l-27 -59q-36 21 -74 21q-121 0 -121 -126q0 -106 102 -106q79 0 193 62z" />
<glyph unicode="&#x622;" horiz-adv-x="669" d="M676 1253h-451q-30 0 -105 -9q-42 -5 -61 -20q-24 -19 -62 -100l-163 64q65 139 116 180q61 48 236 61q53 4 257 4q76 0 233 -3v-177zM430 0h-175v1154h175v-1154z" />
<glyph unicode="&#x623;" horiz-adv-x="575" d="M374 0h-175v1154h175v-1154zM419 1389l-246 -123l-20 40l83 47q-75 39 -75 110q0 49 35 84.5t84 35.5q24 0 69 -19l-18 -36q-21 14 -53 14q-70 0 -70 -83q0 -67 67 -67q54 0 121 41z" />
<glyph unicode="&#x624;" horiz-adv-x="893" d="M453 890l-304 -154l-25 50l104 57q-93 48 -93 131q0 64 41.5 109.5t104.5 45.5q25 0 87 -23l-23 -47q-25 19 -55 19q-43 0 -71 -30t-28 -73q0 -81 79 -81q56 0 156 52zM803 -23q0 -186 -136 -310q-132 -122 -319 -122h-233l-22 180h227q124 0 210 75q90 78 90 200 q-218 0 -322 59q-140 78 -140 279q0 186 61 275q74 108 252 108q216 0 288 -165q44 -101 44 -353v-226zM621 180v185q0 176 -141 176q-137 0 -137 -185q0 -122 86 -157q46 -19 192 -19z" />
<glyph unicode="&#x625;" horiz-adv-x="575" d="M374 0h-175v1154h175v-1154zM448 -345l-246 -124l-20 40l84 48q-75 38 -75 110q0 49 35 84.5t84 35.5q23 0 68 -19l-17 -36q-21 13 -54 13q-70 0 -70 -82q0 -68 68 -68q53 0 121 42z" />
<glyph unicode="&#x626;" horiz-adv-x="1289" d="M444 778l-304 -154l-25 50l104 56q-90 50 -90 130q0 66 39 111t105 45q24 0 86 -22l-23 -48q-30 17 -55 17q-42 0 -70 -30t-28 -73q0 -80 76 -80q62 0 160 51zM1225 9q0 -205 -117 -332q-122 -132 -324 -132h-279q-188 0 -310 140q-116 133 -116 324v372h169v-392 q0 -122 87 -197q82 -71 206 -71h232q99 0 186 70q94 74 94 170q0 89 -64 109q-56 17 -354 18v308q0 137 90.5 230t227.5 93h216l7 -169h-216q-105 0 -139 -101q-17 -53 -17 -190q262 -5 327 -43q94 -53 94 -207z" />
<glyph unicode="&#x627;" horiz-adv-x="575" d="M374 0h-175v1154h175v-1154z" />
<glyph unicode="&#x628;" horiz-adv-x="1606" d="M1541 293q0 -114 -72 -201q-76 -92 -188 -92h-950q-115 0 -189 90q-69 84 -69 203v272h180v-247q0 -76 28.5 -107t103.5 -31h840q75 0 104.5 31t29.5 107v247h182v-272zM978 -326q0 -52 -37 -89.5t-88 -37.5q-134 0 -134 127q0 105 129 105q130 0 130 -105z" />
<glyph unicode="&#x62a;" horiz-adv-x="1606" d="M1064 865q0 -46 -33.5 -77.5t-80.5 -31.5q-125 0 -125 109q0 98 114 98q125 0 125 -98zM719 865q0 -46 -33 -77.5t-80 -31.5q-126 0 -126 109q0 98 114 98q125 0 125 -98zM1541 293q0 -114 -72 -201q-76 -92 -188 -92h-950q-115 0 -189 90q-69 84 -69 203v272h180v-247 q0 -76 28.5 -107t103.5 -31h840q75 0 104.5 31t29.5 107v247h182v-272z" />
<glyph unicode="&#x62b;" horiz-adv-x="1606" d="M901 1054q0 -47 -34.5 -77.5t-81.5 -30.5q-50 0 -86 28q-39 31 -39 80q0 100 115 100q126 0 126 -100zM1076 800q0 -46 -34 -77.5t-81 -31.5q-50 0 -86 29q-39 31 -39 80q0 99 114 99q126 0 126 -99zM730 800q0 -45 -34 -77t-80 -32q-50 0 -86 29q-39 31 -39 80 q0 99 114 99q125 0 125 -99zM1541 293q0 -114 -72 -201q-76 -92 -188 -92h-950q-115 0 -189 90q-69 84 -69 203v272h180v-247q0 -76 28.5 -107t103.5 -31h840q75 0 104.5 31t29.5 107v247h182v-272z" />
<glyph unicode="&#x62c;" horiz-adv-x="1104" d="M1129 -868h-494q-253 0 -420 155q-172 158 -172 409q0 296 263 442l550 303q-40 75 -121 89q-74 12 -476 13l-23 176h435q376 0 377 -371l-593 -332q-241 -135 -241 -334q0 -145 114 -259t260 -114h525zM815 -336q0 -53 -35.5 -90t-88.5 -37q-58 0 -96 32q-41 34 -41 91 q0 112 131 112q130 0 130 -108z" />
<glyph unicode="&#x62d;" horiz-adv-x="1104" d="M1131 -868h-493q-288 0 -460 203q-133 155 -133 351v39q1 4 5 39q31 248 259 374l551 303q-61 109 -344 109h-56l-196 -4v-3l-36 1q13 2 36 2l-25 173h435q370 0 376 -371l-592 -332q-242 -135 -242 -334q0 -143 115 -258t259 -115h525z" />
<glyph unicode="&#x62e;" horiz-adv-x="1104" d="M758 1045q0 -53 -36.5 -89.5t-88.5 -36.5q-138 0 -138 126q0 106 131 106q132 0 132 -106zM1129 -868h-494q-253 0 -420 155q-172 158 -172 409q0 296 263 442l550 303q-40 75 -121 89q-74 12 -476 13l-23 176h435q376 0 377 -371l-593 -332q-241 -135 -241 -334 q0 -145 114 -259t260 -114h525z" />
<glyph unicode="&#x62f;" horiz-adv-x="986" d="M944 235q0 -108 -81 -174q-75 -61 -185 -61h-558l-25 180h571q100 0 100 70q0 36 -27 65l-405 431l121 122l405 -429q84 -89 84 -204z" />
<glyph unicode="&#x630;" horiz-adv-x="986" d="M590 1169q0 -53 -36 -89.5t-89 -36.5q-136 0 -136 126q0 106 131 106q130 0 130 -106zM941 241q0 -113 -77 -179q-73 -62 -188 -62h-558l-25 180h572q99 0 99 70q0 36 -28 65l-405 431l122 122l406 -429q82 -87 82 -198z" />
<glyph unicode="&#x631;" horiz-adv-x="870" d="M764 31q0 -199 -124 -340q-129 -146 -326 -146h-240l-29 185h203q130 0 223 62q108 72 108 197v576h185v-534z" />
<glyph unicode="&#x632;" horiz-adv-x="870" d="M754 1054q0 -53 -36 -89.5t-89 -36.5q-138 0 -138 126q0 109 132 109q131 0 131 -109zM761 31q0 -198 -124 -339q-130 -147 -326 -147h-238l-30 185h202q130 0 224 62q107 72 107 197v576h185v-534z" />
<glyph unicode="&#x633;" horiz-adv-x="2253" d="M2163 289q0 -126 -59 -210q-66 -97 -186 -97q-123 0 -253 122q-87 -122 -212 -122q-98 0 -203 72q0 -215 -114 -356q-123 -153 -332 -153h-274q-195 0 -322 137q-123 133 -123 329v374h176v-382q0 -126 83 -203q80 -75 206 -75h234q126 0 205 76t79 202v562h180v-267 q0 -62 46.5 -103t109.5 -41q124 0 124 112v299h177v-265q0 -62 45.5 -104t108.5 -42q126 0 126 112v299h178v-276z" />
<glyph unicode="&#x634;" horiz-adv-x="2253" d="M1721 1054q0 -47 -34.5 -77.5t-81.5 -30.5q-50 0 -86 28q-39 31 -39 80q0 100 115 100q126 0 126 -100zM1896 800q0 -46 -34 -77.5t-81 -31.5q-50 0 -86 29q-39 31 -39 80q0 99 114 99q126 0 126 -99zM1550 800q0 -45 -34 -77t-80 -32q-50 0 -86 29q-39 31 -39 80 q0 99 114 99q125 0 125 -99zM2163 289q0 -126 -59 -210q-66 -97 -186 -97q-132 0 -253 122q-97 -122 -212 -122q-93 0 -203 72q-3 -212 -116 -354q-125 -155 -330 -155h-274q-192 0 -320 138q-125 134 -125 328v374h176v-382q0 -127 82 -204q79 -74 207 -74h234 q123 0 203.5 77.5t80.5 200.5v562h180v-267q0 -62 46.5 -103t109.5 -41q124 0 124 112v299h177v-265q0 -64 44.5 -105t109.5 -41q126 0 126 112v299h178v-276z" />
<glyph unicode="&#x635;" horiz-adv-x="2275" d="M2224 318q0 -147 -85.5 -232.5t-232.5 -85.5h-488q-154 0 -188 95q0 -219 -112 -375q-127 -175 -337 -175h-276q-194 0 -322 148q-122 141 -122 338v354h180v-396q0 -101 90 -181q87 -78 189 -78h250q106 0 190 76q88 78 88 183v576h185v-267q0 -114 168 -118 q79 204 189 345q151 194 316 194q144 0 235 -134q14 -21 33 -55q7 -20 36 -104q14 -40 14 -108zM2050 346q0 54 -30 119q-35 76 -80 76q-89 0 -206 -138q-93 -110 -145 -223h346q115 0 115 166z" />
<glyph unicode="&#x636;" horiz-adv-x="2275" d="M1879 1053q0 -52 -37 -88.5t-88 -36.5q-136 0 -136 125q0 107 131 107q130 0 130 -107zM2224 318q0 -148 -85 -233t-233 -85h-488q-163 0 -188 95q-2 -217 -115 -374q-127 -176 -334 -176h-276q-196 0 -323 147q-121 140 -121 339v354h180v-396q0 -103 89 -182 q86 -77 190 -77h250q99 0 188.5 80.5t89.5 178.5v576h185v-267q0 -118 171 -118q225 539 504 539q143 0 235 -133q81 -118 81 -268zM2053 340q0 60 -28 123q-35 78 -85 78q-89 0 -206 -138q-95 -113 -145 -223h349q115 0 115 160z" />
<glyph unicode="&#x637;" horiz-adv-x="1054" d="M994 320q0 -134 -76 -224q-81 -96 -213 -96h-624l-36 180h151v974h175v-643q172 208 312 208q138 0 230 -134q81 -119 81 -265zM809 369q0 170 -109 170q-89 0 -202 -139q-84 -102 -139 -220h346q44 0 79 56q25 40 25 133z" />
<glyph unicode="&#x638;" horiz-adv-x="1054" d="M838 1054q0 -53 -36 -89.5t-88 -36.5q-138 0 -138 126q0 109 132 109q130 0 130 -109zM703 0h-624l-36 180h151v974h176v-643q166 208 310 208q135 0 228 -128q83 -115 83 -255q0 -143 -71 -235q-78 -101 -217 -101zM806 359q0 180 -107 180q-89 0 -204 -138 q-91 -109 -139 -221h347q103 0 103 179z" />
<glyph unicode="&#x639;" horiz-adv-x="1090" d="M1065 -868h-472q-246 0 -414 152q-173 157 -173 401q0 342 379 509q-59 107 -59 216q0 150 104 233q95 76 249 76q135 0 296 -135l-85 -138q-153 104 -246 104q-101 0 -128 -97q-1 -3 -4.5 -16.5t-6.5 -23.5v-30q0 -73 37 -133q43 -70 112 -70h357l25 -180h-595 q-122 0 -191 -101q-61 -89 -61 -217q0 -164 100 -268.5t264 -104.5h488z" />
<glyph unicode="&#x63a;" horiz-adv-x="1090" d="M826 1050q0 -53 -36 -89.5t-89 -36.5q-136 0 -136 126q0 108 131 108q130 0 130 -108zM1064 -868h-471q-244 0 -413 154q-174 158 -174 399q0 340 379 509q-61 113 -61 202q0 146 90.5 235.5t236.5 89.5q165 0 323 -137l-86 -138q-147 104 -244 104q-141 0 -141 -162 q0 -81 33 -138q41 -70 115 -70h358l25 -180h-595q-121 0 -190 -102q-61 -90 -61 -216q0 -166 98 -269.5t264 -103.5h489z" />
<glyph unicode="&#x640;" horiz-adv-x="469" d="M505 0h-525v180h525v-180z" />
<glyph unicode="&#x641;" horiz-adv-x="1606" d="M1334 1076q0 -51 -37.5 -87t-88.5 -36q-135 0 -135 123q0 109 130 109q131 0 131 -109zM1536 315q0 -129 -73 -219q-79 -96 -205 -96h-938q-116 0 -189 90q-68 84 -68 203v272h181v-247q0 -77 28.5 -107.5t103.5 -30.5h860q82 0 103 31q10 15 24 104q-254 0 -318 23 q-146 51 -146 248q0 133 90 210q85 72 220 72q143 0 234 -100q86 -95 89.5 -239.5t3.5 -213.5zM1359 483q0 86 -44 143q-48 64 -131 64q-131 0 -131 -117q0 -88 138 -89q42 0 168 -1z" />
<glyph unicode="&#x642;" horiz-adv-x="1339" d="M1196 741q0 -47 -33 -76t-80 -29q-128 0 -128 105q0 100 116 100q125 0 125 -100zM849 741q0 -47 -33.5 -76t-80.5 -29q-126 0 -126 105q0 100 116 100q124 0 124 -100zM1253 35q0 -39 -9 -143q-14 -164 -145 -270q-124 -101 -293 -101h-272q-200 0 -322 138 q-116 132 -116 335v359h170v-366q0 -125 77.5 -211t201.5 -86h250q127 0 208 92q76 87 78 217q-254 0 -320 22q-146 50 -146 247q0 129 88 206q84 72 216 72q152 0 244 -102q90 -98 90 -251v-158zM1079 165q0 84 -46 142q-49 63 -132 63q-126 0 -126 -102q0 -108 169 -108 q91 0 135 5z" />
<glyph unicode="&#x644;" horiz-adv-x="1361" d="M1264 23q0 -204 -122 -339q-127 -139 -328 -139h-275q-180 0 -313 143q-131 140 -131 321v376h180v-396q0 -112 94 -188q87 -71 201 -71h233q108 0 193 74q88 78 88 185v1165h180v-1131z" />
<glyph unicode="&#x645;" horiz-adv-x="1149" d="M1086 295q0 -136 -91.5 -218t-228.5 -82q-139 0 -226 95q-85 92 -85 233v220q-31 2 -37 2q-70 0 -117.5 -55t-47.5 -125v-820h-177v798q0 173 91 272q94 104 266 104h365q180 0 245 -131q43 -89 43 -293zM910 334q0 145 -29 172q-33 31 -252 37v-250q0 -52 50 -86 q45 -31 99 -31q132 0 132 158z" />
<glyph unicode="&#x646;" horiz-adv-x="1339" d="M730 606q0 -51 -36.5 -87t-88.5 -36q-134 0 -134 123q0 108 128 108q131 0 131 -108zM1239 29q0 -211 -120 -345q-125 -139 -333 -139h-277q-185 0 -311 141q-122 136 -122 323v376h177v-396q0 -114 89 -191q85 -73 201 -73h232q117 0 200.5 74t83.5 190v576h180v-536z " />
<glyph unicode="&#x647;" horiz-adv-x="809" d="M758 305q0 -140 -107 -234q-103 -91 -245 -91q-147 0 -241.5 100.5t-94.5 248.5q0 154 205 359l-52 58l122 122l329 -340q84 -87 84 -223zM579 316q0 55 -29 85l-145 153q-161 -153 -161 -243q0 -69 52 -113.5t123 -44.5t115.5 46t44.5 117z" />
<glyph unicode="&#x648;" horiz-adv-x="893" d="M781 -23q0 -180 -135.5 -306t-316.5 -126h-233l-23 180h227q128 0 212 74t89 201q-225 0 -327 60q-136 80 -136 288q0 226 107 317q66 56 220 56q205 0 274 -172q42 -107 42 -346v-226zM601 180v185q0 176 -141 176q-86 0 -116 -58q-21 -42 -21 -139q0 -114 91 -146 q49 -18 187 -18z" />
<glyph unicode="&#x649;" horiz-adv-x="1289" d="M1225 9q0 -265 -191 -390q-113 -74 -250 -74h-279q-185 0 -308 141q-118 135 -118 323v372h169v-392q0 -120 88 -196q84 -72 205 -72h232q106 0 190 69q90 72 90 176q0 89 -123 117q-33 7 -45 7h-250v309q0 139 89 229.5t229 90.5h216l7 -169h-216q-97 0 -134 -86 q-17 -42 -22 -205q213 0 284 -26q137 -52 137 -224z" />
<glyph unicode="&#x64b;" d="M544 1778l-316 -172l-27 50l315 174zM543 1661l-315 -168l-28 47l315 173z" />
<glyph unicode="&#x64c;" d="M560 1708q0 -91 -49 -117l-283 -151l-28 48q51 33 63 53q0 34 -45 34q-29 0 -49 -11l-20 36q56 19 85 19q57 0 72 -78l77 45q-79 45 -79 114q0 90 87 124q29 11 37 11q54 0 93 -37t39 -90zM514 1709q0 33 -26.5 56t-59.5 23q-79 0 -79 -87q0 -78 85 -78q26 0 53 29.5 t27 56.5z" />
<glyph unicode="&#x64d;" d="M226 -731l-315 -169l-27 47l315 174zM226 -875l-315 -169l-27 48l315 175z" />
<glyph unicode="&#x64e;" d="M543 1656l-315 -168l-28 47l315 176z" />
<glyph unicode="&#x64f;" d="M505 1701q0 -89 -50 -116l-227 -121l-28 47l126 70q-78 45 -78 113q0 91 90 125q26 10 33 10q55 0 94.5 -37t39.5 -91zM458 1703q0 33 -26.5 55.5t-60.5 22.5q-78 0 -78 -86q0 -79 86 -79q26 0 52.5 30t26.5 57z" />
<glyph unicode="&#x650;" d="M218 -754l-314 -169l-29 48l315 175z" />
<glyph unicode="&#x651;" d="M641 1723q0 -62 -35 -105q-37 -47 -97 -47q-45 0 -110 57q-47 -57 -110 -57q-57 0 -91 49q-29 43 -29 103h45q0 -100 81 -100q80 0 83 100h50q0 -100 83 -100q81 0 82 100h48z" />
<glyph unicode="&#x652;" d="M488 1638q0 -54 -40.5 -89.5t-94.5 -35.5q-52 0 -87.5 41t-35.5 94q0 54 39.5 88t94.5 34q54 0 89 -39t35 -93zM441 1641q0 60 -60 80q-18 7 -22 7q-34 0 -60 -26.5t-26 -60.5t26 -59.5t60 -25.5q30 0 56 27.5t26 57.5z" />
<glyph unicode="&#x67e;" horiz-adv-x="1606" d="M1541 293q0 -114 -72 -201q-76 -92 -188 -92h-950q-115 0 -189 90q-69 84 -69 203v272h180v-247q0 -76 28.5 -107t103.5 -31h840q75 0 104.5 31t29.5 107v247h182v-272zM1131 -343q0 -96 -116 -96q-125 0 -125 96q0 46 34 77.5t80 31.5q52 0 88 -27q39 -31 39 -82z M786 -343q0 -96 -116 -96q-125 0 -125 96q0 46 34 77.5t80 31.5q52 0 88 -27q39 -31 39 -82zM951 -598q0 -98 -115 -98q-126 0 -126 98q0 109 114 109q52 0 88 -27q39 -31 39 -82z" />
<glyph unicode="&#x686;" horiz-adv-x="1104" d="M1019 -223q0 -95 -123 -95q-118 0 -118 95q0 48 32 79t80 31q52 0 89 -28q40 -31 40 -82zM1124 -868h-493q-253 0 -420 155q-172 158 -172 409q0 297 262 442l550 303q-40 75 -121 89q-74 12 -475 13l-22 176h433q376 0 377 -371l-593 -332q-240 -134 -240 -334 q0 -146 113.5 -259.5t260.5 -113.5h525zM671 -223q0 -95 -121 -95q-120 0 -120 95q0 48 32.5 79t80.5 31q51 0 88 -28q40 -31 40 -82zM834 -478q0 -97 -115 -97q-126 0 -126 97q0 110 112 110q52 0 89 -28q40 -31 40 -82z" />
<glyph unicode="&#x698;" horiz-adv-x="922" d="M665 944q-52 0 -89 28q-40 31 -40 82q0 97 123 97q121 0 121 -92q0 -49 -33 -82t-82 -33zM954 800q0 -48 -33.5 -79.5t-81.5 -31.5q-52 0 -89 29q-40 32 -40 82q0 96 116 96q128 0 128 -96zM604 800q0 -47 -33 -79t-80 -32q-50 0 -89 31t-39 80q0 96 116 96 q125 0 125 -96zM766 31q0 -199 -125 -340q-129 -146 -326 -146h-239l-28 185h202q130 0 224 62q107 72 107 197v576h185v-534z" />
<glyph unicode="&#x6af;" horiz-adv-x="1606" d="M1446 1361l-628 -227l-9 69l632 227zM1555 241q0 -120 -84 -184q-75 -57 -198 -57h-925q-114 0 -188 91q-70 85 -70 202v272h180v-247q0 -78 30 -108t108 -30h876q34 0 63 24t29 57q0 25 -17 43l-499 514l-34 202l665 239l25 -180l-466 -178l416 -460q89 -98 89 -200z " />
<glyph unicode="&#x2000;" horiz-adv-x="1032" />
<glyph unicode="&#x2001;" horiz-adv-x="2064" />
<glyph unicode="&#x2002;" horiz-adv-x="1032" />
<glyph unicode="&#x2003;" horiz-adv-x="2064" />
<glyph unicode="&#x2004;" horiz-adv-x="688" />
<glyph unicode="&#x2005;" horiz-adv-x="516" />
<glyph unicode="&#x2006;" horiz-adv-x="344" />
<glyph unicode="&#x2007;" horiz-adv-x="344" />
<glyph unicode="&#x2008;" horiz-adv-x="258" />
<glyph unicode="&#x2009;" horiz-adv-x="412" />
<glyph unicode="&#x200a;" horiz-adv-x="114" />
<glyph unicode="&#x200c;" horiz-adv-x="45" />
<glyph unicode="&#x200d;" horiz-adv-x="45" />
<glyph unicode="&#x200e;" horiz-adv-x="41" d="M271 1444l-120 -123l-31 26l80 79h-159v-1426h-41v1464h195l-75 75l31 28z" />
<glyph unicode="&#x200f;" horiz-adv-x="41" d="M41 0h-41v1426h-159l77 -79l-26 -26l-125 123l125 123l26 -28l-74 -75h197v-1464z" />
<glyph unicode="&#x2010;" horiz-adv-x="1149" d="M1076 239h-981v177h981v-177z" />
<glyph unicode="&#x2011;" horiz-adv-x="1149" d="M1076 239h-981v177h981v-177z" />
<glyph unicode="&#x2012;" horiz-adv-x="1149" d="M1076 239h-981v177h981v-177z" />
<glyph unicode="&#x2013;" horiz-adv-x="1192" d="M1119 239h-1024v177h1024v-177z" />
<glyph unicode="&#x2014;" horiz-adv-x="2216" d="M2143 239h-2048v177h2048v-177z" />
<glyph unicode="&#x2018;" horiz-adv-x="662" d="M467 976q0 -110 -137 -110q-81 0 -107 43q-20 32 -20 117q0 162 25 228q43 111 176 124v-65q-77 -9 -105 -77q-16 -40 -20 -136q188 0 188 -124z" />
<glyph unicode="&#x2019;" horiz-adv-x="570" d="M153 1268q0 110 136 110q82 0 109 -43q18 -30 18 -117q0 -164 -25 -229q-42 -111 -176 -123v65q79 8 106 75q15 37 19 138q-187 0 -187 124z" />
<glyph unicode="&#x201c;" horiz-adv-x="618" d="M303 971q0 -110 -137 -110q-82 0 -108 43q-19 30 -19 117q0 163 25 229q42 111 176 123v-65q-79 -8 -106 -75q-15 -38 -19 -138q188 0 188 -124zM604 976q0 -110 -136 -110q-82 0 -108 43q-20 32 -20 117q0 162 25 228q43 111 176 124v-65q-77 -9 -105 -77 q-16 -40 -20 -136q188 0 188 -124z" />
<glyph unicode="&#x201d;" horiz-adv-x="618" d="M340 1268q0 110 136 110q83 0 109 -43q19 -30 19 -117q0 -164 -25 -229q-43 -111 -176 -123v65q78 8 106 75q15 37 19 138q-188 0 -188 124zM39 1263q0 110 136 110q81 0 108 -43q20 -32 20 -117q0 -163 -25 -228q-43 -111 -177 -124v65q78 9 105 77q16 39 20 136 q-187 0 -187 124z" />
<glyph unicode="&#x2022;" horiz-adv-x="931" d="M817 662q0 -145 -103.5 -248t-248.5 -103t-248 103t-103 248t103 248t248 103t248.5 -103t103.5 -248z" />
<glyph unicode="&#x202f;" horiz-adv-x="412" />
<glyph unicode="&#x2039;" horiz-adv-x="631" d="M490 5l-320 250v194l320 250v-145l-259 -200l259 -203v-146z" />
<glyph unicode="&#x203a;" horiz-adv-x="573" d="M473 255l-321 -250v144l263 200l-263 204v146l321 -250v-194z" />
<glyph unicode="&#x205f;" horiz-adv-x="516" />
<glyph unicode="&#xe000;" horiz-adv-x="1115" d="M0 1115h1115v-1115h-1115v1115z" />
<glyph unicode="&#xe820;" d="M353 1147l-315 -168l-28 47l315 176z" />
<glyph unicode="&#xe821;" d="M325 1238q0 -89 -50 -116l-227 -121l-28 47l126 70q-78 45 -78 113q0 91 90 125q26 10 33 10q55 0 94.5 -37t39.5 -91zM278 1240q0 33 -26.5 55.5t-60.5 22.5q-78 0 -78 -86q0 -79 86 -79q26 0 52.5 30t26.5 57z" />
<glyph unicode="&#xe822;" d="M257 1154q0 -54 -40.5 -89.5t-94.5 -35.5q-52 0 -87.5 41t-35.5 94q0 54 39.5 88t94.5 34q54 0 89 -39t35 -93zM210 1157q0 60 -60 80q-18 7 -22 7q-34 0 -60 -26.5t-26 -60.5t26 -59.5t60 -25.5q30 0 56 27.5t26 57.5z" />
<glyph unicode="&#xe823;" d="M334 1289l-316 -172l-27 50l315 174zM333 1172l-315 -168l-28 47l315 173z" />
<glyph unicode="&#xe824;" d="M421 1240q0 -91 -49 -117l-283 -151l-28 48q51 33 63 53q0 34 -45 34q-29 0 -49 -11l-20 36q56 19 85 19q57 0 72 -78l77 45q-79 45 -79 114q0 90 87 124q29 11 37 11q54 0 93 -37t39 -90zM375 1241q0 33 -26.5 56t-59.5 23q-79 0 -79 -87q0 -78 85 -78q26 0 53 29.5 t27 56.5z" />
<glyph unicode="&#xe825;" d="M441 1219q0 -62 -35 -105q-37 -47 -97 -47q-45 0 -110 57q-47 -57 -110 -57q-57 0 -91 49q-29 43 -29 103h45q0 -100 81 -100q80 0 83 100h50q0 -100 83 -100q81 0 82 100h48z" />
<glyph unicode="&#xe826;" d="M138 -367l-314 -169l-29 48l315 175z" />
<glyph unicode="&#xe827;" d="M100 -461l-315 -169l-27 47l315 174zM100 -605l-315 -169l-27 48l315 175z" />
<glyph unicode="&#xe828;" d="M456 1242q0 -62 -35 -105q-37 -47 -97 -47q-45 0 -110 57q-47 -57 -110 -57q-57 0 -91 49q-29 43 -29 103h45q0 -100 81 -100q80 0 83 100h50q0 -100 83 -100q81 0 82 100h48zM373 1515l-315 -168l-28 47l315 176z" />
<glyph unicode="&#xe829;" d="M456 1242q0 -62 -35 -105q-37 -47 -97 -47q-45 0 -110 57q-47 -57 -110 -57q-57 0 -91 49q-29 43 -29 103h45q0 -100 81 -100q80 0 83 100h50q0 -100 83 -100q81 0 82 100h48zM365 1617q0 -89 -50 -116l-227 -121l-28 47l126 70q-78 45 -78 113q0 91 90 125q26 10 33 10 q55 0 94.5 -37t39.5 -91zM318 1619q0 33 -26.5 55.5t-60.5 22.5q-78 0 -78 -86q0 -79 86 -79q26 0 52.5 30t26.5 57z" />
<glyph unicode="&#xe82a;" d="M456 1242q0 -62 -35 -105q-37 -47 -97 -47q-45 0 -110 57q-47 -57 -110 -57q-57 0 -91 49q-29 43 -29 103h45q0 -100 81 -100q80 0 83 100h50q0 -100 83 -100q81 0 82 100h48zM393 1646l-316 -172l-27 50l315 174zM392 1529l-315 -168l-28 47l315 173z" />
<glyph unicode="&#xe82b;" d="M477 1224q0 -62 -35 -105q-37 -47 -97 -47q-45 0 -110 57q-47 -57 -110 -57q-57 0 -91 49q-29 43 -29 103h45q0 -100 81 -100q80 0 83 100h50q0 -100 83 -100q81 0 82 100h48zM448 1645q0 -91 -49 -117l-283 -151l-28 48q51 33 63 53q0 34 -45 34q-29 0 -49 -11l-20 36 q56 19 85 19q57 0 72 -78l77 45q-79 45 -79 114q0 90 87 124q29 11 37 11q54 0 93 -37t39 -90zM402 1646q0 33 -26.5 56t-59.5 23q-79 0 -79 -87q0 -78 85 -78q26 0 53 29.5t27 56.5z" />
<glyph unicode="&#xe82c;" d="M656 1487q0 -62 -35 -105q-37 -47 -97 -47q-45 0 -110 57q-47 -57 -110 -57q-57 0 -91 49q-29 43 -29 103h45q0 -100 81 -100q80 0 83 100h50q0 -100 83 -100q81 0 82 100h48zM578 1232l-314 -169l-29 48l315 175z" />
<glyph unicode="&#xe82d;" d="M656 1703q0 -62 -35 -105q-37 -47 -97 -47q-45 0 -110 57q-47 -57 -110 -57q-57 0 -91 49q-29 43 -29 103h45q0 -100 81 -100q80 0 83 100h50q0 -100 83 -100q81 0 82 100h48zM562 1427l-315 -169l-27 47l315 174zM562 1283l-315 -169l-27 48l315 175z" />
<glyph horiz-adv-x="1" d="M468 721l2 -289l-80 2v287h78z" />
</font>
</defs>
</svg>
