<?xml version="1.0" standalone="no"?> <!DOCTYPE svg PUBLIC "-//W3C//DTD SVG 1.0//EN" "http://www.w3.org/TR/2001/REC-SVG-20010904/DTD/svg10.dtd" > <svg xmlns="http://www.w3.org/2000/svg" width="100%" height="100%">
<defs >
<font id="MathJax_Size1-Regular" horiz-adv-x="644" ><font-face
    font-family="MathJax_Size1"
    units-per-em="1000"
    panose-1="0 0 0 0 0 0 0 0 0 0"
    ascent="1117"
    descent="-550"
    alphabetic="0" />
<missing-glyph horiz-adv-x="250" d="M50 0V533H200V0H50ZM100 50H150V483H100V50Z" />
<glyph unicode=" " glyph-name="space" horiz-adv-x="250" />
<glyph unicode="(" glyph-name="parenleft" horiz-adv-x="458" d="M152 251Q152 448 213 600T388 850H416Q422 844 422 841Q422 837 412 826Q236 628 236 250Q236 -125 412 -325Q422 -336 422 -340Q422 -343 416 -349H388Q275 -252 214 -100T152 251Z" />
<glyph unicode=")" glyph-name="parenright" horiz-adv-x="458" d="M305 251Q305 52 244 -100T69 -349H56Q43 -349 39 -347T35 -338Q37 -333 47 -322Q221 -126 221 250Q221 627 47 823Q37 834 35 839Q35 847 39 848T56 850H69Q182 753 243 601T305 251Z" />
<glyph unicode="/" glyph-name="slash" horiz-adv-x="578" d="M481 838Q489 850 500 850Q509 850 515 844T522 827Q521 824 311 248T96 -337Q90 -349 77 -349Q68 -349 62 -343T55 -326Q56 -323 266 253T481 838Z" />
<glyph unicode="[" glyph-name="bracketleft" horiz-adv-x="417" d="M202 -349V850H394V810H242V-309H394V-349H202Z" />
<glyph unicode="\" glyph-name="backslash" horiz-adv-x="578" d="M522 -326Q522 -336 516 -342T500 -349Q487 -349 481 -337Q477 -328 267 248T55 827Q54 835 60 842T76 850Q89 850 96 838Q100 829 310 253T522 -326Z" />
<glyph unicode="]" glyph-name="bracketright" horiz-adv-x="417" d="M22 810V850H214V-349H22V-309H174V810H22Z" />
<glyph unicode="{" glyph-name="braceleft" horiz-adv-x="583" d="M477 -343L471 -349H458Q444 -349 407 -338Q309 -309 273 -263Q258 -245 250 -212L249 -51Q249 -27 249 12Q248 118 244 128Q243 129 243 130Q224 177 162 210Q131 224 121 228Q109 232 107 235T105
250Q105 263 107 265T121 273Q131 277 162 291Q224 324 243 371Q243 372 244 373Q248 384 249 469Q249 475 249 489Q249 528 249 552L250 714Q258 744 273 764Q312 813 422 843Q440 849 441 849H443Q445 849 447 849T452 850T457 850H471L477 844V830Q477 812 469
810Q425 798 387 775T338 724Q333 710 333 550Q333 395 332 389Q326 349 295 318Q257 280 181 255L169 251L184 245Q275 213 309 167Q327 140 332 112Q333 106 333 -49Q333 -209 338 -223Q349 -251 387 -274T469 -309Q477 -311 477 -329V-343Z" />
<glyph unicode="}" glyph-name="braceright" horiz-adv-x="583" d="M110 849L115 850Q120 850 125 850Q138 850 175 839Q273 810 309 764Q324 747 332 714L333 552Q333 528 333 489Q334 383 338 373Q339 372 339 371Q351 340 388 312T469 271Q477 268 477 251Q477
233 469 230Q425 217 388 189T339 130Q339 129 338 128Q334 117 333 32Q333 26 333 12Q333 -27 333 -51L332 -212Q324 -245 309 -263Q273 -309 175 -338Q139 -349 125 -349T108 -346T105 -329Q105 -316 106 -314Q109 -310 130 -304Q192 -284 222 -254Q242 -234
248 -209Q249 -203 249 -49Q249 106 250 112Q255 140 273 167Q307 213 398 245L413 251L401 255Q309 286 273 334Q255 361 250 389Q249 395 249 550Q249 710 244 724Q224 774 130 805Q126 806 123 807T116 809T112 811Q105 813 105 830Q105 845 110 849Z" />
<glyph unicode="&#xa0;" glyph-name="uni00A0" horiz-adv-x="250" />
<glyph unicode="&#x2c6;" glyph-name="circumflex" horiz-adv-x="556" d="M279 669Q273 669 142 610T9 551L0 569Q-8 585 -8 587Q-8 588 -7 588L12 598Q30 608 66 628T136 666L277 744L564 587L555 569Q549 556 547 554T544 552Q539 555 411 612T279 669Z" />
<glyph unicode="&#x2dc;" glyph-name="tilde" horiz-adv-x="556" d="M55 671Q120 722 182 722Q195 722 200 721Q236 715 285 692Q344 666 381 662Q386 661 395 661Q454 661 521 713L531 722L543 708Q554 695 554 693Q554 690 541 679T514 658L500 648Q434 597
374 597Q357 597 335 602Q310 609 270 627Q211 653 175 657Q170 658 160 658Q101 658 34 606L24 597L12 611Q1 624 1 626Q1 629 14 640T42 661L55 671Z" />
<glyph unicode="&#x302;" glyph-name="uni0302" horiz-adv-x="0" d="M-277 669Q-283 669 -414 610T-547 551L-556 569Q-564 585 -564 587Q-564 588 -563 588L-544 598Q-526 608 -490 628T-420 666L-279 744L8 587L-1 569Q-7 556 -9 554T-12 552Q-17 555 -145 612T-277
669Z" />
<glyph unicode="&#x303;" glyph-name="tildecomb" horiz-adv-x="0" d="M-501 671Q-436 722 -374 722Q-361 722 -356 721Q-320 715 -271 692Q-212 666 -175 662Q-170 661 -161 661Q-102 661 -35 713L-25 722L-13 708Q-2 695 -2 693Q-2 690 -15 679T-42 658L-56
648Q-122 597 -182 597Q-199 597 -221 602Q-246 609 -286 627Q-345 653 -381 657Q-386 658 -396 658Q-455 658 -522 606L-532 597L-544 611Q-555 624 -555 626Q-555 629 -542 640T-514 661L-501 671Z" />
<glyph unicode="&#x2016;" glyph-name="uni2016" horiz-adv-x="778" d="M257 0V602H300V0H257ZM478 0V602H521V0H478Z" />
<glyph unicode="&#x2191;" glyph-name="arrowup" horiz-adv-x="667" d="M328 591L333 600L340 589Q416 471 550 423L555 421V377L543 381Q445 418 368 492L355 504V0H312V504L299 492Q222 418 124 381L112 377V421L117 423Q248 467 328 591Z" />
<glyph unicode="&#x2193;" glyph-name="arrowdown" horiz-adv-x="667" d="M312 96V600H355V96L368 108Q445 182 543 219L555 223V179L550 177Q419 133 339 9L334 0L327 11Q251 129 117 177L112 179V223L124 219Q222 182 299 108L312 96Z" />
<glyph unicode="&#x21d1;" glyph-name="arrowdblup" horiz-adv-x="778" d="M381 583L389 599Q393 592 397 583Q477 420 636 329Q677 305 708 294L721 289V246Q718 247 698 255T667 269Q597 303 532 356L522 364L521 182V0H478V405L466 417Q434 451 389 516Q384
510 379 502Q351 460 312 417L300 405V0H257V364L247 356Q180 302 111 269Q101 264 81 256T57 246V289L70 294Q101 305 142 329Q301 420 381 583Z" />
<glyph unicode="&#x21d3;" glyph-name="arrowdbldown" horiz-adv-x="778" d="M257 236V600H300V195L312 183Q344 149 389 84Q394 90 399 98Q427 140 466 183L478 195V600H521V418L522 236L532 244Q597 297 667 331Q677 336 697 344T721 354V311L708 306Q677 295
636 271Q477 180 397 17L389 1Q385 8 381 17Q301 180 142 271Q101 295 70 306L57 311V354Q60 353 80 345T111 331Q180 298 247 244L257 236Z" />
<glyph unicode="&#x220f;" glyph-name="product" horiz-adv-x="944" d="M786 -155Q798 -206 874 -210H888V-250H570V-210H584Q654 -206 670 -163L673 -155V710H270V277L271 -155Q283 -206 359 -210H373V-250H55V-210H69Q139 -206 155 -163L158 -155V656L155 663Q139
706 69 710H55V750H888V710H874Q834 708 814 696T786 656V-155Z" />
<glyph unicode="&#x2210;" glyph-name="uni2210" horiz-adv-x="944" d="M786 -155Q798 -206 874 -210H888V-250H55V-210H69Q139 -206 155 -163L158 -155V656L155 663Q139 706 69 710H55V750H373V710H359Q319 708 299 696T271 656L270 223V-210H673V656L670 663Q654
706 584 710H570V750H888V710H874Q834 708 814 696T786 656V-155Z" />
<glyph unicode="&#x2211;" glyph-name="summation" horiz-adv-x="1056" d="M61 748Q64 750 489 750H913L954 640Q964 613 975 582T992 537T999 516H979L959 517Q937 575 889 618T777 682Q722 701 620 708Q590 710 319 710Q183 710 183 709Q186 706 348 484T511
259Q517 250 513 244L490 216Q466 188 420 134T330 27L149 -187Q149 -188 362 -188Q583 -188 598 -187Q704 -183 767 -165Q879 -133 936 -43Q946 -27 959 6H999L913 -249L489 -250Q65 -250 62 -248Q56 -246 56 -239Q56 -236 59 -232L245 -11L428 206Q428 207 242
462L57 717L56 728Q56 744 61 748Z" />
<glyph unicode="&#x221a;" glyph-name="radical" horiz-adv-x="1000" d="M263 249Q264 249 315 130T417 -108T470 -228L725 302Q981 837 982 839Q989 850 1001 850Q1017 850 1020 832V826L741 243Q683 122 605 -40T494 -272T459 -343Q452 -350 436 -350L424 -349L315
-96Q206 156 205 156L171 130Q138 104 137 104L111 130L263 249Z" />
<glyph unicode="&#x2223;" glyph-name="uni2223" horiz-adv-x="333" d="M146 612Q150 627 166 627T187 612Q188 610 188 306T187 0Q184 -15 166 -15Q149 -15 146 0V10Q146 19 146 35T146 73T146 122T145 179T145 241T145 306T145 370T145 433T145 489T146 538T146
576T146 602V612Z" />
<glyph unicode="&#x2225;" glyph-name="uni2225" horiz-adv-x="556" d="M146 612Q150 627 166 627T187 612Q188 610 188 306T187 0Q184 -15 166 -15Q149 -15 146 0V10Q146 19 146 35T146 73T146 122T145 179T145 241T145 306T145 370T145 433T145 489T146 538T146
576T146 602V612ZM368 612Q372 627 388 627T409 612Q410 610 410 306T409 0Q406 -15 389 -15Q371 -15 368 0V10Q368 19 368 35T368 73T368 122T367 179T367 241T367 306T367 370T367 433T367 489T368 538T368 576T368 602V612Z" />
<glyph unicode="&#x222b;" glyph-name="integral'" horiz-adv-x="472" d="M83 -146T104 -146T139 -160T153 -195Q153 -225 129 -237Q128 -238 124 -239T116 -242L113 -244Q113 -245 118 -250T128 -257Q144 -269 167 -269Q186 -269 199 -260Q223 -246 235 -208Q252
-160 267 47Q281 237 297 367Q323 570 327 591Q352 735 424 782Q449 798 479 804Q481 804 488 804T501 805Q548 802 579 772T610 695Q610 673 596 659T561 645T526 659T512 694Q512 724 536 736Q537 737 541 738T548 742L552 743Q552 748 537 756Q520 768 498 768Q454
768 434 716Q422 687 416 637T399 452Q385 264 369 133Q349 -39 339 -91Q326 -162 303 -207Q274 -269 225 -293Q199 -306 169 -306Q97 -306 67 -244Q55 -223 55 -196Q55 -174 69 -160Z" />
<glyph unicode="&#x222c;" glyph-name="uni222C" horiz-adv-x="819" d="M83 -146T104 -146T139 -160T153 -195Q153 -225 129 -237Q128 -238 124 -239T116 -242L113 -244Q113 -245 118 -250T128 -257Q144 -269 167 -269Q186 -269 199 -260Q223 -246 235 -208Q252
-160 267 47Q281 237 297 367Q323 570 327 591Q352 735 424 782Q449 798 479 804Q481 804 488 804T501 805Q548 802 579 772T610 695Q610 673 596 659T561 645T526 659T512 694Q512 724 536 736Q537 737 541 738T548 742L552 743Q552 748 537 756Q520 768 498 768Q454
768 434 716Q422 687 416 637T399 452Q385 264 369 133Q349 -39 339 -91Q326 -162 303 -207Q274 -269 225 -293Q199 -306 169 -306Q97 -306 67 -244Q55 -223 55 -196Q55 -174 69 -160ZM430 -146T451 -146T486 -160T500 -195Q500 -225 476 -237Q475 -238 471 -239T464
-242L460 -244Q460 -245 465 -250T475 -257Q492 -269 514 -269Q532 -269 546 -260Q570 -246 582 -208Q599 -160 614 47Q628 237 644 367Q670 570 674 591Q699 735 771 782Q796 798 826 804Q828 804 835 804T848 805Q895 802 926 772T957 695Q957 673 943 659T908
645T873 659T859 694Q859 724 883 736Q884 737 888 738T896 742L899 743Q899 748 884 756Q868 768 845 768Q801 768 781 716Q769 687 763 637T746 452Q732 264 716 133Q696 -39 686 -91Q673 -162 650 -207Q621 -269 572 -293Q546 -306 516 -306Q444 -306 414 -244Q402
-223 402 -196Q402 -174 416 -160Z" />
<glyph unicode="&#x222d;" glyph-name="uni222D" horiz-adv-x="1166" d="M83 -146T104 -146T139 -160T153 -195Q153 -225 129 -237Q128 -238 124 -239T116 -242L113 -244Q113 -245 118 -250T128 -257Q144 -269 167 -269Q186 -269 199 -260Q223 -246 235 -208Q252
-160 267 47Q281 237 297 367Q323 570 327 591Q352 735 424 782Q449 798 479 804Q481 804 488 804T501 805Q548 802 579 772T610 695Q610 673 596 659T561 645T526 659T512 694Q512 724 536 736Q537 737 541 738T548 742L552 743Q552 748 537 756Q520 768 498 768Q454
768 434 716Q422 687 416 637T399 452Q385 264 369 133Q349 -39 339 -91Q326 -162 303 -207Q274 -269 225 -293Q199 -306 169 -306Q97 -306 67 -244Q55 -223 55 -196Q55 -174 69 -160ZM430 -146T451 -146T486 -160T500 -195Q500 -225 476 -237Q475 -238 471 -239T464
-242L460 -244Q460 -245 465 -250T475 -257Q492 -269 514 -269Q532 -269 546 -260Q570 -246 582 -208Q599 -160 614 47Q628 237 644 367Q670 570 674 591Q699 735 771 782Q796 798 826 804Q828 804 835 804T848 805Q895 802 926 772T957 695Q957 673 943 659T908
645T873 659T859 694Q859 724 883 736Q884 737 888 738T896 742L899 743Q899 748 884 756Q868 768 845 768Q801 768 781 716Q769 687 763 637T746 452Q732 264 716 133Q696 -39 686 -91Q673 -162 650 -207Q621 -269 572 -293Q546 -306 516 -306Q444 -306 414 -244Q402
-223 402 -196Q402 -174 416 -160ZM777 -146T798 -146T833 -160T847 -195Q847 -225 823 -237Q822 -238 818 -239T810 -242L807 -244Q807 -245 812 -250T822 -257Q838 -269 861 -269Q880 -269 893 -260Q917 -246 929 -208Q946 -160 961 47Q975 237 991 367Q1017
570 1021 591Q1046 735 1118 782Q1143 798 1173 804Q1175 804 1182 804T1195 805Q1242 802 1273 772T1304 695Q1304 673 1290 659T1255 645T1220 659T1206 694Q1206 724 1230 736Q1231 737 1235 738T1242 742L1246 743Q1246 748 1231 756Q1214 768 1192 768Q1148
768 1128 716Q1116 687 1110 637T1093 452Q1079 264 1063 133Q1043 -39 1033 -91Q1020 -162 997 -207Q968 -269 919 -293Q893 -306 863 -306Q791 -306 761 -244Q749 -223 749 -196Q749 -174 763 -160Z" />
<glyph unicode="&#x222e;" glyph-name="uni222E" horiz-adv-x="472" d="M83 -146T104 -146T139 -160T153 -195Q153 -225 129 -237Q128 -238 124 -239T116 -242L113 -244Q113 -245 118 -250T128 -257Q144 -269 167 -269Q186 -269 199 -260Q223 -246 235 -208Q251
-163 266 33L269 74L264 76Q260 79 254 81T246 85Q179 119 156 192Q148 216 148 250Q148 283 156 307Q182 390 265 423Q270 425 277 427T293 431T306 434L307 444Q308 449 313 486T322 555T327 591Q352 735 424 782Q449 798 479 804Q481 804 488 804T501 805Q548
802 579 772T610 695Q610 673 596 659T561 645T526 659T512 694Q512 724 536 736Q537 737 541 738T548 742L552 743Q552 748 537 756Q520 768 498 768Q454 768 434 716Q415 672 405 527L397 425Q397 423 420 414Q487 380 510 307Q518 283 518 250Q518 216 510 192Q484
109 401 76Q396 74 389 72T373 68T360 65L359 55Q357 41 352 -2T343 -63T334 -112T321 -165T303 -207Q274 -269 225 -293Q199 -306 169 -306Q97 -306 67 -244Q55 -223 55 -196Q55 -174 69 -160ZM300 391Q300 392 299 392Q298 392 297 391Q294 390 292 390Q248 378
218 340T187 249Q187 203 211 169T272 116V122Q273 126 275 154Q280 222 300 391ZM479 249Q479 292 457 327T402 379L394 383V377Q393 373 391 346Q385 274 369 133Q366 112 366 107Q372 107 388 114Q426 128 452 165T479 249Z" />
<glyph unicode="&#x22c0;" glyph-name="uni22C0" horiz-adv-x="833" d="M97 -249Q78 -249 67 -237T55 -207Q55 -201 56 -198Q58 -190 218 268T380 729Q391 750 416 750Q438 750 451 732Q453 728 534 498T695 36L775 -194Q777 -204 777 -208Q777 -225 765 -237T735
-249Q713 -249 700 -231Q696 -225 557 177L416 579L276 177Q136 -226 132 -231Q119 -249 97 -249Z" />
<glyph unicode="&#x22c1;" glyph-name="uni22C1" horiz-adv-x="833" d="M55 708Q55 726 66 738T96 750Q118 750 132 731Q136 726 276 323L416 -79L557 323Q696 725 700 731Q713 749 735 749Q753 749 765 737T777 708Q777 704 775 694L695 464Q615 233 534 3T451
-232Q437 -249 416 -249Q402 -249 391 -241Q384 -236 380 -226Q368 -198 219 230Q182 335 141 455T79 633T57 694Q55 704 55 708Z" />
<glyph unicode="&#x22c2;" glyph-name="uni22C2" horiz-adv-x="833" d="M139 -217Q124 -249 97 -249Q66 -249 57 -220Q55 -214 55 102Q55 422 56 430Q68 561 159 648T378 748Q383 749 392 749Q393 750 402 750Q414 750 422 749Q467 749 512 738Q610 712 680 640Q766
551 776 430Q777 422 777 102Q777 -214 775 -220Q766 -249 735 -249Q705 -249 694 -217L692 428L690 441Q676 523 620 581Q535 666 416 666Q349 666 287 635Q230 607 192 557T142 441L140 428L139 105V-217Z" />
<glyph unicode="&#x22c3;" glyph-name="uni22C3" horiz-adv-x="833" d="M70 740Q80 750 96 750Q125 750 136 723L139 718V395L140 73L142 60Q157 -29 221 -90T379 -164Q397 -166 416 -166Q535 -166 620 -81Q676 -23 690 60L692 73L694 718Q707 749 735 749Q766
749 775 720Q777 714 777 398Q777 78 776 71Q766 -51 680 -140Q605 -215 506 -239Q466 -249 416 -249T327 -239Q227 -215 152 -140Q66 -51 56 71Q55 78 55 398Q55 714 57 720Q60 734 70 740Z" />
<glyph unicode="&#x2308;" glyph-name="uni2308" horiz-adv-x="472" d="M202 -349V850H449V810H242V-349H202Z" />
<glyph unicode="&#x2309;" glyph-name="uni2309" horiz-adv-x="472" d="M22 810V850H269V-349H229V810H22Z" />
<glyph unicode="&#x230a;" glyph-name="uni230A" horiz-adv-x="472" d="M202 -349V850H242V-309H449V-349H202Z" />
<glyph unicode="&#x230b;" glyph-name="uni230B" horiz-adv-x="472" d="M229 -309V850H269V-349H22V-309H229Z" />
<glyph unicode="&#x23d0;" glyph-name="uni23D0" horiz-adv-x="667" d="M312 0V602H355V0H312Z" />
<glyph unicode="&#x27e8;" glyph-name="uni27E8" horiz-adv-x="472" d="M373 850Q392 850 394 832Q394 825 267 538L139 250L267 -38Q394 -325 394 -332Q392 -350 375 -350Q362 -350 356 -338Q354 -331 289 -186T161 103T97 250T160 397T289 685T356 838Q363 850
373 850Z" />
<glyph unicode="&#x27e9;" glyph-name="uni27E9" horiz-adv-x="472" d="M77 832Q79 850 98 850Q110 849 115 838Q117 831 182 686T310 397T374 250T311 103T182 -185T115 -338Q109 -350 96 -350Q79 -350 77 -332Q77 -325 204 -38L332 250L204 538Q77 825 77 832Z" />
<glyph unicode="&#x2a00;" glyph-name="uni2A00" horiz-adv-x="1111" d="M372 715Q461 750 539 750Q554 750 562 749Q607 749 641 742Q758 722 854 651T1003 473Q1041 394 1053 300Q1054 289 1054 250Q1054 150 1020 66Q982 -31 909 -104T739 -215Q651 -250 555
-250Q457 -250 372 -215Q275 -177 202 -104T90 66Q56 150 56 250Q56 348 90 434Q128 531 201 604T372 715ZM970 250Q970 418 863 532T600 664Q591 665 548 665Q526 665 486 660Q351 637 255 538T141 294Q140 284 140 250T141 206Q158 69 248 -30Q341 -135 482 -159Q514
-165 555 -165Q610 -165 654 -154Q772 -124 857 -36T964 177Q970 209 970 250ZM478 250Q478 282 499 304T551 326Q587 326 609 306T632 250Q632 216 611 195T555 174T500 195T478 250Z" />
<glyph unicode="&#x2a01;" glyph-name="uni2A01" horiz-adv-x="1111" d="M372 715Q461 750 539 750Q554 750 562 749Q607 749 641 742Q758 722 854 651T1003 473Q1041 394 1053 300Q1054 289 1054 250Q1054 150 1020 66Q982 -31 909 -104T739 -215Q651 -250 555
-250Q457 -250 372 -215Q275 -177 202 -104T90 66Q56 150 56 250Q56 348 90 434Q128 531 201 604T372 715ZM513 478Q513 664 512 664Q509 664 507 663Q403 653 313 588Q164 479 142 297L141 292H513V478ZM622 660Q610 663 602 663L597 664V292H969L968 297Q946
479 798 588Q716 646 622 660ZM513 -164V208H141L142 203Q156 82 229 -9Q281 -73 353 -113T508 -163L513 -164ZM968 203L969 208H597V-164L602 -163Q750 -146 850 -43T968 203Z" />
<glyph unicode="&#x2a02;" glyph-name="uni2A02" horiz-adv-x="1111" d="M372 715Q461 750 539 750Q554 750 562 749Q607 749 641 742Q758 722 854 651T1003 473Q1041 394 1053 300Q1054 289 1054 250Q1054 150 1020 66Q982 -31 909 -104T739 -215Q651 -250 555
-250Q457 -250 372 -215Q275 -177 202 -104T90 66Q56 150 56 250Q56 348 90 434Q128 531 201 604T372 715ZM600 664Q591 665 548 665Q526 665 486 660Q385 643 306 583L292 573L423 441L555 310L687 441L818 573L804 583Q714 650 600 664ZM364 118L495 250L364
382L232 513L223 500Q154 411 141 294Q140 284 140 250T141 206Q154 89 223 0L232 -13L364 118ZM887 501L878 512Q878 513 861 496T812 447T746 381L615 250L746 118L878 -13L887 0Q956 89 969 206Q970 216 970 250T969 294Q955 410 887 501ZM687 59L555 190L423
59L292 -73L306 -83Q396 -151 511 -164Q531 -166 555 -166T599 -164Q714 -151 804 -83L818 -73L687 59Z" />
<glyph unicode="&#x2a04;" glyph-name="uni2A04" horiz-adv-x="833" d="M70 740Q80 750 96 750Q125 750 136 723L139 718V395L140 73L142 60Q157 -29 221 -90T379 -164Q397 -166 416 -166Q535 -166 620 -81Q676 -23 690 60L692 73L694 718Q707 749 735 749Q766
749 775 720Q777 714 777 398Q777 78 776 71Q766 -51 680 -140Q605 -215 506 -239Q466 -249 416 -249T327 -239Q227 -215 152 -140Q66 -51 56 71Q55 78 55 398Q55 714 57 720Q60 734 70 740ZM223 276Q223 302 254 319H374V376Q374 438 379 448Q386 459 394 464Q400
470 418 470Q443 467 453 448Q458 438 458 376V319H579L585 315Q609 303 609 276Q609 252 587 241Q577 235 513 235H458V178Q458 120 457 117Q454 103 443 94T415 84Q401 84 390 93T375 117Q374 120 374 178V235H319Q255 235 245 241Q223 252 223 276Z" />
<glyph unicode="&#x2a06;" glyph-name="uni2A06" horiz-adv-x="833" d="M70 740Q80 750 96 750Q126 750 137 720Q139 714 139 274V-166H693V274Q693 714 695 720Q704 749 735 749Q768 749 775 719Q777 713 777 248V-217Q765 -241 745 -249H88Q64 -241 57 -220Q55
-214 55 250T57 720Q60 734 70 740Z" />
<glyph unicode="&#xeffd;" glyph-name="uniEFFD" horiz-adv-x="300" d="M0 0V100H100V0H0ZM200 0V100H300V0H200Z" />
<glyph unicode="&#xeffe;" glyph-name="uniEFFE" horiz-adv-x="300" d="M0 0V100H100V0H0ZM200 0V100H300V0H200Z" />
<glyph unicode="&#xefff;" glyph-name="uniEFFF" horiz-adv-x="100" d="M0 0V100H100V0H0Z" />
</font>
</defs>
</svg>
