<?xml version="1.0" standalone="no"?> <!DOCTYPE svg PUBLIC "-//W3C//DTD SVG 1.0//EN" "http://www.w3.org/TR/2001/REC-SVG-20010904/DTD/svg10.dtd" > <svg xmlns="http://www.w3.org/2000/svg" width="100%" height="100%">
<defs >
<font id="MathJax_Script-Regular" horiz-adv-x="736" ><font-face
    font-family="MathJax_Script"
    units-per-em="1000"
    panose-1="0 0 0 0 0 0 0 0 0 0"
    ascent="1002"
    descent="-514"
    alphabetic="0" />
<missing-glyph horiz-adv-x="250" d="M50 0V533H200V0H50ZM100 50H150V483H100V50Z" />
<glyph unicode=" " glyph-name="space" horiz-adv-x="250" />
<glyph unicode="A" glyph-name="A" horiz-adv-x="803" d="M76 60Q83 29 135 29Q190 29 264 81Q275 89 278 92T280 96Q270 99 248 118Q189 166 189 237Q189 303 245 388Q267 421 299 436Q336 455 386 455Q487 455 550 403L559 395L571 405Q727 544 944 679L957
687L966 701Q976 715 977 716Q979 717 995 717H1003Q1011 717 1013 716T1016 708Q1016 705 829 403L636 92L630 83Q687 102 732 147Q741 156 745 158Q758 158 752 138L748 127L740 119Q678 58 605 42L593 22Q591 19 588 15T584 8T580 3L579 1Q577 0 530 0H484Q478
5 479 8T489 26Q499 40 497 40Q478 40 442 46Q376 55 327 74L316 78L302 68Q200 -8 121 -8Q74 -8 51 15Q35 30 35 53Q35 70 44 88Q61 122 89 136Q108 144 123 144Q141 144 151 134T162 106Q162 87 143 74T99 61Q90 61 76 65V60ZM904 614L905 615Q902 615 838 571Q692
472 583 371L581 369L587 359Q620 309 623 222L624 216L764 414Q904 612 904 614ZM522 367Q483 406 379 418Q358 418 343 409Q327 400 309 378Q267 320 254 267Q251 255 251 234Q251 201 270 173Q282 153 306 137Q318 128 322 131Q323 132 329 139Q351 161 362
180Q432 276 509 348L525 363L522 367ZM579 205Q579 275 555 323Q553 326 550 330T546 337L521 311Q452 239 411 181Q381 141 362 121L353 111L362 108Q420 85 499 79Q517 77 520 77L525 76L549 111Q570 140 574 148Q579 168 579 205Z" />
<glyph unicode="B" glyph-name="B" horiz-adv-x="908" d="M256 262Q161 262 161 351Q161 369 162 376Q171 424 208 479T289 570Q431 687 598 705Q612 707 617 707L627 708Q637 708 644 708Q759 708 831 675L844 669L857 677Q892 700 896 700Q902 700 907 685Q910
669 904 665L889 655L878 647L889 636Q928 598 928 548Q928 526 920 503Q896 434 813 367L800 355Q824 335 835 316T847 263Q847 242 845 231Q835 188 806 145Q778 101 732 64Q641 -8 564 -8Q529 -8 507 9T484 58Q484 84 502 119T543 172Q607 226 685 228Q695 228
698 226Q703 220 692 206Q684 194 682 193T665 191Q577 187 536 111Q522 83 522 66Q522 29 576 29Q642 29 705 109Q785 211 785 270Q785 308 759 324L755 327L740 319Q684 290 634 290Q611 290 592 294H588L565 261Q492 160 455 123Q390 59 317 19T182 -27Q175
-28 159 -28Q122 -28 95 -19Q31 1 31 54Q31 98 67 134Q91 158 123 158Q141 158 152 147T164 119T143 89T100 75Q94 75 87 77T76 80L72 81Q69 78 69 65Q69 37 101 23T175 9Q184 9 198 11Q257 25 330 99Q375 146 439 235Q531 366 602 450Q697 561 789 629L801 639Q801
641 768 653Q717 670 633 670Q592 670 558 665Q481 651 409 613T286 520Q258 490 235 450T204 379Q202 371 202 354Q202 299 269 299Q326 299 375 344Q398 365 445 435Q496 512 496 547Q496 561 501 563Q503 565 514 569T530 573Q538 573 538 557V540Q538 518 536
504Q525 444 487 388Q465 355 427 325Q342 262 256 262ZM689 382Q706 382 753 375L765 387Q786 407 809 439T844 492Q860 524 860 555Q860 595 839 610L822 592Q782 551 716 467Q651 383 651 380Q655 381 660 381Q664 382 689 382ZM697 344Q692 345 681 345H675Q671
345 665 345T655 344T650 344L648 342Q646 339 645 338Q643 333 639 327H653Q670 329 676 330Q706 342 706 343Q702 344 697 344Z" />
<glyph unicode="C" glyph-name="C" horiz-adv-x="666" d="M312 676Q312 673 304 661T292 647L286 646Q280 646 276 646Q225 643 183 615Q152 594 126 558T94 490Q94 488 94 484T93 476Q93 387 265 387Q271 387 277 387T287 388T292 388Q294 388 305 403Q368 487
451 562Q618 712 732 727Q733 727 740 727T753 728Q784 726 801 710T819 665Q819 643 809 617Q794 577 764 541Q684 443 485 384Q434 370 385 361Q381 361 367 341Q314 266 284 209Q247 136 247 86Q247 50 267 31T325 11Q354 11 380 22Q428 44 465 95Q518 165 528
208Q529 212 529 220Q529 239 516 250T480 261Q464 261 455 258Q419 246 386 207Q343 155 343 126Q343 110 358 98Q370 91 365 84Q363 82 350 76T334 70Q325 70 313 82Q298 97 298 120Q298 150 322 184Q348 223 387 253T465 295Q474 298 496 298Q559 298 581 251Q588
237 588 220V213Q588 168 552 111Q519 60 460 22T340 -24Q324 -26 306 -26Q240 -26 205 10T170 114Q171 146 178 173Q198 247 254 333L265 349Q265 350 246 350Q114 350 56 408Q26 438 26 480Q26 533 71 581T179 656T295 683Q312 683 312 676ZM777 658Q777 691
738 691Q725 691 710 686Q650 669 561 582Q500 524 425 422Q410 401 410 400H411Q412 400 413 400T416 400T421 401T428 403T437 405Q662 454 743 576Q777 627 777 658Z" />
<glyph unicode="D" glyph-name="D" horiz-adv-x="774" d="M740 547Q698 671 540 671Q520 671 502 668Q404 652 319 578Q290 554 276 534Q217 460 203 390Q202 384 202 368Q202 309 267 309Q278 309 281 310Q315 316 352 345T417 408Q472 475 491 545Q492 549 493
554Q495 561 507 563Q511 564 514 565Q523 568 528 568Q535 568 535 561Q535 559 529 537Q511 459 447 387T314 285Q283 272 251 272Q199 272 168 298T136 374Q136 434 183 508Q216 561 267 603Q353 670 458 696Q503 708 552 708Q722 708 779 593Q789 569 790 569Q794
570 799 572Q823 578 840 578Q855 578 855 571Q855 566 847 555Q836 541 829 541Q826 541 813 537T799 529Q802 517 802 483Q802 457 801 447Q789 345 730 235Q672 126 585 52Q485 -31 392 -31Q354 -31 300 -7L289 -2L277 -6Q240 -17 192 -17Q164 -17 149 -17T111
-14T79 -4T68 14Q68 18 70 22Q90 62 197 62Q243 62 272 48L282 44Q313 71 334 93Q387 154 465 264Q553 386 622 454Q682 514 737 545L740 547ZM749 449Q750 456 750 476V490L738 479Q691 429 600 302Q532 206 484 152Q409 68 341 26L332 20Q332 18 357 9Q377 2
400 2Q434 2 478 20Q610 76 690 248Q742 357 749 449ZM226 20Q226 25 186 25Q181 25 174 24H166Q161 24 158 23H152Q162 21 197 21Q205 21 213 21T223 20H226Z" />
<glyph unicode="E" glyph-name="E" horiz-adv-x="562" d="M230 97Q223 97 223 105Q223 127 240 165Q260 207 291 239Q327 273 361 282Q368 284 386 284Q440 284 475 265T519 210Q520 206 520 195Q520 179 517 167Q495 95 408 44T239 -8Q168 -8 119 17T53 87Q46
107 46 133Q46 162 53 185Q99 332 269 394L280 398Q279 400 278 403Q271 414 271 443Q271 463 273 471Q289 548 353 609T496 695Q539 707 553 707H565Q718 707 718 604Q718 591 717 586Q708 542 672 502T591 444Q570 436 553 436Q525 436 508 451T490 492Q490 520
511 553T558 604Q588 626 619 630Q633 630 633 623T624 606Q617 597 615 596T603 592Q590 591 578 580Q557 559 540 525Q532 507 532 497Q532 474 565 474Q577 474 587 476Q600 481 611 489Q625 500 641 522T665 563Q672 581 672 596Q672 618 656 633Q627 660 553
660Q532 660 526 659Q487 650 463 628T406 563Q347 479 343 439Q341 420 344 415H345Q346 415 352 415T369 417T391 418Q445 418 465 399Q473 391 473 382Q473 362 450 351T398 339Q348 339 313 361Q306 366 304 366Q293 366 258 342Q225 320 187 270T132 172Q120
142 120 117Q120 107 124 93Q145 30 252 30Q310 30 357 60Q386 79 414 114T452 179Q454 186 454 200Q454 212 452 217Q433 246 373 246Q353 246 347 244Q319 232 297 199T266 123Q263 110 261 109Q260 107 247 102T230 97ZM427 376Q427 378 402 380Q386 380 386
379Q386 375 425 375L427 376Z" />
<glyph unicode="F" glyph-name="F" horiz-adv-x="895" d="M977 651Q990 651 990 644Q990 639 970 611Q952 585 948 581Q947 580 938 580Q911 580 870 589Q839 597 779 623Q704 655 663 661Q653 663 617 663Q556 663 504 645Q395 607 331 511Q299 464 299 431Q299
387 362 387Q423 387 463 413T532 496Q551 536 551 563Q551 565 550 576T549 590Q551 592 563 601T578 611Q582 612 590 606Q616 588 616 548Q616 534 615 528Q601 465 554 423Q467 351 349 351Q258 351 258 428Q258 442 259 448Q268 491 304 539Q362 615 456 670T637
734Q644 735 661 735Q690 735 711 731Q754 723 821 694Q881 668 913 660Q945 651 977 651ZM80 83Q76 69 76 62Q76 44 90 32Q118 0 207 0Q248 0 290 26Q342 58 408 133Q447 180 494 248L501 258H495Q456 252 422 242Q353 222 330 195Q324 187 305 187Q292 187 289
190T286 196Q286 202 301 217Q327 241 383 261T484 289L527 297L567 356Q624 441 643 467T688 521Q742 579 788 609Q790 610 791 611T793 612T795 613Q799 613 803 604T808 587Q808 582 791 562Q751 514 711 458Q672 403 628 305L626 300H637Q663 302 685 306L697
308L703 317Q745 376 792 400Q806 406 818 406Q849 406 849 375Q848 362 838 347Q817 316 762 296Q748 291 747 290Q744 289 736 267T724 241Q722 240 702 232T664 217T645 210Q638 210 638 218Q638 223 654 246Q671 271 668 271Q663 270 624 264L607 263Q566 193
529 152Q505 123 467 90Q359 -2 256 -29Q227 -36 193 -36Q129 -36 84 -16T39 50Q39 98 76 135Q101 156 128 158Q171 158 171 121Q171 100 151 88T107 75Q91 75 80 83ZM775 335Q792 347 806 368Q805 369 804 369Q800 369 791 360Q774 336 775 335Z" />
<glyph unicode="G" glyph-name="G" horiz-adv-x="610" d="M206 318Q249 318 249 320T252 331Q260 362 282 399Q313 448 366 510T465 610Q572 703 639 715Q651 717 661 717Q734 717 738 657Q738 643 736 635Q729 608 704 577Q616 459 477 375Q411 334 349 312L333
306Q331 304 327 290T323 267Q323 229 368 229Q416 229 480 287Q483 289 544 352T638 435Q642 437 644 437Q651 437 654 427T658 409Q657 407 653 403Q631 388 620 374T595 326Q582 293 570 276Q545 239 523 179Q499 112 473 77Q439 28 369 -4T231 -37Q172 -37
130 -22T74 21Q67 35 67 53Q67 73 78 97T103 134Q127 158 159 158Q177 158 188 147T200 119T179 89T136 75Q125 75 109 81Q108 81 107 80T106 76T105 70T105 62Q105 51 108 45Q118 25 154 13T238 1Q258 1 266 3Q292 9 319 32Q349 55 371 85T436 190Q458 228 460
232L465 239Q413 192 354 192Q307 192 278 214T245 276Q245 284 242 284Q220 280 187 280Q93 280 45 328Q12 361 12 409Q12 448 34 492Q70 561 142 617Q229 683 295 683Q308 683 308 675Q308 671 300 660Q290 646 282 646Q266 646 240 633Q182 606 118 511Q76 448
76 400Q76 382 83 369Q107 318 206 318ZM677 660Q677 680 646 680Q616 680 565 629Q537 601 514 571Q360 369 360 355Q366 357 386 367Q542 446 656 614Q677 645 677 660Z" />
<glyph unicode="H" glyph-name="H" horiz-adv-x="969" d="M100 75Q88 75 72 82Q67 82 67 60Q67 20 118 7Q144 0 170 0Q173 0 178 0T185 1Q266 15 385 177Q387 181 400 198T419 224L505 340L518 357Q504 357 470 347Q364 321 308 253Q304 248 301 244T295 237H278Q256
237 256 243Q256 246 263 256Q346 368 533 393Q551 396 552 398Q556 402 575 425T600 454Q602 457 604 460T608 465L610 467Q565 455 532 455Q447 455 447 498Q447 512 459 531Q479 562 479 579Q479 593 463 593Q448 593 426 571Q403 546 385 519Q374 504 371 502T360
499H353Q331 499 331 505Q331 512 341 523Q395 598 441 620Q459 629 472 629H480Q509 629 528 616T547 576Q547 555 531 528Q520 509 520 504Q520 493 549 493Q598 493 644 516Q664 526 681 546Q760 630 821 690Q849 717 852 717Q859 717 863 703Q866 694 866 690T816
621Q655 404 656 403Q682 403 714 404H771L780 416Q883 551 969 621T1135 705Q1143 707 1167 707Q1241 707 1241 646Q1241 630 1238 618Q1227 565 1181 506Q1087 389 875 372Q872 372 868 372T861 371T857 370H852L826 334Q761 242 742 209Q691 124 691 76Q691
29 748 29Q798 34 867 129Q869 132 872 135T876 140T880 144L881 146Q883 148 900 148H917Q923 138 914 127Q883 86 855 60Q798 5 749 -6Q740 -8 723 -8Q611 -3 611 100Q611 125 618 152Q627 191 659 247Q671 267 692 296T727 345T742 367Q716 367 685 366H628L620
355Q618 352 558 268Q486 168 461 141Q405 79 339 34T215 -28Q188 -36 153 -36Q53 -36 32 25Q29 34 29 46Q29 60 34 78Q46 111 68 134T123 158Q141 158 152 147T164 119T143 89T100 75ZM1195 634Q1195 671 1157 671Q1115 671 1047 606T929 476T882 409L891 410Q900
411 913 412T934 415Q1081 439 1144 520Q1195 584 1195 634Z" />
<glyph unicode="I" glyph-name="I" horiz-adv-x="809" d="M59 59Q59 99 85 128T148 158Q166 158 177 147T189 119T168 89T125 75Q112 75 104 79Q97 81 97 80T96 72Q96 50 122 36Q151 21 204 21H216Q232 21 248 26Q327 48 411 134Q439 161 459 187Q487 220 487
225Q398 255 398 342Q398 355 400 371Q411 429 455 492T567 591T748 659Q877 695 918 712Q930 717 933 717Q937 717 941 708T946 689Q946 685 936 678Q926 671 918 665Q805 580 729 480Q691 429 651 337L615 260L623 262Q695 286 743 351Q769 384 769 426Q769 448
767 459Q763 483 766 486Q769 488 781 493T797 498Q802 498 803 494T808 472Q813 442 813 425Q813 396 799 368Q775 318 719 278T605 224L592 220L584 209Q547 155 487 106T358 25Q270 -17 191 -17Q142 -17 105 -2T60 46Q59 50 59 59ZM800 630Q817 643 817 644H816Q813
644 732 618Q609 576 550 516Q539 504 518 476Q471 405 462 357Q460 350 460 334Q460 287 500 267L510 263Q513 263 523 278Q527 284 564 342Q628 444 656 483T723 561Q761 599 800 630Z" />
<glyph unicode="J" glyph-name="J" horiz-adv-x="1052" d="M1108 713Q1118 717 1119 717Q1126 717 1130 702Q1133 693 1133 689Q1133 686 1115 673Q965 564 884 434Q860 395 828 326Q817 303 812 291T803 271T798 261V259Q804 261 811 263Q859 279 900 317Q946
361 955 406Q956 410 956 421Q956 440 952 463Q950 482 951 484Q953 486 966 492T985 498Q989 498 994 473Q1000 441 1000 423Q1000 403 993 385Q976 336 916 287T790 223L775 220L767 207Q762 199 714 138T662 63Q662 61 690 70T755 99T811 142L816 148H829Q841
148 844 146Q849 140 841 131Q827 112 804 94Q750 55 644 22Q625 17 622 14L620 11Q617 8 612 3T604 -6Q479 -148 344 -242Q261 -299 201 -312Q190 -314 171 -314Q92 -314 92 -245Q92 -225 94 -218Q102 -184 124 -149T175 -93Q237 -48 352 -16Q403 -1 509 22L532
27L547 47Q673 219 673 225Q670 227 666 228Q629 241 607 270T584 341Q584 370 596 405Q623 486 686 544Q726 581 780 606T929 658Q1054 693 1108 713ZM1003 643L1005 645Q1004 645 924 620Q821 586 764 541Q729 512 697 463T652 372Q646 351 646 332Q646 293 677
273Q695 260 698 263L735 320Q811 440 842 482T915 566T1003 643ZM127 -232Q127 -278 184 -278Q187 -278 190 -278T196 -277Q239 -271 309 -214Q420 -118 497 -16L498 -15H496Q492 -15 401 -37Q223 -82 174 -133Q160 -149 146 -175T128 -219Q127 -223 127 -232Z"
/>
<glyph unicode="K" glyph-name="K" horiz-adv-x="914" d="M615 297Q608 297 598 299T584 301T569 284T536 236T488 171T418 97T331 28Q233 -37 155 -37Q102 -37 67 -17T29 44Q29 63 34 78Q46 111 68 134T123 158Q141 158 152 147T164 119T143 89T100 75Q88 75
72 82Q68 82 68 59Q68 29 95 15T167 0Q187 0 205 7Q248 22 298 72Q343 118 412 214Q490 323 563 410Q570 419 582 433T603 457T615 472L605 468Q568 456 533 456Q506 456 493 461T463 483Q451 496 451 508Q451 519 467 543Q486 571 486 581Q486 593 465 593Q457
593 444 585Q430 575 411 552T379 511T364 493Q364 492 347 492Q345 492 343 492Q326 492 326 499Q326 504 349 533Q379 570 411 597T466 629Q469 630 477 630Q508 630 527 616T547 576Q547 552 529 525Q521 512 521 506Q521 493 549 493Q606 493 660 527Q667 531
690 555L736 604Q750 619 777 646T825 694T848 716T852 717Q858 717 862 708T866 690Q866 687 812 615Q654 404 654 401Q654 401 656 402Q659 402 661 403Q665 404 680 404Q718 404 734 374Q735 370 743 376Q745 377 752 382Q843 440 947 583Q979 627 1035 663T1140
705Q1142 705 1147 705T1155 706Q1171 706 1180 705T1196 697T1204 677Q1204 669 1191 670Q1189 670 1183 670T1174 671Q1139 671 1094 647T1019 588Q1014 582 1000 562T978 534Q930 474 869 422T749 339L739 333L736 322Q729 288 696 240Q654 178 638 131Q628
102 628 77Q628 21 681 21Q692 21 698 23Q751 46 817 134L827 148H844Q861 148 864 146Q869 140 859 127Q842 105 814 77Q734 -3 686 -14Q676 -17 665 -17Q614 -17 586 14T558 100Q558 151 584 203Q597 230 643 294Q647 300 645 300Q633 297 615 297ZM675 357Q675
368 665 368Q640 368 616 333H628Q637 334 672 341Q675 356 675 357Z" />
<glyph unicode="L" glyph-name="L" horiz-adv-x="874" d="M945 717Q986 717 1010 696T1035 637Q1035 592 995 530Q952 464 873 414Q810 379 754 361T675 339T651 333Q650 333 633 308T588 245T544 185Q498 126 426 78L413 68H414Q488 47 575 47Q606 47 635 57Q710
81 755 139L762 148H779Q802 148 802 142Q802 137 795 129Q763 86 715 50T617 -4Q578 -16 544 -16Q516 -16 508 -15Q452 -10 366 20L341 29L331 24Q268 -4 199 -15Q179 -17 141 -17Q112 -17 101 -16Q14 -12 14 22Q14 31 17 37Q39 81 103 95Q126 101 180 101Q235
101 273 95Q280 94 293 92T318 88T330 86Q332 86 353 103T389 135Q402 147 413 159T432 179T450 203T466 224T485 251T505 280L535 322H509Q371 322 315 384Q289 415 289 452Q289 461 293 481Q301 519 331 562T396 630Q438 665 486 684T572 704Q601 704 606 697Q610
692 600 677Q594 668 590 664H588Q586 664 584 664T578 663Q543 661 503 641T429 588Q399 558 381 523T363 457Q363 426 386 401Q417 371 481 361Q490 360 527 360H562Q565 363 580 383T615 429T641 464Q714 556 768 610Q831 673 878 697Q915 717 945 717ZM978
635Q978 658 970 666T938 680Q929 680 925 677Q880 651 685 382L682 377L691 380Q829 417 906 495Q962 555 977 617Q978 622 978 635ZM198 64Q194 64 183 64T166 65T151 65T140 64Q112 57 98 45Q88 35 88 31Q88 20 159 20Q197 20 222 28Q274 44 274 50T198 64Z"
/>
<glyph unicode="M" glyph-name="M" horiz-adv-x="1080" d="M80 47Q94 30 133 30Q155 30 162 32Q222 46 291 117Q325 152 390 233Q461 321 500 361Q570 430 733 552Q843 635 910 693Q942 721 945 721T958 716T970 709Q974 704 964 691Q961 689 905 623T847 554L595
181Q542 105 515 55Q490 8 492 5Q497 5 531 46Q585 105 735 282Q801 359 850 409L972 524Q994 543 1004 556Q1012 567 1097 643T1186 720Q1194 720 1206 715T1215 703Q1215 701 1191 671T1133 599T1080 530Q1037 462 987 364Q926 246 862 152Q802 64 799 17Q799
7 800 5T811 2Q846 2 912 62Q941 88 969 126Q972 129 974 132T976 137T979 139T985 140T996 140H1012Q1018 134 1018 132Q1018 127 998 103T957 59Q891 -3 837 -26Q815 -35 795 -35Q766 -35 750 -18Q728 1 728 48Q728 122 781 190Q833 269 890 370L927 434L914
422Q885 395 839 346Q823 329 738 229T579 48T477 -47Q470 -50 461 -50Q424 -48 424 -4Q424 86 481 172L714 495Q591 406 523 333Q499 308 420 214Q353 135 313 95Q283 67 264 52T215 19T153 -5Q142 -7 120 -7Q59 -7 37 24Q30 34 30 48Q30 78 55 104T113 130Q130
130 141 121T153 94Q153 74 133 61T90 47H80Z" />
<glyph unicode="N" glyph-name="N" horiz-adv-x="902" d="M100 75Q88 75 72 82Q67 82 67 59Q67 29 96 15T167 1Q187 1 197 3Q270 21 360 114Q401 157 478 266Q779 695 784 698Q786 700 802 700H818Q824 694 824 692T813 673Q764 592 764 513Q764 485 772 421T780
330Q780 289 775 259Q775 256 774 252Q773 246 773 245L799 286Q825 326 867 389T942 497Q1002 579 1059 634T1188 722Q1197 726 1200 726Q1208 726 1208 717Q1208 714 1206 697T1203 679L1199 675Q1197 675 1181 667Q1156 655 1133 639Q1050 583 959 456Q801 234
692 19Q682 -3 679 -6Q677 -8 660 -8T641 -6Q637 0 646 17Q685 92 685 173V196Q685 234 679 306Q676 334 676 380Q676 434 687 487L664 454Q505 230 454 170Q322 10 211 -27Q185 -36 163 -36H152Q53 -36 32 25Q29 34 29 46Q29 60 34 78Q46 111 68 134T123 158Q141
158 152 147T164 119T143 89T100 75Z" />
<glyph unicode="O" glyph-name="O" horiz-adv-x="738" d="M607 707H621Q732 707 778 661Q805 634 805 598Q805 592 803 580Q797 543 768 508T696 452L684 447V441Q684 409 664 354Q638 285 589 215T484 97Q379 7 288 -7Q279 -8 259 -8Q183 -5 140 36T96 153Q96
169 97 176Q108 280 193 407Q312 581 484 668Q549 700 607 707ZM760 594Q760 670 608 670Q579 670 541 651Q517 639 500 627Q425 577 347 472Q256 349 215 270T174 131Q174 84 202 57T279 29Q294 29 306 32Q345 43 388 75Q446 118 507 205Q592 325 616 401Q625
426 625 435Q625 437 615 438Q601 439 569 449Q524 466 515 475Q513 477 513 481Q513 484 524 495Q538 508 541 508L555 502Q573 492 596 484Q617 476 625 476Q627 476 626 481Q626 484 624 492Q609 541 548 541Q535 541 526 538Q493 527 450 489T364 398Q309 328
281 273T241 142Q237 121 235 120Q234 118 217 111T197 104Q195 104 192 107T189 112Q189 122 196 152Q217 255 280 348Q364 471 472 544Q507 567 539 576Q548 578 563 578Q609 578 639 557T680 496Q683 486 683 482Q683 480 687 482Q709 493 730 521T759 575Q760
579 760 594Z" />
<glyph unicode="P" glyph-name="P" horiz-adv-x="1013" d="M698 446Q698 442 690 430T679 417Q677 415 670 415Q651 412 633 389Q622 373 617 362Q615 354 615 350Q615 336 626 325Q638 315 643 315L663 342Q751 462 817 536Q873 595 896 614L907 625Q843 680
701 680Q613 680 524 643Q416 599 344 516Q317 486 296 449T267 384Q262 366 262 354Q262 328 279 314T326 299Q337 299 349 301Q386 308 426 338Q473 371 515 427Q571 498 589 555Q596 575 597 598Q597 616 599 617Q601 619 614 624T630 630Q639 630 639 604V587Q639
563 637 553Q628 503 597 456Q550 386 477 331T342 264Q326 262 318 262Q273 262 248 284T222 350Q222 376 229 398Q244 449 285 504Q325 555 379 594Q519 702 680 716H702Q757 716 772 715Q883 704 944 664L951 660Q962 670 985 685T1012 700Q1017 700 1021 690T1026
673Q1026 670 1019 664Q990 634 988 632Q987 630 991 626Q1031 582 1031 522Q1031 457 982 385Q949 339 889 306T765 264Q757 262 733 262H714L701 245Q664 191 611 143Q522 61 416 12T218 -37Q114 -37 93 25Q90 34 90 46Q90 60 95 78Q124 158 185 158Q202 158
213 148T225 122Q225 101 205 88T159 75L140 77Q137 72 137 53Q139 26 165 13T228 0Q286 0 358 37T502 141Q557 193 602 257L620 281Q580 304 573 330Q569 344 573 360Q580 388 615 420T687 452Q698 452 698 446ZM946 569L943 576Q941 576 844 445Q740 300 741
299H751Q810 300 850 338T924 438Q949 490 950 529Q950 553 946 569Z" />
<glyph unicode="Q" glyph-name="Q" horiz-adv-x="883" d="M330 387Q330 331 402 331Q493 331 558 414Q598 467 609 512Q613 527 613 542Q613 569 599 586Q592 593 594 598Q595 602 617 610Q632 617 636 616Q649 609 663 582Q675 557 675 527Q675 500 667 478Q628
360 479 310Q432 294 387 294Q305 294 280 348Q271 366 271 394Q271 436 292 478Q349 593 485 665Q566 708 647 716Q655 717 672 717Q716 717 758 707Q843 682 872 616Q885 586 885 548Q885 517 874 478Q844 375 740 264T498 76Q493 73 491 72T486 69T484 67T485
66Q533 41 607 41Q620 41 634 43Q673 51 712 77T780 139L787 148H804Q806 148 809 148Q821 148 823 147T826 140T803 109T757 66Q689 13 628 -9Q607 -16 589 -16H576Q503 -16 414 20L396 27Q344 8 326 3Q256 -17 192 -17Q137 -17 96 1T54 53Q54 98 123 132Q172
155 222 155Q263 155 302 145Q345 134 401 106L431 91L441 97Q476 118 527 157Q608 224 683 324Q779 451 798 537Q801 553 801 573Q801 626 763 652T660 679Q627 679 601 672Q482 643 398 530Q342 456 332 405Q330 395 330 387ZM160 86Q150 88 144 88Q124 88 116
70Q111 60 111 53Q111 33 141 27Q169 20 201 20Q232 20 269 27Q280 29 297 34T328 43T342 49Q342 51 311 61Q253 81 189 84Q165 86 160 86Z" />
<glyph unicode="R" glyph-name="R" horiz-adv-x="850" d="M128 122Q128 101 108 88T63 75Q53 75 50 76Q46 77 45 76T44 67Q45 45 73 32T144 19Q171 19 206 35Q286 74 406 239Q535 422 631 520Q686 578 755 631L770 644Q768 648 744 657Q692 680 602 680Q534 680
463 657Q330 612 247 516Q218 484 197 446T169 378Q168 372 168 359Q168 303 234 303Q256 303 278 317Q302 333 346 394Q355 407 390 448Q428 490 441 510T456 548Q456 557 458 559Q459 560 476 567T496 575Q505 575 505 558Q505 554 503 542Q497 501 427 403Q397
360 378 343Q310 277 239 267Q234 266 224 266Q179 266 153 288T127 354Q127 374 129 382Q144 464 226 546Q256 576 282 594Q426 703 584 716Q587 716 597 716T615 717Q732 717 802 680L815 673L860 700Q866 700 871 684Q873 674 873 673Q873 668 858 659L845 651L853
642Q887 605 887 561Q887 539 884 527Q873 482 840 439Q803 395 733 358Q722 353 702 344L681 336Q693 315 693 292Q692 266 676 236Q668 220 620 152L575 87Q557 57 557 33Q557 24 560 17T566 8L569 5Q556 5 537 12Q515 18 497 33T472 64Q468 77 473 92Q476 101
545 198T616 310Q616 317 615 318Q613 319 611 319Q587 319 575 315H560L545 291Q489 197 426 132T277 23Q236 1 192 -10Q161 -17 142 -17H130Q50 -17 16 17Q-2 35 -2 57Q-2 77 8 99T31 134Q55 158 88 158Q105 158 116 148T128 122ZM819 564Q819 599 803 615L800
619L784 606Q728 556 691 510T605 387L591 365L610 364Q618 364 627 363T640 361Q641 361 651 363Q734 391 786 469Q819 518 819 564ZM772 148H781Q794 148 794 141Q794 136 788 129Q759 90 717 56T640 9Q622 3 612 3Q609 3 612 5Q612 5 615 7Q639 19 678 57T742
131L755 148H772ZM588 -3Q590 0 593 0H594L593 -1Q592 -1 590 -2L588 -3Z" />
<glyph unicode="S" glyph-name="S" horiz-adv-x="868" d="M100 75Q88 75 72 82Q67 82 67 59Q67 31 96 16T166 0Q181 0 205 4Q311 27 422 141Q459 181 491 226Q530 279 551 305L558 314Q558 315 543 315Q422 321 354 366Q300 401 290 442Q289 447 289 460Q289 504
324 542Q369 593 488 632Q578 662 660 665H679Q684 660 684 657T676 642Q670 633 666 629L664 628Q663 628 661 628T655 628Q591 628 527 610T417 564Q365 531 350 486Q346 475 346 463Q346 416 410 384Q472 352 576 352H588L613 384L681 476Q834 688 955 706Q967
708 973 708Q1016 708 1016 661Q1016 644 1010 621Q999 576 967 530T894 449Q802 375 696 338L682 334L665 312Q647 290 591 215Q566 180 561 175Q530 137 482 97Q342 -15 195 -35Q187 -36 158 -36Q65 -36 39 11Q29 27 29 48Q29 61 34 78Q46 111 68 134T123 158Q141
158 152 147T164 119T143 89T100 75ZM976 653Q976 663 973 667T959 671T934 666Q913 660 892 638T861 599T830 545Q791 475 735 402L721 382Q842 431 911 517Q923 531 949 573Q976 622 976 653Z" />
<glyph unicode="T" glyph-name="T" horiz-adv-x="747" d="M354 350Q264 350 264 426Q264 442 265 448Q285 539 399 629T639 734Q645 735 662 735Q692 735 710 732Q759 724 830 692Q888 668 917 660Q953 651 983 651Q996 651 996 644Q996 639 976 611Q958 585 954
581Q953 580 938 580Q909 582 884 587L869 591L870 587Q870 583 853 562Q778 474 748 422Q727 387 700 328Q658 237 620 188Q553 101 462 40T291 -34Q276 -37 253 -37Q196 -37 155 -22T99 21Q92 35 92 53Q92 73 103 97T128 134Q152 158 184 158Q202 158 213 147T225
119T204 89T161 75Q150 75 134 81Q133 81 132 80T131 76T130 70T130 62Q130 44 139 35Q171 0 267 0Q297 0 324 12Q406 47 508 182Q542 227 614 336Q681 435 710 476Q759 538 821 588Q836 599 836 601Q830 604 823 607Q821 608 785 623Q716 654 666 662Q656 663
626 663Q585 663 555 657Q482 643 418 595T321 483Q305 449 305 431Q305 416 312 408Q324 388 369 388Q398 388 419 393Q487 410 530 480Q557 526 557 565Q557 567 556 573T555 584T555 590Q555 591 568 600T584 611Q588 612 600 603Q622 581 622 549Q622 507 596
468T536 405Q454 350 354 350Z" />
<glyph unicode="U" glyph-name="U" horiz-adv-x="800" d="M548 608Q548 644 524 662T460 680Q448 680 442 679Q359 671 274 615T134 475Q109 438 99 406Q97 399 97 383Q97 368 99 363Q112 339 153 339Q192 339 223 360Q257 381 298 444Q355 528 365 583Q369 601
372 602Q372 602 374 603Q402 616 408 616Q416 616 416 608Q416 601 408 549Q387 436 320 378Q254 319 173 304Q161 302 140 302Q76 302 57 353Q55 361 55 377Q55 394 57 402Q74 484 169 572T375 698Q434 717 478 717Q543 717 580 685T618 594Q618 582 616 568Q605
500 556 428Q554 425 541 406T504 353T458 288L357 146Q310 74 307 33Q307 19 315 19Q317 19 331 21Q367 27 411 57T490 128Q492 130 512 158Q629 324 767 500L861 617H908Q917 617 929 617T944 618Q960 618 960 609Q960 605 925 561Q768 364 648 198Q587 113 571
86Q540 34 540 21Q540 20 545 20Q603 28 664 88Q682 104 696 124Q702 132 704 133T722 134H739Q743 129 743 126T735 113Q720 92 681 58Q602 -5 529 -17H524Q476 -17 473 47V63L462 55Q435 35 420 26Q350 -17 302 -17Q235 -17 235 69Q235 120 267 170Q277 185 382
320T517 511Q548 573 548 608Z" />
<glyph unicode="V" glyph-name="V" horiz-adv-x="622" d="M259 552Q259 565 235 565T181 550Q140 529 105 482Q103 479 101 476T98 472T96 470T93 468T89 467T82 467H75Q62 467 59 470Q56 472 56 475Q56 480 60 484Q86 522 134 556T224 599Q233 601 253 601Q334
601 334 557Q334 541 314 520Q289 491 289 478Q289 473 291 472Q301 468 320 477Q348 488 378 514Q385 520 390 531Q412 576 450 630T520 713L524 717H540Q556 717 559 715Q564 708 554 697Q501 633 448 407Q425 311 411 276Q404 259 392 235T372 196L364 181L388
203Q462 271 493 308T579 429Q661 554 718 612Q768 661 822 694Q831 700 835 700Q840 700 846 680Q850 668 850 662Q850 657 842 653Q780 617 721 553Q679 506 610 405Q563 335 542 309T478 241Q441 204 368 138Q271 51 241 19Q227 3 218 -5L207 -17H175Q170 -12
170 -8Q170 -3 180 7T207 38T244 92T286 188T327 334Q341 401 356 445Q357 450 360 458L362 464Q317 434 276 434Q221 437 221 479Q221 502 247 530Q259 544 259 552Z" />
<glyph unicode="W" glyph-name="W" horiz-adv-x="805" d="M232 504Q232 492 263 492Q306 492 356 515L367 520L379 537Q443 632 515 705L527 717H543H551Q564 717 564 709Q564 705 556 696Q522 656 481 576Q447 507 398 385Q368 309 353 281L349 270L523 472L669
634Q740 710 747 715Q749 717 765 717H774Q786 717 786 710Q786 706 773 686Q724 612 675 497Q630 394 609 354T541 244Q456 120 449 111L447 107L448 108Q462 117 554 190Q657 274 700 327Q734 368 788 463Q830 535 858 573Q910 643 980 683Q1010 700 1018 700Q1020
700 1023 697T1026 692Q1026 688 1024 671T1020 652Q1017 649 1005 643T988 635Q937 608 902 565T823 445Q794 394 772 361Q741 314 699 272Q653 226 535 133Q423 47 373 -2L358 -17H342Q320 -17 320 -11Q320 -6 328 5Q362 54 390 112Q401 133 441 223T487 324Q513
376 564 453L589 490Q587 490 462 344Q262 114 166 14Q138 -16 137 -16Q136 -17 120 -17H112Q99 -17 99 -9Q99 -5 106 3Q168 72 270 327Q309 423 337 471L326 467Q280 455 243 455Q155 455 155 496Q155 509 175 532Q198 558 198 576Q198 593 178 593Q163 593 141
571Q118 546 100 519Q89 504 86 502T75 499H68Q47 502 46 506Q46 510 56 523Q118 609 170 627Q178 629 195 629Q228 629 249 615T270 577Q270 551 243 522Q232 510 232 504Z" />
<glyph unicode="X" glyph-name="X" horiz-adv-x="944" d="M351 351Q313 351 293 371T272 426Q272 455 286 488Q310 552 361 604T478 688Q539 717 584 717Q712 717 745 620Q752 598 752 564T745 498L741 485L744 488Q811 564 892 635T1027 716Q1035 717 1060 717Q1083
716 1095 715T1119 707T1131 686Q1131 666 1107 646T1055 626Q1038 626 1027 637T1016 663Q1016 669 1020 679H1015Q994 675 964 655Q935 635 884 587Q807 514 728 413L688 360Q688 359 725 359Q732 359 742 359T755 360Q770 360 770 348Q769 345 761 335T750 322Q748
321 704 321H660Q650 308 638 289Q571 190 565 117V107Q565 25 653 20Q673 20 688 27Q757 56 837 167Q846 179 850 183L856 184Q861 184 865 184Q866 184 868 184Q888 184 888 173Q883 163 845 117Q801 70 779 52Q706 -8 659 -16Q654 -17 638 -17Q584 -14 554 16T523
101Q523 145 534 167L532 166Q530 164 526 160T518 153Q439 75 360 28Q302 -4 256 -15Q250 -16 226 -16Q153 -16 119 18Q103 35 103 59Q103 85 118 109T152 146Q172 158 194 158Q232 158 232 121Q232 111 230 107Q213 75 168 75Q158 75 150 78V70Q150 55 161 44Q185
20 241 20Q258 20 276 27Q344 56 428 156Q472 208 527 286L552 321H524H507Q489 321 489 330Q489 333 497 344T509 358Q511 359 545 359H579L583 367Q605 401 618 423Q675 523 675 586Q675 632 648 656T572 680Q521 680 469 649T375 564Q326 499 315 451Q314 446
314 434Q314 388 364 388Q378 388 386 390Q406 397 420 409T457 454Q513 533 526 598Q526 601 527 604T528 610L529 613Q531 615 545 622T560 630Q569 630 573 612T578 577Q578 562 575 547Q565 501 532 455Q506 417 464 389T379 353Q371 351 351 351Z" />
<glyph unicode="Y" glyph-name="Y" horiz-adv-x="710" d="M155 280Q110 280 84 302T57 368Q57 387 59 395Q78 488 192 589Q255 642 325 675T457 716H472Q572 716 613 675Q630 658 637 643T644 599Q644 578 640 561T631 534T615 503Q607 492 552 413T493 328L480
306Q466 278 466 256Q466 227 496 227Q514 227 534 234Q541 237 544 241T571 279L762 559Q777 579 792 595Q823 625 875 659Q941 700 946 700Q950 700 954 693T959 677Q959 673 949 666Q904 639 866 595Q816 537 743 397Q681 278 640 225Q584 150 503 88T344 0Q294
-17 248 -17Q182 -17 140 2T98 62T131 135Q156 156 183 158Q226 158 226 121Q226 111 224 107Q217 94 199 84T162 74Q154 74 147 77H144V70Q145 44 181 32T263 20Q275 20 280 21Q374 33 493 175L507 192H504Q500 191 498 191Q484 189 476 189Q474 189 469 189T461
190Q425 196 402 221T379 287Q379 312 392 337Q397 347 458 433T529 537Q559 588 559 620Q559 680 467 680Q451 680 435 678Q354 665 274 611T141 478Q98 414 98 373Q98 347 117 332T169 317Q187 317 212 333Q241 354 290 423Q340 494 352 555Q354 562 355 588Q355
612 356 612Q357 614 371 622T387 630Q392 630 399 617T412 588Q415 578 415 556Q415 542 414 537Q403 470 346 397Q325 370 294 344Q216 280 155 280Z" />
<glyph unicode="Z" glyph-name="Z" horiz-adv-x="821" d="M308 351Q267 351 244 370T221 428Q221 442 222 448Q231 491 267 539Q308 592 361 630Q465 707 566 716Q568 717 583 717H587Q632 717 660 699T689 646Q689 621 669 592Q658 575 658 564Q658 547 671 540T710
528L718 539Q779 613 821 646Q877 693 933 705Q944 707 964 707Q1010 707 1025 675Q1032 661 1032 645Q1032 626 1022 607Q1008 579 980 560T897 522Q840 504 789 496Q773 494 771 493Q768 493 749 454Q720 398 702 370Q700 367 698 363Q696 360 696 359H805Q806
358 807 356T808 354T809 352T810 349T808 346T806 341T802 335Q792 323 791 322Q789 321 728 321H668Q563 180 433 88L419 78L434 73Q504 54 554 54Q597 54 641 76T708 126Q710 128 712 130T715 135T718 137L720 140H752Q758 134 758 132Q758 128 747 113Q711
67 657 32T552 -14Q540 -16 517 -16Q493 -16 480 -14Q434 -6 375 27L354 38L338 30Q255 -8 184 -8Q97 -8 84 17Q83 19 83 29Q83 48 104 69Q143 112 241 112Q286 112 342 99L360 95L372 105Q434 157 523 270L560 320Q560 321 533 321L507 322Q498 327 510 345Q512
348 514 351T518 355T520 357T524 359T530 359H556H588L669 474L682 491Q621 504 596 521Q556 547 556 570Q556 586 574 610Q603 651 603 663Q603 679 568 679Q539 679 515 673Q420 650 342 569Q310 537 289 502T263 442Q262 438 262 431Q262 387 321 387Q334 387
343 391Q363 397 377 410T414 454Q457 514 460 562Q460 575 461 576Q461 577 475 586T492 595Q496 595 503 588T514 572Q520 559 520 539Q520 521 515 506T507 484T491 457Q476 436 460 420Q406 367 337 353Q329 351 308 351ZM989 642Q989 668 953 671Q904 671
871 644Q847 627 813 577Q787 532 787 531H788Q805 531 835 538Q880 547 916 561Q967 582 984 620Q989 633 989 642ZM130 40Q130 29 198 29Q248 29 293 51Q306 58 306 59T297 63Q270 74 209 74Q146 74 132 44Q130 40 130 40Z" />
<glyph unicode="&#xa0;" glyph-name="uni00A0" horiz-adv-x="250" />
<glyph unicode="&#xeffd;" glyph-name="uniEFFD" horiz-adv-x="300" d="M0 0V100H100V0H0ZM200 0V100H300V0H200Z" />
<glyph unicode="&#xeffe;" glyph-name="uniEFFE" horiz-adv-x="300" d="M0 0V100H100V0H0ZM200 0V100H300V0H200Z" />
<glyph unicode="&#xefff;" glyph-name="uniEFFF" horiz-adv-x="100" d="M0 0V100H100V0H0Z" />
</font>
</defs>
</svg>
