<?xml version="1.0" standalone="no"?>
<!DOCTYPE svg PUBLIC "-//W3C//DTD SVG 1.1//EN" "http://www.w3.org/Graphics/SVG/1.1/DTD/svg11.dtd" >
<!--
2017-9-20: Created with FontForge (http://fontforge.org)
-->
<svg xmlns="http://www.w3.org/2000/svg" xmlns:xlink="http://www.w3.org/1999/xlink" version="1.1">
<metadata>
Created by FontForge 20160407 at Wed Sep 20 08:17:48 2017
 By Adam Bradley
Copyright (c) 2017, Adam Bradley
</metadata>
<defs>
<font id="Ionicons" horiz-adv-x="416" >
  <font-face 
    font-family="Ionicons"
    font-weight="400"
    font-stretch="normal"
    units-per-em="512"
    panose-1="2 0 5 3 0 0 0 0 0 0"
    ascent="448"
    descent="-64"
    bbox="-0.75 -64 512.487 448"
    underline-thickness="25.6"
    underline-position="-51.2"
    unicode-range="U+F100-F45A"
  />
    <missing-glyph />
    <glyph glyph-name="ion-ios-add-circle-outline" unicode="&#xf100;" 
d="M208 400c115 0 208 -93 208 -208s-93 -208 -208 -208s-208 93 -208 208s93 208 208 208zM208 1c105 0 191 86 191 191s-86 191 -191 191s-191 -86 -191 -191s86 -191 191 -191zM216 320v-120h120v-16h-120v-120h-16v120h-120v16h120v120h16z" />
    <glyph glyph-name="ion-ios-add-circle" unicode="&#xf101;" 
d="M208 400c115 0 208 -93 208 -208s-93 -208 -208 -208s-208 93 -208 208s93 208 208 208zM336 184v16h-120v120h-16v-120h-120v-16h120v-120h16v120h120z" />
    <glyph glyph-name="ion-ios-add" unicode="&#xf102;" horiz-adv-x="256" 
d="M256 184h-120v-120h-16v120h-120v16h120v120h16v-120h120v-16z" />
    <glyph glyph-name="ion-ios-alarm-outline" unicode="&#xf103;" horiz-adv-x="404" 
d="M384 256l-54 52l-9 -9c35 -32 57 -79 57 -130c0 -44 -16 -83 -43 -114l36 -45l-12 -10l-35 43c-32 -30 -75 -49 -122 -49v0v0c-47 0 -90 19 -122 49l-35 -43l-12 10l36 45c-27 31 -43 71 -43 115c0 51 22 97 57 129l-9 9l-54 -52c-12 14 -20 32 -20 52c0 44 35 80 80 82
h5c20 0 39 -7 54 -18l-54 -52l11 -11c26 19 56 32 90 35v0c0 8 8 16 16 16s15 -8 15 -16v0c34 -3 65 -16 91 -35l11 11l-54 52c15 11 34 18 54 18h5c45 -2 80 -38 80 -82c0 -20 -8 -38 -20 -52zM22 280l91 89c-9 5 -19 7 -32 6c-37 -2 -65 -32 -65 -67c0 -10 2 -19 6 -28z
M362 172c0 88 -72 158 -160 158s-160 -70 -160 -158s72 -158 160 -158s160 70 160 158zM291 369l91 -89c4 9 6 18 6 28c0 35 -28 65 -65 67c-13 1 -23 -1 -32 -6zM202 288h16v-144h-112v16h96v128z" />
    <glyph glyph-name="ion-ios-alarm" unicode="&#xf104;" horiz-adv-x="404" 
d="M385 256l-55 52l-9 -9c35 -32 57 -79 57 -130c0 -44 -16 -83 -43 -114l37 -45l-13 -10l-35 43c-32 -30 -75 -49 -122 -49v0v0c-47 0 -90 19 -122 49l-35 -43l-12 10l36 45c-27 31 -43 70 -43 114c0 51 22 98 57 130l-9 9l-54 -52c-12 14 -20 32 -20 52c0 44 35 80 80 82
h5c20 0 39 -7 54 -18l-54 -53l11 -10c26 19 56 32 90 35v0c0 8 8 16 16 16s15 -8 15 -16v0c34 -3 65 -16 91 -35l11 11l-54 52c15 11 34 18 54 18h5c45 -2 80 -38 80 -82c0 -20 -7 -38 -19 -52zM218 144v144h-16v-128h-96v-16h112z" />
    <glyph glyph-name="ion-ios-albums-outline" unicode="&#xf105;" horiz-adv-x="448" 
d="M432 304h-416v-288h416v288zM448 320v0v-320h-448v320h448zM40 336v16h368v-16h-368zM72 368v16h304v-16h-304z" />
    <glyph glyph-name="ion-ios-albums" unicode="&#xf106;" horiz-adv-x="448" 
d="M448 320v0v-320h-448v320h448zM40 336v16h368v-16h-368zM72 368v16h304v-16h-304z" />
    <glyph glyph-name="ion-ios-alert-outline" unicode="&#xf107;" 
d="M208 400c115 0 208 -93 208 -208s-93 -208 -208 -208s-208 93 -208 208s93 208 208 208zM208 1c105 0 191 86 191 191s-86 191 -191 191s-191 -86 -191 -191s86 -191 191 -191zM208 115c9 0 16 -7 16 -16s-7 -16 -16 -16s-16 7 -16 16s7 16 16 16zM196 215v89h24v-89
l-6 -71h-12z" />
    <glyph glyph-name="ion-ios-alert" unicode="&#xf108;" 
d="M208 400c115 0 208 -93 208 -208s-93 -208 -208 -208s-208 93 -208 208s93 208 208 208zM196 304v-89l6 -71h12l6 71v89h-24zM208 83c9 0 16 7 16 16s-7 16 -16 16s-16 -7 -16 -16s7 -16 16 -16z" />
    <glyph glyph-name="ion-ios-american-football-outline" unicode="&#xf109;" 
d="M331 315c112 -112 81 -327 81 -327s-26 -4 -65 -4c-73 0 -189 12 -262 85c-112 112 -81 327 -81 327s26 4 65 4c73 0 189 -12 262 -85zM17 383c-2 -19 -5 -60 0 -107c1 -8 2 -16 3 -23l127 127c-25 3 -51 5 -78 5v0v0c-22 0 -41 -1 -52 -2zM96 80c30 -30 72 -53 124 -66
c10 -3 20 -5 31 -7l142 142c-4 22 -10 44 -17 63c-14 37 -32 68 -56 92c-30 30 -72 53 -124 66c-10 3 -20 5 -31 7l-142 -142c4 -22 10 -44 17 -63c14 -37 32 -68 56 -92zM399 1c2 19 5 60 0 107c-1 8 -2 16 -3 23l-127 -127c25 -3 51 -5 78 -5c22 0 41 1 52 2zM259 130
l-28 -29l-12 12l29 28l-23 23l-28 -29l-12 12l29 28l-23 23l-28 -29l-12 12l29 28l-23 23l-28 -29l-12 12l29 28l-22 23l-29 -29l-11 12l67 67l12 -11l-29 -29l23 -22l28 29l12 -12l-29 -28l23 -23l28 29l12 -12l-29 -28l23 -23l28 29l12 -12l-29 -28l22 -23l29 29l12 -12
l-29 -28l22 -23l29 29l11 -12l-67 -67l-12 11l29 29z" />
    <glyph glyph-name="ion-ios-american-football" unicode="&#xf10a;" 
d="M331 315c112 -112 81 -327 81 -327s-26 -4 -65 -4c-73 0 -189 12 -262 85c-112 112 -81 327 -81 327s26 4 65 4c73 0 189 -12 262 -85zM20 253l3 -18l142 142l-18 3zM219 113l12 -12l28 29l23 -22l-29 -29l12 -11l67 67l-11 12l-29 -29l-22 23l29 28l-12 12l-28 -29
l-23 23l29 28l-12 12l-28 -29l-23 23l29 28l-12 12l-28 -29l-23 23l29 28l-12 12l-28 -29l-23 22l29 29l-12 11l-67 -67l11 -12l29 29l22 -23l-29 -28l12 -12l28 29l23 -23l-29 -28l12 -12l28 29l23 -23l-29 -28l12 -12l28 29l23 -23zM269 4l127 127l-3 18l-142 -142z" />
    <glyph glyph-name="ion-ios-analytics-outline" unicode="&#xf10b;" 
d="M355 339c81 -81 81 -213 0 -294s-213 -81 -294 0s-81 213 0 294s213 81 294 0zM73 327c-44 -44 -62 -103 -54 -160c3 -3 5 -6 7 -8c3 -2 19 -18 40 -15c12 2 27 26 38 42c4 6 9 12 12 16c17 21 34 23 45 21c24 -3 45 -27 54 -49c7 -18 18 -29 32 -30c15 -1 31 10 43 30
c1 2 3 4 4 7c10 17 24 43 52 43c29 0 50 -30 53 -35c1 50 -18 100 -56 138c-74 74 -196 74 -270 0zM343 57c30 30 47 67 53 106c-4 8 -7 12 -10 17c-4 6 -6 8 -13 15c-6 6 -16 13 -27 13c-18 0 -29 -19 -38 -35c-1 -3 -3 -5 -4 -7c-15 -25 -36 -40 -58 -38
c-20 1 -36 15 -46 39s-28 39 -41 41c-11 2 -21 -4 -31 -16c-3 -4 -6 -9 -10 -15c-14 -20 -31 -45 -50 -48c-3 0 -5 -1 -8 -1c-16 0 -29 7 -36 13c8 -31 25 -60 49 -84c74 -74 196 -74 270 0z" />
    <glyph glyph-name="ion-ios-analytics" unicode="&#xf10c;" 
d="M355 339c81 -81 81 -213 0 -294s-213 -81 -294 0s-81 213 0 294s213 81 294 0zM73 327c-44 -44 -62 -104 -54 -161l7 -7c3 -2 19 -18 40 -15c12 2 27 26 38 42c4 6 9 12 12 16c17 21 34 23 45 21c24 -3 45 -27 54 -49c7 -18 18 -29 32 -30c15 -1 31 10 43 30c1 2 3 4 4 7
c10 17 24 43 52 43c29 0 50 -30 53 -35c1 50 -18 100 -56 138c-74 74 -196 74 -270 0z" />
    <glyph glyph-name="ion-ios-aperture-outline" unicode="&#xf10d;" 
d="M208 400c115 0 208 -93 208 -208s-93 -208 -208 -208c-46 0 -89 15 -123 40l-8 5l1 1c-47 38 -78 96 -78 162c0 115 93 208 208 208zM385 267c-10 23 -23 43 -41 61c-4 4 -9 8 -13 12l-95 -164h163c0 5 1 11 1 16c0 26 -5 51 -15 75zM189 191l9 -15h20l9 16l-9 16h-19z
M283 369c-24 10 -49 15 -75 15c-23 0 -46 -4 -67 -12l95 -164l82 141c-11 8 -23 15 -35 20zM72 328c-18 -18 -31 -38 -41 -61c-6 -14 -10 -28 -12 -43h189l-82 142c-20 -9 -38 -22 -54 -38zM72 56c4 -4 9 -8 14 -12l94 164h-163c0 -5 -1 -11 -1 -16c0 -26 5 -51 15 -75
c10 -23 23 -43 41 -61zM133 15c24 -10 49 -15 75 -15c23 0 45 4 66 12l-94 163l-81 -141c11 -8 22 -14 34 -19zM344 56c18 18 31 38 41 61c6 14 10 28 12 43h-190l82 -142c20 10 39 22 55 38z" />
    <glyph glyph-name="ion-ios-aperture" unicode="&#xf10e;" 
d="M199 208h19l9 -16l-9 -16h-20l-9 15zM208 400c115 0 208 -93 208 -208s-93 -208 -208 -208s-208 93 -208 208s93 208 208 208zM207 160h190c1 5 2 11 2 16h-163l95 164c-4 3 -9 6 -13 9l-82 -141l-95 164c-3 -1 -5 -2 -8 -3c-2 -1 -5 -2 -7 -3l82 -142h-189
c-1 -5 -2 -11 -2 -16h164l-95 -164c4 -3 9 -7 13 -10l81 141l94 -163l9 3l6 3z" />
    <glyph glyph-name="ion-ios-apps-outline" unicode="&#xf10f;" horiz-adv-x="352" 
d="M74 368h-52c-3 0 -6 -3 -6 -6v-52c0 -3 3 -6 6 -6h52c3 0 6 3 6 6v52c0 3 -3 6 -6 6zM74 384v0c12 0 22 -10 22 -22v-52c0 -12 -10 -22 -22 -22h-52c-12 0 -22 10 -22 22v52c0 12 10 22 22 22h52zM202 368h-52c-3 0 -6 -3 -6 -6v-52c0 -3 3 -6 6 -6h52c3 0 6 3 6 6v52
c0 3 -3 6 -6 6zM202 384v0c12 0 22 -10 22 -22v-52c0 -12 -10 -22 -22 -22h-52c-12 0 -22 10 -22 22v52c0 12 10 22 22 22h52zM330 368h-52c-3 0 -6 -3 -6 -6v-52c0 -3 3 -6 6 -6h52c3 0 6 3 6 6v52c0 3 -3 6 -6 6zM330 384v0c12 0 22 -10 22 -22v-52c0 -12 -10 -22 -22 -22
h-52c-12 0 -22 10 -22 22v52c0 12 10 22 22 22h52zM74 224h-52c-3 0 -6 -3 -6 -6v-52c0 -3 3 -6 6 -6h52c3 0 6 3 6 6v52c0 3 -3 6 -6 6zM74 240v0c12 0 22 -10 22 -22v-52c0 -12 -10 -22 -22 -22h-52c-12 0 -22 10 -22 22v52c0 12 10 22 22 22h52zM202 224h-52
c-3 0 -6 -3 -6 -6v-52c0 -3 3 -6 6 -6h52c3 0 6 3 6 6v52c0 3 -3 6 -6 6zM202 240v0c12 0 22 -10 22 -22v-52c0 -12 -10 -22 -22 -22h-52c-12 0 -22 10 -22 22v52c0 12 10 22 22 22h52zM330 224h-52c-3 0 -6 -3 -6 -6v-52c0 -3 3 -6 6 -6h52c3 0 6 3 6 6v52c0 3 -3 6 -6 6z
M330 240v0c12 0 22 -10 22 -22v-52c0 -12 -10 -22 -22 -22h-52c-12 0 -22 10 -22 22v52c0 12 10 22 22 22h52zM74 80h-52c-3 0 -6 -3 -6 -6v-52c0 -3 3 -6 6 -6h52c3 0 6 3 6 6v52c0 3 -3 6 -6 6zM74 96v0c12 0 22 -10 22 -22v-52c0 -12 -10 -22 -22 -22h-52
c-12 0 -22 10 -22 22v52c0 12 10 22 22 22h52zM202 80h-52c-3 0 -6 -3 -6 -6v-52c0 -3 3 -6 6 -6h52c3 0 6 3 6 6v52c0 3 -3 6 -6 6zM202 96v0c12 0 22 -10 22 -22v-52c0 -12 -10 -22 -22 -22h-52c-12 0 -22 10 -22 22v52c0 12 10 22 22 22h52zM330 80h-52c-3 0 -6 -3 -6 -6
v-52c0 -3 3 -6 6 -6h52c3 0 6 3 6 6v52c0 3 -3 6 -6 6zM330 96v0c12 0 22 -10 22 -22v-52c0 -12 -10 -22 -22 -22h-52c-12 0 -22 10 -22 22v52c0 12 10 22 22 22h52z" />
    <glyph glyph-name="ion-ios-apps" unicode="&#xf110;" horiz-adv-x="352" 
d="M74 288h-52c-12 0 -22 10 -22 22v52c0 12 10 22 22 22h52c12 0 22 -10 22 -22v-52c0 -12 -10 -22 -22 -22zM202 288h-52c-12 0 -22 10 -22 22v52c0 12 10 22 22 22h52c12 0 22 -10 22 -22v-52c0 -12 -10 -22 -22 -22zM330 288h-52c-12 0 -22 10 -22 22v52
c0 12 10 22 22 22h52c12 0 22 -10 22 -22v-52c0 -12 -10 -22 -22 -22zM74 144h-52c-12 0 -22 10 -22 22v52c0 12 10 22 22 22h52c12 0 22 -10 22 -22v-52c0 -12 -10 -22 -22 -22zM202 144h-52c-12 0 -22 10 -22 22v52c0 12 10 22 22 22h52c12 0 22 -10 22 -22v-52
c0 -12 -10 -22 -22 -22zM330 144h-52c-12 0 -22 10 -22 22v52c0 12 10 22 22 22h52c12 0 22 -10 22 -22v-52c0 -12 -10 -22 -22 -22zM74 0h-52c-12 0 -22 10 -22 22v52c0 12 10 22 22 22h52c12 0 22 -10 22 -22v-52c0 -12 -10 -22 -22 -22zM202 0h-52c-12 0 -22 10 -22 22
v52c0 12 10 22 22 22h52c12 0 22 -10 22 -22v-52c0 -12 -10 -22 -22 -22zM330 0h-52c-12 0 -22 10 -22 22v52c0 12 10 22 22 22h52c12 0 22 -10 22 -22v-52c0 -12 -10 -22 -22 -22z" />
    <glyph glyph-name="ion-ios-appstore-outline" unicode="&#xf111;" 
d="M208 400c115 0 208 -93 208 -208s-93 -208 -208 -208s-208 93 -208 208s93 208 208 208zM208 1c105 0 191 86 191 191s-86 191 -191 191s-191 -86 -191 -191s86 -191 191 -191zM91 96l10 45l25 -16zM294 150c18 8 28 -3 30 -18c2 -14 -2 -32 -7 -36c-8 17 -18 13 -27 25
c-11 15 -3 26 4 29zM204 258l-30 -50l-18 -32l-25 -44l-25 15l17 29l18 32l37 65c2 3 5 4 8 2l16 -9c3 -2 4 -5 2 -8zM183 208h52l18 -32h-89zM303 176l-18 32h51v-32h-33zM133 208l-18 -32h-35v32h53zM277 208l9 -17l-24 -15v0h-1l-18 32l-51 91c-2 3 -1 6 2 8l15 9
c3 2 6 1 8 -2zM295 176l8 -14l-25 -15l-12 23l10 6l14 9z" />
    <glyph glyph-name="ion-ios-appstore" unicode="&#xf112;" 
d="M208 400c115 0 208 -93 208 -208s-93 -208 -208 -208s-208 93 -208 208s93 208 208 208zM80 208v-32h35l18 32h-53zM91 96l35 29l-25 16zM131 132l25 44l19 32l29 50c2 3 1 6 -2 8l-16 9c-3 2 -6 1 -8 -2l-37 -65l-18 -32l-17 -29zM164 176h89l-18 32h-53zM262 176v0
l24 15l-9 17l-60 106c-2 3 -5 4 -8 2l-15 -9c-3 -2 -4 -5 -2 -8l51 -91l18 -32h1zM266 170l12 -23l25 15l-8 14l-5 9l-14 -9zM317 96c5 4 9 22 7 36c-2 15 -12 26 -30 18c-7 -3 -15 -14 -4 -29c9 -12 19 -8 27 -25zM336 176v32h-51l18 -32h33z" />
    <glyph glyph-name="ion-ios-archive-outline" unicode="&#xf113;" horiz-adv-x="320" 
d="M192 208c9 0 16 -7 16 -16s-7 -16 -16 -16h-64c-9 0 -16 7 -16 16s7 16 16 16h63zM192 224v0c18 0 32 -14 32 -32s-14 -32 -32 -32h-64c-18 0 -32 14 -32 32s14 32 32 32h64zM320 336v-80h-16v-208h-288v208h-16v80h320zM288 64v192h-256v-192h256zM304 272v48h-288v-48
h288z" />
    <glyph glyph-name="ion-ios-archive" unicode="&#xf114;" horiz-adv-x="320" 
d="M16 48v192h288v-192h-288zM128 208c-9 0 -16 -7 -16 -16s7 -16 16 -16h64c9 0 16 7 16 16s-7 16 -16 16h-64zM0 336h320v-80h-16h-288h-16v80z" />
    <glyph glyph-name="ion-ios-arrow-back" unicode="&#xf115;" horiz-adv-x="192" 
d="M192 320l-127 -128l127 -128l-32 -32l-160 160v0v0l160 160z" />
    <glyph glyph-name="ion-ios-arrow-down" unicode="&#xf116;" horiz-adv-x="320" 
d="M32 288l128 -127l128 127l32 -32l-160 -160v0v0l-160 160z" />
    <glyph glyph-name="ion-ios-arrow-dropdown-circle" unicode="&#xf117;" 
d="M208 400c115 0 208 -93 208 -208s-93 -208 -208 -208s-208 93 -208 208s93 208 208 208zM208 140l-93 100l-13 -14l106 -114l106 114l-13 14z" />
    <glyph glyph-name="ion-ios-arrow-dropdown" unicode="&#xf118;" 
d="M301 240l13 -14l-106 -114l-106 114l13 14l93 -100zM208 400c115 0 208 -93 208 -208s-93 -208 -208 -208s-208 93 -208 208s93 208 208 208zM208 383c-105 0 -191 -86 -191 -191s86 -191 191 -191s191 86 191 191s-86 191 -191 191z" />
    <glyph glyph-name="ion-ios-arrow-dropleft-circle" unicode="&#xf119;" 
d="M208 400c115 0 208 -93 208 -208s-93 -208 -208 -208s-208 93 -208 208s93 208 208 208zM256 99l-100 93l100 93l-14 13l-114 -106l114 -106z" />
    <glyph glyph-name="ion-ios-arrow-dropleft" unicode="&#xf11a;" 
d="M256 285l-100 -93l100 -93l-14 -13l-114 106l114 106zM208 400c115 0 208 -93 208 -208s-93 -208 -208 -208s-208 93 -208 208s93 208 208 208zM208 1c105 0 191 86 191 191s-86 191 -191 191s-191 -86 -191 -191s86 -191 191 -191z" />
    <glyph glyph-name="ion-ios-arrow-dropright-circle" unicode="&#xf11b;" 
d="M0 192c0 115 93 208 208 208s208 -93 208 -208s-93 -208 -208 -208s-208 93 -208 208zM260 192l-100 -93l14 -13l114 106l-114 106l-14 -13z" />
    <glyph glyph-name="ion-ios-arrow-dropright" unicode="&#xf11c;" 
d="M160 285l14 13l114 -106l-114 -106l-14 13l100 93zM0 192c0 115 93 208 208 208s208 -93 208 -208s-93 -208 -208 -208s-208 93 -208 208zM17 192c0 -105 86 -191 191 -191s191 86 191 191s-86 191 -191 191s-191 -86 -191 -191z" />
    <glyph glyph-name="ion-ios-arrow-dropup-circle" unicode="&#xf11d;" 
d="M208 -16c-115 0 -208 93 -208 208s93 208 208 208s208 -93 208 -208s-93 -208 -208 -208zM208 244l93 -100l13 14l-106 114l-106 -114l13 -14z" />
    <glyph glyph-name="ion-ios-arrow-dropup" unicode="&#xf11e;" 
d="M115 144l-13 14l106 114l106 -114l-13 -14l-93 100zM208 -16c-115 0 -208 93 -208 208s93 208 208 208s208 -93 208 -208s-93 -208 -208 -208zM208 1c105 0 191 86 191 191s-86 191 -191 191s-191 -86 -191 -191s86 -191 191 -191z" />
    <glyph glyph-name="ion-ios-arrow-forward" unicode="&#xf11f;" horiz-adv-x="192" 
d="M127 192l-127 128l32 32l160 -160v0v0l-160 -160l-32 32z" />
    <glyph glyph-name="ion-ios-arrow-round-back" unicode="&#xf120;" horiz-adv-x="256" 
d="M248 200c4 0 8 -4 8 -8s-4 -8 -8 -8h-221l67 -74c3 -3 3 -9 0 -12c-2 -2 -4 -2 -6 -2s-4 0 -6 2l-80 88v1v0l-1 1v0v0v1v0h-1v1v0v0v1v0v2v0v1v0v0v1h1v0v1v0v0l1 1v0v1l80 88c3 3 9 3 12 0s3 -9 0 -12l-67 -74h221z" />
    <glyph glyph-name="ion-ios-arrow-round-down" unicode="&#xf121;" horiz-adv-x="192" 
d="M88 312c0 4 4 8 8 8s8 -4 8 -8v-221l74 67c3 3 9 3 12 0c2 -2 2 -4 2 -6s0 -4 -2 -6l-88 -80h-1v0l-1 -1v0v0h-1v-1v0h-1v0v0h-1v0h-2v0v0h-1v0h-1v0v1h-1v0v0l-1 1v0h-1l-88 80c-3 3 -3 9 0 12s9 3 12 0l74 -67v221z" />
    <glyph glyph-name="ion-ios-arrow-round-forward" unicode="&#xf122;" horiz-adv-x="256" 
d="M8 184c-4 0 -8 4 -8 8s4 8 8 8h221l-67 74c-3 3 -3 9 0 12c2 2 4 2 6 2s4 0 6 -2l80 -88v-1v0l1 -1v0v0v-1h1v0v-1v0v0v-1v0v-2v0v-1v0v0v-1v0h-1v-1v0v0l-1 -1v0v-1l-80 -88c-3 -3 -9 -3 -12 0s-3 9 0 12l67 74h-221z" />
    <glyph glyph-name="ion-ios-arrow-round-up" unicode="&#xf123;" horiz-adv-x="192" 
d="M104 72c0 -4 -4 -8 -8 -8s-8 4 -8 8v221l-74 -67c-3 -3 -9 -3 -12 0c-2 2 -2 4 -2 6s0 4 2 6l88 80h1v0l1 1v0v0h1v1v0h1v0v0h1v0h2v0h1v0v0h1v0v-1h1v0v0l1 -1v0h1l88 -80c3 -3 3 -9 0 -12s-9 -3 -12 0l-74 67v-221z" />
    <glyph glyph-name="ion-ios-arrow-up" unicode="&#xf124;" horiz-adv-x="320" 
d="M288 96l-128 127l-128 -127l-32 32l160 160v0v0l160 -160z" />
    <glyph glyph-name="ion-ios-at-outline" unicode="&#xf125;" horiz-adv-x="384" 
d="M370 103l14 -7c-36 -69 -106 -112 -183 -112c-55 0 -105 22 -143 61c-37 39 -58 91 -58 147s21 108 58 147c38 39 88 61 143 61c56 0 104 -21 134 -60c29 -38 38 -87 26 -139c-12 -51 -38 -74 -58 -85c-22 -12 -43 -16 -64 -9v0c-5 2 -8 4 -11 6c-5 5 -9 11 -10 20h-1
c-6 -6 -13 -12 -22 -18s-19 -9 -29 -9c-8 0 -15 2 -22 5s-13 8 -17 13s-8 12 -10 19s-4 14 -4 22c0 14 2 28 7 42s11 27 19 38s18 20 30 27s25 10 39 10c9 0 17 -3 25 -8s13 -14 18 -26l10 27h21l-38 -117c-1 -4 -3 -9 -4 -13s-1 -7 -1 -10s1 -7 3 -9v-1v0c11 -9 35 -5 53 5
c17 9 39 30 50 75c11 47 3 91 -23 125c-27 35 -70 54 -121 54c-50 0 -97 -20 -132 -56c-34 -36 -53 -84 -53 -136s19 -100 53 -136c35 -36 82 -56 132 -56c71 0 136 39 169 103zM220 162c6 10 10 20 14 31s5 22 5 31c0 5 -1 10 -3 14c-2 5 -4 8 -7 12s-6 7 -10 9s-8 3 -12 3
c-10 0 -19 -3 -28 -9s-17 -14 -23 -24s-11 -20 -14 -31s-4 -21 -4 -31c0 -12 3 -23 9 -30s14 -10 24 -10s19 3 27 10s16 15 22 25z" />
    <glyph glyph-name="ion-ios-at" unicode="&#xf126;" 
d="M336 356c49 -38 80 -97 80 -164c0 -115 -93 -208 -208 -208s-208 93 -208 208s93 208 208 208c11 0 20 -2 34 -4c42 -8 73 -37 96 -66c26 -34 35 -78 24 -125c-11 -45 -34 -66 -51 -75c-18 -10 -41 -14 -52 -5l-1 1c-2 2 -3 6 -3 9s0 6 1 10s3 9 4 13l38 117h-21l-10 -27
c-5 12 -10 21 -18 26s-16 8 -25 8c-14 0 -27 -3 -39 -10s-22 -16 -30 -27s-15 -24 -19 -38s-7 -28 -7 -42c0 -8 2 -16 4 -23s5 -13 10 -18s10 -10 17 -13s14 -5 22 -5c10 0 20 3 29 9s16 12 22 18h1c1 -9 5 -15 10 -20c3 -2 6 -4 11 -6v-1c21 -7 42 -2 64 10
c20 11 46 34 58 85c12 52 3 101 -26 139c-4 6 -10 11 -15 16zM163 137c-6 7 -9 18 -9 30v0v0c0 10 1 20 4 31s8 21 14 31s14 18 23 24s18 9 28 9c4 0 8 -1 12 -3s7 -5 10 -9c2 -2 3 -4 4 -6l3 -6c2 -4 3 -9 3 -14c0 -9 -1 -20 -5 -31s-8 -21 -14 -31s-14 -18 -22 -25
s-17 -10 -27 -10s-18 3 -24 10z" />
    <glyph glyph-name="ion-ios-attach" unicode="&#xf127;" horiz-adv-x="192" 
d="M184 256c5 0 8 -3 8 -8v-157c0 -50 -42 -91 -90 -91h-12c-23 0 -45 10 -63 27c-18 18 -27 41 -27 64v221c0 40 32 72 72 72s72 -32 72 -72v-214c0 -30 -21 -50 -48 -50s-49 21 -49 50v118c0 5 4 8 9 8s8 -3 8 -8v-118c0 -17 15 -34 32 -34s31 17 31 34v214
c0 31 -24 55 -55 55s-56 -24 -56 -55v-221c0 -39 34 -75 74 -75h12c19 0 38 9 52 23c13 14 21 33 21 52v157c0 5 4 8 9 8z" />
    <glyph glyph-name="ion-ios-backspace-outline" unicode="&#xf128;" 
d="M347 352c38 0 69 -31 69 -69v-180c0 -38 -31 -71 -69 -71h-165c-45 0 -64 26 -102 64s-72 76 -72 76c-5 6 -8 13 -8 21s3 15 8 21c0 0 43 45 72 74s55 64 102 64h165zM400 103v180c0 14 -5 28 -15 38s-24 15 -38 15h-165c-15 0 -28 -4 -42 -13c-13 -9 -25 -21 -37 -34
l-83 -86c-2 -2 -4 -5 -4 -10s2 -8 4 -10l86 -90c28 -29 43 -45 76 -45h165c14 0 27 6 37 16s16 25 16 39zM268 192l64 -64l-15 -14l-63 63l-63 -63l-15 15l63 63l-63 63l15 15l63 -64l63 64l15 -15z" />
    <glyph glyph-name="ion-ios-backspace" unicode="&#xf129;" 
d="M347 352c38 0 69 -31 69 -69v-180c0 -38 -31 -71 -69 -71h-165c-45 0 -64 26 -102 64s-72 76 -72 76c-5 6 -8 13 -8 21s3 15 8 21c0 0 43 45 72 74s55 64 102 64h165zM317 114l15 14l-64 64l64 63l-14 15l-64 -64l-63 64l-15 -15l63 -63l-63 -63l14 -15l64 63z" />
    <glyph glyph-name="ion-ios-barcode-outline" unicode="&#xf12a;" 
d="M0 64v256h80v-16h-64v-224h64v-16h-80zM336 320h80v-256h-80v16h64v224h-64v16zM64 128v128h16v-128h-16zM336 128v128h16v-128h-16zM272 96v192h16v-192h-16zM128 96v192h16v-192h-16zM199 112v160h16v-160h-16z" />
    <glyph glyph-name="ion-ios-barcode" unicode="&#xf12b;" 
d="M0 320h416v-256h-416v256zM80 128v128h-16v-128h16zM144 96v192h-16v-192h16zM215 112v160h-16v-160h16zM288 96v192h-16v-192h16zM352 128v128h-16v-128h16z" />
    <glyph glyph-name="ion-ios-baseball-outline" unicode="&#xf12c;" 
d="M415 169v-1v0c-11 -97 -90 -174 -187 -183v0h-2c-2 0 -3 -1 -5 -1h-1h-3h-1h-8c-115 0 -208 93 -208 208v8v1v3v1c0 2 1 3 1 5v2v0c9 97 86 176 183 187v0v0c8 1 16 1 24 1c115 0 208 -93 208 -208c0 -7 0 -14 -1 -20v0v-3zM399 192c0 105 -86 191 -191 191
c-3 0 -5 -1 -8 -1c0 -11 2 -21 4 -31l20 6l5 -15l-21 -7c2 -7 4 -14 7 -21c2 -5 5 -11 8 -16l17 12l9 -13l-19 -13c7 -12 16 -23 26 -33l14 15l12 -12l-15 -15c11 -10 22 -18 34 -25l12 18l14 -9l-12 -17c5 -2 10 -5 15 -7c7 -3 14 -5 22 -7l7 20l15 -5l-6 -19
c10 -2 20 -4 30 -4c0 3 1 5 1 8zM17 192c0 -105 86 -191 191 -191h4c-1 9 -1 17 -3 26l-22 -7l-5 16l23 7c-2 8 -5 16 -8 24c-2 5 -4 9 -6 14l-20 -13l-9 13l21 14c-7 12 -16 24 -26 35l-17 -17l-11 11l17 17c-10 10 -22 18 -34 25l-14 -21l-14 9l14 20c-5 2 -10 5 -15 7
c-7 3 -15 6 -23 8l-8 -24l-15 5l7 23c-9 2 -18 2 -27 3v-4zM228 2c88 9 158 78 169 166c-11 1 -23 3 -34 5l-9 -27l-15 5l8 25c-14 4 -28 10 -41 17l-15 -23l-13 9l14 21c-13 8 -26 17 -37 28l-19 -19l-11 11l19 19c-10 11 -19 23 -27 36l-21 -14l-9 13l22 15
c-7 13 -12 27 -16 41l-25 -8l-5 16l26 8c-2 12 -4 23 -5 35c-88 -11 -157 -81 -166 -169c10 -1 21 -2 31 -4l8 23l15 -5l-7 -22c14 -4 28 -9 42 -16l13 19l14 -9l-13 -18c13 -8 25 -17 36 -28l17 17l11 -11l-17 -17c11 -12 20 -24 28 -37l19 13l9 -14l-20 -13
c7 -14 12 -28 16 -42l23 7l5 -15l-24 -8c2 -10 3 -20 4 -30z" />
    <glyph glyph-name="ion-ios-baseball" unicode="&#xf12d;" 
d="M208 400c115 0 208 -93 208 -208c0 -8 0 -16 -1 -24v0v0c-12 -104 -100 -184 -207 -184c-115 0 -208 93 -208 208c0 107 80 195 184 207v0v0c8 1 16 1 24 1zM212 1c5 0 11 0 16 1c-1 10 -2 20 -4 30l24 8l-5 15l-23 -7c-4 14 -9 28 -16 42l20 13l-9 14l-19 -13
c-8 13 -17 25 -28 37l17 17l-11 11l-17 -17c-11 11 -23 20 -36 28l13 18l-14 9l-13 -19c-14 7 -28 12 -42 16l7 22l-15 5l-8 -23c-10 2 -21 3 -31 4c-1 -5 -1 -11 -1 -16c9 -1 18 -1 27 -3l-7 -23l15 -5l8 24c8 -2 16 -5 23 -8c5 -2 10 -5 15 -7l-14 -20l14 -9l14 21
c12 -7 24 -15 34 -25l-17 -17l11 -11l17 17c10 -11 19 -23 26 -35l-21 -14l9 -13l20 13c2 -5 4 -9 6 -14c3 -8 6 -16 8 -24l-23 -7l5 -16l22 7c2 -8 2 -17 3 -26zM363 173c11 -2 23 -4 34 -5c1 5 1 11 1 16c-10 1 -20 2 -30 4l6 19l-15 5l-7 -20c-8 2 -15 4 -22 7
c-5 2 -10 5 -15 7l12 17l-14 9l-12 -18c-12 7 -23 15 -34 25l15 15l-12 12l-15 -15c-10 10 -18 21 -25 33l19 13l-9 13l-17 -12c-3 5 -6 11 -8 16c-3 7 -5 14 -7 21l21 7l-5 15l-20 -6c-2 10 -3 20 -4 31c-5 0 -11 0 -16 -1c1 -12 3 -23 5 -35l-26 -8l5 -16l25 8
c4 -14 9 -28 16 -41l-22 -15l9 -13l21 14c8 -13 17 -25 27 -36l-19 -19l11 -11l19 19c11 -11 24 -20 37 -28l-14 -21l13 -9l15 23c13 -7 27 -13 41 -17l-8 -25l15 -5z" />
    <glyph glyph-name="ion-ios-basket-outline" unicode="&#xf12e;" horiz-adv-x="448" 
d="M368 224h80l-52 -194c-5 -17 -21 -30 -40 -30h-264c-19 0 -35 13 -40 30l-52 194h80v96c0 35 29 64 64 64h160c35 0 64 -29 64 -64v-96zM427 208h-91v-48h78l13 48v0zM38 144l18 -64h56v64h-74zM128 144v-64h88v64h-88zM320 160v48h-88v-48h88zM216 160v48h-88v-48h88z
M216 64h-88v-48h88v48zM232 64v-48h88v48h-88zM232 80h88v64h-88v-64zM336 144v-64h57l17 64h-74zM96 320v-96h256v96c0 13 -5 25 -14 34s-21 14 -34 14h-160c-13 0 -25 -5 -34 -14s-14 -21 -14 -34zM112 208h-91l13 -48h78v48zM68 34c3 -11 13 -18 24 -18h20v48h-52z
M380 34l8 30h-52v-48h20c11 0 21 8 24 18z" />
    <glyph glyph-name="ion-ios-basket" unicode="&#xf12f;" horiz-adv-x="448" 
d="M368 224h80l-52 -194c-5 -17 -21 -30 -40 -30h-264c-19 0 -35 13 -40 30l-52 194h80v96c0 35 29 64 64 64h160c35 0 64 -29 64 -64v-96zM96 320v-96h256v96c0 13 -5 25 -14 34s-21 14 -34 14h-160c-13 0 -25 -5 -34 -14s-14 -21 -14 -34zM410 144l4 16h-78v48h-16v-48
h-88v48h-16v-48h-88v48h-16v-48h-78l4 -16h74v-64h-56l4 -16h52v-48h16v48h88v-48h16v48h88v-48h16v48h52l5 16h-57v64h74zM232 80v64h88v-64h-88zM128 80v64h88v-64h-88z" />
    <glyph glyph-name="ion-ios-basketball-outline" unicode="&#xf130;" 
d="M208 400c115 0 208 -93 208 -208s-93 -208 -208 -208s-208 93 -208 208s93 208 208 208zM399 192c0 55 -24 105 -62 140c-14 -34 -31 -65 -52 -95c15 -12 31 -21 49 -29c21 -9 43 -14 65 -16v0zM325 343c-32 25 -73 40 -117 40v0c2 -22 6 -44 15 -65
c10 -25 26 -47 45 -66c2 -1 2 -3 4 -4c20 29 38 60 52 93c0 1 1 1 1 2zM192 382c-51 -4 -96 -29 -128 -65c64 -28 121 -69 169 -119c11 12 21 24 30 37c-40 37 -67 89 -71 147zM233 174c-15 -16 -31 -30 -48 -44c28 -35 45 -79 47 -127c33 4 63 17 88 35
c-22 50 -51 95 -87 136zM214 178l8 8l-10 10c-46 46 -99 82 -158 108c-18 -25 -31 -55 -35 -88c62 -3 116 -31 155 -74c14 11 27 23 40 36zM18 200c0 -3 -1 -5 -1 -8c0 -45 16 -87 43 -120c36 16 71 36 102 60l-7 7c-19 19 -41 35 -66 45c-22 9 -46 15 -71 16zM71 59
c35 -36 83 -58 137 -58c3 0 5 1 8 1c-1 25 -6 48 -16 71c-7 17 -17 33 -28 47c-31 -24 -65 -45 -101 -61zM333 48c37 32 61 77 65 128c-46 3 -89 21 -123 48c-10 -13 -20 -26 -31 -38c36 -41 67 -87 89 -138z" />
    <glyph glyph-name="ion-ios-basketball" unicode="&#xf131;" 
d="M208 400c115 0 208 -93 208 -208s-93 -208 -208 -208s-208 93 -208 208s93 208 208 208zM333 48c-22 51 -53 97 -89 138c11 12 21 25 31 38c34 -27 77 -45 123 -48c0 5 1 11 1 16c-22 2 -44 7 -65 16c-18 8 -34 17 -49 29c21 30 38 61 52 95c-4 4 -8 8 -12 11
c0 -1 -1 -1 -1 -2c-14 -33 -32 -64 -52 -93c-2 1 -2 2 -4 4c-19 19 -35 41 -45 66c-9 21 -13 43 -15 65c-5 0 -11 -1 -16 -1c4 -58 31 -110 71 -147c-9 -13 -19 -25 -30 -37c-48 50 -105 91 -169 119c-4 -4 -7 -9 -10 -13c59 -26 112 -62 158 -108l10 -10l-8 -8
c-13 -13 -26 -25 -40 -36c-39 43 -93 71 -155 74c-1 -5 -1 -11 -1 -16c25 -1 49 -7 71 -16c25 -10 47 -26 66 -45l7 -7c-31 -24 -66 -44 -102 -60c4 -4 7 -9 11 -13c36 16 70 37 101 61c11 -14 21 -30 28 -47c10 -23 15 -46 16 -71c5 0 11 0 16 1c-2 48 -19 92 -47 127
c17 14 33 28 48 44c36 -41 65 -86 87 -136c4 3 9 6 13 10z" />
    <glyph glyph-name="ion-ios-battery-charging" unicode="&#xf132;" 
d="M336 304c18 0 32 -14 32 -32v-160c0 -18 -14 -32 -32 -32h-304c-18 0 -32 14 -32 32v160c0 18 14 32 32 32h304zM352 112v160c0 9 -7 16 -16 16h-304c-9 0 -16 -7 -16 -16v-160c0 -9 7 -16 16 -16h304c9 0 16 7 16 16zM322 272c9 0 14 -5 14 -14v-132
c0 -9 -5 -14 -14 -14h-276c-9 0 -14 5 -14 14v132c0 9 5 14 14 14h276zM171 140l45 61h-27l8 43l-45 -61h27zM384 247c19 -11 32 -31 32 -55s-13 -44 -32 -55v110z" />
    <glyph glyph-name="ion-ios-battery-dead" unicode="&#xf133;" 
d="M336 304c18 0 32 -14 32 -32v-160c0 -18 -14 -32 -32 -32h-304c-18 0 -32 14 -32 32v160c0 18 14 32 32 32h304zM352 112v160c0 9 -7 16 -16 16h-304c-9 0 -16 -7 -16 -16v-160c0 -9 7 -16 16 -16h304c9 0 16 7 16 16zM384 247c19 -11 32 -31 32 -55s-13 -44 -32 -55v110
z" />
    <glyph glyph-name="ion-ios-battery-full" unicode="&#xf134;" 
d="M336 304c18 0 32 -14 32 -32v-160c0 -18 -14 -32 -32 -32h-304c-18 0 -32 14 -32 32v160c0 18 14 32 32 32h304zM352 112v160c0 9 -7 16 -16 16h-304c-9 0 -16 -7 -16 -16v-160c0 -9 7 -16 16 -16h304c9 0 16 7 16 16zM322 272c9 0 14 -5 14 -14v-132
c0 -9 -5 -14 -14 -14h-276c-9 0 -14 5 -14 14v132c0 9 5 14 14 14h276zM384 247c19 -11 32 -31 32 -55s-13 -44 -32 -55v110z" />
    <glyph glyph-name="ion-ios-beaker-outline" unicode="&#xf135;" horiz-adv-x="384" 
d="M381 400c2 0 3 -1 3 -2s-2 -4 -3 -6s-12 -15 -14 -33v-310c0 -35 -28 -65 -63 -65h-208c-35 0 -64 29 -64 64v276c0 32 -2 32 -32 36c0 12 10 40 64 40h270h47zM351 359c0 19 7 25 7 25h-294c-24 0 -36 -7 -42 -12c7 -2 14 -3 18 -8c9 -10 8 -23 8 -40v-276
c0 -27 22 -48 48 -48h208c13 0 24 6 33 15s14 20 14 33v311zM319 272h-239v-207c0 -11 3 -20 7 -25s10 -8 19 -8h187c6 0 15 4 21 10c4 4 5 12 5 22v208zM335 288v0v-224c0 -12 -2 -25 -10 -33s-21 -15 -32 -15h-187c-29 0 -42 21 -42 49v223h271z" />
    <glyph glyph-name="ion-ios-beaker" unicode="&#xf136;" horiz-adv-x="384" 
d="M106 32c-9 0 -15 3 -19 8s-7 14 -7 25v207h239v-208c0 -10 -1 -18 -5 -22c-6 -6 -15 -10 -21 -10h-187zM381 400c2 0 3 -1 3 -2s-2 -4 -3 -6s-12 -15 -14 -33v-310c0 -35 -28 -65 -63 -65h-208c-35 0 -64 29 -64 64v276c0 32 -2 32 -32 36c0 12 10 40 64 40h270h47z
M335 64v224h-271v-223c0 -28 13 -49 42 -49h187c11 0 24 7 32 15s10 21 10 33z" />
    <glyph glyph-name="ion-ios-beer-outline" unicode="&#xf137;" horiz-adv-x="352" 
d="M304 330v-26h-272v-176h-10c-9 0 -17 8 -17 17c0 16 11 22 11 35v107c0 19 -16 11 -16 40v4c0 26 18 45 43 45h24c8 15 24 26 42 26c14 0 27 -5 35 -15c11 17 25 29 52 29s53 -20 59 -47l11 -1c21 0 38 -17 38 -38zM288 320v10c0 12 -8 20 -22 22s-24 2 -24 2l-2 12
c-2 10 -8 18 -16 24s-18 10 -28 10c-16 0 -31 -9 -42 -24l-8 -10l-11 10c-8 6 -17 11 -26 11c-12 0 -22 -7 -27 -17l-4 -10h-35c-7 0 -14 -3 -19 -8c-5 -6 -8 -12 -8 -21v-4c0 -3 1 -7 4 -7h11h257zM188 224c0 11 9 20 20 20s20 -9 20 -20s-9 -20 -20 -20s-20 9 -20 20z
M160 176c0 9 7 16 16 16s16 -7 16 -16s-7 -16 -16 -16s-16 7 -16 16zM184 96c0 7 5 12 12 12s12 -5 12 -12s-5 -12 -12 -12s-12 5 -12 12zM16 -32v16h304v-16h-304zM336 240c9 0 16 -7 16 -16v-128c0 -9 -7 -16 -16 -16h-48v-64l16 -16h-272l16 16v272h240v-48h48zM272 16
v256h-208v-256h208zM336 96v128v0h-48v-128h48v0z" />
    <glyph glyph-name="ion-ios-beer" unicode="&#xf138;" horiz-adv-x="352" 
d="M32 128h-10c-9 0 -17 8 -17 17c0 16 11 22 11 35v107c0 19 -16 11 -16 40v4c0 26 18 45 43 45h24c8 15 24 26 42 26c14 0 27 -5 35 -15c11 17 25 29 52 29s53 -20 59 -47l11 -1c21 0 38 -17 38 -38v-26h-272v-176zM336 240c9 0 16 -7 16 -16v-128c0 -9 -7 -16 -16 -16
h-48v-64l32 -32v-16h-304v16l32 32v272h240v-48h48zM208 244c-11 0 -20 -9 -20 -20s9 -20 20 -20s20 9 20 20s-9 20 -20 20zM208 96c0 7 -5 12 -12 12s-12 -5 -12 -12s5 -12 12 -12s12 5 12 12zM176 192c-9 0 -16 -7 -16 -16s7 -16 16 -16s16 7 16 16s-7 16 -16 16zM336 96
v128v0h-48v-128h48v0z" />
    <glyph glyph-name="ion-ios-bicycle" unicode="&#xf139;" horiz-adv-x="448" 
d="M93 187c51 0 94 -43 94 -94s-43 -93 -94 -93s-93 42 -93 93s42 94 93 94zM148 39c15 15 23 34 23 54c0 21 -8 40 -23 55s-34 23 -55 23s-39 -8 -54 -23s-23 -34 -23 -55c0 -20 8 -39 23 -54s33 -23 54 -23s40 8 55 23zM288 320c-18 0 -32 14 -32 32s14 32 32 32
s32 -14 32 -32s-14 -32 -32 -32zM355 187c51 0 93 -43 93 -94s-42 -93 -93 -93s-94 42 -94 93s43 94 94 94zM409 39c15 15 23 34 23 54c0 21 -8 40 -23 55s-33 23 -54 23s-40 -8 -55 -23s-23 -34 -23 -55s8 -39 23 -54s34 -23 55 -23s39 8 54 23zM336 256c9 0 16 -7 16 -16
s-7 -16 -16 -16h-57s-19 24 -38 52l-49 -52c18 -14 48 -25 48 -38v-90c0 -9 -7 -16 -16 -16s-16 7 -16 16v66s-16 16 -62 42c-6 4 -18 10 -18 27c0 8 3 17 9 23l72 69c6 6 14 9 22 9c11 0 21 -7 27 -16l30 -60h48z" />
    <glyph glyph-name="ion-ios-bluetooth" unicode="&#xf13a;" horiz-adv-x="256" 
d="M158 192l98 -88l-128 -136v0h-16v181l-89 -79l-23 26l112 96l-112 96l23 25l89 -77v180h16v0l128 -137zM210 104l-66 57v-128zM144 222l66 58l-66 71v-129z" />
    <glyph glyph-name="ion-ios-boat-outline" unicode="&#xf13b;" horiz-adv-x="400" 
d="M200 0c30 0 70 7 96 16c0 0 36 -22 80 -32c-33 0 -53 9 -80 16c-22 -10 -67 -16 -96 -16s-73 7 -96 16c-27 -7 -48 -16 -80 -16c45 10 80 32 80 32c26 -9 66 -16 96 -16zM390 185c6 -3 10 -9 10 -16c0 -2 0 -5 -1 -7l-55 -146c-28 0 -57 19 -57 19
c-20 -10 -61 -19 -87 -19s-67 9 -87 19c0 0 -29 -19 -57 -19l-55 146c-1 2 -1 5 -1 7c0 7 4 13 10 16v0l31 14l23 122c5 26 17 47 40 47h34l8 32h107l8 -32h35c22 0 34 -20 40 -47v0l23 -122l31 -14v0zM159 384l-4 -16h90l-4 16h-82zM80 318l-21 -111l37 17h-1
c-9 0 -16 8 -15 16l15 80c2 11 7 16 16 16h178c9 0 13 -5 16 -16l15 -80c2 -11 -6 -16 -15 -16v0l36 -17l-21 111c-4 21 -11 34 -24 34h-192c-13 0 -20 -13 -24 -34zM200 272l70 -32h34l-15 76c0 2 -1 3 -1 4h-176c0 -1 -1 -1 -1 -3l-15 -77h34zM112 53l8 -4
c16 -8 48 -15 72 -17v220l-175 -82s-1 0 -1 -1l51 -136c16 3 31 11 37 15zM333 33l51 136c0 1 -1 1 -1 1l-175 82v-220c24 1 56 9 72 17l8 4l8 -5c6 -4 21 -12 37 -15zM232 182c0 12 5 22 12 22s12 -10 12 -22s-5 -22 -12 -22s-12 10 -12 22zM144 182c0 12 5 22 12 22
s12 -10 12 -22s-5 -22 -12 -22s-12 10 -12 22z" />
    <glyph glyph-name="ion-ios-boat" unicode="&#xf13c;" horiz-adv-x="400" 
d="M296 16c0 0 36 -22 80 -32c-33 0 -53 9 -80 16c-22 -10 -67 -16 -96 -16s-73 7 -96 16c-27 -7 -48 -16 -80 -16c45 10 80 32 80 32c26 -9 66 -16 96 -16s70 7 96 16zM390 185c6 -3 10 -9 10 -16c0 -2 0 -5 -1 -7l-55 -146c-28 0 -57 19 -57 19c-18 -9 -53 -17 -79 -19h-8
h-8c-26 2 -61 10 -79 19c0 0 -29 -19 -57 -19l-55 146c-1 2 -1 5 -1 7c0 7 4 13 10 16v0l190 87l190 -87v0zM156 160c7 0 12 10 12 22s-5 22 -12 22s-12 -10 -12 -22s5 -22 12 -22zM244 160c7 0 12 10 12 22s-5 22 -12 22s-12 -10 -12 -22s5 -22 12 -22zM336 321l20 -104
l-35 15l-16 88c-3 11 -8 16 -17 16h-177c-9 0 -14 -5 -16 -16l-16 -88l-35 -15l20 104c5 26 17 47 40 47h34l8 32h107l8 -32h35c22 0 34 -20 40 -47v0z" />
    <glyph glyph-name="ion-ios-body-outline" unicode="&#xf13d;" horiz-adv-x="384" 
d="M192 400c-18 0 -32 -14 -32 -32s14 -32 32 -32s32 14 32 32s-14 32 -32 32zM192 416v0c27 0 48 -21 48 -48s-21 -48 -48 -48s-48 21 -48 48s21 48 48 48zM360 304c13 0 24 -11 24 -24s-11 -24 -24 -24h-100c-5 0 -14 -5 -18 -15c-5 -12 -2 -33 1 -51l4 -21v-1v0l32 -172
c2 -13 -6 -26 -19 -28h-5c-11 0 -22 8 -24 20l-21 120v0s-5 31 -17 31h-2c-12 0 -19 -31 -19 -31v0l-21 -120c-2 -12 -11 -20 -22 -20h-5c-13 2 -21 15 -19 28l32 172v1l4 21c3 18 6 39 1 51c-4 10 -12 15 -18 15h-100c-13 0 -24 11 -24 24s11 24 24 24h336zM24 272
c-4 0 -8 4 -8 8s4 8 8 8h336c4 0 8 -4 8 -8s-4 -8 -8 -8h-102c-16 0 -26 -15 -30 -24c-5 -13 -6 -32 -1 -61v0v0l3 -19l1 -3l32 -172c0 -3 0 -5 -1 -6s-2 -2 -5 -3h-2c-4 0 -7 2 -8 6l-21 120v0c0 2 -2 10 -5 19c-2 6 -5 11 -8 15c-7 9 -14 11 -20 11h-2
c-5 0 -13 -2 -20 -11c-3 -4 -6 -9 -8 -15c-4 -9 -6 -17 -6 -18v-1l-21 -120c-1 -4 -3 -6 -7 -6h-2c-3 0 -4 2 -5 3s-2 3 -1 6l32 172v0v1l4 21v0v0c5 29 5 48 0 61c-4 9 -14 24 -32 24z" />
    <glyph glyph-name="ion-ios-body" unicode="&#xf13e;" horiz-adv-x="384" 
d="M144 368c0 27 21 48 48 48s48 -21 48 -48s-21 -48 -48 -48s-48 21 -48 48zM360 304c13 0 24 -11 24 -24s-11 -24 -24 -24h-98c-6 -1 -14 -4 -18 -14c-5 -12 -2 -34 1 -52l4 -21v-1v0l30 -172c2 -13 -6 -26 -19 -28s-26 7 -28 20l-21 120v-1s-6 33 -18 33h-2
c-12 0 -18 -33 -18 -33v1l-21 -120c-2 -13 -15 -22 -28 -20s-21 15 -19 28l30 172v0v1l4 21c3 18 6 40 1 52c-4 10 -12 13 -18 14h-98c-13 0 -24 11 -24 24s11 24 24 24h336z" />
    <glyph glyph-name="ion-ios-bonfire-outline" unicode="&#xf13f;" horiz-adv-x="384" 
d="M191 96l-16 -78v0v0v-4c0 -4 1 -8 4 -10c3 -3 7 -4 12 -4c8 0 16 4 16 14c0 1 -1 3 -1 4v1v0l-15 75v1v1zM191 112v0c8 0 15 -7 16 -15l15 -75c1 -3 1 -5 1 -8c0 -18 -14 -30 -32 -30s-32 12 -32 30c0 2 1 5 1 7l15 79v0c2 7 8 12 16 12zM242 93v0v0v0v0zM269 83l31 -42
v-1v0l2 -2v0s2 -2 5 -2s6 1 7 2c2 2 2 5 2 8c0 2 -1 3 -1 3l-2 1c-1 0 -1 2 -1 2h-1l-1 1zM252 112v0c3 0 5 -1 8 -3l60 -43c2 -1 3 -3 5 -4c9 -8 10 -25 0 -35c-5 -5 -12 -7 -18 -7c-7 0 -13 2 -17 7c-1 1 -2 2 -3 4l-45 62c-3 5 -2 11 2 15c2 2 5 4 8 4zM308 113v0v0v0v0z
M75 113v0v0v0v0zM115 83l-41 -30l-1 -1h-1c-1 0 -2 -2 -2 -2c-3 -3 -3 -9 0 -12c2 -2 4 -2 6 -2s4 0 6 2l2 2v0v1zM132 112v0c3 0 6 -2 8 -4c4 -4 5 -10 2 -15l-45 -62c-1 -2 -2 -3 -3 -4c-5 -5 -12 -7 -18 -7s-12 2 -17 7c-10 10 -10 25 0 35c2 2 3 3 5 4l60 43
c2 2 5 3 8 3zM215 380c-4 -41 -35 -70 -63 -96c-24 -22 -46 -43 -50 -68c-3 -23 2 -41 16 -56c3 -3 5 -7 8 -9c19 38 55 59 85 76c9 5 18 9 25 14c17 11 29 22 35 34c6 10 8 20 8 34c0 25 -18 43 -33 54c-10 8 -22 14 -31 17zM199 400v0c24 0 96 -33 96 -91
c0 -30 -10 -55 -51 -81c-37 -24 -93 -43 -109 -100c0 0 -58 23 -48 91s124 100 112 181zM292 252c5 -14 7 -49 2 -64c-16 -47 -44 -60 -80 -60c-15 0 -35 12 -46 28c4 4 7 6 11 10c0 0 3 -4 11 -11s19 -11 25 -11c16 0 28 3 38 10c11 8 20 21 26 40c1 3 3 11 2 20
s-2 20 -2 20c5 6 10 12 13 18zM123 370c13 0 30 -8 40 -26c-2 -5 -8 -13 -8 -13c-3 5 -6 8 -9 12s-7 5 -10 7c-1 1 -2 1 -3 2c-4 -13 -12 -24 -19 -32c-5 -6 -10 -11 -11 -15s1 -13 5 -17c0 0 -6 -7 -10 -12c-6 4 -12 16 -11 29c2 21 34 36 32 65h4zM74 113l-61 -13
c-6 -1 -12 2 -13 8s3 11 9 12l1 1l61 7c4 0 8 -3 9 -7c0 -4 -2 -7 -6 -8zM310 113c-4 1 -6 4 -6 8c1 4 5 7 9 7l61 -7l1 -1c6 -1 10 -6 9 -12s-7 -9 -13 -8z" />
    <glyph glyph-name="ion-ios-bonfire" unicode="&#xf140;" horiz-adv-x="384" 
d="M207 97l15 -75c1 -3 1 -5 1 -8c0 -18 -14 -30 -32 -30s-32 12 -32 30c0 2 1 5 1 7l15 79v0c2 7 8 12 16 12s15 -7 16 -15zM242 93v0v0zM325 62c9 -8 9 -25 0 -35c-10 -10 -27 -9 -35 0c-1 1 -2 2 -3 4l-45 62c-3 5 -2 11 2 15c4 5 10 5 16 1l60 -43c2 -1 3 -3 5 -4z
M308 113v0v0zM371 128c8 0 13 -6 13 -18c0 -9 -10 -17 -18 -15l-57 18h-1v0c-3 2 -5 5 -4 9s4 6 8 6h59zM75 113v0v0zM75 113v0l-58 -18c-8 -2 -17 6 -17 15s4 18 12 18h60s7 -2 8 -6s-2 -7 -5 -9v0zM124 109c5 4 11 3 16 -1c4 -4 5 -10 2 -15l-45 -61c-1 -2 -2 -4 -3 -5
c-10 -10 -25 -10 -35 0s-10 25 0 35c2 2 3 3 5 4zM295 309c0 -30 -10 -55 -51 -81c-37 -24 -93 -43 -109 -100c0 0 -58 23 -48 91s124 100 112 181c24 0 96 -33 96 -91zM295 188c-16 -47 -44 -60 -80 -60c-15 0 -36 12 -47 28c12 14 28 24 47 34c9 5 20 10 29 16
c21 14 39 28 48 46c5 -14 8 -49 3 -64zM98 276c-6 4 -12 16 -11 29c2 21 34 36 32 65c14 2 34 -6 45 -26c-5 -10 -15 -20 -28 -32s-26 -21 -38 -36z" />
    <glyph glyph-name="ion-ios-book-outline" unicode="&#xf141;" horiz-adv-x="384" 
d="M284 384c55 0 100 -26 100 -79v-1v-4v-261v-17h-6h-11h-5c-17 30 -44 42 -78 42c-40 0 -74 -28 -82 -64h-20c-8 36 -42 64 -82 64c-34 0 -65 -16 -78 -42h-5h-11h-6v9v264v9v1c0 53 45 79 100 79c41 0 78 -14 92 -44c12 30 51 44 92 44zM184 37v254v13v2
c-1 43 -39 62 -84 62c-44 0 -81 -19 -84 -61v-1v0v-262h1c19 26 48 36 83 36s66 -17 84 -43zM368 300v14v1c-3 42 -40 53 -84 53c-46 0 -84 -20 -84 -64v-1v-266c18 26 49 43 84 43s66 -10 84 -36v256z" />
    <glyph glyph-name="ion-ios-book" unicode="&#xf142;" horiz-adv-x="384" 
d="M100 384c35 0 67 -10 84 -31v-353h-2c-8 36 -42 64 -82 64c-34 0 -65 -16 -78 -42h-5h-11h-6v9v264v9v1c0 53 45 79 100 79zM284 384c55 0 100 -26 100 -79v-1v-4v-261v-17h-6h-11h-5c-17 30 -44 42 -78 42c-40 0 -74 -28 -82 -64h-2v353c17 21 50 31 84 31z" />
    <glyph glyph-name="ion-ios-bookmark-outline" unicode="&#xf143;" horiz-adv-x="256" 
d="M0 400h256v-416l-128 96l-128 -96v416zM240 16v368h-224v-368l112 84z" />
    <glyph glyph-name="ion-ios-bookmark" unicode="&#xf144;" horiz-adv-x="256" 
d="M0 400h256v-416l-128 96l-128 -96v416z" />
    <glyph glyph-name="ion-ios-bookmarks-outline" unicode="&#xf145;" horiz-adv-x="418" 
d="M385 384c19 0 33 -13 33 -32v-286c0 -19 -14 -34 -33 -34h-143s-25 -4 -25 -19v-13h-8h-8v13c0 15 -11 19 -25 19h-143c-19 0 -33 15 -33 34v286c0 19 14 32 33 32h150c10 0 20 -5 26 -12v0v0c6 7 16 12 26 12h150zM201 37v309c0 9 -12 22 -25 22h-143
c-9 0 -16 -7 -16 -16v-286c0 -9 7 -18 16 -18h144c10 0 19 -3 24 -11zM273 368v-100l23 14l9 6l9 -6l23 -14v100h-64zM401 66v286c0 9 -7 16 -16 16h-32v-131l-48 32l-48 -32v131h-15c-13 0 -25 -13 -25 -22v-309c5 9 14 11 24 11h144c9 0 16 9 16 18z" />
    <glyph glyph-name="ion-ios-bookmarks" unicode="&#xf146;" horiz-adv-x="418" 
d="M296 283l-23 -15v116h64v-116l-23 15l-9 6zM385 384c19 0 33 -13 33 -32v-286c0 -19 -14 -34 -33 -34h-143s-25 -4 -25 -19v-13h-8h-8v13c0 15 -11 19 -25 19h-143c-19 0 -33 15 -33 34v286c0 19 14 32 33 32h150s18 -8 18 -15v-329l8 -6l8 6v329s10 15 18 15h22v-146
l48 32l48 -32v146h32z" />
    <glyph glyph-name="ion-ios-bowtie-outline" unicode="&#xf147;" horiz-adv-x="448" 
d="M235 246c11 0 19 -3 24 -12c10 -17 19 -53 17 -85c-1 -17 -5 -22 -5 -22s-12 -7 -36 -7h-11c-35 3 -40 15 -40 15s4 12 8 43s0 58 0 58s8 5 20 7c8 2 16 3 23 3v0zM260 150c1 13 -1 29 -4 44c-3 13 -6 25 -10 32c-1 1 -3 4 -11 4v0v0v0c-6 0 -14 -2 -20 -3
c-2 0 -4 0 -6 -1c1 -12 1 -30 -1 -50c-2 -16 -4 -28 -6 -35c4 -2 11 -4 23 -5h10c11 0 19 1 23 3c0 2 2 6 2 11zM52 336c35 0 106 -57 128 -97c0 0 3 -16 2 -32v-10c0 -3 -1 -6 -1 -10c0 -5 0 -10 -1 -15l-2 -10c-4 -21 -10 -34 -10 -34s-83 -80 -116 -80
c-28 0 -52 68 -52 144s26 144 52 144zM112 100c19 15 36 31 42 37c1 4 4 11 6 21c-21 -4 -54 -7 -56 -7c-1 0 -2 1 -2 2s1 2 2 2c0 0 21 6 38 10c9 2 15 5 21 7l1 2c1 4 1 10 1 14c0 3 1 5 1 8c-2 1 -4 1 -6 2c-5 2 -11 4 -19 7c-38 13 -57 17 -57 17c-1 0 -1 1 -1 2
s1 2 2 2s15 3 43 -3c18 -4 30 -7 38 -11c0 9 -1 18 -2 22c-10 17 -30 38 -53 56c-12 9 -23 17 -34 22c-14 7 -22 8 -25 8c-2 0 -11 -7 -21 -35c-9 -26 -15 -60 -15 -93c0 -35 5 -69 14 -95c9 -25 19 -33 22 -33s17 1 60 36zM396 336c26 0 52 -68 52 -144s-24 -144 -52 -144
c-37 0 -104 69 -112 79c0 0 4 5 5 22v9v8c0 11 -2 23 -4 33l-3 11c-3 10 -7 18 -10 24c0 1 -2 4 -2 4l1 1c22 40 89 97 125 97zM396 64c3 0 13 8 22 33c9 26 14 60 14 95c0 33 -6 67 -15 93c-10 28 -19 35 -21 35c-10 0 -31 -8 -58 -30c-20 -16 -38 -35 -49 -52
c3 -6 6 -14 8 -23v0l1 -1c9 3 20 7 30 11c20 7 35 10 35 10c1 0 3 -1 3 -2s-1 -2 -2 -2c0 0 -43 -20 -63 -31c2 -11 3 -22 4 -33v0v0v-1c6 -2 13 -5 22 -7c19 -5 41 -12 41 -12c1 0 1 -1 1 -2s-1 -2 -2 -2v0c-2 0 -41 4 -62 10v-5c0 -7 -2 -14 -3 -18c7 -8 21 -21 37 -34
c24 -20 46 -32 57 -32z" />
    <glyph glyph-name="ion-ios-bowtie" unicode="&#xf148;" horiz-adv-x="448" 
d="M259 234c10 -17 19 -53 17 -85c-1 -17 -5 -22 -5 -22s-12 -7 -36 -7h-11c-35 3 -40 15 -40 15s4 12 8 43s0 58 0 58s7 5 19 7c8 2 17 3 23 3v0c11 0 20 -4 25 -12zM180 239c0 0 3 -16 2 -32v-10c0 -3 -1 -6 -1 -10c0 -5 0 -10 -1 -15l-2 -10c-4 -21 -10 -34 -10 -34
s-83 -80 -116 -80c-28 0 -52 68 -52 144s26 144 52 144c35 0 106 -57 128 -97zM83 224c0 -1 1 -2 2 -2c0 0 19 -4 57 -17c8 -3 14 -5 19 -7c3 -1 5 -2 8 -3l1 15c-8 4 -21 9 -42 13c-28 6 -42 3 -43 3s-2 -1 -2 -2zM166 159l2 15c-5 -2 -14 -6 -26 -9
c-17 -4 -38 -10 -38 -10c-1 0 -2 -1 -2 -2s1 -2 2 -2c2 0 42 3 62 8zM396 336c26 0 52 -68 52 -144s-24 -144 -52 -144c-37 0 -104 69 -112 79c0 0 4 5 5 22v9v8c0 11 -2 23 -4 33l-3 11c-3 10 -7 18 -10 24c0 1 -2 4 -2 4l1 1c22 40 89 97 125 97zM328 225
c-12 -4 -26 -9 -36 -12v-1l4 -15v0v0v0c18 11 68 34 68 34c1 0 1 1 1 2s-1 1 -2 1c0 0 -15 -2 -35 -9zM369 145c0 1 0 2 -1 2c0 0 -22 7 -41 12c-12 3 -21 7 -27 9c0 0 -3 -1 -1 -13c19 -7 66 -12 68 -12v0c1 0 2 1 2 2z" />
    <glyph glyph-name="ion-ios-briefcase-outline" unicode="&#xf149;" 
d="M368 320h48v-320h-416v320h48v16h32v-16h48v30v2c0 18 10 32 29 32h99c19 0 32 -14 32 -32v-2v-30h48v16h32v-16zM144 320v0h128v0v30c0 10 -7 18 -17 18h-97c-11 0 -14 -8 -14 -18v-30zM400 16v224h-384v-224h384zM400 256v48h-32v-16h-32v16h-256v-16h-32v16h-32v-48
h384z" />
    <glyph glyph-name="ion-ios-briefcase" unicode="&#xf14a;" 
d="M48 320v16h32v-16h-32zM0 0v240h416v-240h-416zM336 320v16h32v-16h-32zM368 320h48v-64h-416v64h48v-32h32v32h48v30v2c0 18 10 32 29 32h99c19 0 32 -14 32 -32v-2v-30h48v-32h32v32zM272 320v30c0 10 -7 18 -17 18h-97c-11 0 -14 -8 -14 -18v-30v0h128v0z" />
    <glyph glyph-name="ion-ios-browsers-outline" unicode="&#xf14b;" horiz-adv-x="384" 
d="M0 304h304v-304h-304v304zM288 16v272h-272v-272h272zM384 384v-304h-64v16h48v272h-272v-48h-16v64h304z" />
    <glyph glyph-name="ion-ios-browsers" unicode="&#xf14c;" horiz-adv-x="384" 
d="M0 304h304v-304h-304v304zM80 384h304v-304h-64v240h-240v64z" />
    <glyph glyph-name="ion-ios-brush-outline" unicode="&#xf14d;" horiz-adv-x="448" 
d="M118 165c52 0 102 -41 90 -102c-11 -52 -54 -71 -90 -77c-6 -1 -14 -2 -22 -2c-34 0 -82 10 -96 38c24 9 34 25 34 48c0 49 32 95 84 95zM192 66c5 26 -3 43 -12 54c-14 17 -38 29 -62 29c-25 0 -41 -13 -50 -24c-12 -14 -18 -34 -18 -55c0 -22 -9 -41 -25 -53
c16 -11 46 -17 71 -17c9 0 15 0 19 1c20 4 35 10 48 19c16 11 25 26 29 46zM436 388c13 -13 17 -30 5 -45l-154 -175c2 -9 2 -17 -2 -23l-55 -62v-1v0c-1 -1 -2 -1 -3 -1s-2 0 -3 1s-1 2 -1 3v1c2 53 -42 88 -90 91v0h-2s-2 1 -2 1c-2 2 -2 4 0 6l64 52c4 3 8 4 13 4
c3 0 7 0 10 -1l175 154c6 5 13 7 19 7c9 0 18 -4 26 -12zM429 353c4 5 3 8 3 10c-1 4 -4 9 -8 13c-5 5 -9 8 -14 8c-3 0 -6 -1 -9 -3l-181 -160l-9 3h-5h-4l-42 -36c18 -5 34 -14 47 -26c14 -13 24 -30 29 -48l36 40c1 2 0 6 -1 10l-2 8zM129 184v0v0z" />
    <glyph glyph-name="ion-ios-brush" unicode="&#xf14e;" horiz-adv-x="448" 
d="M118 165c52 0 102 -41 90 -102c-11 -52 -54 -71 -90 -77c-6 -1 -14 -2 -22 -2c-34 0 -82 10 -96 38c24 9 34 25 34 48c0 49 32 95 84 95zM436 388c13 -13 17 -30 5 -45l-154 -175c2 -9 2 -17 -2 -23l-55 -62v-1v0c-1 -1 -2 -1 -3 -1s-2 0 -3 1s-1 2 -1 3v1
c2 53 -42 88 -90 91v0h-2s-2 1 -2 1c-2 2 -2 4 0 6l64 52c4 3 8 4 13 4c3 0 7 0 10 -1l175 154c6 5 13 7 19 7c9 0 18 -4 26 -12zM129 184v0v0z" />
    <glyph glyph-name="ion-ios-bug-outline" unicode="&#xf14f;" horiz-adv-x="448" 
d="M424 192c13 0 24 -11 24 -24s-11 -24 -24 -24s-24 11 -24 24c0 2 0 5 1 7c-4 1 -9 3 -17 3c-2 -39 -14 -74 -33 -103c6 -5 14 -13 19 -27c12 -1 22 -12 22 -24c0 -13 -11 -24 -24 -24s-24 11 -24 24c0 8 5 16 11 20c-4 9 -10 15 -14 18c-28 -36 -66 -59 -109 -62v0h-3h-1
h-4v0v0v0h-4h-1h-3c-43 3 -81 26 -109 62c-4 -3 -10 -9 -14 -18c6 -4 11 -12 11 -20c0 -13 -11 -24 -24 -24s-24 11 -24 24c0 12 10 23 22 24c5 14 13 23 19 27c-19 29 -31 64 -33 103c-8 -1 -13 -2 -17 -3c1 -2 1 -5 1 -7c0 -13 -11 -24 -24 -24s-24 11 -24 24s11 24 24 24
c5 0 9 -2 13 -4c5 2 14 5 27 6c0 28 6 54 15 78c-8 6 -16 15 -22 24h-1c-13 0 -24 11 -24 24s11 24 24 24s24 -11 24 -24c0 -7 -3 -14 -8 -18c3 -5 7 -9 13 -14c28 58 80 96 139 96s111 -39 139 -97c6 5 10 10 13 15c-5 4 -8 11 -8 18c0 13 11 24 24 24s24 -11 24 -24
s-11 -24 -24 -24h-1c-6 -9 -14 -18 -22 -24c9 -24 15 -50 15 -78c13 -1 22 -4 27 -6c4 2 8 4 13 4zM392 328c-4 0 -8 -4 -8 -8s4 -8 8 -8s8 4 8 8s-4 8 -8 8zM56 312c4 0 8 4 8 8s-4 8 -8 8s-8 -4 -8 -8s4 -8 8 -8zM24 160c4 0 8 4 8 8s-4 8 -8 8s-8 -4 -8 -8s4 -8 8 -8z
M80 16c4 0 8 4 8 8s-4 8 -8 8s-8 -4 -8 -8s4 -8 8 -8zM368 32c-4 0 -8 -4 -8 -8s4 -8 8 -8s8 4 8 8s-4 8 -8 8zM224 368c-44 0 -85 -25 -111 -64c6 -9 13 -18 21 -26c24 -24 56 -37 90 -37s66 13 90 37c8 8 15 17 21 26c-26 39 -67 64 -111 64zM80 192
c0 -94 60 -171 136 -176v209c-47 2 -88 27 -112 64c-15 -28 -24 -61 -24 -97zM232 16c76 5 136 82 136 176c0 36 -9 69 -24 97c-24 -37 -66 -61 -112 -64v-209zM424 160c4 0 8 4 8 8s-4 8 -8 8s-8 -4 -8 -8s4 -8 8 -8z" />
    <glyph glyph-name="ion-ios-bug" unicode="&#xf150;" horiz-adv-x="448" 
d="M343 321c-6 -16 -17 -31 -29 -43c-24 -24 -56 -37 -90 -37s-66 13 -90 37c-12 12 -23 27 -29 43c29 39 72 63 119 63s90 -24 119 -63zM95 305c22 -45 68 -77 121 -80v-225c-40 2 -77 23 -104 55c-8 -6 -10 -9 -13 -15c8 -9 7 -23 -1 -32c-9 -10 -24 -11 -34 -2
s-11 24 -2 34l3 3s2 1 2 1c4 13 13 26 27 37c-15 26 -26 56 -29 89c-7 0 -12 -1 -17 -3c0 -13 -11 -23 -24 -23s-24 11 -24 24s11 24 24 24h3c4 2 8 5 12 6c7 2 14 4 25 4c1 23 6 45 13 65c-6 4 -11 7 -15 11c-6 5 -11 14 -14 20c-1 0 -3 0 -4 1c-12 6 -15 21 -9 33
s21 15 33 9c11 -6 15 -20 10 -31c2 -4 3 -7 4 -8c2 -2 5 -3 8 -5c2 3 3 5 5 8zM424 192c13 0 24 -11 24 -24s-11 -24 -24 -24s-24 10 -24 23c-5 2 -10 3 -17 3c-3 -33 -14 -64 -29 -90c14 -11 23 -23 27 -36c0 0 1 0 2 -1l3 -3c9 -10 8 -25 -2 -34s-25 -8 -34 2
c-8 9 -9 22 -1 31c-3 6 -6 9 -13 15c-27 -32 -64 -52 -104 -54v225c53 3 99 35 121 80c2 -3 3 -6 5 -9c3 2 6 4 8 6c1 1 2 5 4 8c-5 11 -1 25 10 31c12 6 27 3 33 -9s3 -27 -9 -33c-1 -1 -3 -2 -4 -2c-3 -6 -8 -14 -14 -19c-4 -4 -9 -7 -15 -11c7 -20 12 -42 13 -65
c11 0 18 -2 25 -4c4 -1 8 -4 12 -6h3z" />
    <glyph glyph-name="ion-ios-build-outline" unicode="&#xf151;" 
d="M300 384h-1c-10 0 -32 -7 -49 -25v0v0c-9 -10 -38 -44 -20 -87v0v0c1 -3 4 -9 4 -16c0 -6 -2 -14 -10 -22v0v0c-8 -8 -192 -181 -200 -188v0v0c-6 -5 -8 -12 -8 -17c0 -8 3 -15 8 -21c5 -5 14 -8 21 -8c4 0 11 1 17 8v0v0c7 8 180 191 189 200c8 8 16 10 22 10
c7 0 12 -2 16 -4v0v0c7 -4 15 -6 25 -6c22 0 46 10 61 25c19 19 24 38 25 50c0 2 0 8 -3 15l-39 -39l-6 -6l-8 1l-51 10l-11 2l-2 11l-9 51l-2 8l6 6l39 39c-5 2 -10 3 -14 3v0zM300 400v0c12 0 28 -5 39 -16l-53 -53l10 -51l51 -10l52 53c13 -13 18 -29 17 -41
s-6 -36 -30 -60c-17 -17 -45 -30 -72 -30c-11 0 -22 3 -32 8c-2 1 -6 2 -9 2s-7 -1 -11 -5c-9 -9 -188 -200 -188 -200c-8 -9 -19 -13 -30 -13s-23 5 -31 13c-17 17 -18 45 0 61c0 0 192 181 200 188c7 7 4 15 2 20c-19 44 3 83 23 104c21 22 48 29 60 30h2zM55 19
c-6 -5 -14 -5 -20 0c-5 6 -5 14 0 20c6 5 14 5 20 0c5 -6 5 -15 0 -20z" />
    <glyph glyph-name="ion-ios-build" unicode="&#xf152;" 
d="M399 323c13 -13 18 -29 17 -41s-6 -36 -30 -60c-17 -17 -45 -30 -72 -30c-11 0 -22 3 -32 8c-2 1 -6 2 -9 2s-7 -1 -11 -5c-9 -9 -188 -200 -188 -200c-8 -9 -19 -13 -30 -13s-23 5 -31 13c-17 17 -18 45 0 61c0 0 192 181 200 188c7 7 4 15 2 20c-19 44 3 83 23 104
c21 22 48 29 60 30h2c12 0 28 -5 39 -16l-53 -53l10 -51l51 -10z" />
    <glyph glyph-name="ion-ios-bulb-outline" unicode="&#xf153;" horiz-adv-x="288" 
d="M288 259c0 -31 -13 -59 -30 -83v0c-11 -15 -22 -28 -32 -45c-22 -38 -18 -72 -18 -81v-2h-128v2c0 7 3 43 -19 81c-10 17 -20 30 -31 45v0c-17 24 -30 52 -30 83c0 78 66 141 144 141s144 -63 144 -141zM239 178l6 8c16 22 27 47 27 73c0 33 -16 65 -40 89s-55 36 -88 36
s-64 -12 -88 -36s-40 -56 -40 -89c0 -26 11 -51 27 -73l19 -26v0c5 -6 9 -13 13 -21c17 -29 21 -58 21 -75h16v112l-32 64h17l31 -64v-112h32v112l31 64h17l-32 -64v-112h16c0 17 4 45 21 75c8 14 16 25 24 36c1 1 1 2 2 3zM112 -16v16h64v-16h-64zM96 16v16h96v-16h-96z
" />
    <glyph glyph-name="ion-ios-bulb" unicode="&#xf154;" horiz-adv-x="288" 
d="M288 259c0 -31 -13 -59 -30 -83v0c-11 -15 -22 -28 -32 -45c-22 -38 -18 -72 -18 -81v-2h-32v128l32 64h-17l-31 -64v-128h-32v128l-31 64h-17l32 -64v-128h-32v2c0 7 3 43 -19 81c-10 17 -20 30 -31 45v0c-17 24 -30 52 -30 83c0 78 66 141 144 141s144 -63 144 -141z
M112 -16v16h64v-16h-64zM96 16v16h96v-16h-96z" />
    <glyph glyph-name="ion-ios-bus-outline" unicode="&#xf155;" horiz-adv-x="320" 
d="M320 32c-1 -28 -1 -32 -6 -32h-55s-3 6 -3 16c40 0 56 -3 64 16zM0 32c14 -19 24 -16 64 -16c0 -10 1 -16 -3 -16h-55s-4 4 -6 32zM232 96c0 13 11 24 24 24s24 -11 24 -24s-11 -24 -24 -24s-24 11 -24 24zM40 96c0 13 11 24 24 24s24 -11 24 -24s-11 -24 -24 -24
s-24 11 -24 24zM288 384c18 0 32 -14 32 -32v0v-280c0 -22 -18 -40 -40 -40h-240c-22 0 -40 18 -40 40v280v0c0 18 14 32 32 32h8h240h8zM304 72v72h-288v-72c0 -13 11 -24 24 -24h240c13 0 24 11 24 24zM16 176c0 -9 7 -16 16 -16h120v160h-120c-9 0 -16 -7 -16 -16v-128z
M304 176v128c0 9 -7 16 -16 16h-120v-160h120c9 0 16 7 16 16zM288 336c9 0 16 7 16 16s-7 16 -16 16h-256c-9 0 -16 -7 -16 -16s7 -16 16 -16h256z" />
    <glyph glyph-name="ion-ios-bus" unicode="&#xf156;" horiz-adv-x="320" 
d="M256 16c40 0 56 -3 64 16c-1 -28 -1 -32 -6 -32h-55s-3 6 -3 16zM0 32c14 -19 24 -16 64 -16c0 -10 1 -16 -3 -16h-55s-4 4 -6 32zM288 384c18 0 32 -14 32 -32v0v-280c0 -22 -18 -40 -40 -40h-240c-22 0 -40 18 -40 40v280v0c0 18 14 32 32 32h8h240h8zM64 72
c13 0 24 11 24 24s-11 24 -24 24s-24 -11 -24 -24s11 -24 24 -24zM152 160v160h-120c-9 0 -16 -7 -16 -16v-128c0 -9 7 -16 16 -16h120zM256 72c13 0 24 11 24 24s-11 24 -24 24s-24 -11 -24 -24s11 -24 24 -24zM304 176v128c0 9 -7 16 -16 16h-120v-160h120c9 0 16 7 16 16
zM288 336c9 0 16 7 16 16s-7 16 -16 16h-256c-9 0 -16 -7 -16 -16s7 -16 16 -16h256z" />
    <glyph glyph-name="ion-ios-cafe-outline" unicode="&#xf157;" horiz-adv-x="448" 
d="M0 32v16h448v-16h-448zM168 64c-15 0 -136 32 -136 288h352c0 -13 0 -25 -1 -37c38 -12 65 -44 65 -83c0 -49 -43 -88 -96 -88h-9c-37 -68 -86 -80 -95 -80h-80zM432 232c0 30 -21 56 -50 67c-4 -60 -17 -105 -32 -139h2c44 0 80 32 80 72zM48 336c1 -49 8 -93 19 -130
c10 -32 23 -60 40 -82c24 -32 49 -44 61 -44h81s36 12 60 44c17 22 30 50 40 82c11 37 18 81 19 130h-320z" />
    <glyph glyph-name="ion-ios-cafe" unicode="&#xf158;" horiz-adv-x="448" 
d="M0 32v16h448v-16h-448zM168 64c-15 0 -136 32 -136 288h352c0 -13 0 -25 -1 -37c38 -12 65 -44 65 -83c0 -49 -43 -88 -96 -88h-9c-37 -68 -86 -80 -95 -80h-80zM432 232c0 30 -21 56 -50 67c-4 -60 -17 -105 -32 -139h2c44 0 80 32 80 72z" />
    <glyph glyph-name="ion-ios-calculator-outline" unicode="&#xf159;" horiz-adv-x="288" 
d="M32 288v64h224v-64h-224zM48 336v-32h192v32h-192zM256 384c18 0 32 -14 32 -32v-320c0 -18 -14 -32 -32 -32h-224c-18 0 -32 14 -32 32v320c0 18 14 32 32 32h224zM272 32v320c0 9 -7 16 -16 16h-224c-9 0 -16 -7 -16 -16v-320c0 -9 7 -16 16 -16h224c9 0 16 7 16 16z
M48 208h32h16v-16h-64v64h16v-16v-32zM48 128h32h16v-16h-64v64h16v-16v-32zM48 48h32h16v-16h-64v64h16v-16v-32zM128 208h32h16v-16h-64v64h16v-16v-32zM208 208h32h16v-16h-64v64h16v-16v-32zM128 128h32h16v-16h-64v64h16v-16v-32zM128 48h32h16v-16h-64v64h16v-16v-32z
M208 48h32h16v-16h-64v144h16v-96v-32z" />
    <glyph glyph-name="ion-ios-calculator" unicode="&#xf15a;" horiz-adv-x="288" 
d="M256 384c18 0 32 -14 32 -32v-320c0 -18 -14 -32 -32 -32h-224c-18 0 -32 14 -32 32v320c0 18 14 32 32 32h224zM248 168h-48v-128h48v128zM248 248h-48v-48h48v48zM168 88h-48v-48h48v48zM168 168h-48v-48h48v48zM168 248h-48v-48h48v48zM88 88h-48v-48h48v48zM88 168
h-48v-48h48v48zM88 248h-48v-48h48v48zM40 296h208v48h-208v-48z" />
    <glyph glyph-name="ion-ios-calendar-outline" unicode="&#xf15b;" horiz-adv-x="384" 
d="M288 352h96v-352h-384v352h96v32h16v-32h160v32h16v-32zM368 16v240h-352v-240h352zM368 272v64h-80v-32h-16v32h-160v-32h-16v32h-80v-64h352z" />
    <glyph glyph-name="ion-ios-calendar" unicode="&#xf15c;" horiz-adv-x="384" 
d="M0 0v256h384v-256h-384zM384 352v-80h-384v80h96v-48h16v48h160v-48h16v48h96zM96 352v32h16v-32h-16zM272 352v32h16v-32h-16z" />
    <glyph glyph-name="ion-ios-call-outline" unicode="&#xf15d;" horiz-adv-x="352" 
d="M336 112c16 -16 26 -35 0 -66c-25 -30 -42 -30 -64 -30c-24 0 -58 14 -93 40c-32 23 -46 34 -78 67c-34 35 -55 64 -79 107c-27 50 -24 74 -18 92c4 12 14 24 28 33l1 1c6 4 18 12 32 12c13 0 24 -6 34 -18l1 -1c11 -14 24 -31 32 -47c10 -21 10 -38 -1 -53
c-9 -12 -12 -19 -12 -23s5 -9 13 -18l1 -1c16 -18 20 -23 26 -29c1 -1 3 -2 4 -3l2 -2c7 -7 11 -12 29 -28l1 -1c7 -6 9 -8 12 -8c5 0 16 7 29 15c4 3 11 5 17 5c27 0 68 -29 83 -44zM324 57c19 22 13 31 1 43c-13 14 -50 39 -72 39c-3 0 -6 -1 -8 -2
c-19 -12 -28 -18 -37 -18s-15 6 -23 13h-1c-19 16 -23 21 -30 29l-2 2c-1 1 -3 2 -4 3c-6 6 -11 12 -27 30v1c-10 11 -17 18 -18 28s5 20 16 34c15 20 -5 48 -31 79l-1 1c-7 8 -14 12 -22 12c-10 0 -18 -6 -23 -9c-1 0 -2 -1 -2 -1c-11 -7 -18 -16 -21 -24
c-5 -16 -7 -35 17 -79c23 -42 43 -70 76 -104c31 -32 45 -42 76 -64c32 -23 64 -38 84 -38c21 0 32 1 52 25z" />
    <glyph glyph-name="ion-ios-call" unicode="&#xf15e;" horiz-adv-x="352" 
d="M336 112c16 -16 26 -35 0 -66c-25 -30 -42 -30 -64 -30c-24 0 -58 14 -93 40c-32 23 -46 34 -78 67c-34 35 -55 64 -79 107c-27 50 -24 74 -18 92c4 12 14 24 28 33l1 1c6 4 18 12 32 12c13 0 24 -6 34 -18l1 -1c11 -14 24 -31 32 -47c10 -21 10 -38 -1 -53
c-9 -12 -12 -19 -12 -23s5 -9 13 -18l1 -1c16 -18 20 -23 26 -29c1 -1 3 -2 4 -3l2 -2c7 -7 11 -12 29 -28l1 -1c7 -6 9 -8 12 -8c5 0 16 7 29 15c4 3 11 5 17 5c27 0 68 -29 83 -44z" />
    <glyph glyph-name="ion-ios-camera-outline" unicode="&#xf15f;" horiz-adv-x="384" 
d="M354 288c18 0 30 -13 30 -31v-176c0 -18 -12 -33 -30 -33h-320c-18 0 -34 15 -34 33v176c0 18 16 31 34 31h13v16h34v-16h13c32 36 43 48 55 48h88c12 0 23 -12 55 -48h62zM368 81v176c0 9 -5 15 -14 15h-62h-7l-5 3c-3 4 -7 8 -10 11c-12 13 -20 24 -26 30
c-5 5 -7 4 -7 4h-88s-2 0 -7 -4c-6 -5 -14 -14 -25 -27c-3 -4 -7 -10 -11 -14l-5 -3h-7h-60c-9 0 -18 -7 -18 -15v-176c0 -9 9 -17 18 -17h320c8 0 14 8 14 17zM192 258c47 0 86 -38 86 -85s-39 -85 -86 -85s-86 38 -86 85s39 85 86 85zM192 104c38 0 70 31 70 69
s-32 69 -70 69s-70 -31 -70 -69s32 -69 70 -69zM288 239v17h17v-17h-17zM160 173c0 18 14 32 32 32s32 -14 32 -32s-14 -32 -32 -32s-32 14 -32 32z" />
    <glyph glyph-name="ion-ios-camera" unicode="&#xf160;" horiz-adv-x="384" 
d="M354 288c18 0 30 -13 30 -31v-176c0 -18 -12 -33 -30 -33h-320c-18 0 -34 15 -34 33v176c0 18 16 31 34 31h13v16h34v-16h13c32 36 43 48 55 48h88c12 0 23 -12 55 -48h62zM192 88c47 0 86 38 86 85s-39 85 -86 85s-86 -38 -86 -85s39 -85 86 -85zM305 239v17h-17v-17h17
zM192 242c38 0 70 -31 70 -69s-32 -69 -70 -69s-70 31 -70 69s32 69 70 69zM192 141c18 0 32 14 32 32s-14 32 -32 32s-32 -14 -32 -32s14 -32 32 -32z" />
    <glyph glyph-name="ion-ios-car-outline" unicode="&#xf161;" horiz-adv-x="448" 
d="M403 245c0 0 27 -15 41 -31c0 0 4 -24 4 -58c0 -48 -6 -88 -6 -88c-26 -5 -46 -7 -66 -7h-16h-13c-24 0 -16 7 -27 7v0c-11 0 -55 -4 -96 -4s-85 4 -96 4v0c-11 0 -3 -7 -27 -7h-13h-16c-20 0 -40 2 -66 7c0 0 -6 40 -6 88c0 33 4 58 4 58c14 16 41 30 41 30l-15 3v0
c-7 0 -23 3 -26 6s-4 6 -4 9s2 8 5 11s15 5 23 6c2 0 5 1 6 1c3 0 4 -1 5 -2c2 -1 3 -12 3 -17l8 -2c5 12 12 36 22 54c12 21 23 27 28 29s9 3 43 6c34 4 64 4 81 4s46 0 80 -4s38 -4 43 -6s17 -8 29 -29c10 -18 16 -42 21 -54l9 2c0 5 1 15 3 17c1 1 2 2 5 2c1 0 3 -1 5 -1
c8 -1 21 -3 24 -6s5 -8 5 -11s-1 -6 -4 -9s-19 -6 -26 -6v0zM78 294c-4 -10 -11 -34 -10 -37c1 -2 0 -3 6 -3h8c14 1 99 2 142 2s128 -1 142 -2h8c6 0 5 1 6 3c1 3 -6 27 -10 37s-14 26 -22 32c0 0 -48 10 -124 10s-124 -10 -124 -10c-8 -6 -18 -22 -22 -32zM428 82
c2 15 4 43 4 74c0 24 -2 43 -3 51c-11 10 -28 21 -34 24l-14 7s-44 2 -157 2s-157 -2 -157 -2l-14 -7c-6 -3 -23 -14 -34 -24c-1 -8 -3 -28 -3 -51c0 -31 2 -59 4 -74c18 -3 34 -5 52 -5h16h13c6 0 8 1 9 1c4 3 9 7 18 7v0c4 0 11 0 20 -1c19 -1 48 -4 76 -4s57 3 76 4
c9 0 16 1 20 1v0c9 0 14 -4 18 -7c1 0 3 -1 9 -1h13h16c18 0 34 2 52 5zM107 170c-10 0 -30 1 -35 1s-9 -4 -11 -4s-26 4 -28 15s0 23 0 23c16 1 31 0 59 -8s43 -23 43 -23s-18 -4 -28 -4zM310 109c-13 -2 -58 -3 -86 -3s-73 1 -86 3s-30 17 -19 30c8 8 21 13 49 17
c30 4 49 4 56 4s26 0 56 -4c28 -4 42 -9 48 -17c10 -14 -5 -28 -18 -30zM415 182c-2 -11 -26 -15 -28 -15s-6 4 -11 4s-25 -1 -35 -1s-28 4 -28 4s15 15 43 23s43 9 59 8c0 0 2 -12 0 -23zM369 36v17c19 0 42 1 68 6c0 0 -1 -13 -2 -21c0 -2 -1 -6 -6 -6h-57c-2 0 -3 2 -3 4
zM13 38c-1 8 -2 21 -2 21c26 -5 49 -6 68 -6v-17c0 -2 -1 -4 -3 -4h-57c-5 0 -6 4 -6 6z" />
    <glyph glyph-name="ion-ios-car" unicode="&#xf162;" horiz-adv-x="448" 
d="M444 214c0 0 4 -24 4 -58c0 -48 -6 -89 -6 -89c-26 -5 -46 -6 -66 -6c-10 0 -19 -1 -29 -1c-25 0 -15 8 -27 8c-11 0 -55 -4 -96 -4s-85 4 -96 4c-12 0 -2 -8 -27 -8c-10 0 -19 1 -29 1c-20 0 -40 1 -66 6c0 0 -6 41 -6 89c0 33 4 58 4 58c14 16 41 31 41 31l-15 3v0
c-7 0 -23 2 -26 5s-4 6 -4 9s2 8 5 11s15 5 23 6s9 0 11 -1s3 -12 3 -17l8 -2c5 12 12 36 22 54c12 21 23 27 28 29s10 3 44 6c34 4 63 4 80 4s46 0 80 -4s39 -4 44 -6s16 -8 28 -29c10 -18 17 -42 22 -54l8 2c0 5 1 15 3 17c2 1 3 2 11 1s20 -3 23 -6s5 -8 5 -11
s-1 -6 -4 -9s-19 -5 -26 -5v0l-15 -3s27 -15 41 -31zM78 293c-4 -10 -11 -33 -10 -36s0 -4 14 -3s99 2 142 2s129 -1 143 -2s12 0 13 3s-6 26 -10 36s-14 27 -22 33c0 0 -48 10 -124 10s-123 -10 -123 -10c-8 -6 -19 -23 -23 -33zM92 177c10 0 28 4 28 4s-15 15 -43 23
s-43 9 -59 8c0 0 -2 -11 0 -22s26 -15 28 -15s6 3 11 3s25 -1 35 -1zM310 108c13 2 28 16 18 30c-6 8 -20 14 -48 18c-30 4 -49 4 -56 4s-26 0 -56 -4c-28 -4 -40 -10 -48 -18c-11 -13 5 -28 18 -30s58 -2 86 -2s73 0 86 2zM430 189c2 11 0 23 0 23c-16 1 -30 0 -58 -8
s-44 -23 -44 -23s18 -4 28 -4s30 1 35 1s9 -4 11 -4s26 4 28 15zM369 36v17c19 0 42 1 68 6c0 0 -1 -13 -2 -21c0 -2 -1 -6 -6 -6h-57c-2 0 -3 2 -3 4zM13 38c-1 8 -2 21 -2 21c26 -5 49 -6 68 -6v-17c0 -2 -1 -4 -3 -4h-57c-5 0 -6 4 -6 6z" />
    <glyph glyph-name="ion-ios-card-outline" unicode="&#xf163;" 
d="M384 336c18 0 32 -14 32 -32v-224c0 -18 -14 -32 -32 -32h-352c-18 0 -32 14 -32 32v224c0 18 14 32 32 32h352zM32 320c-9 0 -16 -7 -16 -16v-32h384v32c0 9 -7 16 -16 16h-352zM400 256h-384v-48h384v48zM384 64c9 0 16 7 16 16v112h-384v-112c0 -9 7 -16 16 -16h352z
M48 112v16h32v-16h-32zM112 112v16h192v-16h-192z" />
    <glyph glyph-name="ion-ios-card" unicode="&#xf164;" 
d="M384 336c18 0 32 -14 32 -32v-224c0 -18 -14 -32 -32 -32h-352c-18 0 -32 14 -32 32v224c0 18 14 32 32 32h352zM32 320c-9 0 -16 -7 -16 -16v-32h384v32c0 9 -7 16 -16 16h-352zM384 64c9 0 16 7 16 16v112h-384v-112c0 -9 7 -16 16 -16h352zM48 112v16h32v-16h-32z
M112 112v16h192v-16h-192z" />
    <glyph glyph-name="ion-ios-cart-outline" unicode="&#xf165;" horiz-adv-x="384" 
d="M96 48c13 0 24 -11 24 -24s-11 -24 -24 -24s-24 11 -24 24s11 24 24 24zM96 16c4 0 8 4 8 8s-4 8 -8 8s-8 -4 -8 -8s4 -8 8 -8zM320 48c13 0 24 -11 24 -24s-11 -24 -24 -24s-24 11 -24 24s11 24 24 24zM320 16c4 0 8 4 8 8s-4 8 -8 8s-8 -4 -8 -8s4 -8 8 -8zM384 320
l-16 -128l-271 -48l5 -30c7 -34 21 -34 26 -34h240v-16h-240c-11 0 -21 5 -28 14c-6 8 -11 19 -13 33l-43 234v0c-2 8 -3 12 -7 16c-6 5 -18 7 -37 7v16c23 0 38 -4 47 -11c7 -6 10 -14 12 -21zM355 206l11 99l-304 31l32 -176z" />
    <glyph glyph-name="ion-ios-cart" unicode="&#xf166;" horiz-adv-x="384" 
d="M96 48c13 0 24 -11 24 -24s-11 -24 -24 -24s-24 11 -24 24s11 24 24 24zM320 48c13 0 24 -11 24 -24s-11 -24 -24 -24s-24 11 -24 24s11 24 24 24zM384 320l-16 -128l-271 -48l5 -30c7 -34 21 -34 26 -34h240v-16h-240c-11 0 -21 5 -28 14c-6 8 -11 19 -13 33l-43 234v0
c-2 8 -3 12 -7 16c-6 5 -18 7 -37 7v16c23 0 38 -4 47 -11c7 -6 10 -14 12 -21z" />
    <glyph glyph-name="ion-ios-cash-outline" unicode="&#xf167;" horiz-adv-x="448" 
d="M8 64v16h432v-16h-432zM16 32v16h416v-16h-416zM0 352h448v-256h-448v256zM432 112v224h-416v-224h416zM352 304v16h64v-16h-64zM352 128v16h64v-16h-64zM32 304v16h64v-16h-64zM32 128v16h64v-16h-64zM224 152c-40 0 -72 32 -72 72s32 72 72 72s72 -32 72 -72
s-32 -72 -72 -72zM224 280c-31 0 -56 -25 -56 -56s25 -56 56 -56s56 25 56 56s-25 56 -56 56z" />
    <glyph glyph-name="ion-ios-cash" unicode="&#xf168;" horiz-adv-x="448" 
d="M8 64v16h432v-16h-432zM16 32v16h416v-16h-416zM224 280c31 0 56 -25 56 -56s-25 -56 -56 -56s-56 25 -56 56s25 56 56 56zM0 352h448v-256h-448v256zM96 128v16h-64v-16h64zM96 304v16h-64v-16h64zM224 152c40 0 72 32 72 72s-32 72 -72 72s-72 -32 -72 -72
s32 -72 72 -72zM416 128v16h-64v-16h64zM416 304v16h-64v-16h64z" />
    <glyph glyph-name="ion-ios-chatboxes-outline" unicode="&#xf169;" 
d="M16 384v-192h96v-16h-112v224h288v-112h-16v96h-256zM128 272h288v-224h-48v-64h-13l-64 64h-163v224zM400 64v192h-256v-192h153l55 -55v55h48z" />
    <glyph glyph-name="ion-ios-chatboxes" unicode="&#xf16a;" 
d="M288 400v-112h-176v-112h-112v224h288zM128 272h288v-224h-48v-64h-13l-64 64h-163v224z" />
    <glyph glyph-name="ion-ios-chatbubbles-outline" unicode="&#xf16b;" 
d="M383 127l16 -58s1 -2 1 -3c0 -4 -4 -8 -8 -8c-2 0 -4 1 -4 1l-57 21c-3 1 -6 2 -10 2c-3 0 -6 -1 -9 -2s-15 -5 -26 -8s-32 -8 -47 -8c-96 0 -171 77 -171 169c0 12 2 23 4 34c16 76 86 133 170 133c96 0 174 -75 174 -167c0 -33 -11 -64 -28 -90c-1 -1 -1 -2 -2 -3
c-2 -4 -3 -9 -3 -13zM337 94l43 -15c-5 16 -13 41 -13 49s1 14 5 20c1 2 2 2 3 3v1c16 24 25 52 25 81v0v0c0 39 -15 76 -43 104c-15 15 -32 27 -51 35c-20 8 -42 12 -64 12c-19 0 -37 -3 -54 -9s-32 -14 -46 -25c-28 -22 -47 -53 -54 -86c-2 -10 -4 -21 -4 -31
c0 -20 4 -40 12 -59c8 -18 19 -35 33 -49c29 -29 68 -45 110 -45c13 0 30 3 44 7c5 1 11 4 15 5c0 0 9 3 11 4s8 2 12 2c6 0 11 -2 16 -4zM257 52c5 1 9 3 13 4s9 2 13 3c-4 -5 -7 -9 -7 -9c-30 -35 -73 -55 -120 -55c-21 0 -42 4 -61 12v0v0h-1c-2 1 -3 1 -5 1s-4 0 -6 -1
l-56 -22c-1 0 -2 -1 -3 -1c-2 0 -3 1 -5 2c-2 2 -4 5 -3 8l12 62c0 2 -1 3 -2 5v1l-1 1v1c-16 24 -25 53 -25 82c0 42 19 83 52 111l8 7c-1 -4 -3 -9 -4 -13s-1 -9 -2 -13c-27 -30 -38 -63 -38 -93c0 -26 8 -51 22 -73c1 -1 2 -1 2 -2v-1c3 -4 4 -9 4 -14v-2l-10 -48l43 17
c7 3 14 2 21 0h2v0l1 -1c17 -7 36 -11 55 -11c33 0 64 12 89 32c0 0 6 4 12 10z" />
    <glyph glyph-name="ion-ios-chatbubbles" unicode="&#xf16c;" 
d="M383 127l16 -58s1 -2 1 -3c0 -4 -4 -8 -8 -8c-2 0 -4 1 -4 1l-57 21c-3 1 -6 2 -10 2c-3 0 -6 -1 -9 -2s-15 -5 -26 -8s-32 -8 -47 -8c-96 0 -171 77 -171 169c0 12 2 23 4 34c16 76 86 133 170 133c96 0 174 -75 174 -167c0 -33 -11 -64 -28 -90c-1 -1 -1 -2 -2 -3
c-2 -4 -3 -9 -3 -13zM263 45c0 0 0 -1 1 -1zM270 56c4 1 9 2 13 3c-4 -5 -7 -9 -7 -9c-30 -35 -73 -56 -120 -56c-21 0 -42 5 -61 12c-4 2 -6 2 -6 2c-2 0 -4 0 -6 -1l-56 -22c-1 0 -2 -1 -3 -1c-2 0 -3 1 -5 2c-2 2 -4 5 -3 8c0 0 12 60 12 62s-1 4 -3 8
c-16 24 -25 53 -25 82c0 42 19 82 52 111l8 7c-1 -4 -3 -9 -4 -13s-1 -9 -2 -13c-1 -6 -2 -14 -2 -21c0 -92 75 -169 171 -169c10 0 24 2 34 4c5 1 9 3 13 4z" />
    <glyph glyph-name="ion-ios-checkbox-outline" unicode="&#xf16d;" horiz-adv-x="384" 
d="M152 91v0v0zM276 271l18 -18l-143 -144l-65 65l18 18l47 -47zM368 368h-352v-352h352v352zM384 384v0v-384h-384v384h384z" />
    <glyph glyph-name="ion-ios-checkbox" unicode="&#xf16e;" horiz-adv-x="384" 
d="M0 384h384v-384h-384v384zM152 91v0v0zM151 109l143 144l-18 18l-125 -126l-47 47l-18 -18zM152 91v0v0z" />
    <glyph glyph-name="ion-ios-checkmark-circle-outline" unicode="&#xf16f;" 
d="M292 271l18 -18l-134 -135c-2 -2 -6 -4 -9 -4s-7 2 -9 4l-56 56l18 18l47 -47zM208 400c115 0 208 -93 208 -208s-93 -208 -208 -208s-208 93 -208 208s93 208 208 208zM208 1c105 0 191 86 191 191s-86 191 -191 191s-191 -86 -191 -191s86 -191 191 -191z" />
    <glyph glyph-name="ion-ios-checkmark-circle" unicode="&#xf170;" 
d="M208 400c115 0 208 -93 208 -208s-93 -208 -208 -208s-208 93 -208 208s93 208 208 208zM176 118l134 135l-18 18l-125 -126l-47 47l-18 -18l56 -56c2 -2 6 -4 9 -4s7 2 9 4z" />
    <glyph glyph-name="ion-ios-checkmark" unicode="&#xf171;" horiz-adv-x="207" 
d="M74 118c-2 -2 -6 -4 -9 -4s-7 2 -9 4l-56 56l18 18l47 -47l125 126l17 -18z" />
    <glyph glyph-name="ion-ios-clipboard-outline" unicode="&#xf172;" horiz-adv-x="320" 
d="M144 352c0 9 7 16 16 16s16 -7 16 -16s-7 -16 -16 -16s-16 7 -16 16zM304 384c9 0 16 -7 16 -16v-368c0 -9 -7 -16 -16 -16h-288c-9 0 -16 7 -16 16v368c0 9 7 16 16 16h92c-4 -5 -7 -10 -9 -16h-75c-4 0 -8 -4 -8 -8v-352c0 -4 4 -8 8 -8h272c4 0 8 4 8 8v352
c0 4 -4 8 -8 8h-75c-2 6 -5 11 -9 16h92zM80 337c0 9 9 15 18 15h14c0 6 1 11 3 16c2 6 5 11 9 16c9 10 22 16 36 16s27 -6 36 -16c4 -5 7 -10 9 -16c2 -5 3 -10 3 -16h17c9 0 15 -6 15 -15v-17h48v-304h-256v304h48v17zM240 288h-160v16h-32v-272h224v272h-32v-16zM128 336
h-32v-32h128v32h-16h-16v16c0 18 -14 32 -32 32s-32 -14 -32 -32v-16z" />
    <glyph glyph-name="ion-ios-clipboard" unicode="&#xf173;" horiz-adv-x="320" 
d="M48 32v272h16v-32h192v32h16v-272h-224zM225 352c9 0 15 -6 15 -15v-49h-160v49c0 9 9 15 18 15h14c0 6 1 11 3 16c2 6 5 11 9 16c9 10 22 16 36 16s27 -6 36 -16c4 -5 7 -10 9 -16c2 -5 3 -10 3 -16h17zM160 336c9 0 16 7 16 16s-7 16 -16 16s-16 -7 -16 -16
s7 -16 16 -16zM256 337v0v-1v1zM304 384c9 0 16 -7 16 -16v-368c0 -9 -7 -16 -16 -16h-288c-9 0 -16 7 -16 16v368c0 9 7 16 16 16h92c-4 -5 -7 -10 -9 -19h-2h-1c-20 0 -32 -16 -32 -34v-11h-32v-304h256v304h-32v16v1v0c-1 17 -15 31 -32 31h-3v0c-2 6 -5 11 -9 16h92z
" />
    <glyph glyph-name="ion-ios-clock-outline" unicode="&#xf174;" 
d="M200 360c0 4 4 8 8 8s8 -4 8 -8s-4 -8 -8 -8s-8 4 -8 8zM200 24c0 4 4 8 8 8s8 -4 8 -8s-4 -8 -8 -8s-8 4 -8 8zM368 192c0 4 4 8 8 8s8 -4 8 -8s-4 -8 -8 -8s-8 4 -8 8zM32 192c0 4 4 8 8 8s8 -4 8 -8s-4 -8 -8 -8s-8 4 -8 8zM55 276c0 4 4 8 8 8s8 -4 8 -8s-4 -8 -8 -8
s-8 4 -8 8zM346 108c0 4 4 8 8 8s8 -4 8 -8s-4 -8 -8 -8s-8 4 -8 8zM284 338c0 4 4 8 8 8s8 -4 8 -8s-4 -8 -8 -8s-8 4 -8 8zM116 46c0 4 4 8 8 8s8 -4 8 -8s-4 -8 -8 -8s-8 4 -8 8zM55 108c0 4 4 8 8 8s8 -4 8 -8s-4 -8 -8 -8s-8 4 -8 8zM346 276c0 4 4 8 8 8s8 -4 8 -8
s-4 -8 -8 -8s-8 4 -8 8zM116 338c0 4 4 8 8 8s8 -4 8 -8s-4 -8 -8 -8s-8 4 -8 8zM284 46c0 4 4 8 8 8s8 -4 8 -8s-4 -8 -8 -8s-8 4 -8 8zM222 200c4 -8 2 -18 -6 -22v-114c0 -4 -4 -8 -8 -8s-8 4 -8 8v114c-2 1 -4 4 -6 6c-3 5 -3 11 0 16l-29 55c-2 4 -1 9 3 11s9 1 11 -3
l30 -55c5 0 10 -3 13 -8zM355 339c81 -81 81 -213 0 -294s-213 -81 -294 0s-81 213 0 294s213 81 294 0zM343 57c74 74 74 196 0 270s-196 74 -270 0s-74 -196 0 -270s196 -74 270 0z" />
    <glyph glyph-name="ion-ios-clock" unicode="&#xf175;" 
d="M355 339c81 -81 81 -213 0 -294s-213 -81 -294 0s-81 213 0 294s213 81 294 0zM208 368c-4 0 -8 -4 -8 -8s4 -8 8 -8s8 4 8 8s-4 8 -8 8zM56 280c-2 -4 -1 -9 3 -11s8 -1 10 3s2 9 -2 11s-9 1 -11 -3zM40 184c4 0 8 4 8 8s-4 8 -8 8s-8 -4 -8 -8s4 -8 8 -8zM67 101
c4 2 4 7 2 11s-6 5 -10 3s-5 -7 -3 -11s7 -5 11 -3zM131 42c2 4 1 9 -3 11s-9 1 -11 -3s-1 -8 3 -10s9 -2 11 2zM128 331c4 2 5 7 3 11s-7 4 -11 2s-5 -6 -3 -10s7 -5 11 -3zM208 16c4 0 8 4 8 8s-4 8 -8 8s-8 -4 -8 -8s4 -8 8 -8zM216 178c8 4 10 14 6 22c-3 5 -9 8 -14 8
l-30 56c-2 4 -7 4 -11 2s-4 -7 -2 -11l29 -55c-3 -5 -3 -11 0 -16c2 -2 4 -5 6 -6v-114c0 -4 4 -8 8 -8s8 4 8 8v114zM296 40c4 2 5 6 3 10s-7 5 -11 3s-5 -7 -3 -11s7 -4 11 -2zM299 334c2 4 1 8 -3 10s-9 2 -11 -2s-1 -9 3 -11s9 -1 11 3zM360 104c2 4 2 9 -2 11
s-9 1 -11 -3s-1 -9 3 -11s8 -1 10 3zM358 269c4 2 4 7 2 11s-6 5 -10 3s-5 -7 -3 -11s7 -5 11 -3zM376 184c4 0 8 4 8 8s-4 8 -8 8s-8 -4 -8 -8s4 -8 8 -8z" />
    <glyph glyph-name="ion-ios-close-circle-outline" unicode="&#xf176;" 
d="M355 339c81 -81 81 -213 0 -294s-213 -81 -294 0s-81 213 0 294s213 81 294 0zM343 57c74 74 74 196 0 270s-196 74 -270 0s-74 -196 0 -270s196 -74 270 0zM292 288l12 -12l-84 -84l84 -84l-12 -12l-84 84l-84 -84l-12 12l84 84l-84 84l12 12l84 -84z" />
    <glyph glyph-name="ion-ios-close-circle" unicode="&#xf177;" 
d="M355 339c81 -81 81 -213 0 -294s-213 -81 -294 0s-81 213 0 294s213 81 294 0zM304 108l-84 84l84 84l-12 12l-84 -84l-84 84l-12 -12l84 -84l-84 -84l12 -12l84 84l84 -84z" />
    <glyph glyph-name="ion-ios-close" unicode="&#xf178;" horiz-adv-x="192" 
d="M180 288l12 -12l-84 -84l84 -84l-12 -12l-84 84l-84 -84l-12 12l84 84l-84 84l12 12l84 -84z" />
    <glyph glyph-name="ion-ios-closed-captioning-outline" unicode="&#xf179;" horiz-adv-x="448" 
d="M448 32h-448v320h448v-320zM16 48h416v288h-416v-288zM238 58h-14h-14c-36 0 -81 0 -114 3c-36 3 -57 24 -59 60v8c-2 25 -3 41 -3 63c0 24 0 39 3 71c4 35 24 56 59 60c32 3 88 3 128 3s96 0 128 -3c35 -4 55 -24 59 -60c3 -32 3 -47 3 -71c0 -22 -1 -38 -3 -63v-8
c-2 -36 -23 -57 -59 -60c-33 -3 -78 -3 -114 -3zM224 74v0h14c35 0 80 0 112 3c28 3 43 17 45 45v8c2 25 3 41 3 62c0 24 0 39 -3 70c-3 28 -17 42 -45 45c-31 3 -86 3 -126 3s-95 0 -126 -3c-28 -3 -42 -17 -45 -45c-3 -31 -3 -46 -3 -70c0 -21 1 -37 3 -62v-8
c2 -28 17 -42 45 -45c32 -3 77 -3 112 -3h14zM306 270c-9 0 -18 -2 -25 -4c-6 -2 -12 -6 -17 -11s-9 -12 -12 -22s-5 -24 -5 -41s1 -31 4 -42c2 -10 7 -17 11 -22s8 -8 14 -10c7 -2 16 -3 26 -3c20 0 34 4 42 13c6 6 9 15 11 27h-15c-2 -7 -5 -13 -10 -18
c-7 -8 -17 -12 -28 -12c-21 0 -38 16 -40 40c0 2 -1 11 -1 26c0 17 1 28 1 28v0v0c2 12 6 21 12 28c7 8 17 12 28 12c18 0 33 -12 38 -30h14c-2 12 -5 21 -11 27c-8 9 -20 14 -37 14zM306 286v0c22 0 38 -7 49 -19s16 -32 16 -54h-45v1c0 18 -11 29 -24 29
c-14 0 -22 -9 -24 -26c0 0 -1 -10 -1 -26s1 -24 1 -24c1 -15 10 -26 24 -26s23 10 23 26v1v3h46c0 -24 -5 -42 -16 -54s-29 -19 -54 -19c-12 0 -22 2 -31 5s-15 8 -21 15s-10 16 -13 28s-5 28 -5 46s2 33 6 45s8 22 15 29s15 12 24 15s19 5 30 5zM151 270
c-9 0 -18 -2 -25 -4c-6 -2 -12 -6 -17 -11s-9 -12 -12 -22s-5 -24 -5 -41s1 -31 4 -42c2 -10 7 -17 11 -22s8 -8 14 -10c7 -2 16 -3 26 -3c20 0 34 4 42 13c6 6 9 15 11 27h-15c-2 -7 -4 -13 -9 -18c-7 -8 -18 -12 -29 -12c-21 0 -38 16 -40 40c0 2 -1 11 -1 26
c0 17 2 28 2 28v0v0c2 12 6 21 12 28c7 8 17 12 28 12c18 0 32 -12 37 -30h15c-2 12 -6 21 -12 27c-8 9 -20 14 -37 14zM151 286v0c22 0 38 -7 49 -19s16 -32 16 -54h-45v1c0 18 -11 29 -24 29c-14 0 -22 -9 -24 -26c0 0 -1 -10 -1 -26s1 -24 1 -24c1 -15 10 -26 24 -26
s23 10 23 26v1v3h46c0 -24 -5 -42 -16 -54s-29 -19 -54 -19c-12 0 -21 2 -30 5s-16 8 -22 15s-10 16 -13 28s-5 28 -5 46s2 33 6 45s8 22 15 29s15 12 24 15s19 5 30 5z" />
    <glyph glyph-name="ion-ios-closed-captioning" unicode="&#xf17a;" horiz-adv-x="448" 
d="M0 352h448v-320h-448v320zM398 192c0 24 0 39 -3 70c-3 28 -17 42 -45 45c-31 3 -86 3 -126 3s-95 0 -126 -3c-28 -3 -42 -17 -45 -45c-3 -31 -3 -46 -3 -70c0 -21 1 -37 3 -62v-8c2 -28 17 -42 45 -45c32 -3 77 -3 112 -3h14v0h14c35 0 80 0 112 3c28 3 43 17 45 45v8
c2 25 3 41 3 62zM306 286v0c22 0 38 -7 49 -19s16 -32 16 -54h-45v1c0 18 -11 29 -24 29c-14 0 -22 -9 -24 -26c0 0 -1 -10 -1 -26s1 -24 1 -24c1 -15 10 -26 24 -26s23 10 23 26v1v3h46c0 -24 -5 -42 -16 -54s-29 -19 -54 -19c-12 0 -22 2 -31 5s-15 8 -21 15
s-10 16 -13 28s-5 28 -5 46s2 33 6 45s8 22 15 29s15 12 24 15s19 5 30 5zM151 286v0c22 0 38 -7 49 -19s16 -32 16 -54h-45v1c0 18 -11 29 -24 29c-14 0 -22 -9 -24 -26c0 0 -1 -10 -1 -26s1 -24 1 -24c1 -15 10 -26 24 -26s23 10 23 26v1v3h46c0 -24 -5 -42 -16 -54
s-29 -19 -54 -19c-12 0 -21 2 -30 5s-16 8 -22 15s-10 16 -13 28s-5 28 -5 46s2 33 6 45s8 22 15 29s15 12 24 15s19 5 30 5z" />
    <glyph glyph-name="ion-ios-cloud-circle-outline" unicode="&#xf17b;" 
d="M226 272c-20 0 -39 -10 -49 -26l-7 -11s-5 2 -9 4s-9 3 -12 3c-11 0 -20 -10 -20 -21v-11l-11 -4c-13 -4 -22 -17 -22 -31c0 -8 3 -16 9 -22s12 -9 20 -9h166c8 0 14 3 20 9s9 14 9 22c0 15 -11 28 -25 30l-12 2l-1 12c-2 15 -8 28 -18 38s-24 15 -38 15zM226 288v0
c38 0 68 -29 72 -67c22 -4 38 -23 38 -46c0 -26 -21 -47 -46 -47h-165c-25 0 -45 21 -45 47c0 21 13 41 33 47c0 20 16 36 36 36c5 0 11 -2 15 -4c13 20 36 34 62 34zM208 384c-26 0 -51 -5 -75 -15c-23 -10 -43 -23 -61 -41s-31 -38 -41 -61c-10 -24 -15 -49 -15 -75
s5 -51 15 -75c10 -23 23 -43 41 -61s38 -31 61 -41c24 -10 49 -15 75 -15s51 5 75 15c23 10 43 23 61 41s31 38 41 61c10 24 15 49 15 75s-5 51 -15 75c-10 23 -23 43 -41 61s-38 31 -61 41c-24 10 -49 15 -75 15zM208 400v0c115 0 208 -93 208 -208s-93 -208 -208 -208
s-208 93 -208 208s93 208 208 208z" />
    <glyph glyph-name="ion-ios-cloud-circle" unicode="&#xf17c;" 
d="M208 400c115 0 208 -93 208 -208s-93 -208 -208 -208s-208 93 -208 208s93 208 208 208zM291 128c25 0 45 21 45 47c0 23 -16 42 -38 46c-4 38 -34 67 -72 67c-26 0 -49 -14 -62 -34c-4 2 -10 4 -15 4c-20 0 -36 -17 -36 -37c-20 -6 -33 -25 -33 -46c0 -26 20 -47 45 -47
h166z" />
    <glyph glyph-name="ion-ios-cloud-done-outline" unicode="&#xf17d;" horiz-adv-x="448" 
d="M277 232l11 -11l-82 -82c-2 -2 -4 -3 -6 -3s-3 1 -5 3l-35 34l11 11l29 -29zM381 222c38 -6 67 -38 67 -78c0 -44 -36 -80 -80 -80h-288c-44 0 -80 36 -80 80c0 36 23 67 58 78c0 34 28 62 62 62c9 0 19 -2 27 -6c23 35 64 58 109 58c66 0 118 -50 125 -114zM368 80
c35 0 64 29 64 64c0 15 -5 29 -15 41s-24 19 -39 21l-12 2l-1 12c-3 27 -16 53 -36 71c-21 19 -45 29 -73 29c-38 0 -75 -18 -96 -50l-8 -12l-12 6c-6 3 -13 4 -20 4c-12 0 -23 -4 -32 -13s-14 -21 -14 -33v-11l-11 -4c-14 -4 -26 -12 -34 -24s-13 -25 -13 -39
c0 -35 29 -64 64 -64h288z" />
    <glyph glyph-name="ion-ios-cloud-done" unicode="&#xf17e;" horiz-adv-x="448" 
d="M381 222c38 -6 67 -38 67 -78c0 -44 -36 -80 -80 -80h-288c-44 0 -80 36 -80 80c0 36 23 67 58 78c0 34 28 62 62 62c9 0 19 -2 27 -6c23 35 64 58 109 58c66 0 118 -50 125 -114zM206 139l82 82l-11 11l-77 -77l-29 29l-11 -11l35 -34c2 -2 3 -3 5 -3s4 1 6 3z" />
    <glyph glyph-name="ion-ios-cloud-download-outline" unicode="&#xf17f;" horiz-adv-x="448" 
d="M145 86l71 -71v225h16v-225l71 71l12 -12l-91 -90l-90 90zM381 286c38 -6 67 -38 67 -78c0 -44 -36 -80 -80 -80h-96v16h96c35 0 64 29 64 64c0 15 -5 29 -15 41c-10 11 -23 19 -38 21l-13 2l-1 12c-3 27 -16 52 -36 71c-21 19 -45 29 -73 29c-38 0 -75 -18 -96 -50
l-8 -12l-12 6c-6 3 -12 4 -19 4c-12 0 -24 -4 -33 -13s-14 -21 -14 -33v-11l-11 -4c-14 -4 -26 -12 -34 -24s-13 -25 -13 -39c0 -35 29 -64 64 -64h96v-16h-96c-44 0 -80 36 -80 80c0 36 23 67 58 78c0 34 28 62 62 62c9 0 19 -2 27 -6c23 35 64 58 109 58
c66 0 118 -50 125 -114z" />
    <glyph glyph-name="ion-ios-cloud-download" unicode="&#xf180;" horiz-adv-x="448" 
d="M216 15v113h16v-113l71 71l12 -12l-91 -90l-90 90l11 12zM381 286c38 -6 67 -38 67 -78c0 -44 -36 -80 -80 -80h-136v112h-16v-112h-136c-44 0 -80 36 -80 80c0 36 23 67 58 78c0 34 28 62 62 62c9 0 19 -2 27 -6c23 35 64 58 109 58c66 0 118 -50 125 -114z" />
    <glyph glyph-name="ion-ios-cloud-outline" unicode="&#xf181;" horiz-adv-x="448" 
d="M381 222c38 -6 67 -38 67 -78c0 -44 -36 -80 -80 -80h-288c-44 0 -80 36 -80 80c0 36 23 67 58 78c0 34 28 62 62 62c9 0 19 -2 27 -6c23 35 64 58 109 58c66 0 118 -50 125 -114zM368 80c35 0 64 29 64 64c0 15 -5 29 -15 41c-10 11 -23 19 -38 21l-13 2l-1 12
c-3 27 -16 52 -36 71c-21 19 -45 29 -73 29c-38 0 -75 -18 -96 -50l-8 -12l-12 6c-6 3 -12 4 -19 4c-12 0 -24 -4 -33 -13s-14 -21 -14 -33v-11l-11 -4c-14 -4 -26 -12 -34 -24s-13 -25 -13 -39c0 -35 29 -64 64 -64h288z" />
    <glyph glyph-name="ion-ios-cloud-upload-outline" unicode="&#xf182;" horiz-adv-x="448" 
d="M303 186l-71 71v-257h-16v257l-71 -71l-11 12l90 90l91 -90zM381 270c38 -6 67 -38 67 -78c0 -44 -36 -80 -80 -80h-96v16h96c35 0 64 29 64 64c0 15 -5 29 -15 41c-10 11 -23 19 -38 21l-13 2l-1 12c-3 27 -16 52 -36 71c-21 19 -45 29 -73 29c-38 0 -75 -18 -96 -50
l-8 -12l-12 6c-6 3 -12 4 -19 4c-12 0 -24 -4 -33 -13s-14 -21 -14 -33v-11l-11 -4c-14 -4 -26 -12 -34 -24s-13 -25 -13 -39c0 -35 29 -64 64 -64h96v-16h-96c-44 0 -80 36 -80 80c0 36 23 67 58 78c0 34 28 62 62 62c9 0 19 -2 27 -6c23 35 64 58 109 58
c66 0 118 -50 125 -114z" />
    <glyph glyph-name="ion-ios-cloud-upload" unicode="&#xf183;" horiz-adv-x="448" 
d="M216 0v112h16v-112h-16zM381 270c38 -6 67 -38 67 -78c0 -44 -36 -80 -80 -80h-136v145l71 -71l12 12l-91 90l-90 -90l11 -12l71 71v-145h-136c-44 0 -80 36 -80 80c0 36 23 67 58 78c0 34 28 62 62 62c9 0 19 -2 27 -6c23 35 64 58 109 58c66 0 118 -50 125 -114z" />
    <glyph glyph-name="ion-ios-cloud" unicode="&#xf184;" horiz-adv-x="448" 
d="M381 222c38 -6 67 -38 67 -78c0 -44 -36 -80 -80 -80h-288c-44 0 -80 36 -80 80c0 36 23 67 58 78c0 34 28 62 62 62c9 0 19 -2 27 -6c23 35 64 58 109 58c66 0 118 -50 125 -114z" />
    <glyph glyph-name="ion-ios-cloudy-night-outline" unicode="&#xf185;" horiz-adv-x="448" 
d="M245 153c42 0 75 -35 75 -77s-33 -77 -75 -77h-185c-33 0 -60 30 -60 63c0 32 24 58 55 61c0 3 -1 6 -1 9c0 51 42 92 92 92c44 0 80 -31 89 -72c3 0 5 1 8 1h2zM286 33c11 11 18 27 18 43s-7 31 -18 43s-25 18 -41 18h-1h-1h-6l-14 -2l-3 14c-4 16 -14 31 -27 42
c-14 11 -30 17 -47 17c-42 0 -76 -34 -76 -76c0 -2 1 -5 1 -7l1 -16l-16 -2c-11 -1 -20 -6 -28 -14c-8 -9 -12 -20 -12 -31c0 -12 5 -24 13 -33s19 -14 31 -14h185c16 0 30 7 41 18zM418 142c10 0 20 1 30 3c-5 -9 -11 -16 -18 -24c-24 -27 -56 -47 -94 -54v9v7
c29 6 56 21 77 43h-2c-46 0 -89 17 -121 49s-50 73 -50 118c0 23 5 46 14 67c-27 -10 -52 -26 -69 -49c-16 -21 -25 -45 -28 -71h-11h-5c6 65 52 119 114 138c10 3 19 5 30 6h1c-6 -8 -11 -16 -15 -25c-10 -20 -16 -43 -16 -66c0 -40 17 -78 46 -107s68 -44 109 -44h8z" />
    <glyph glyph-name="ion-ios-cloudy-night" unicode="&#xf186;" horiz-adv-x="448" 
d="M245 153c36 0 67 -27 74 -62c1 -5 1 -10 1 -15v-3v-1v-3v-1c0 -1 -1 -2 -1 -3v0v0v0c-6 -36 -36 -65 -74 -65v0h-185c-31 0 -57 25 -60 56v6c0 32 24 58 55 61c0 3 -1 6 -1 9c0 49 38 89 86 92v0v0h3v0h3v0c14 0 26 -3 38 -8c1 -1 3 -1 4 -2c3 -2 5 -3 8 -5
c2 -1 3 -2 4 -3s3 -1 4 -2l3 -3c14 -13 24 -30 28 -49c1 0 1 1 2 1h8zM418 142c10 0 20 1 30 3c-5 -9 -11 -16 -18 -24c-24 -27 -56 -47 -94 -54v9c0 24 -9 47 -26 65c-17 17 -39 27 -63 28c-7 18 -18 35 -33 47c-19 16 -44 24 -68 24h-5c6 65 52 119 114 138
c10 3 19 5 30 6h1c-6 -8 -11 -16 -15 -25c-10 -20 -16 -43 -16 -66c0 -40 17 -78 46 -107s68 -44 109 -44h8z" />
    <glyph glyph-name="ion-ios-cloudy-outline" unicode="&#xf187;" horiz-adv-x="448" 
d="M204 336c-29 0 -58 -12 -79 -34s-33 -50 -33 -80c0 -4 1 -9 1 -12l1 -16l-16 -1c-16 -1 -32 -10 -44 -24s-18 -31 -18 -49c0 -19 7 -37 20 -50c13 -14 30 -22 48 -22h258c24 0 47 11 64 28s26 41 26 65s-10 47 -27 65s-39 28 -63 28h-3h-4h-5l-14 -1l-3 13
c-5 25 -17 47 -35 63c-20 18 -46 27 -74 27zM204 352v0c70 0 113 -49 125 -103h6h7c58 0 106 -50 106 -109s-48 -108 -106 -108h-257c-47 0 -85 41 -85 88c0 44 34 84 77 88c0 4 -1 9 -1 13c0 71 58 131 128 131z" />
    <glyph glyph-name="ion-ios-cloudy" unicode="&#xf188;" horiz-adv-x="448" 
d="M204 352v0c70 0 113 -49 125 -103h6h7c58 0 106 -50 106 -109s-48 -108 -106 -108h-257c-47 0 -85 41 -85 88c0 44 34 84 77 88c0 4 -1 9 -1 13c0 71 58 131 128 131z" />
    <glyph glyph-name="ion-ios-code-download" unicode="&#xf189;" horiz-adv-x="384" 
d="M256 288l14 13l114 -109l-114 -109l-14 13l100 96zM128 288l-100 -96l100 -96l-14 -13l-114 109l114 109zM255 192l11 -11l-74 -69l-74 69l11 11l55 -48v128h16v-128z" />
    <glyph glyph-name="ion-ios-code-working" unicode="&#xf18a;" horiz-adv-x="384" 
d="M256 288l14 13l114 -109l-114 -109l-14 13l100 96zM128 288l-100 -96l100 -96l-14 -13l-114 109l114 109zM176 192c0 9 7 16 16 16s16 -7 16 -16s-7 -16 -16 -16s-16 7 -16 16zM112 192c0 9 7 16 16 16s16 -7 16 -16s-7 -16 -16 -16s-16 7 -16 16zM240 192
c0 9 7 16 16 16s16 -7 16 -16s-7 -16 -16 -16s-16 7 -16 16z" />
    <glyph glyph-name="ion-ios-code" unicode="&#xf18b;" horiz-adv-x="384" 
d="M256 288l14 13l114 -109l-114 -109l-14 13l100 96zM128 288l-100 -96l100 -96l-14 -13l-114 109l114 109z" />
    <glyph glyph-name="ion-ios-cog-outline" unicode="&#xf18c;" horiz-adv-x="384" 
d="M197 368l6 -22l2 -10l10 -2l13 -3l9 -1l6 7l14 19l7 -3l-3 -22l-2 -10l8 -6l11 -7l8 -6l9 5l20 11l5 -5l-12 -19l-5 -9l6 -8l8 -11l5 -8l10 2l22 3l3 -7l-18 -14l-8 -6l2 -9l3 -13l1 -10l10 -3l21 -6v-7l-21 -5l-10 -3l-1 -10l-3 -14l-2 -9l8 -6l17 -13l-2 -7l-22 3
l-10 2l-5 -8l-8 -12l-6 -8l5 -9l11 -18l-5 -5l-19 10l-9 6l-8 -7l-11 -7l-7 -6l1 -9l3 -22l-6 -3l-14 18l-6 8l-10 -2l-13 -3l-10 -2l-3 -10l-5 -21h-7l-6 21l-2 10l-10 2l-14 3l-10 2l-6 -8l-13 -18l-7 3l3 22l2 10l-9 5l-11 8l-8 5l-9 -5l-19 -12l-5 5l11 20l5 9l-5 8
l-7 11l-6 9l-10 -2l-22 -3l-3 7l18 13l8 7l-2 9l-2 13l-2 10l-10 2l-23 6v7l23 6l10 2l2 10l2 12l3 10l-9 7l-19 14l3 6l23 -3l10 -1l6 8l7 11l5 8l-5 9l-13 21l6 5l20 -13l8 -5l9 5l11 8l9 5l-1 10l-3 24l6 3l15 -19l6 -8l9 2l13 2l9 2l3 10l6 22h7zM210 384v0l8 -34l12 -3
l22 29l30 -13l-6 -35l11 -7l30 17l23 -22l-18 -30l8 -11l34 5l12 -30l-28 -20l3 -14l33 -8v-32l-33 -9l-3 -13l28 -21l-13 -29l-33 4l-8 -11l16 -29l-22 -22l-29 16l-10 -7l5 -34l-30 -12l-21 27l-13 -3l-8 -33h-32l-9 33l-14 3l-20 -28l-30 13l5 34l-12 7l-30 -18l-22 23
l18 30l-8 11l-35 -4l-12 29l28 21l-2 13l-35 9v32l35 9l3 12l-29 21l12 30l35 -5l7 11l-19 31l23 23l31 -19l12 7l-5 36l30 12l21 -29l12 2l10 35h32zM192 320c71 0 128 -57 128 -128s-57 -128 -128 -128s-128 57 -128 128s57 128 128 128zM81 174c0 -2 1 -2 1 -4l104 28
l28 104c-1 0 -3 1 -4 1c-6 1 -12 1 -18 1c-30 0 -58 -12 -79 -33s-33 -49 -33 -79c0 -6 0 -12 1 -18zM262 104l3 3l-75 75l-104 -28c0 -1 2 -2 2 -3c6 -14 14 -27 25 -38c21 -21 49 -33 79 -33c26 0 50 8 70 24zM279 121c16 20 25 45 25 71c0 30 -12 58 -33 79
c-11 11 -25 19 -39 25c-1 0 -2 2 -3 2l-28 -105l75 -75z" />
    <glyph glyph-name="ion-ios-cog" unicode="&#xf18d;" horiz-adv-x="384" 
d="M233 296c14 -6 27 -14 38 -25c21 -21 33 -49 33 -79c0 -26 -9 -51 -25 -71l-3 -3l-75 75l28 105c1 0 3 -2 4 -2zM214 302l-28 -104l-104 -28c0 1 -1 2 -1 4c-1 6 -1 12 -1 18c0 30 12 58 33 79s49 33 79 33c6 0 12 0 18 -1c1 0 3 -1 4 -1zM86 154l104 28l75 -75l-3 -3
c-20 -16 -44 -24 -70 -24c-30 0 -58 12 -79 33c-11 11 -19 24 -25 38c0 1 -2 2 -2 3zM384 175l-33 -8l-3 -14l27 -20l-12 -30l-34 5l-8 -12l17 -28l-22 -23l-30 17l-10 -8l5 -33l-29 -12l-21 27l-14 -3l-8 -33h-32l-9 33l-13 3l-21 -28l-29 12l4 34l-11 8l-30 -19l-23 23
l18 31l-7 11l-35 -5l-12 29l28 22l-2 12l-35 9v32l35 9l2 12l-29 22l12 30l36 -5l7 10l-19 32l22 22l32 -19l11 8l-4 35l29 13l22 -29l12 2l9 35h32l9 -35l12 -2l22 28l29 -12l-5 -35l10 -8l31 18l22 -23l-17 -30l7 -10l35 5l12 -30l-28 -21l3 -13l33 -9v-32zM192 64
c71 0 128 57 128 128s-57 128 -128 128s-128 -57 -128 -128s57 -128 128 -128z" />
    <glyph glyph-name="ion-ios-color-fill-outline" unicode="&#xf18e;" 
d="M363 148c0 0 -7 1 -17 1s-23 -1 -29 -7c-11 -11 -146 -142 -146 -142l-171 165l105 104l-49 49c-19 19 -19 49 0 68v0c9 9 22 14 34 14s24 -5 33 -14l57 -56v0zM67 329l49 -49l46 45l-50 50c-6 6 -14 9 -23 9s-16 -3 -22 -9s-9 -14 -9 -23s3 -17 9 -23zM306 153
c5 5 11 8 19 10l-152 151l-150 -149l148 -143c32 32 126 122 135 131zM368 112c0 0 48 -53 48 -80c0 -26 -22 -48 -48 -48v0c-26 0 -48 21 -48 48s48 80 48 80zM391 9c6 6 9 14 9 23c0 2 -1 13 -21 41c-4 5 -8 10 -11 14c-4 -4 -7 -10 -11 -15c-20 -28 -21 -38 -21 -40
c0 -18 14 -32 32 -32c8 0 17 3 23 9z" />
    <glyph glyph-name="ion-ios-color-fill" unicode="&#xf18f;" 
d="M363 148c0 0 -7 1 -17 1s-23 -1 -29 -7c-11 -11 -146 -142 -146 -142l-171 165l105 104l-49 49c-19 19 -19 49 0 68v0c9 9 22 14 34 14s24 -5 33 -14l57 -56v0zM67 329l49 -49l46 45l-50 50c-6 6 -14 9 -23 9s-16 -3 -22 -9s-9 -14 -9 -23s3 -17 9 -23zM368 112
c0 0 48 -53 48 -80c0 -26 -22 -48 -48 -48v0c-26 0 -48 21 -48 48s48 80 48 80z" />
    <glyph glyph-name="ion-ios-color-filter-outline" unicode="&#xf190;" horiz-adv-x="384" 
d="M302 236c47 -13 82 -57 82 -108c0 -62 -50 -112 -112 -112c-31 0 -60 13 -80 34c-20 -21 -49 -34 -80 -34c-62 0 -112 50 -112 112c0 51 35 95 82 108c-1 7 -2 13 -2 20c0 62 50 112 112 112s112 -50 112 -112c0 -7 -1 -13 -2 -20zM96 256c0 -6 0 -12 1 -17
c5 1 10 1 15 1c31 0 60 -13 80 -34c20 21 49 34 80 34c5 0 10 0 15 -1c1 5 1 11 1 17c0 53 -43 96 -96 96s-96 -43 -96 -96zM208 128c0 6 0 12 -1 17c-5 -1 -10 -1 -15 -1s-10 0 -15 1c-1 -5 -1 -11 -1 -17c0 -20 6 -38 16 -53c10 15 16 33 16 53zM192 160c3 0 7 1 10 1
c-3 7 -6 14 -10 20c-4 -6 -7 -13 -10 -20c3 0 7 -1 10 -1zM166 164c4 11 9 21 16 30c-18 18 -43 30 -70 30c-3 0 -7 -1 -10 -1c10 -29 34 -51 64 -59zM202 194c7 -9 12 -19 16 -30c30 8 54 30 64 59c-3 0 -7 1 -10 1c-27 0 -52 -12 -70 -30zM112 32c27 0 52 12 70 30
c-14 19 -22 41 -22 66c0 7 1 13 2 20c-36 10 -64 37 -76 72c-40 -11 -70 -48 -70 -92c0 -53 43 -96 96 -96zM272 32c53 0 96 43 96 96c0 44 -30 81 -70 92c-12 -35 -40 -62 -76 -72c1 -7 2 -13 2 -20c0 -25 -8 -47 -22 -66c18 -18 43 -30 70 -30z" />
    <glyph glyph-name="ion-ios-color-filter" unicode="&#xf191;" horiz-adv-x="384" 
d="M302 236c47 -13 82 -57 82 -108c0 -62 -50 -112 -112 -112c-31 0 -60 13 -80 34c-20 -21 -49 -34 -80 -34c-62 0 -112 50 -112 112c0 51 35 95 82 108c-1 7 -2 13 -2 20c0 62 50 112 112 112s112 -50 112 -112c0 -7 -1 -13 -2 -20zM192 53l1 -2c3 3 6 7 9 11
c14 19 22 41 22 66c0 7 -1 13 -2 20c36 10 64 37 76 72c2 5 3 10 4 15c-1 0 -2 1 -3 1v1c-4 1 -8 1 -12 2c-5 1 -10 1 -15 1c-31 0 -60 -13 -80 -34c-20 21 -49 34 -80 34c-5 0 -10 0 -15 -1c-4 -1 -8 -1 -12 -2v-1c-1 0 -2 -1 -3 -1c1 -5 2 -10 4 -15c12 -35 40 -62 76 -72
c-1 -7 -2 -13 -2 -20c0 -25 8 -47 22 -66c3 -4 6 -8 9 -11zM207 145c1 -5 1 -11 1 -17c0 -20 -6 -38 -16 -53c-10 15 -16 33 -16 53c0 6 0 12 1 17c5 -1 10 -1 15 -1s10 0 15 1zM282 223c-10 -29 -34 -51 -64 -59c-4 11 -9 21 -16 30c18 18 43 30 70 30c3 0 7 -1 10 -1z
M202 161c-3 0 -7 -1 -10 -1s-7 1 -10 1c3 7 6 14 10 20c4 -6 7 -13 10 -20zM112 224c27 0 52 -12 70 -30c-7 -9 -12 -19 -16 -30c-30 8 -54 30 -64 59c3 0 7 1 10 1z" />
    <glyph glyph-name="ion-ios-color-palette-outline" unicode="&#xf192;" horiz-adv-x="384" 
d="M221 368c-54 0 -108 -20 -148 -56c-19 -17 -33 -35 -43 -57c-9 -21 -14 -43 -14 -65s4 -44 14 -65c10 -22 24 -41 43 -58c19 -16 41 -29 66 -38c24 -8 51 -13 77 -13h1c53 0 104 17 139 48c4 3 4 8 4 11c0 5 -2 10 -5 13s-9 4 -15 5h-1c-14 2 -22 6 -31 14
c-10 9 -16 21 -16 34s6 25 16 34l31 27c19 17 29 38 29 62s-10 46 -29 63c-30 26 -72 41 -118 41zM221 384v0c48 0 94 -15 128 -45c46 -41 46 -108 0 -149l-30 -27c-14 -13 -14 -31 0 -44c7 -6 10 -8 22 -10c8 -1 18 -3 25 -9c12 -11 14 -35 0 -48c-39 -34 -94 -52 -149 -52
h-1c-55 0 -111 18 -153 55c-84 74 -84 195 0 269c45 40 102 60 158 60zM256 304c-9 0 -16 -7 -16 -16s7 -16 16 -16s16 7 16 16s-7 16 -16 16zM256 320v0c18 0 32 -14 32 -32s-14 -32 -32 -32s-32 14 -32 32s14 32 32 32zM160 315c-9 0 -16 -7 -16 -16s7 -16 16 -16
s16 7 16 16s-7 16 -16 16zM160 331v0c18 0 32 -14 32 -32s-14 -32 -32 -32s-32 14 -32 32s14 32 32 32zM88 248c-9 0 -16 -7 -16 -16s7 -16 16 -16s16 7 16 16s-7 16 -16 16zM88 264v0c18 0 32 -14 32 -32s-14 -32 -32 -32s-32 14 -32 32s14 32 32 32zM96 154
c-9 0 -16 -7 -16 -16s7 -16 16 -16s16 7 16 16s-7 16 -16 16zM96 170v0c18 0 32 -14 32 -32s-14 -32 -32 -32s-32 14 -32 32s14 32 32 32zM232 48c-26 0 -48 22 -48 48s22 48 48 48s48 -22 48 -48s-22 -48 -48 -48zM232 128c-18 0 -32 -14 -32 -32s14 -32 32 -32
s32 14 32 32s-14 32 -32 32z" />
    <glyph glyph-name="ion-ios-color-palette" unicode="&#xf193;" horiz-adv-x="384" 
d="M366 100c12 -11 14 -35 0 -48c-39 -34 -94 -52 -149 -52h-1c-55 0 -111 18 -153 55c-84 74 -84 195 0 269c45 40 102 60 158 60c48 0 94 -15 128 -45c46 -41 46 -108 0 -149l-30 -27c-14 -13 -14 -31 0 -44c7 -6 11 -8 23 -10c8 -1 17 -3 24 -9zM56 232
c0 -18 14 -32 32 -32s32 14 32 32s-14 32 -32 32s-32 -14 -32 -32zM96 106c18 0 32 14 32 32s-14 32 -32 32s-32 -14 -32 -32s14 -32 32 -32zM160 267c18 0 32 14 32 32s-14 32 -32 32s-32 -14 -32 -32s14 -32 32 -32zM232 48c26 0 48 22 48 48s-22 48 -48 48
s-48 -22 -48 -48s22 -48 48 -48zM256 256c18 0 32 14 32 32s-14 32 -32 32s-32 -14 -32 -32s14 -32 32 -32z" />
    <glyph glyph-name="ion-ios-color-wand-outline" unicode="&#xf194;" horiz-adv-x="384" 
d="M128 298l256 -256l-34 -34l-256 256zM149 232l201 -201l12 11l-202 202zM120 344v40h16v-40h-16zM120 140v40h16v-40h-16zM216 256v16h40v-16h-40zM0 256v16h40v-16h-40zM64 314l-28 28l11 12l29 -29zM36 181l28 28l12 -11l-29 -28zM180 325l29 29l11 -12l-28 -28z" />
    <glyph glyph-name="ion-ios-color-wand" unicode="&#xf195;" horiz-adv-x="389" 
d="M125 322v64h24v-64h-24zM125 118v64h24v-64h-24zM216 245v24h64v-24h-64zM240 342l-45 -46l-17 17l45 45zM37 339l17 17l45 -46l-17 -16zM34 169l45 45l17 -16l-45 -46zM0 245v24h64v-24h-64zM134 295l44 -44l-34 -34l-44 43zM389 39l-34 -34l-195 196l34 34z" />
    <glyph glyph-name="ion-ios-compass-outline" unicode="&#xf196;" 
d="M208 400c115 0 208 -93 208 -208s-93 -208 -208 -208s-208 93 -208 208s93 208 208 208zM208 1c105 0 191 86 191 191s-86 191 -191 191s-191 -86 -191 -191s86 -191 191 -191zM176 224l160 96l-96 -160l-160 -96zM127 111l101 61l-40 40z" />
    <glyph glyph-name="ion-ios-compass" unicode="&#xf197;" 
d="M228 172l-101 -61l61 101zM208 400c115 0 208 -93 208 -208s-93 -208 -208 -208s-208 93 -208 208s93 208 208 208zM240 160l96 160l-160 -96l-96 -160z" />
    <glyph glyph-name="ion-ios-construct-outline" unicode="&#xf198;" horiz-adv-x="481" 
d="M122 22c-6 -5 -14 -5 -20 0c-5 6 -5 14 0 20c6 5 14 5 20 0c5 -6 5 -15 0 -20zM364 384v0v0zM197 207l8 -8c-4 -4 -8 -7 -12 -11c-18 18 -13 14 -13 14c-2 2 -3 6 -1 10l4 6c-25 25 -39 38 -51 41c-4 1 -7 2 -11 2c-10 0 -18 -3 -22 -7s-12 -16 -5 -23l12 -12
c2 -2 2 -6 0 -8l-33 -35c-1 -1 -3 -1 -4 -1s-3 0 -4 1l-63 64c-2 2 -2 5 0 7l34 34c1 1 3 2 4 2c0 0 17 -8 25 0s0 20 6 29s16 19 23 26s35 34 81 53c16 7 33 9 47 9c15 0 28 -3 37 -9c6 -4 19 -13 11 -13c0 0 -36 6 -61 -15c-18 -16 -29 -31 -30 -53s6 -34 34 -62l6 3
c1 1 3 1 4 1c2 0 5 -1 6 -2c0 0 -4 5 15 -14c-4 -3 -8 -7 -12 -11c-10 9 -6 5 -9 8zM194 230l2 -2l7 8l-1 1c-29 28 -40 45 -39 74c1 24 13 45 36 64v0v0c5 4 10 7 17 9c-12 0 -23 -3 -35 -8c-39 -16 -64 -38 -76 -49c-6 -6 -15 -16 -21 -24v-5c0 -7 2 -18 -7 -27
c-7 -6 -17 -10 -30 -10l-7 1l-20 -19l46 -45l20 19c-6 6 -13 10 -13 20c0 9 9 25 19 32c9 6 17 8 29 8c6 0 10 -1 15 -2c16 -4 30 -17 54 -41zM428 43c-20 16 -73 62 -122 109c4 4 8 8 11 12c61 -58 130 -116 130 -116c2 -2 2 -6 0 -8l-55 -55c-1 -1 -3 -1 -4 -1s-3 0 -4 1
c0 0 -56 67 -115 128c4 4 7 8 11 12c47 -49 93 -101 109 -120zM464 323c13 -13 18 -29 17 -41s-6 -36 -30 -60c-17 -17 -45 -30 -72 -30c-11 0 -23 3 -33 8c-2 1 -5 2 -8 2s-7 -1 -11 -5c-2 -2 -9 -10 -21 -22c-3 -4 -7 -8 -11 -12c-8 -8 -17 -17 -26 -27
c-4 -4 -7 -8 -11 -12c-54 -57 -120 -127 -120 -127c-8 -9 -18 -13 -29 -13s-23 5 -31 13c-17 17 -18 45 0 61c0 0 70 65 127 119l11 11c10 9 19 18 27 26c4 4 8 8 12 11c13 12 20 20 22 21c7 7 5 15 3 20c-19 44 2 83 22 104c21 22 48 29 60 30h2c12 0 28 -6 39 -17l-52 -52
l9 -51l51 -10zM465 283c0 2 0 8 -3 15l-39 -40l-6 -5l-8 1l-51 9l-11 2l-2 11l-10 52l-1 8l6 6l39 39c-5 2 -10 3 -14 3h-2c-10 0 -32 -7 -49 -25v0v0c-9 -10 -37 -44 -19 -87v0v0c1 -3 3 -9 3 -16c0 -6 -1 -14 -9 -22v0v0c-8 -8 -192 -181 -200 -188h-1v0
c-6 -5 -7 -12 -7 -17c0 -8 3 -15 8 -21c5 -5 13 -8 20 -8c4 0 11 1 17 8h1v0c7 8 180 191 189 200c8 8 16 10 22 10c7 0 12 -2 16 -4v0v0c7 -4 15 -6 25 -6c22 0 46 10 61 25c19 19 24 38 25 50z" />
    <glyph glyph-name="ion-ios-construct" unicode="&#xf199;" horiz-adv-x="481" 
d="M364 384v0v0zM259 391c6 -4 19 -13 11 -13c0 0 -36 6 -61 -15c-18 -16 -29 -31 -30 -53s6 -34 34 -62l6 3c1 1 3 1 4 1c2 0 5 -1 6 -2c0 0 -4 5 15 -14l-51 -48c-18 18 -13 14 -13 14c-2 2 -3 6 -1 10l4 6c-25 25 -39 38 -51 41c-4 1 -7 2 -11 2c-10 0 -18 -3 -22 -7
s-12 -16 -5 -23l12 -12c2 -2 2 -6 0 -8l-33 -35c-1 -1 -3 -1 -4 -1s-3 0 -4 1l-63 64c-2 2 -2 5 0 7l34 34c1 1 3 2 4 2c0 0 17 -8 25 0s0 20 6 29s16 19 23 26s35 34 81 53c16 7 33 9 47 9c15 0 28 -3 37 -9zM447 48c2 -2 2 -6 0 -8l-55 -55c-1 -1 -3 -1 -4 -1s-3 0 -4 1
c0 0 -56 67 -115 128l48 51c61 -58 130 -116 130 -116zM464 323c13 -13 18 -29 17 -41s-6 -36 -30 -60c-17 -17 -45 -30 -72 -30c-11 0 -23 3 -33 8c-2 1 -5 2 -8 2s-7 -1 -11 -5c-2 -2 -9 -10 -21 -22c-3 -4 -7 -8 -11 -12c-8 -8 -17 -17 -26 -27c-4 -4 -7 -8 -11 -12
c-54 -57 -120 -127 -120 -127c-8 -9 -18 -13 -29 -13s-23 5 -31 13c-17 17 -18 45 0 61c0 0 70 65 127 119l11 11c10 9 19 18 27 26c4 4 8 8 12 11c13 12 20 20 22 21c7 7 5 15 3 20c-19 44 2 83 22 104c21 22 48 29 60 30h2c12 0 28 -6 39 -17l-52 -52l9 -51l51 -10z
M122 22c5 5 5 14 0 20c-6 5 -14 5 -20 0c-5 -6 -5 -14 0 -20c6 -5 14 -5 20 0z" />
    <glyph glyph-name="ion-ios-contact-outline" unicode="&#xf19a;" 
d="M208 400c115 0 208 -93 208 -208s-93 -208 -208 -208s-208 93 -208 208s93 208 208 208zM208 383c-105 0 -191 -86 -191 -191c0 -47 17 -89 45 -122c18 8 62 23 90 31c2 1 3 1 3 11c0 11 -1 18 -4 24c-4 8 -7 20 -9 31c-4 5 -10 15 -14 33c-3 16 -2 22 0 28c0 1 1 1 1 2
c1 4 0 23 -3 38c-2 10 1 34 15 52c9 12 27 26 58 28h17c32 -2 50 -16 59 -28c14 -18 17 -42 15 -52c-3 -15 -4 -34 -3 -38v-2c2 -6 4 -12 1 -28c-4 -18 -10 -28 -14 -33c-2 -11 -5 -23 -9 -31c-3 -7 -7 -16 -7 -24c0 -10 1 -9 3 -10c27 -8 73 -24 93 -32v0
c28 33 45 75 45 122c0 105 -86 191 -191 191zM73 57c35 -34 83 -56 135 -56s100 22 134 56c-22 9 -62 22 -86 29v0v0c-8 3 -12 9 -13 13s-1 7 -1 13c0 11 4 23 8 31c3 6 7 16 8 26l1 5l3 4c2 2 7 9 10 25c2 13 1 16 0 19c0 1 -1 2 -1 4v0v0c-2 8 1 32 3 45c1 6 0 24 -12 39
c-7 9 -20 20 -46 22h-17c-25 -2 -39 -13 -46 -22c-12 -15 -13 -33 -12 -39c2 -13 5 -37 3 -45v0v-1c0 -1 -1 -2 -1 -3v0v0v0c-1 -3 -2 -6 1 -19c3 -16 8 -23 10 -25l3 -4v-5c1 -10 5 -21 8 -27c4 -8 5 -17 5 -30c0 -6 1 -10 0 -13c-1 -4 -5 -10 -13 -13v0h-1
c-24 -7 -63 -21 -83 -29z" />
    <glyph glyph-name="ion-ios-contact" unicode="&#xf19b;" 
d="M208 400c115 0 208 -93 208 -208s-93 -208 -208 -208s-208 93 -208 208s93 208 208 208zM208 383c-105 0 -191 -86 -191 -191c0 -47 17 -89 45 -122c18 8 62 24 90 32c2 1 3 0 3 10c0 11 -1 18 -4 24c-4 8 -7 20 -9 31c-4 5 -10 15 -14 33c-3 16 -1 22 1 28v2
c1 4 0 23 -3 38c-2 10 1 34 15 52c9 12 27 26 58 28h18c32 -2 49 -16 58 -28c14 -18 17 -42 15 -52c-3 -15 -4 -34 -3 -38c0 0 1 -1 1 -2c2 -6 3 -12 0 -28c-4 -18 -10 -27 -14 -32c-2 -11 -5 -24 -9 -32c-3 -7 -6 -15 -6 -23c0 -10 0 -10 2 -11c27 -8 73 -24 93 -32
c28 33 45 76 45 122c0 105 -86 191 -191 191z" />
    <glyph glyph-name="ion-ios-contacts-outline" unicode="&#xf19c;" 
d="M208 400c115 0 208 -93 208 -208s-93 -208 -208 -208s-208 93 -208 208s93 208 208 208zM208 1c26 0 51 6 73 15c0 21 -2 40 -2 40c-4 15 -17 27 -30 33s-28 4 -41 9s-26 9 -29 25c-2 11 -1 22 -1 33c0 2 7 7 8 9c3 5 4 11 5 17c1 5 0 12 4 15c5 4 6 7 8 13
c2 8 4 12 0 19c-3 5 -1 8 0 13c3 11 4 24 2 36c-8 37 -61 45 -85 19c-12 -13 -13 -31 -10 -47c1 -6 6 -14 3 -19c-1 -3 -5 -6 -4 -10c2 -5 3 -11 5 -16c2 -4 3 -6 6 -8s4 -6 4 -9c1 -7 1 -17 5 -23c3 -4 9 -6 9 -11c0 -7 -1 -14 -1 -21c-1 -8 -1 -18 -7 -24
c-7 -6 -19 -10 -28 -12c-11 -3 -23 -3 -33 -7c-6 -2 -11 -5 -16 -9c3 -4 6 -7 9 -11l11 -13c35 -34 83 -56 135 -56zM354 70c5 6 11 13 15 20c-2 22 -15 29 -23 31c-2 0 -3 1 -6 1c-10 2 -23 5 -31 14c-7 8 -6 19 -5 26l2 18c13 -2 26 0 26 0v0c-4 14 -3 29 -3 42v14
c0 11 -2 26 -12 32c-3 2 -11 4 -23 4c-7 0 -15 -1 -19 -3v0v0c-8 -3 -12 -7 -14 -15c-3 -9 -3 -21 -3 -33c0 -14 0 -29 -4 -42c0 0 15 -2 27 -1c0 0 2 -26 1 -34s-5 -10 -12 -13s-17 -4 -24 -9c-10 3 -25 5 -25 5c14 7 25 11 29 12s15 4 16 9v14c-21 2 -29 6 -29 6
c-6 3 -2 6 0 11c14 32 -10 88 32 105c7 3 15 4 25 4c12 0 23 -2 31 -7c15 -9 20 -27 20 -44c0 -20 -4 -44 7 -62c2 -3 4 -4 0 -6c0 0 -6 -5 -31 -6c0 0 -2 -13 1 -17c6 -7 21 -7 29 -10c13 -4 25 -14 29 -27c12 25 19 53 19 83c0 105 -86 191 -191 191s-191 -86 -191 -191
c0 -36 10 -69 27 -98l1 1c15 11 32 12 50 16c7 1 23 5 25 13s2 15 2 23c0 3 -1 3 -3 5c-4 4 -6 9 -8 14c-2 8 -3 16 -4 24c-9 -2 -10 16 -12 21c-1 4 -2 19 4 22c-3 5 -4 12 -5 18c-2 13 -2 26 3 39c10 26 36 39 63 38c26 -1 52 -15 60 -41c4 -12 3 -27 1 -40
c-1 -5 -3 -10 -5 -14c8 -3 4 -21 3 -24c-2 -5 -2 -21 -11 -19c-1 -10 -2 -22 -7 -31c-1 -2 -8 -8 -8 -10v-11c0 -5 0 -10 2 -15s10 -7 14 -8c14 -5 28 -5 42 -10c28 -10 45 -35 45 -65l1 -16c17 9 32 20 45 33l12 13v0z" />
    <glyph glyph-name="ion-ios-contacts" unicode="&#xf19d;" 
d="M208 400c115 0 208 -93 208 -208s-93 -208 -208 -208s-208 93 -208 208s93 208 208 208zM296 40l1 -16c6 3 11 5 16 9c0 26 -3 47 -21 64c-20 19 -46 25 -46 25c-10 3 -25 5 -25 5c14 7 25 11 29 12s15 4 16 9v14c-21 2 -29 6 -29 6c-6 3 -2 6 0 11c14 32 -10 88 32 105
c7 3 15 4 25 4c12 0 23 -2 31 -7c15 -9 20 -27 20 -44c0 -20 -4 -44 7 -62c2 -3 4 -4 0 -6c0 0 -6 -5 -31 -6c0 0 -2 -13 1 -17c6 -7 21 -7 29 -10c13 -4 25 -14 29 -27c12 25 19 53 19 83c0 105 -86 191 -191 191s-191 -86 -191 -191c0 -36 10 -69 27 -98l1 1
c15 11 32 12 50 16c7 1 23 5 25 13s2 15 2 23c0 3 -1 3 -3 5c-4 4 -6 9 -8 14c-2 8 -3 16 -4 24c-9 -2 -10 16 -12 21c-1 4 -2 18 4 21c-3 5 -4 13 -5 19c-2 13 -2 26 3 39c10 26 36 39 63 38c26 -1 52 -16 60 -42c4 -12 3 -26 1 -39c-1 -5 -3 -11 -5 -15c8 -3 4 -20 3 -23
c-2 -5 -2 -21 -11 -19c-1 -10 -2 -22 -7 -31c-1 -2 -8 -8 -8 -10v-11c0 -5 0 -10 2 -15s10 -7 14 -8c14 -5 28 -5 42 -10c28 -10 45 -35 45 -65z" />
    <glyph glyph-name="ion-ios-contract" unicode="&#xf19e;" horiz-adv-x="384" 
d="M132 240l-132 133l11 11l133 -132v100h16v-128h-128v16h100zM252 240h100v-16h-128v128h16v-100l133 132l11 -11zM132 144h-100v16h128v-128h-16v100l-133 -132l-11 11zM252 144l132 -133l-11 -11l-133 132v-100h-16v128h128v-16h-100z" />
    <glyph glyph-name="ion-ios-contrast" unicode="&#xf19f;" 
d="M208 400c115 0 208 -93 208 -208s-93 -208 -208 -208s-208 93 -208 208s93 208 208 208zM344 56c18 18 31 38 41 61c10 24 15 49 15 75s-5 51 -15 75c-10 23 -23 43 -41 61s-38 31 -61 41c-24 10 -49 15 -75 15v-384c26 0 51 5 75 15c23 10 43 23 61 41z" />
    <glyph glyph-name="ion-ios-copy-outline" unicode="&#xf1a0;" horiz-adv-x="288" 
d="M192 352v-64h64v-16h-80v80h16zM213 384l75 -75v-261h-48v-48h-240v336h48v48h165zM224 16v32h-176v272h-32v-304h208zM272 64v238l-65 66h-143v-304h208z" />
    <glyph glyph-name="ion-ios-copy" unicode="&#xf1a1;" horiz-adv-x="288" 
d="M32 32h16h192v-32h-240v336h32v-288v-16zM213 384l75 -75v-261h-48h-192v288v48h165zM256 272v16h-64v64h-16v-80h80z" />
    <glyph glyph-name="ion-ios-create-outline" unicode="&#xf1a2;" horiz-adv-x="384" 
d="M304 32v208l16 16v-240h-320v304h256l-16 -16h-224v-272h288zM174 164l171 171l11 -11l-180 -180h-32v32l180 180l11 -11l-171 -171zM380 368c2 -3 4 -6 4 -10s-2 -7 -4 -10l-12 -12l-21 21l-11 11v0l12 12c3 2 6 4 10 4s7 -2 10 -4z" />
    <glyph glyph-name="ion-ios-create" unicode="&#xf1a3;" horiz-adv-x="384" 
d="M192 128l128 128v-240h-320v304h256l-128 -128v-64h64zM324 356l32 -32l-180 -180h-32v32zM380 368c2 -3 4 -6 4 -10s-2 -7 -4 -10l-12 -12l-21 21l-11 11v0l12 12c3 2 6 4 10 4s7 -2 10 -4z" />
    <glyph glyph-name="ion-ios-crop-outline" unicode="&#xf1a4;" horiz-adv-x="384" 
d="M64 336v48h16v-48h-16zM80 80h208v-16h-224v224h16v-208zM336 64v16h48v-16h-48zM0 320h320v-320h-16v304h-304v16z" />
    <glyph glyph-name="ion-ios-crop" unicode="&#xf1a5;" horiz-adv-x="384" 
d="M64 336v48h32v-48h-32zM96 96h176v-32h-208v208h32v-176zM336 64v32h48v-32h-48zM0 320h320v-320h-32v288h-288v32z" />
    <glyph glyph-name="ion-ios-cube-outline" unicode="&#xf1a6;" horiz-adv-x="448" 
d="M224 416l224 -96v-224l-224 -128l-224 128v224zM422 314l-198 86l-197 -86l197 -112zM16 302v-197l200 -114v197zM232 -9l200 114v196l-200 -113v-197z" />
    <glyph glyph-name="ion-ios-cube" unicode="&#xf1a7;" horiz-adv-x="448" 
d="M439 324l-215 -123l-215 123l215 92zM232 -28v215l216 124v-215zM0 311l216 -124v-215l-216 124v215z" />
    <glyph glyph-name="ion-ios-cut-outline" unicode="&#xf1a8;" horiz-adv-x="360" 
d="M52 312c8 -21 49 -77 75 -113c-3 -5 -6 -9 -9 -14l-3 3c-35 48 -69 97 -77 118c-7 18 -11 32 -11 46c0 18 7 35 19 44c4 3 10 4 19 4l105 -141l-10 -13l-103 138c-19 -17 -16 -44 -5 -72zM314 393c12 -11 19 -23 19 -41c0 -13 -4 -28 -11 -46c-10 -24 -64 -102 -90 -135
s-38 -42 -38 -42l-14 -9c-7 -4 -20 -14 -29 -28c-14 -23 -25 -55 -26 -58c-4 -14 -12 -26 -22 -35c-11 -10 -25 -15 -39 -15c-17 0 -34 8 -46 22c-12 13 -18 31 -18 49s6 36 18 49c12 14 28 22 46 22c12 0 24 -4 34 -11l10 20c3 7 7 15 11 22c2 4 5 9 9 15c3 5 6 9 9 14
c8 12 15 22 15 23v0l15 20v0l3 4l10 13l114 154c6 0 15 -2 20 -7zM307 312c11 28 15 55 -4 72l-123 -164l-15 -20s-24 -34 -32 -50s-16 -34 -23 -47c-4 -8 -8 -11 -10 -11c-1 0 -1 0 -2 1l-2 2v0c-1 1 -2 3 -4 4c-8 7 -17 11 -28 11c-26 0 -48 -25 -48 -55s22 -55 48 -55
c22 0 39 16 45 39v0s12 35 28 61s43 37 43 37s13 12 27 28s89 119 100 147zM296 126c35 0 64 -32 64 -71s-29 -71 -64 -71c-14 0 -28 5 -39 15c-10 9 -18 21 -22 35c-1 3 -12 35 -26 58c-5 7 -10 12 -15 17l13 10c5 -5 10 -12 15 -19c16 -26 28 -61 28 -61v0
c6 -23 24 -39 46 -39c26 0 48 25 48 55s-22 55 -48 55c-11 0 -21 -4 -29 -11c-2 -1 -3 -3 -4 -4v0l-1 -2c-1 -1 -2 -1 -3 -1c-2 0 -5 3 -9 11c-6 11 -13 25 -20 39l11 14c4 -7 7 -14 10 -21c4 -8 8 -14 11 -20c10 7 22 11 34 11zM64 27c-13 0 -24 13 -24 28s11 28 24 28
s24 -13 24 -28s-11 -28 -24 -28zM164 176c0 9 7 16 16 16s16 -7 16 -16s-7 -16 -16 -16s-16 7 -16 16zM296 27c-13 0 -24 13 -24 28s11 28 24 28s24 -13 24 -28s-11 -28 -24 -28z" />
    <glyph glyph-name="ion-ios-cut" unicode="&#xf1a9;" horiz-adv-x="360" 
d="M232 171c-25 -33 -38 -42 -38 -42l-14 -9c-7 -4 -20 -14 -29 -28c-14 -23 -25 -55 -26 -58c-4 -14 -12 -26 -22 -35c-11 -10 -25 -15 -39 -15c-17 0 -34 8 -46 22c-12 13 -18 31 -18 49s6 36 18 49c12 14 28 22 46 22c12 0 24 -4 34 -11l10 20c3 7 7 15 11 22
c2 4 5 9 9 15c3 5 6 9 9 14c8 12 15 22 15 23v0l15 20v0l3 4l10 13l114 154c6 0 15 -2 20 -7c12 -11 19 -23 19 -41c0 -13 -4 -28 -11 -46c-10 -24 -64 -102 -90 -135zM64 27c13 0 24 13 24 28s-11 28 -24 28s-24 -13 -24 -28s11 -28 24 -28zM180 160c9 0 16 7 16 16
s-7 16 -16 16s-16 -7 -16 -16s7 -16 16 -16zM116 188c-35 48 -69 97 -78 118c-7 18 -11 32 -11 46c0 18 7 35 19 44c4 3 10 4 19 4l105 -141l-47 -65c-2 -3 -3 -6 -5 -9c-1 1 -1 2 -2 3zM296 126c35 0 64 -32 64 -71s-29 -71 -64 -71c-14 0 -28 5 -39 15
c-10 9 -18 21 -22 35c-1 3 -12 35 -26 58c-5 7 -10 12 -15 17l36 33l11 14c4 -7 7 -14 10 -21c4 -8 8 -14 11 -20c10 7 22 11 34 11zM296 27c13 0 24 13 24 28s-11 28 -24 28s-24 -13 -24 -28s11 -28 24 -28z" />
    <glyph glyph-name="ion-ios-desktop-outline" unicode="&#xf1aa;" horiz-adv-x="480" 
d="M480 64h-176v-16h64v-16h-257v16h64v16h-175v288h480v-288zM16 336v-256h448v256h-448z" />
    <glyph glyph-name="ion-ios-desktop" unicode="&#xf1ab;" horiz-adv-x="480" 
d="M480 64h-176v-16h64v-16h-257v16h64v16h-175v288h480v-288zM16 336v-256h448v256h-448zM32 96v224h416v-224h-416z" />
    <glyph glyph-name="ion-ios-disc-outline" unicode="&#xf1ac;" 
d="M208 266c-41 0 -74 -33 -74 -74c0 -20 8 -39 22 -53s32 -21 52 -21c41 0 74 33 74 74s-33 74 -74 74zM208 136c-31 0 -56 25 -56 56s25 56 56 56s56 -25 56 -56s-25 -56 -56 -56zM208 282v0c50 0 90 -40 90 -90s-40 -90 -90 -90s-90 40 -90 90s40 90 90 90zM208 152v0
c22 0 40 18 40 40s-18 40 -40 40s-40 -18 -40 -40s18 -40 40 -40zM208 384c-26 0 -51 -5 -75 -15c-23 -10 -43 -23 -61 -41s-31 -38 -41 -61c-10 -24 -15 -49 -15 -75s5 -51 15 -75c10 -23 23 -43 41 -61s38 -31 61 -41c24 -10 49 -15 75 -15s51 5 75 15c23 10 43 23 61 41
s31 38 41 61c10 24 15 49 15 75s-5 51 -15 75c-10 23 -23 43 -41 61s-38 31 -61 41c-24 10 -49 15 -75 15zM208 62c-35 0 -67 14 -92 38s-38 57 -38 92s14 67 38 92s57 38 92 38s67 -14 92 -38s38 -57 38 -92s-14 -67 -38 -92s-57 -38 -92 -38zM208 400v0
c115 0 208 -93 208 -208s-93 -208 -208 -208s-208 93 -208 208s93 208 208 208zM208 78v0c63 0 114 51 114 114s-51 114 -114 114s-114 -51 -114 -114s51 -114 114 -114z" />
    <glyph glyph-name="ion-ios-disc" unicode="&#xf1ad;" 
d="M208 282c50 0 90 -40 90 -90s-40 -90 -90 -90s-90 40 -90 90s40 90 90 90zM208 152c22 0 40 18 40 40s-18 40 -40 40s-40 -18 -40 -40s18 -40 40 -40zM208 400c115 0 208 -93 208 -208s-93 -208 -208 -208s-208 93 -208 208s93 208 208 208zM208 78c63 0 114 51 114 114
s-51 114 -114 114s-114 -51 -114 -114s51 -114 114 -114z" />
    </font>
</defs>
</svg>
