<?xml version="1.0" standalone="no"?>
<!DOCTYPE svg PUBLIC "-//W3C//DTD SVG 1.1//EN" "http://www.w3.org/Graphics/SVG/1.1/DTD/svg11.dtd" >
<!--
2013-11-5: Created.
-->
<svg xmlns="http://www.w3.org/2000/svg">
<metadata>
Created by FontForge 20120731 at Tue Nov  5 22:52:50 2013
 By Adam Bradley
Created by Adam Bradley with FontForge 2.0 (http://fontforge.sf.net)
</metadata>
<defs>
<font id="Ionicons" horiz-adv-x="512" >
  <font-face 
    font-family="Ionicons"
    font-weight="500"
    font-stretch="normal"
    units-per-em="512"
    panose-1="2 0 6 9 0 0 0 0 0 0"
    ascent="448"
    descent="-64"
    bbox="-0.00673067 -48 512.006 432"
    underline-thickness="25.6"
    underline-position="-51.2"
    unicode-range="U+F100-F2BA"
  />
    <missing-glyph />
    <glyph glyph-name="uniF100" unicode="&#xf100;" 
d="M476.7 25.7998c2.7998 -4.89941 4.7998 -13 1.7998 -17.8994c-2.90039 -4.90039 -8.2002 -7.90039 -14 -7.90039h-417.1c-5.80078 0 -11.1006 3 -14 7.90039c-2.90039 4.89941 -0.900391 12.8994 1.89941 17.8994l206.601 349.5c2.7998 5 8.19922 8.7002 14.0996 8.7002
c5.7998 0 11.2002 -3.7002 14.0996 -8.7002zM288 48v48h-64v-48h64zM288 128v144h-64v-144h64z" />
    <glyph glyph-name="uniF101" unicode="&#xf101;" 
d="M320 -32h-128v96h128v-96zM304 128h-96l-16 288h128z" />
    <glyph glyph-name="uniF102" unicode="&#xf102;" 
d="M256 140.3l-128 115.7h79.5996v96h96.4004v-96h80zM465.4 150.8c10.5996 -6.2002 16 -18.7002 14.2998 -31.5996l-8.7002 -66.9004c-2.2998 -12.7002 -9 -20.2998 -28.0996 -20.2998h-373.801c-18.3994 0 -25.7998 7.2002 -28.0996 20.2998l-8.7002 66.9004
c-1.7002 12.5996 3.5 25.3994 14.1006 31.5996l71.3994 55h42.2002l-62.2002 -61.7998h50.5c2.2998 0 4.40039 -1.09961 5.40039 -2.90039l18.3994 -45.5h167.5l18.4004 45.5c1.09961 1.7002 3.09961 2.90039 5.40039 2.90039h50.5996l-62 61.7998h42z" />
    <glyph glyph-name="uniF103" unicode="&#xf103;" 
d="M256.5 -0.5l-192 192h112v192h160v-192h112z" />
    <glyph glyph-name="uniF104" unicode="&#xf104;" 
d="M98.9004 263.3c-1.80078 2.5 -2.90039 5.60059 -2.90039 8.90039c0 8.7002 7.40039 15.7998 16.5996 15.7998v0h286.801v0c9.19922 0 16.5996 -7.09961 16.5996 -15.7998c0 -3.2002 -1 -6.2002 -2.7002 -8.7002l-2.2998 -2.59961l-135.9 -156.2
c-4.59961 -5.2002 -11.5 -8.60059 -19.1992 -8.60059c-7.7002 0 -14.6006 3.30078 -19.2002 8.60059l-136 156.5z" />
    <glyph glyph-name="uniF105" unicode="&#xf105;" 
d="M383.6 125.3l-105 -100.3c-5.7998 -6 -13.6992 -9 -22.3994 -9s-16.5 3 -22.4004 9l-105.399 100.3c-12.5 11.9004 -12.5 31.2998 0 43.2002s32.6992 11.9004 45.1992 0l50.4004 -48.2002v217c0 16.9004 14.2998 30.6006 32 30.6006s32 -13.7002 32 -30.6006v-217
l50.4004 48.2002c12.5 11.9004 32.6992 11.9004 45.1992 0s12.5 -31.2002 0 -43.2002z" />
    <glyph glyph-name="uniF25E" unicode="&#xf25e;" 
d="M274 238.3l63.9004 63.7998l-49.9004 49.9004h128v-128l-49.9004 49.9004l-63.7998 -63.9004zM274 145.7l28.2998 28.2998l63.7998 -63.9004l49.9004 49.9004v-128h-128l49.9004 49.9004zM238 145.7l-63.9004 -63.7998l49.9004 -49.9004h-128v128l49.9004 -49.9004
l63.7998 63.9004zM238 238.3l-28.2998 -28.2998l-63.7998 63.9004l-49.9004 -49.9004v128h128l-49.9004 -49.9004z" />
    <glyph glyph-name="uniF25F" unicode="&#xf25f;" 
d="M32 64v160l60.7998 -60.7998l130.9 140.8l107 -112l149.3 128l-149.3 -202.7l-107 106.7l-93.5 -98.2002l61.7998 -61.7998h-160z" />
    <glyph glyph-name="uniF260" unicode="&#xf260;" 
d="M320 64l61.7998 61.7998l-93.5 98.2002l-107 -106.7l-149.3 202.7l149.3 -128l107 112l130.9 -140.8l60.7998 60.7998v-160h-160z" />
    <glyph glyph-name="uniF261" unicode="&#xf261;" 
d="M192 320l-61.7998 -61.7998l93.5 -98.2002l107 106.7l149.3 -202.7l-149.3 128l-107 -112l-130.9 140.8l-60.7998 -60.7998v160h160z" />
    <glyph glyph-name="uniF262" unicode="&#xf262;" 
d="M320 320h160v-160l-60.7998 60.7998l-130.9 -140.8l-107 112l-149.3 -128l149.3 202.7l107 -106.7l93.5 98.2002z" />
    <glyph glyph-name="uniF106" unicode="&#xf106;" 
d="M64.5 191.5l192 192v-112h192v-160h-192v-112z" />
    <glyph glyph-name="uniF107" unicode="&#xf107;" 
d="M327.3 349.1c2.5 1.80078 5.60059 2.90039 8.90039 2.90039c8.7002 0 15.7998 -7.40039 15.7998 -16.5996v0v-286.801v0c0 -9.19922 -7.09961 -16.5996 -15.7998 -16.5996c-3.2002 0 -6.2002 1 -8.7002 2.7002l-2.59961 2.2998l-156.2 135.9
c-5.2002 4.59961 -8.60059 11.5 -8.60059 19.1992c0 7.7002 3.30078 14.6006 8.60059 19.2002l156.5 136z" />
    <glyph glyph-name="uniF108" unicode="&#xf108;" 
d="M189.3 319.6c12 12.5 31.2998 12.5 43.2998 0c11.9004 -12.5 11.9004 -32.6992 0 -45.1992l-48.1992 -50.4004h217c16.8994 0 30.5996 -14.2998 30.5996 -32s-13.7002 -32 -30.5996 -32h-217l48.0996 -50.4004c11.9004 -12.5 11.9004 -32.6992 0 -45.1992
s-31.2998 -12.5 -43.2002 0l-100.3 105.399c-6 5.90039 -9 13.7002 -9 22.4004s3 16.5996 9 22.3994z" />
    <glyph glyph-name="uniF263" unicode="&#xf263;" 
d="M480 192l-96 -96v76.2002l-108.6 0.299805l0.399414 -108.5h76.2002l-96 -96l-96 96h76v108h-108v-76l-96 96l96 96v-76h108v108h-76l96 96l96 -96h-76v-108h108v76z" />
    <glyph glyph-name="uniF264" unicode="&#xf264;" 
d="M288 352h128v-128l-49.9004 49.9004l-8.69922 -8.80078l-183.301 -183.199l49.9004 -49.9004h-128v128l49.9004 -49.9004l128.1 128.2v0l63.9004 63.7998z" />
    <glyph glyph-name="uniF265" unicode="&#xf265;" 
d="M192 352v-64h248c4.40039 0 8 -3.59961 8 -8v-240c0 -4.40039 -3.59961 -8 -8 -8h-304c-4.40039 0 -8 3.59961 -8 8v48c0 4.40039 3.59961 8 8 8h248v128h-192v-64l-128 96z" />
    <glyph glyph-name="uniF266" unicode="&#xf266;" 
d="M448 256l-128 -96v64h-192v-128h248c4.40039 0 8 -3.59961 8 -8v-48c0 -4.40039 -3.59961 -8 -8 -8h-304c-4.40039 0 -8 3.59961 -8 8v240c0 4.40039 3.59961 8 8 8h248v64z" />
    <glyph glyph-name="uniF109" unicode="&#xf109;" 
d="M448.5 191.5l-192 -192v112h-192v160h192v112z" />
    <glyph glyph-name="uniF10A" unicode="&#xf10a;" 
d="M184.7 34.9004c-2.5 -1.80078 -5.60059 -2.90039 -8.90039 -2.90039c-8.7002 0 -15.7998 7.40039 -15.7998 16.5996v0v286.801v0c0 9.19922 7.09961 16.5996 15.7998 16.5996c3.2002 0 6.2002 -1 8.7002 -2.7002l2.59961 -2.2998l156.2 -135.9
c5.2002 -4.59961 8.60059 -11.5 8.60059 -19.1992c0 -7.7002 -3.30078 -14.6006 -8.60059 -19.2002l-156.5 -136z" />
    <glyph glyph-name="uniF10B" unicode="&#xf10b;" 
d="M322.7 319.6l100.3 -105c6 -5.7998 9 -13.6992 9 -22.3994s-3 -16.5 -9 -22.4004l-100.3 -105.399c-11.9004 -12.5 -31.2998 -12.5 -43.2002 0s-11.9004 32.6992 0 45.1992l48.2002 50.4004h-217c-17 0 -30.7002 14.2998 -30.7002 32s13.7002 32 30.5996 32h217
l-48.1992 50.4004c-11.9004 12.5 -11.9004 32.6992 0 45.1992c12 12.5 31.2998 12.5 43.2998 0z" />
    <glyph glyph-name="uniF267" unicode="&#xf267;" 
d="M448 355.7l-81.9004 -81.7998l49.9004 -49.9004h-128v128l49.9004 -49.9004l81.7998 81.9004zM448 28.2998l-28.2998 -28.2998l-81.7998 81.9004l-49.9004 -49.9004v128h128l-49.9004 -49.9004zM64 28.2998l81.9004 81.7998l-49.9004 49.9004h128v-128l-49.9004 49.9004
l-81.7998 -81.9004zM64 355.7l28.2998 28.2998l81.7998 -81.9004l49.9004 49.9004v-128h-128l49.9004 49.9004z" />
    <glyph glyph-name="uniF268" unicode="&#xf268;" 
d="M64 120c0 4.40039 3.59961 8 8 8h248v64l128 -96l-128 -96v64h-248c-4.40039 0 -8 3.59961 -8 8v48zM448 264c0 -4.40039 -3.59961 -8 -8 -8h-248v-64l-128 96l128 96v-64h248c4.40039 0 8 -3.59961 8 -8v-48z" />
    <glyph glyph-name="uniF10C" unicode="&#xf10c;" 
d="M256.5 383.5l192 -192h-112v-192h-160v192h-112z" />
    <glyph glyph-name="uniF10D" unicode="&#xf10d;" 
d="M413.1 120.7c1.80078 -2.5 2.90039 -5.60059 2.90039 -8.90039c0 -8.7002 -7.40039 -15.7998 -16.5996 -15.7998v0h-286.801v0c-9.19922 0 -16.5996 7.09961 -16.5996 15.7998c0 3.2002 1 6.2002 2.7002 8.7002l2.2998 2.59961l135.9 156.2
c4.59961 5.2002 11.5 8.60059 19.1992 8.60059c7.7002 0 14.6006 -3.30078 19.2002 -8.60059l136 -156.5z" />
    <glyph glyph-name="uniF10E" unicode="&#xf10e;" 
d="M128.4 258.7l105 100.3c5.7998 6 13.6992 9 22.3994 9s16.5 -3 22.4004 -9l105.399 -100.3c12.5 -11.9004 12.5 -31.2998 0 -43.2002s-32.6992 -11.9004 -45.1992 0l-50.4004 48.0996v-217c0 -16.8994 -14.2998 -30.5996 -32 -30.5996s-32 13.7002 -32 30.5996v217
l-50.4004 -48.1992c-12.5 -11.9004 -32.6992 -11.9004 -45.1992 0c-12.5 12 -12.5 31.2998 0 43.2998z" />
    <glyph glyph-name="uniF10F" unicode="&#xf10f;" 
d="M453.8 40.9004c-23.8994 -25.3008 -52.2998 -43.8008 -85.2002 -55.4004c-32.8994 -11.7002 -67.5996 -17.5 -104.1 -17.5c-34.9004 0 -66.7002 5.5 -95.2998 16.5996c-28.6006 11 -53.1006 26.4004 -73.2998 46.1006c-20.3008 19.7002 -36 43.2998 -47.2002 70.7998
s-16.7002 57.5 -16.7002 90c0 32.0996 6.09961 61.7998 18.2998 89.0996c12.2002 27.3008 28.7998 51 49.9004 71.1006c21.0996 20.0996 45.7002 35.7998 74 47.2998c28.0996 11.2998 58.2998 17 90.2998 17c27.5996 0 54.4004 -4 80.2998 -12
c26 -8 49 -20.0996 69.1006 -36.0996c20.0996 -16.1006 36.0996 -36.1006 48.0996 -60.2002c12 -24.1006 18 -52.4004 18 -84.9004c0 -24.0996 -3.2998 -45.3994 -10 -63.7998c-6.7002 -18.5 -15.5996 -33.9004 -26.7998 -46.4004s-23.9004 -21.7998 -38.2998 -28
c-14.4004 -6.19922 -29.5 -9.2998 -45.3008 -9.2998c-16.1992 0 -29.1992 3.7998 -39 11.4004c-9.69922 7.59961 -14.5996 17.2998 -14.5996 28.8994h-3c-6.09961 -9.59961 -15.4004 -18.7998 -28 -27.3994c-12.5996 -8.60059 -28 -13 -46.2998 -13
c-27.6006 0 -48.9004 9 -63.9004 27.0996c-15 18.1006 -22.5 41.5 -22.5 70.5c0 16.9004 2.7998 33.5 8.5 50s13.7998 31.1006 24.2998 44c10.5 12.7998 23.1006 23.2002 37.7002 31c14.6006 7.7998 30.7998 11.7002 48.7002 11.7002c15.4004 0 28.4004 -3.2002 39 -9.59961
c10.5 -6.40039 17.4004 -14.3008 20.7002 -23.5h0.599609l4.90039 24.0996h54.2002l-23.9004 -113.9c-0.799805 -5.59961 -1.90039 -11.7998 -3.2998 -18.6992c-1.40039 -6.80078 -2.10059 -13.2002 -2.10059 -19.3008c0 -6.7998 1.30078 -12.5 4 -17.1992
c2.60059 -4.60059 7.80078 -6.90039 15.5 -6.90039c15.8008 0 28.9004 8.40039 39.3008 25.2998c10.2998 16.9004 15.5 39.5 15.5 68c0 24.1006 -4.10059 45.5 -12.2002 64.1006c-8.10059 18.6992 -19.4004 34.2998 -33.7998 47
c-14.4004 12.5996 -31.6006 22.1992 -51.4004 28.5996c-19.9004 6.40039 -41.5996 9.59961 -65.0996 9.59961c-25.6006 0 -49 -4.5 -70.3008 -13.5c-21.2998 -9 -39.5 -21.5 -54.5 -37.2998c-15 -15.8994 -26.6992 -34.5 -35 -56
c-8.39941 -21.3994 -12.5996 -44.5996 -12.5996 -69.5c0 -26.5 4.40039 -50.3994 13.0996 -71.7002c8.7002 -21.2998 21 -39.3994 36.8008 -54.5c15.7998 -15.0996 34.6992 -26.5996 56.5996 -34.5996s46.0996 -12 72.4004 -12c32.8994 0 61.1992 5.2002 84.8994 15.7002
c23.7002 10.3994 45.5 24.8994 65.4004 43.3994zM263.3 260c-9.7002 0 -18.2998 -2.7998 -25.5996 -8.40039c-7.2998 -5.59961 -13.5 -12.6992 -18.6006 -21.3994c-5.09961 -8.60059 -8.89941 -18.2002 -11.5996 -28.6006c-2.59961 -10.3994 -4 -20.5 -4 -30.0996
c0 -4.7998 0.5 -9.90039 1.5 -15.4004c1 -5.39941 3 -10.3994 6.09961 -15.0996c3 -4.59961 7 -8.40039 11.9004 -11.4004s11.4004 -4.5 19.5 -4.5c11 0 20.2998 2.7002 28 8.10059c7.7002 5.39941 14 12.2002 18.9004 20.5c4.89941 8.2002 8.39941 17.2002 10.6992 26.7998
c2.2002 9.59961 3.30078 18.5 3.30078 26.5c0 6.40039 -0.600586 12.7002 -1.80078 19c-1.19922 6.2002 -3.2998 11.7998 -6.39941 16.9004c-3 5 -7.2002 9.09961 -12.5 12.2998c-5.2002 3.2002 -11.7002 4.7998 -19.4004 4.7998z" />
    <glyph glyph-name="uniF110" unicode="&#xf110;" 
d="M448 288l32 -320h-448l32 320h64v4.5c0 68.5 56 123.5 124.5 123.5h8c68.5 0 123.5 -55 123.5 -123.5v-4.5h64zM160 292.5v-4.5h192v4.5c0 50.7002 -40.7998 91.5 -91.5 91.5h-0.5h-7.5c-50.7002 0 -92.5 -40.7998 -92.5 -91.5zM67.7998 0h376.5l-24.8994 256h-35.4004
v-36.2998c9.59961 -5.5 16 -15.9004 16 -27.7002c0 -17.7002 -14.2998 -32 -32 -32s-32 14.2998 -32 32c0 11.7998 6.40039 22.2002 16 27.7002v36.2998h-192v-36.2998c9.59961 -5.5 16 -15.9004 16 -27.7002c0 -17.7002 -14.2998 -32 -32 -32s-32 14.2998 -32 32
c0 11.7998 6.40039 22.2002 16 27.7002v36.2998h-35.2998z" />
    <glyph glyph-name="uniF111" unicode="&#xf111;" 
d="M42.0996 64c-5.59961 0 -10.0996 4.5 -10.0996 10v236c0 5.5 4.5 10 10.0996 10h381c5.60059 0 9.90039 -4.5 9.90039 -10v-54h37c5.59961 0 10.0996 -4.5 10.0996 -10v-108c0 -5.5 -4.5 -10 -10.0996 -10h-36.9004v-54c0 -5.5 -4.39941 -10 -9.89941 -10h-381.101z
M257.4 288l-100.4 -111h61.5l-27.9004 -81l100.4 111h-61.5z" />
    <glyph glyph-name="uniF112" unicode="&#xf112;" 
d="M469.9 256c5.59961 0 10.0996 -4.5 10.1992 -10v-108c0 -5.5 -4.5 -10 -10.0996 -10h-36.9004v-54c0 -5.5 -4.39941 -10 -9.89941 -10h-381.101c-5.59961 0 -10.0996 4.5 -10.0996 10v236c0 5.5 4.5 10 10.0996 10h381c5.60059 0 9.90039 -4.5 9.90039 -10v-54h36.9004z
M448 160v64h-14.7998h-32.2002v32v32h-337v-192h337v32v32h32.2002h14.7998z" />
    <glyph glyph-name="uniF113" unicode="&#xf113;" 
d="M469.9 256c5.59961 0 10.0996 -4.5 10.1992 -10v-108c0 -5.5 -4.5 -10 -10.0996 -10h-36.9004v-54c0 -5.5 -4.39941 -10 -9.89941 -10h-381.101c-5.59961 0 -10.0996 4.5 -10.0996 10v236c0 5.5 4.5 10 10.0996 10h381c5.60059 0 9.90039 -4.5 9.90039 -10v-54h36.9004z
" />
    <glyph glyph-name="uniF114" unicode="&#xf114;" 
d="M469.9 256c5.59961 0 10.0996 -4.5 10.1992 -10v-108c0 -5.5 -4.5 -10 -10.0996 -10h-36.9004v-54c0 -5.5 -4.39941 -10 -9.89941 -10h-381.101c-5.59961 0 -10.0996 4.5 -10.0996 10v236c0 5.5 4.5 10 10.0996 10h381c5.60059 0 9.90039 -4.5 9.90039 -10v-54h36.9004z
M448 160v64h-14.7998h-32.2002v32v32h-81l32 -192h49v32v32h32.2002h14.7998z" />
    <glyph glyph-name="uniF115" unicode="&#xf115;" 
d="M42.0996 64c-5.59961 0 -10.0996 4.5 -10.0996 10v236c0 5.5 4.5 10 10.0996 10h381c5.60059 0 9.90039 -4.5 9.90039 -10v-54h37c5.59961 0 10.0996 -4.5 10.0996 -10v-108c0 -5.5 -4.5 -10 -10.0996 -10h-36.9004v-54c0 -5.5 -4.39941 -10 -9.89941 -10h-381.101z
M401 288h-209l32 -192h177v32v32h32.2002h14.7998v64h-14.7998h-32.2002v32v32z" />
    <glyph glyph-name="uniF269" unicode="&#xf269;" 
d="M438.8 51.7998c5.7998 -9 9.10059 -20.0996 9.2002 -31.5996c0 -28 -16.2002 -52.2002 -63.2002 -52.2002h-257.6c-46.9004 0 -63.2002 24.2002 -63.2002 52.2002c0 11.5 3.2998 22.7002 9.09961 31.7002l49.2002 72.8994l47.2998 72.7002l2.30078 3.7998
c12.7998 20.4004 20.0996 44.4004 20.0996 70.2002v92.5s-15.2998 30.7002 -15.2998 39.4004c0 8.69922 7.09961 12.5996 15.7998 12.5996h126.8c8.7002 0 15.7002 -3.7002 15.7002 -12.4004c0 -8.69922 -15 -19.5996 -15 -39.0996v-93
c0 -25.7998 6.2002 -49.9004 19 -70.2002l2.7002 -4.09961l47.7998 -72.4004zM409.2 7c2.7002 2.59961 6.7002 7.2002 6.7002 13.5996c0 5 -1.40039 10 -3.90039 14l-49 72.5l-0.0996094 0.200195l-0.100586 0.200195l-47.7998 72.0996s-1.90039 2.90039 -3.2002 5
c-16.0996 25.7002 -23.8994 55.8008 -23.8994 87v74.4004c0 6.59961 0 18.4004 1 22.2998c4.59961 17.7002 -0.300781 15.7002 -9.10059 15.7002h-47c-8.7998 0 -14.7002 2.2002 -9.89941 -15.9004c1.09961 -4.2998 1 -16.0996 1 -22.1992v-74.4004
c0 -31.7002 -9.10059 -61.7002 -24.8008 -86.9004l-3 -4.89941l-47.0996 -72.5l-0.0996094 -0.200195l-0.100586 -0.200195l-49 -72.5c-2.5 -4 -3.89941 -9 -3.89941 -14c0 -6.2998 3.2998 -10.5 6 -13.0996c4.39941 -4.2002 12.3994 -7.2002 25.1992 -7.2002h257.601
c12.8994 0 20.0996 2.7998 24.5 7zM391.2 37.2002c0.200195 -0.299805 0.299805 -0.5 0.5 -0.799805c1.2998 -2 1.89941 -4.40039 1.89941 -6.90039c0 -7.40039 -6 -13.5 -13.5 -13.5h-0.0996094h-15.5996h-29.9004h-157.1h-29.9004h-15.5996h-0.100586
c-7.39941 0 -13.5 6 -13.5 13.5c0 2.7998 0.799805 5.5 2.2998 7.59961l8.40039 12.8008l0.5 0.799805l0.400391 0.599609l0.599609 0.900391l15.0996 23.2002l42.9004 65.6992c0.200195 0.300781 0.5 0.600586 0.700195 0.900391l0.0996094 0.0996094v0l11.7002 17.9004
h109.4l13.1992 -19.9004l0.100586 -0.199219c0.299805 -0.400391 0.700195 -0.800781 1 -1.2002l1.09961 -1.7002l40.5 -61.7998l11.9004 -18.2002zM188.6 141c-0.0996094 -0.200195 -0.399414 -0.599609 -0.699219 -1.09961l0.0996094 0.199219
c0.299805 0.400391 0.5 0.800781 0.599609 0.900391v0zM302 106.3c1.5 -1.39941 3.59961 -2.2998 5.59961 -2.2998c2.10059 0 4.10059 0.799805 5.60059 2.2998c1.39941 1.5 2.2998 3.60059 2.2998 5.7002s-0.799805 4.2002 -2.2998 5.7002
c-1.40039 1.5 -3.5 2.2998 -5.60059 2.2998c-2 0 -4.09961 -0.799805 -5.59961 -2.2998c-1.40039 -1.5 -2.2998 -3.60059 -2.2998 -5.7002s0.799805 -4.2002 2.2998 -5.7002zM338 49.5996c1.5 -2.2998 4.09961 -3.59961 6.59961 -3.59961
c1.40039 0 2.90039 0.400391 4.30078 1.2998c3.69922 2.40039 4.69922 7.40039 2.2998 11.1006l-23.5 35.8994c-1.40039 2.2998 -3.90039 3.60059 -6.5 3.60059c-1.5 0 -3 -0.400391 -4.40039 -1.30078c-3.7002 -2.39941 -4.7002 -7.39941 -2.2998 -11.0996zM188.5 141v0
c-3.59961 -5.40039 -0.299805 -0.400391 0 0z" />
    <glyph glyph-name="uniF26A" unicode="&#xf26a;" 
d="M416 288c35.2998 0 64 -28.7002 64 -64v-96c0 -35.2998 -28.7002 -64 -64 -64h-32v-80c0 -8.7998 -7.2002 -16 -16 -16h-256c-8.7998 0 -16 7.2002 -16 16v223c-26.5 0 -48 21.5 -48 48v54v0.700195c-9.90039 11.2998 -16 26.0996 -16 42.2998
c0 35.2998 28.7002 64 64 64c18.0996 0 34.4004 -7.5 46.0996 -19.5c10.4004 11.9004 25.7002 19.5 42.8008 19.5c14.0996 0 27.0996 -5.2002 37 -13.7002c11.8994 8.60059 26.5 13.7002 42.2998 13.7002c17.2002 0 33 -6 45.3994 -16.0996
c11.3008 10 26.1006 16.0996 42.4004 16.0996c35.2998 0 64 -28.7002 64 -64c0 -23.7002 -17.5 -44.5 -32 -48v-16h32zM327.8 144c4.40039 0 8.2002 2.90039 8.2002 7.90039v0v48.0996c0 4.40039 -3.59961 8 -8 8s-8 -3.59961 -8 -8v-47.7998
c0 -2.7998 1.2998 -5.40039 3.5 -6.7998c1.2998 -0.800781 2.7002 -1.40039 4.2998 -1.40039zM335 219.6c1.2002 1.80078 1.59961 4 1.09961 6c-0.5 2.10059 -1.69922 3.90039 -3.5 5.10059c-1.69922 1.09961 -3.89941 1.5 -6 1.09961
c-2.09961 -0.5 -3.89941 -1.7002 -5.09961 -3.5c-1.09961 -1.7002 -1.5 -3.89941 -1.09961 -6c0.5 -2.09961 1.69922 -3.89941 3.5 -5.09961c1.69922 -1.10059 3.89941 -1.5 6 -1.10059c2.09961 0.5 3.89941 1.7002 5.09961 3.5zM352 288v32h-19.9004
c-2.89941 -8.5 -7.39941 -16.2002 -13.0996 -22.9004c-13.2002 -15.5 -32.9004 -25.3994 -54.9004 -25.3994c-25.6992 0 -48.1992 13.5 -61 33.7002c-5.69922 -1.90039 -11.8994 -3 -18.2998 -3c-11.7002 0 -22.5996 3.59961 -31.7002 9.69922
c-1.59961 1 -3.09961 2.2002 -4.59961 3.40039c-1.09961 -1.59961 -2.2998 -3.09961 -3.5 -4.59961c-4.7002 -5.7002 -10.5 -10.5 -17 -14.3008v-31.5996v-9h80.2002c0.0996094 4.2998 3.59961 7.7998 8 7.7998c4.39941 0 7.89941 -3.5 8 -7.7998h127.8v32zM382.6 342.8
c0.900391 2.90039 1.40039 6 1.2002 9.10059c0 17.5996 -14.3994 32 -32 32c-8.7998 0 -16.7998 -3.60059 -22.5996 -9.40039c-2 -1.90039 -6.10059 -5.2998 -16.4004 -6.59961c-2.09961 -0.300781 -3.7002 -0.400391 -8.2002 0c-6.5 0.599609 -11.5 3.5 -13.1992 5.09961
c-7.2002 6.7998 -16.8008 10.9004 -27.4004 10.9004c-9.2998 0 -18 -3.2002 -24.7998 -8.60059c-2.5 -2 -4.7002 -4.2998 -6.7002 -6.7998c-0.5 -0.799805 -1.09961 -1.59961 -1.7002 -2.2998c-2.7002 -3.10059 -6.59961 -5 -11 -5c-4.7002 0 -8.5 2.09961 -11.2002 5.5
c-1.09961 1.59961 -2 4 -3.09961 5.7998c-1.2998 2.09961 -3 4 -4.90039 5.59961c-4.2998 3.60059 -9.89941 5.80078 -15.8994 5.80078c-10.5 0 -18 -8.10059 -24.7998 -15.4004c-7.2002 -7.7002 -27.1006 -7.7002 -33.9004 0s-18.2998 15.4004 -30.0996 15.4004
c-17.6006 0 -32 -14.4004 -32 -32c0 -2.30078 0.199219 -4.60059 0.699219 -6.7002c1.90039 -8.90039 7.60059 -16.5 15.3008 -21v-34.2998v-35c0 -8.80078 7.19922 -16 16 -16v26v23v32c9.59961 0 18.1992 4.2998 24.0996 11c1.5 1.7998 2.90039 3.69922 4 5.7998
c0 0 6.2002 10.3994 12.2002 11.7002c6 1.2998 19.7002 5.89941 29.7002 -5.5c4.09961 -4.60059 11.2998 -8.60059 18.7998 -8.60059c2.7002 0 5.2998 0.400391 7.7002 1.2002c3.09961 1 6 2.59961 8.39941 4.7002l0.100586 0.0996094c2.69922 2.5 6.2998 4 10.1992 4
c6.60059 0 12.1006 -4.2998 14.1006 -10.2002c0.0996094 -0.5 0.299805 -1 0.399414 -1.59961c0.900391 -3 2.10059 -5.90039 3.7002 -8.59961c6.90039 -12.1006 19.9004 -20.2002 34.7998 -20.2002c13.3008 0 25.1006 6.5 32.4004 16.3994
c4.90039 6.60059 7.7998 14.8008 7.7998 23.7002c0 8.90039 8.7002 8.2002 8.7002 8.2002h7h48c6.5 0 12.0996 -3.7002 14.5996 -9.2002zM448 128v96c0 17.7002 -14.2998 32 -32 32h-32v-160h32c17.7002 0 32 14.2998 32 32zM160.2 279.8c0 5.33333 2.66667 8 8 8
s8 -2.66667 8 -8s-2.66667 -8 -8 -8s-8 2.66667 -8 8zM320.2 279.8c0 5.33333 2.66667 8 8 8s8 -2.66667 8 -8s-2.66667 -8 -8 -8s-8 2.66667 -8 8z" />
    <glyph glyph-name="uniF116" unicode="&#xf116;" 
d="M140 304.4c15.9004 15.8994 18.2998 12.1992 19.2998 11.2998l67.4004 -64.2998c0.0996094 -0.100586 0.200195 -0.200195 0.299805 -0.300781c0.0996094 -0.0996094 0.299805 -0.199219 0.400391 -0.299805c2.2998 -1.89941 9.7998 -10.5996 9.7998 -3.2002v156.4
v0.200195v1.7002c0 5.5 5.2002 10.0996 11.5996 10.0996c3.5 0 6.7002 -1.40039 8.7998 -3.5v0s118.2 -112.8 122.801 -117.2c4.59961 -4.2998 5 -10.7002 1 -14.7002l-83.9004 -80.2998s-4.40039 -4.2998 -4.40039 -8.2998s4.40039 -8.2998 4.40039 -8.2998
l83.9004 -80.2998c4 -4 3.59961 -10.3008 -1 -14.7002c-4.60059 -4.40039 -122.801 -117.2 -122.801 -117.2v0c-2.19922 -2.2002 -5.39941 -3.5 -8.89941 -3.5c-6.40039 0 -11.6006 4.59961 -11.6006 10.0996v1.7002v0.100586v156.399
c0 7.40039 -7.5 -1.2998 -9.7998 -3.2002c-0.0996094 -0.0996094 -0.299805 -0.199219 -0.399414 -0.299805c-0.100586 -0.0996094 -0.200195 -0.200195 -0.300781 -0.299805l-67.3994 -64.2998c-0.799805 -0.799805 -3.2998 -4.5 -19.2002 11.3994
c-15.9004 15.9004 -11.7002 17.3008 -10.5996 18.4004c1.09961 1.09961 89.7998 85.5996 89.7998 85.5996s3.89941 3.40039 3.89941 8.40039v0c0 5 -3.89941 8.40039 -3.89941 8.40039s-88.7002 84.5 -89.7998 85.5996c-1.10059 1.09961 -5.30078 2.5 10.5996 18.4004z
M280 328.1v-79.2998c0 -8.09961 7.2998 -0.0996094 9.59961 1.7002c0 0 29 27.7998 30.8008 29.5c1.7998 1.7002 2.7998 4.7998 2.7998 7.2998s-0.799805 5.2002 -2.90039 7.2002l-30.5 29.2002c-2.2998 2.09961 -9.7998 11 -9.7998 4.39941zM280 135.2
c0 0 0 -72.7002 0.0996094 -79.2998c0 -6.60059 7.5 2.2998 9.80078 4.39941l30.5 29.2002c2.09961 2 2.89941 4.7998 2.89941 7.2002c0 2.39941 -1 5.59961 -2.7998 7.2998s-30.9004 29.5 -30.9004 29.5c-2.39941 1.90039 -9.59961 9.90039 -9.59961 1.7002z" />
    <glyph glyph-name="uniF26B" unicode="&#xf26b;" 
d="M344 384c4.40039 0 8 -3.59961 8 -8v-56h-192v56c0 4.40039 3.59961 8 8 8h176zM160 0v304h192v-304l-96 96z" />
    <glyph glyph-name="uniF26C" unicode="&#xf26c;" 
d="M272 176v8h208v-176c0 -4.40039 -3.2998 -8 -7.7002 -8h-432.5c-4.5 0 -7.7998 3.59961 -7.7998 8v176h208v-8h32zM472.2 304c4.5 0 7.7998 -3.59961 7.7998 -8v-96h-208v8h-32v-8h-208v96c0 4.40039 3.40039 8 7.7998 8h120.2v30.7002
c1 28.2002 21.7998 49.2998 51.2002 49.2998h89.5996c29.5 0 50.2002 -21.0996 51.2002 -49.2998v-30.7002h120.2zM320 331.8v1c0 9.7998 -8.7002 19.2002 -18.7998 19.2002h-90.4004c-10.2002 0 -18.7998 -9.5 -18.7998 -19.2002v-1v-1v-26.7998h128v26.7998v1z" />
    <glyph glyph-name="uniF26D" unicode="&#xf26d;" 
d="M400 416c8.7998 0 16 -7.2002 16 -16v-416c0 -8.7998 -7.2002 -16 -16 -16h-288c-8.7998 0 -16 7.2002 -16 16v416c0 8.7998 7.2002 16 16 16h288zM144 240v-32h32v32h-32zM144 176v-32h32v32h-32zM144 112v-32h32v32h-32zM240 16v32h-96v-32h96zM240 80v32h-32v-32h32z
M240 144v32h-32v-32h32zM240 208v32h-32v-32h32zM304 16v32h-32v-32h32zM304 80v32h-32v-32h32zM304 144v32h-32v-32h32zM304 208v32h-32v-32h32zM368 16v96h-32v-96h32zM368 144v32h-32v-32h32zM368 208v32h-32v-32h32zM368 288v80h-224v-80h224z" />
    <glyph glyph-name="uniF117" unicode="&#xf117;" 
d="M144 320c-17.7002 0 -32 14.2998 -32 32v32c0 17.7002 14.2998 32 32 32s32 -14.2998 32 -32v-32c0 -17.7002 -14.2998 -32 -32 -32zM368 320c-17.7002 0 -32 14.2998 -32 32v32c0 17.7002 14.2998 32 32 32s32 -14.2998 32 -32v-32c0 -17.7002 -14.2998 -32 -32 -32z
M472 384c4.40039 0 8 -3.59961 8 -8v-400c0 -4.40039 -3.59961 -8 -8 -8h-432c-4.40039 0 -8 3.59961 -8 8v400c0 4.40039 3.59961 8 8 8h56v-40.7002c0 -22.5 24 -39.2998 48 -39.2998s48 16.7998 48 39.2998v40.7002h128v-40.7002
c0 -22.5 24.7998 -39.2998 48.7998 -39.2998s47.2002 16.7998 47.2002 39.2998v40.7002h56zM432 16v256h-352v-256h352z" />
    <glyph glyph-name="uniF118" unicode="&#xf118;" 
d="M430.4 301c18.5 0 33.5996 -14.5996 33.5996 -33.2002v-202.1c0 -18.6006 -15.0996 -33.7002 -33.5996 -33.7002h-348.801c-18.5996 0 -33.5996 15.0996 -33.5996 33.7002v202.1c0 18.6006 15 33.2002 33.5996 33.2002h69l39.5 40v0.0996094
c6.10059 6.7002 14.8008 10.9004 24.6006 10.9004h84c9.2002 0 17.2998 -3.7998 23.2998 -9.7998v0l0.200195 -0.200195c0.0996094 0 0.299805 -0.200195 0.299805 -0.200195l40.4004 -40.7998h67.5zM256 82.5c51 0 92.4004 41.5996 92.4004 92.5996
c0 51.1006 -41.4004 92.6006 -92.4004 92.6006c-50.9004 0 -92.4004 -41.5 -92.4004 -92.6006c0 -51 41.5 -92.5996 92.4004 -92.5996zM424.1 247.5c7.7002 0 14 6.2998 14 14.0996c0 7.80078 -6.2998 14.1006 -14 14.1006c-7.69922 0 -14 -6.2998 -14 -14.1006
c0 -7.7998 6.30078 -14.0996 14 -14.0996zM256 245.1c38.5 0 69.7998 -31.2998 69.7998 -70c0 -38.6992 -31.2998 -70 -69.7998 -70c-38.5996 0 -69.7998 31.4004 -69.7998 70c0 38.7002 31.2002 70 69.7998 70z" />
    <glyph glyph-name="uniF119" unicode="&#xf119;" 
d="M452 352c15.5996 0 28 -12.7002 28 -28.2998v0v-263.4v0c0 -15.5996 -12.4004 -28.2998 -28 -28.2998h-392c-15.5 0 -27.7998 12.5 -28 28v0v0.299805v263.4v0.299805v0c0.0996094 15.5 12.5 28 28 28h392zM77.0996 320c-6.7998 0 -12.0996 -4.90039 -13.0996 -11.7002
v-20.2998h383.9v20c-1 6.90039 -6.2002 12 -13.1006 12h-357.7zM434.9 64c6.7998 0 12.0996 5.09961 13.0996 12v116h-384v-116.3c1 -6.7998 6.2002 -11.7002 13.0996 -11.7002h357.801zM96 128v16h192v-16h-192zM96 96v16h96v-16h-96zM352 96v48h64v-48h-64z" />
    <glyph glyph-name="uniF11A" unicode="&#xf11a;" 
d="M124.3 48c-42.0996 0 -76.2998 31.7998 -76.2998 71.4004v208.899c0 39.6006 34.2002 71.7002 76.2998 71.7002h263.4c42.0996 0 76.2998 -32.0996 76.2998 -71.7002v-208.899c0 -39.6006 -34.0996 -71.4004 -76.2998 -71.4004h-3.7002v-64
s-78.7998 53.7002 -85.7002 58.7998c-6.89941 5.10059 -6.89941 5.2002 -21.2998 5.2002h-152.7zM352.1 256c-17.6992 0 -32 -14.2998 -32 -32s14.3008 -32 32 -32c17.7002 0 32 14.2998 32 32s-14.2998 32 -32 32zM256.1 256c-17.6992 0 -32 -14.2998 -32 -32
s14.3008 -32 32 -32c17.7002 0 32 14.2998 32 32s-14.2998 32 -32 32zM160.1 256c-17.6992 0 -32 -14.2998 -32 -32s14.3008 -32 32 -32c17.7002 0 32 14.2998 32 32s-14.2998 32 -32 32z" />
    <glyph glyph-name="uniF11B" unicode="&#xf11b;" 
d="M124.3 48c-42.0996 0 -76.2998 31.7998 -76.2998 71.4004v208.899c0 39.6006 34.2002 71.7002 76.2998 71.7002h263.4c42.0996 0 76.2998 -32.0996 76.2998 -71.7002v-208.899c0 -39.6006 -34.0996 -71.4004 -76.2998 -71.4004h-3.7002v-64
s-78.7998 53.7002 -85.7002 58.7998c-6.89941 5.10059 -6.89941 5.2002 -21.2998 5.2002h-152.7z" />
    <glyph glyph-name="uniF11C" unicode="&#xf11c;" 
d="M294.1 82.5l25.9004 -18.5c-4.5 -20.5996 -28.9004 -32 -51.9004 -32h-89.7998c-7.89941 0 -11.2998 -1.59961 -13.2002 -3l-53.0996 -45v48h-16.2998c-26.2998 0 -47.7002 15.5996 -47.7002 40.5996v128.9c0 25 19.9004 45.5 46.2002 45.5h1.7998v-100.8
c0 -33.1006 29.7998 -59.2002 64.5 -59.2002h116.1c10.3008 0 14.9004 -2.7002 17.5 -4.5zM401 400c34.7998 0 63 -26.7998 63 -59.7998v-168.3c0 -33 -28.2002 -59.9004 -63 -59.9004h-17v-64l-74.7002 59.7998c-2.5 1.90039 -7.09961 4.2002 -17.5 4.2002h-101.1
c-34.7002 0 -62.7002 26.9004 -62.7002 60v98.5v69.7002c0 33 21 59.7998 55.7002 59.7998h217.3z" />
    <glyph glyph-name="uniF11D" unicode="&#xf11d;" 
d="M256 -1.40039c-114.9 0 -208 89.8008 -208 200.7c0 110.8 93.0996 200.7 208 200.7s208 -89.9004 207.8 -200.9c0 -39.8994 -12.0996 -77.0996 -33 -108.399c-0.899414 -1.10059 -1.7002 -2.40039 -2.5 -3.7002v0c-2.39941 -4.2998 -3.89941 -9.2998 -3.89941 -14.5996
l22.0996 -88.4004l-84 30.9004c-3.7002 1.59961 -7.7998 2.39941 -12.0996 2.39941c-3.90039 0 -7.7002 -0.700195 -11.2002 -2c0 -0.0996094 -0.100586 -0.0996094 -0.200195 -0.0996094c-0.599609 -0.200195 -1.09961 -0.400391 -1.7002 -0.700195
c-24.8994 -10.2002 -52.3994 -15.9004 -81.2998 -15.9004zM352 224c-17.7002 0 -32 -14.2998 -32 -32s14.2998 -32 32 -32s32 14.2998 32 32s-14.2998 32 -32 32zM256 224c-17.7002 0 -32 -14.2998 -32 -32s14.2998 -32 32 -32s32 14.2998 32 32s-14.2998 32 -32 32z
M160 224c-17.7002 0 -32 -14.2998 -32 -32s14.2998 -32 32 -32s32 14.2998 32 32s-14.2998 32 -32 32z" />
    <glyph glyph-name="uniF11E" unicode="&#xf11e;" 
d="M256 -1.40039c-114.9 0 -208 89.8008 -208 200.7c0 110.8 93.0996 200.7 208 200.7s208 -89.9004 207.8 -200.9c0 -39.8994 -12.0996 -77.0996 -33 -108.399c-0.899414 -1.10059 -1.7002 -2.40039 -2.5 -3.7002v0c-2.39941 -4.2998 -3.89941 -9.2998 -3.89941 -14.5996
l22.0996 -88.4004l-84 30.9004c-3.7002 1.59961 -7.7998 2.39941 -12.0996 2.39941c-3.90039 0 -7.7002 -0.700195 -11.2002 -2c0 -0.0996094 -0.100586 -0.0996094 -0.200195 -0.0996094c-0.599609 -0.200195 -1.09961 -0.400391 -1.7002 -0.700195
c-24.8994 -10.2002 -52.3994 -15.9004 -81.2998 -15.9004z" />
    <glyph glyph-name="uniF11F" unicode="&#xf11f;" 
d="M73.2998 57c-0.599609 1 -1.2002 2.09961 -1.7998 2.90039c-14.9004 22.2998 -23.5 49.0996 -23.5 77.5c0 42 18.9004 79.6992 48.9004 105.8c-2.40039 -11.1006 -3.7002 -22.5 -3.7002 -34.2998c0 -92.5 77.7998 -167.5 173.7 -167.5
c15.1992 0 30 2.09961 44.0996 5.69922c-27.2002 -32.0996 -68.5 -52.5996 -114.8 -52.5996c-20.5 0 -40.1006 4.09961 -57.9004 11.4004c-0.399414 0.199219 -0.799805 0.299805 -1.2002 0.5h-0.199219c-2.5 0.899414 -5.2002 1.39941 -8 1.39941
c-3.10059 0 -6 -0.599609 -8.7002 -1.7002l-56.2002 -22.0996l12.0996 62.7998c0 3.7998 -1 7.2002 -2.7998 10.2002v0zM290.3 400c96 0 173.7 -75 173.4 -167.5c0 -33.2998 -10.1006 -64.4004 -27.5 -90.5c-0.700195 -1 -1.5 -2 -2.10059 -3.09961v0
c-2.09961 -3.60059 -3.2998 -7.80078 -3.2998 -12.2002l17 -73.7998l-68.5996 25.7998c-3.10059 1.2998 -6.5 2 -10.1006 2c-3.19922 0 -6.39941 -0.600586 -9.2998 -1.7002c0 -0.0996094 -0.0996094 -0.0996094 -0.200195 -0.0996094
c-0.5 -0.200195 -0.899414 -0.400391 -1.39941 -0.600586c-7.7002 -3.09961 -15.7002 -5.5 -23.7998 -7.59961c-14.1006 -3.60059 -28.8008 -5.7002 -44.1006 -5.7002c-96 0 -173.7 75 -173.7 167.5c0 11.7998 1.30078 23.2002 3.7002 34.2998
c16.4004 76 86.2998 133.2 170 133.2z" />
    <glyph glyph-name="uniF120" unicode="&#xf120;" 
d="M256 416c123.7 0 224 -100.3 224 -224s-100.3 -224 -224 -224s-224 100.3 -224 224s100.3 224 224 224zM370.9 266.9c0.599609 0.899414 1.09961 2 1 3.2998c0 1.2998 -0.5 2.5 -1.30078 3.5l-30.5996 24.0996c-1 0.799805 -2.2002 1.2998 -3.5 1.2998
s-2.5 -0.599609 -3.5 -1.39941l-111.3 -143s-43.7998 42.0996 -45 43.2998s-2.7998 3.2998 -5.2998 3.2998c-2.40039 0 -3.5 -1.7002 -4.80078 -3c-1 -1 -16.5996 -17.3994 -24.2998 -25.5c-0.399414 -0.5 -0.700195 -0.799805 -1.09961 -1.2002
c-0.600586 -0.899414 -1.10059 -2 -1.10059 -3.19922c0 -1.2002 0.5 -2.30078 1.10059 -3.2002l1.5 -1.5s77.5996 -74.6006 78.8994 -75.9004c1.30078 -1.2998 2.80078 -2.89941 5.10059 -2.89941c2.2002 0 4 2.39941 5.09961 3.5z" />
    <glyph glyph-name="uniF121" unicode="&#xf121;" 
d="M448 376.1c17.2998 -13.2998 21.2002 -39 8.59961 -57.5l-206.3 -301.699c-12.5996 -18.4004 -36.7998 -22.5 -54.0996 -9.10059c-17.2998 13.4004 -137.7 147 -137.7 147c-14.7002 16.5 -13.9004 42.6006 1.7002 58.1006
c15.5996 15.5996 40.0996 14.7998 54.7002 -1.80078l99.0996 -107.3l179.9 263.2c12.5996 18.4004 36.7998 22.5 54.0996 9.09961z" />
    <glyph glyph-name="uniF122" unicode="&#xf122;" 
d="M461.6 338.4c1.40039 -1.80078 2.40039 -3.90039 2.40039 -6.40039c0 -2.2002 -0.799805 -4.09961 -2 -5.7998l-249.1 -320c-1.90039 -1.90039 -5.2002 -6.2002 -9.2002 -6.2002c-4.10059 0 -6.90039 2.90039 -9.2002 5.2002s-141.6 136.1 -141.6 136.1l-2.80078 2.60059
c-1.19922 1.69922 -2 3.5 -2 5.69922c0 2.10059 0.800781 4 2 5.7002c0.700195 0.700195 1.2002 1.2002 2 2.10059c13.8008 14.5996 41.8008 44 43.5 45.7998c2.30078 2.2998 4.30078 5.39941 8.7002 5.39941c4.40039 0 7.2998 -3.69922 9.5 -5.89941
s80.7002 -77.7002 80.7002 -77.7002l199.7 256.6c1.7002 1.5 3.89941 2.5 6.2998 2.5s4.5 -1 6.2002 -2.39941z" />
    <glyph glyph-name="uniF123" unicode="&#xf123;" 
d="M256 149.7v0v0l174.2 167.2c4.2998 4.19922 11.3994 4.09961 15.7998 -0.200195l30.5996 -29.9004c4.40039 -4.2998 4.5 -11.2998 0.200195 -15.5l-212.7 -204.2c-2.19922 -2.19922 -5.19922 -3.19922 -8.09961 -3c-3 -0.0996094 -5.90039 0.900391 -8.09961 3
l-212.7 204.2c-4.2998 4.2002 -4.2002 11.2002 0.200195 15.5l30.5996 29.9004c4.40039 4.2998 11.5 4.39941 15.7998 0.200195z" />
    <glyph glyph-name="uniF124" unicode="&#xf124;" 
d="M213.7 192l167.2 -174.2c4.19922 -4.2998 4.09961 -11.3994 -0.200195 -15.7998l-29.9004 -30.5996c-4.2998 -4.40039 -11.2998 -4.5 -15.5 -0.200195l-204.2 212.7c-2.09961 2.19922 -3.09961 5.09961 -3 8.09961c-0.199219 2.90039 0.800781 5.90039 3 8.09961
l204.2 212.601c4.2002 4.2998 11.2002 4.2002 15.5 -0.200195l29.9004 -30.5996c4.2998 -4.40039 4.39941 -11.5 0.200195 -15.8008l-167.2 -174.1v0v0z" />
    <glyph glyph-name="uniF125" unicode="&#xf125;" 
d="M298.3 192v0v0l-167.2 174.1c-4.19922 4.30078 -4.09961 11.4004 0.200195 15.8008l29.9004 30.5996c4.2998 4.40039 11.2998 4.5 15.5 0.200195l204.2 -212.7c2.19922 -2.2002 3.19922 -5.2002 3 -8.09961c0.0996094 -3 -0.900391 -5.90039 -3 -8.10059l-204.2 -212.6
c-4.2002 -4.2998 -11.2002 -4.2002 -15.5 0.200195l-29.9004 30.5996c-4.2998 4.40039 -4.39941 11.5 -0.200195 15.7998z" />
    <glyph glyph-name="uniF126" unicode="&#xf126;" 
d="M256 234.3l-174.2 -167.2c-4.2998 -4.19922 -11.3994 -4.09961 -15.7998 0.200195l-30.5996 29.9004c-4.40039 4.2998 -4.5 11.2998 -0.200195 15.5l212.7 204.2c2.19922 2.09961 5.09961 3.09961 8.09961 3c2.90039 0.199219 5.90039 -0.800781 8.09961 -3l212.7 -204.2
c4.2998 -4.2002 4.2002 -11.2002 -0.200195 -15.5l-30.5996 -29.9004c-4.40039 -4.2998 -11.5 -4.39941 -15.7998 -0.200195l-174.2 167.2v0v0z" />
    <glyph glyph-name="uniF127" unicode="&#xf127;" 
d="M160 288c1.90039 20 9.59961 35.2002 27.7998 40.0996c0.5 0.100586 1 0.400391 1.40039 0.5c12 3.40039 20.7998 7.5 20.7998 20.6006v20.5996c0 25.6006 20.5 46.2998 46 46.2998s46 -20.7998 46 -46.2998v-20.5996c0 -13.2002 8.7998 -17.2998 20.7998 -20.7002
c0.400391 -0.0996094 0.900391 -0.299805 1.2998 -0.400391c18.2002 -4.89941 26.2002 -20.0996 27.9004 -40.0996h-192zM256 383.6c-7.59961 0 -13.7998 -6.19922 -13.7998 -13.7998c0 -7.59961 6.2002 -13.7998 13.7998 -13.7998s13.7998 6.09961 13.7998 13.7998
c0 7.60059 -6.2002 13.7998 -13.7998 13.7998zM404.6 385c15.1006 0 27.4004 -13.0996 27.4004 -28.5996v-360.4c0 -15.5 -12.2998 -28 -27.4004 -28h-148.6h-148.6c-15.1006 0 -27.4004 12.5 -27.4004 28v360.4c0 15.5 12.2998 28.5996 27.4004 28.5996h73.5996v-14.5
c0 -10.5996 -8.7002 -18.5 -19 -18.5h-37.2998c-6.60059 0 -12.2002 -5.7002 -12.5 -12.5l0.0996094 -327.3c0.400391 -6.40039 5.2998 -11.6006 11.5 -12.1006l264.4 0.100586c6.2002 0.5 11.2002 5.7002 11.5 12.0996l-0.100586 327.2
c-0.299805 6.7998 -5.69922 12.5 -12.3994 12.5h-37.2002c-10.2998 0 -19 7.90039 -19 18.5v14.5h73.5996zM144 240v16h112v-16h-112zM144 144v16h160v-16h-160zM144 48v16h129v-16h-129zM144 96v16h176v-16h-176zM144 192v16h208v-16h-208z" />
    <glyph glyph-name="uniF26E" unicode="&#xf26e;" 
d="M256 416c123.7 0 224 -100.3 224 -224s-100.3 -224 -224 -224s-224 100.3 -224 224s100.3 224 224 224zM425 283.3c-1.59961 3 -3.2998 5.90039 -5 8.7002zM356 356c-2.7998 1.7002 -5.7002 3.40039 -8.59961 5zM164.9 361.1
c-3.10059 -1.59961 -6.10059 -3.39941 -9.10059 -5.2998zM92.0996 292.1c-1.7998 -2.89941 -3.5 -5.89941 -5.19922 -9zM86.9004 100.9c1.59961 -3.10059 3.39941 -6.10059 5.2998 -9.2002zM155.7 28.2002c3.09961 -1.90039 6.2002 -3.7002 9.2998 -5.40039zM347.3 23
c2.90039 1.59961 5.90039 3.2998 8.7998 5.09961zM391.8 56.2002c10.1006 10.0996 18.9004 21.2002 26.4004 33.0996l-27.6006 15.9004l8 13.8994l27.6006 -16c13 24.8008 20.3994 52.3008 21.5996 81h-31.7998v16h31.5996c-1.09961 28.6006 -8.59961 56.2002 -21.5996 81
l-27.5996 -16l-8 13.9004l27.5996 15.9004c-7.5 11.7998 -16.2998 22.7998 -26.4004 32.8994c-10.0996 10.1006 -21.0996 18.9004 -32.8994 26.4004l-15.9004 -27.6006l-13.8994 8l16 27.6006c-24.8008 13 -52.3008 20.3994 -81 21.5996v-31.7998h-16v31.5996
c-28.6006 -1.09961 -56.2002 -8.59961 -81 -21.5996l16 -27.5996l-13.9004 -8l-15.9004 27.5996c-11.7998 -7.5 -22.7998 -16.2998 -32.8994 -26.4004c-10.1006 -10.0996 -18.9004 -21.0996 -26.4004 -32.8994l27.6006 -15.9004l-8 -13.8994l-27.6006 16
c-13 -24.8008 -20.3994 -52.3008 -21.5996 -81h31.7998v-16h-31.5996c1.09961 -28.6006 8.59961 -56.2002 21.5996 -81l27.5996 16l8 -13.9004l-27.5996 -15.9004c7.5 -11.7998 16.2998 -22.7998 26.4004 -32.8994c10.0996 -10.1006 21.0996 -18.9004 32.8994 -26.4004
l15.9004 27.6006l13.8994 -8l-16 -27.6006c24.8008 -13 52.3008 -20.3994 81 -21.5996v31.7998h16v-31.7998c28.6006 1.09961 56.2002 8.59961 81 21.5996l-16 27.6006l13.9004 8l15.9004 -27.6006c11.7998 7.5 22.7998 16.2998 32.8994 26.4004zM425.1 100.8
l-5.19922 -8.89941c1.7998 2.89941 3.59961 5.89941 5.19922 8.89941zM400 199v-16.0996h-113.2c-3.89941 -13.3008 -16.2002 -23 -30.7002 -23c-7.39941 0 -14.1992 2.5 -19.5996 6.69922l-70.4004 -70.6992l-5.69922 5.69922l70.3994 70.7002
c-4.2998 5.5 -6.7998 12.2998 -6.7998 19.7002c0 11.7998 6.40039 22.2002 16 27.7002v84.2998h32v-84.2998c7.59961 -4.40039 13.2002 -11.9004 15.2002 -20.7002h112.8z" />
    <glyph glyph-name="uniF128" unicode="&#xf128;" 
d="M256 415c123.7 0 224 -100.3 224 -224s-100.3 -224 -224 -224s-224 100.3 -224 224s100.3 224 224 224zM364.3 115.5l-75.5996 75.9004l75.8994 75c3.10059 3.09961 3.10059 8.19922 0 11.2998l-21.5996 21.7002c-1.5 1.5 -3.5 2.2998 -5.59961 2.2998
c-2.10059 0 -4.10059 -0.799805 -5.60059 -2.2998l-75.7002 -74.7002l-75.6992 74.7002c-1.5 1.5 -3.5 2.2998 -5.60059 2.2998c-2.09961 0 -4.09961 -0.799805 -5.59961 -2.2998l-21.6006 -21.7002c-3.09961 -3.10059 -3.09961 -8.2002 0 -11.2998l75.9004 -75
l-75.7002 -76c-1.5 -1.40039 -2.2998 -3.5 -2.2998 -5.60059c0 -2.09961 0.799805 -4.09961 2.2998 -5.59961l21.6006 -21.7002c1.5 -1.5 3.59961 -2.2998 5.59961 -2.2998s4.09961 0.700195 5.59961 2.2998l75.4004 75.7002l75.5 -75.6006
c1.5 -1.5 3.59961 -2.2998 5.59961 -2.2998s4 0.700195 5.60059 2.2998l21.5996 21.7002c1.5 1.40039 2.2998 3.5 2.2998 5.60059c0 2.09961 -0.799805 4.09961 -2.2998 5.59961z" />
    <glyph glyph-name="uniF129" unicode="&#xf129;" 
d="M437.5 61.4004c14 -14 14 -36.8008 0 -50.9004c-14.0996 -14.0996 -36.7998 -14.0996 -50.9004 0l-130.6 130.6l-130.6 -130.6c-14.1006 -14.0996 -36.8008 -14.0996 -50.9004 0s-14.0996 36.7998 0 50.9004l130.6 130.6l-130.6 130.6
c-14.0996 14.1006 -14.0996 36.8008 0 50.9004s36.7998 14.0996 50.9004 0l130.6 -130.6l130.6 130.6c14.1006 14.0996 36.8008 14.0996 50.9004 0s14.0996 -36.7998 0 -50.9004l-130.6 -130.6z" />
    <glyph glyph-name="uniF12A" unicode="&#xf12a;" 
d="M443.6 60.9004c2.60059 -2.60059 4.10059 -6.10059 4.2002 -9.7002c0 -3.7002 -1.5 -7.2002 -4.09961 -9.7998l-37.4004 -37.6006c-2.7002 -2.7998 -6.2998 -4.09961 -9.7998 -4.09961c-3.59961 0 -7.09961 1.39941 -9.7998 4.09961l-130.7 131.101l-130.6 -131.2
c-2.7002 -2.7998 -6.30078 -4.10059 -9.80078 -4.10059c-3.59961 0 -7.09961 1.40039 -9.7998 4.10059l-37.3994 37.5996c-2.7002 2.60059 -4.10059 6.10059 -4.10059 9.7998c0 3.7002 1.5 7.2002 4.10059 9.80078l131.1 131.6l-131.5 130
c-5.40039 5.40039 -5.40039 14.2002 0 19.5996l37.2998 37.6006c2.60059 2.5 6.10059 4 9.7998 4c3.7002 0 7.2002 -1.40039 9.80078 -4l131.1 -129.5l130.9 129.6c2.59961 2.5 6.09961 4 9.7998 4s7.2002 -1.39941 9.7998 -4l37.4004 -37.5996
c5.39941 -5.40039 5.39941 -14.2002 0 -19.6006l-131.5 -130z" />
    <glyph glyph-name="uniF12B" unicode="&#xf12b;" 
d="M398.1 214.8c45.2002 -0.0996094 81.9004 -37.3994 81.8008 -83.3994c0 -45.9004 -36.5 -83.2002 -81.7002 -83.4004v0h-276.7c-49.4004 0.0996094 -89.5 40.7998 -89.5 91c0 39.9004 25.2998 73.7998 60.7002 86c4.7002 28.5996 29.2998 50.5 58.7998 50.5
c9.59961 0 18.7002 -2.40039 26.7998 -6.5c18.6006 39.5996 58.2002 67 104.3 67c63.9004 0 115.7 -52.5996 115.7 -117.6c0 -1.2002 -0.200195 -2.40039 -0.200195 -3.60059z" />
    <glyph glyph-name="uniF26F" unicode="&#xf26f;" 
d="M331 163.9l-63.2002 -62.9004c0 -0.0996094 -0.0996094 -0.0996094 -0.0996094 -0.0996094c-0.400391 -0.400391 -0.799805 -0.800781 -1.2002 -1.10059v0c-0.400391 -0.299805 -0.799805 -0.599609 -1.2002 -0.899414
c-0.0996094 -0.100586 -0.200195 -0.100586 -0.299805 -0.200195c-0.299805 -0.200195 -0.700195 -0.400391 -1 -0.600586c-0.200195 -0.0996094 -0.299805 -0.0996094 -0.400391 -0.199219c-0.399414 -0.200195 -0.899414 -0.400391 -1.2998 -0.600586v0
c-0.399414 -0.0996094 -0.799805 -0.299805 -1.2002 -0.399414c-0.0996094 0 -0.199219 -0.100586 -0.299805 -0.100586c-0.200195 0 -0.299805 -0.0996094 -0.5 -0.0996094c-1.39941 -0.400391 -2.89941 -0.600586 -4.2998 -0.600586s-2.90039 0.200195 -4.2998 0.600586
c-0.200195 0 -0.299805 0.0996094 -0.5 0.0996094c-0.100586 0 -0.200195 0.100586 -0.299805 0.100586c-0.400391 0.0996094 -0.800781 0.199219 -1.2002 0.399414v0c-0.5 0.200195 -0.900391 0.400391 -1.2998 0.600586
c-0.100586 0.0996094 -0.200195 0.0996094 -0.300781 0.199219c-0.299805 0.200195 -0.699219 0.400391 -1 0.600586c-0.0996094 0.0996094 -0.199219 0.0996094 -0.299805 0.200195c-0.899414 0.5 -1.7002 1.19922 -2.39941 1.89941v0.100586l-63.1006 63
c-6.39941 6.39941 -6.39941 16.8994 0.100586 23.3994s17.0996 6.5 23.5996 0l35 -34.7998v118.9c0 9.19922 6.7998 16.5996 16 16.5996s16 -7.40039 16 -16.5996v-118.801l35.2002 34.7002c6.5 6.5 17.2998 6.5 23.7998 0c6.5 -6.39941 6.5 -16.8994 0 -23.3994zM336 80
c-4.09961 0 -8.2002 1.59961 -11.2998 4.7002c-6.2002 6.2002 -6.2002 16.3994 0 22.5996l84.7002 84.7002l-84.7002 84.7002c-6.2002 6.2002 -6.2002 16.3994 0 22.5996s16.3994 6.2002 22.5996 0l96 -96c6.2002 -6.2002 6.2002 -16.3994 0 -22.5996l-96 -96
c-3.09961 -3.10059 -7.2002 -4.7002 -11.2998 -4.7002zM176 80c-4.09961 0 -8.2002 1.59961 -11.2998 4.7002l-96 96c-6.2002 6.2002 -6.2002 16.3994 0 22.5996l96 96c6.2002 6.2002 16.3994 6.2002 22.5996 0s6.2002 -16.3994 0 -22.5996l-84.7002 -84.7002
l84.7002 -84.7002c6.2002 -6.2002 6.2002 -16.3994 0 -22.5996c-3.09961 -3.10059 -7.2002 -4.7002 -11.2998 -4.7002z" />
    <glyph glyph-name="uniF270" unicode="&#xf270;" 
d="M336 80c-4.09961 0 -8.2002 1.59961 -11.2998 4.7002c-6.2002 6.2002 -6.2002 16.3994 0 22.5996l84.7002 84.7002l-84.7002 84.7002c-6.2002 6.2002 -6.2002 16.3994 0 22.5996s16.3994 6.2002 22.5996 0l96 -96c6.2002 -6.2002 6.2002 -16.3994 0 -22.5996l-96 -96
c-3.09961 -3.10059 -7.2002 -4.7002 -11.2998 -4.7002zM176 80c-4.09961 0 -8.2002 1.59961 -11.2998 4.7002l-96 96c-6.2002 6.2002 -6.2002 16.3994 0 22.5996l96 96c6.2002 6.2002 16.3994 6.2002 22.5996 0s6.2002 -16.3994 0 -22.5996l-84.7002 -84.7002
l84.7002 -84.7002c6.2002 -6.2002 6.2002 -16.3994 0 -22.5996c-3.09961 -3.10059 -7.2002 -4.7002 -11.2998 -4.7002zM160.2 191.8c0 16 8 24 24 24s24 -8 24 -24s-8 -24 -24 -24s-24 8 -24 24zM232.2 191.8c0 16 8 24 24 24s24 -8 24 -24s-8 -24 -24 -24s-24 8 -24 24z
M304.2 191.8c0 16 8 24 24 24s24 -8 24 -24s-8 -24 -24 -24s-24 8 -24 24z" />
    <glyph glyph-name="uniF271" unicode="&#xf271;" 
d="M304 80c-4.09961 0 -8.2002 1.59961 -11.2998 4.7002c-6.2002 6.2002 -6.2002 16.3994 0 22.5996l84.7002 84.7002l-84.7002 84.7002c-6.2002 6.2002 -6.2002 16.3994 0 22.5996s16.3994 6.2002 22.5996 0l96 -96c6.2002 -6.2002 6.2002 -16.3994 0 -22.5996l-96 -96
c-3.09961 -3.10059 -7.2002 -4.7002 -11.2998 -4.7002zM208 80c-4.09961 0 -8.2002 1.59961 -11.2998 4.7002l-96 96c-6.2002 6.2002 -6.2002 16.3994 0 22.5996l96 96c6.2002 6.2002 16.3994 6.2002 22.5996 0s6.2002 -16.3994 0 -22.5996l-84.7002 -84.7002
l84.7002 -84.7002c6.2002 -6.2002 6.2002 -16.3994 0 -22.5996c-3.09961 -3.10059 -7.2002 -4.7002 -11.2998 -4.7002z" />
    <glyph glyph-name="uniF272" unicode="&#xf272;" 
d="M383.1 190.6c36.9004 -7.09961 64.9004 -39.5996 64.9004 -78.5c0 -19.7998 -7.7002 -39.5996 -21.0996 -54.1992c-15.2002 -16.6006 -36.8008 -25.8008 -60.8008 -25.8008c-8 0 -16.3994 1 -24.7998 3c-5.59961 1.30078 -10.7002 3 -15.3994 5
c-11.4004 -15.0996 -22.4004 -25.0996 -31.4004 -32.8994l-0.0996094 0.200195c-5.10059 -4.60059 -11.8008 -7.30078 -19.2002 -7.30078h-102.4c-7.39941 0 -14.0996 2.7002 -19.2002 7.30078l-0.0996094 -0.200195c-16.7998 14.5996 -40.5996 36.5 -61.2002 86.2002
c-20.5996 49.6992 -28.2998 91.3994 -28.2998 111c0 19.5996 3.2998 19.6992 16 19.6992h100.8c-4.89941 17 -36.7998 19.6006 -36.7998 46.3008c0 16.7998 15.4004 31.6992 28.2998 36.7998c-2.2002 -8.2002 -3.2002 -14 -3.2002 -21
c0 -18.9004 39.1006 -30 39.1006 -52.7998c0 -3.10059 -0.5 -6.30078 -1.2998 -9.30078h55.8994c0.700195 5 2.10059 9 2.10059 13.5c0 36.1006 -56.3008 36.5 -56.3008 84.8008c0 28.0996 20.9004 54.5996 47.4004 61.5996
c-4.2002 -13.5996 -9.2998 -23.2002 -9.2998 -34.9004c0 -31.5996 57.2998 -50.0996 57.2998 -88c0 -12.5996 -4.2002 -25 -11.5 -37h75.5c12.7002 0 16 -0.0996094 16 -19.6992c0 -3.80078 -0.299805 -8.40039 -0.900391 -13.8008zM366.1 63.7998
c32.7002 0 49.9004 25.2998 49.9004 48c0 23.2998 -16.7002 42.7998 -38.7002 47.1006c-4.5 -18.8008 -11.5 -41.4004 -21.5996 -65.8008c-3.7998 -9.19922 -7.7002 -17.0996 -11.7002 -25.0996c6.5 -3 13.5 -4.2002 22.0996 -4.2002z" />
    <glyph glyph-name="uniF273" unicode="&#xf273;" 
d="M256 416c123.7 0 224 -100.3 224 -224s-100.3 -224 -224 -224s-224 100.3 -224 224c0 39 10 75.5996 27.4004 107.5c-16.5 11.5996 -27.4004 30.7998 -27.4004 52.5c0 35.2998 28.7002 64 64 64c21.7002 0 40.9004 -10.9004 52.5 -27.4004
c31.9004 17.4004 68.5 27.4004 107.5 27.4004zM64 352c0 -10.5 5 -19.7998 12.7998 -25.5996c12.7002 17 27.7998 32.0996 44.7998 44.7998c-5.7998 7.7998 -15.0996 12.7998 -25.5996 12.7998c-17.7002 0 -32 -14.2998 -32 -32zM391.8 56.2002
c36.2002 36.2998 56.2002 84.5 56.2002 135.8s-20 99.5 -56.2002 135.8c-36.2998 36.2002 -84.5 56.2002 -135.8 56.2002s-99.5 -20 -135.8 -56.2002c-36.2002 -36.2998 -56.2002 -84.5 -56.2002 -135.8s20 -99.5 56.2002 -135.8
c36.2998 -36.2002 84.5 -56.2002 135.8 -56.2002s99.5 20 135.8 56.2002zM352 320c0 0 -54.4004 -130.3 -72 -152s-120 -104 -120 -104s53.5996 131.7 72 152s120 104 120 104z" />
    <glyph glyph-name="uniF12C" unicode="&#xf12c;" 
d="M442.8 348.4c6.90039 -6.90039 6.90039 -18.1006 0 -25.2002l-31.7998 -31.7002l-55.5 55.5l31.7998 31.7998c6.90039 6.90039 18.1006 6.90039 25.1006 0zM346.1 337.5l54.5 -54.4004l-176.6 -173l-64 -14.0996l14.0996 64zM384 192l32 32v-200.6
c0 -12.9004 -10.4004 -23.4004 -23.2998 -23.4004h-305.3c-12.9004 0 -23.4004 10.5 -23.4004 23.4004v305.3c0 13 10.4004 23.2998 23.4004 23.2998h200.6l-32 -32h-149.4c-5.89941 0 -10.5996 -5 -10.5996 -10v-268s4.2002 -10 9.7998 -10
c0 0 263.7 -0.0996094 269 -0.0996094s9.2002 5 9.2002 10.0996v150z" />
    <glyph glyph-name="uniF274" unicode="&#xf274;" 
d="M80 32v64h64v-64h-64zM176 32v128h64v-128h-64zM272 32v224h64v-224h-64zM368 32v320h64v-320h-64z" />
    <glyph glyph-name="uniF275" unicode="&#xf275;" 
d="M256 416c123.7 0 224 -100.3 224 -224s-100.3 -224 -224 -224s-224 100.3 -224 224s100.3 224 224 224zM391.8 56.2002c36.2002 36.2998 56.2002 84.5 56.2002 135.8s-20 99.5 -56.2002 135.8c-36.2998 36.2002 -84.7998 56.2002 -135.8 56.2002v-384
c51 0 99.5 20 135.8 56.2002z" />
    <glyph glyph-name="uniF12D" unicode="&#xf12d;" 
d="M256 289.1c53.7002 0 97.2002 -43.5 97.2002 -97.1992c0 -53.6006 -43.5 -97.1006 -97.2002 -97.1006s-97.2002 43.4004 -97.2002 97.1006c0 53.6992 43.5 97.1992 97.2002 97.1992zM256 148.5c24 0 43.5 19.5 43.5 43.5s-19.5 43.5 -43.5 43.5s-43.5 -19.5 -43.5 -43.5
s19.5 -43.5 43.5 -43.5zM256 416c123.7 0 224 -100.3 224 -224s-100.3 -224 -224 -224s-224 100.3 -224 224s100.3 224 224 224zM256 69.2002c67.7998 0 122.8 55 122.8 122.8s-55 122.8 -122.8 122.8s-122.8 -55 -122.8 -122.8s55 -122.8 122.8 -122.8z" />
    <glyph glyph-name="uniF12E" unicode="&#xf12e;" 
d="M398.6 278.8c1.40039 -3.09961 1.90039 -6.59961 1.90039 -10.2002v-244.1c0 -13.4004 -9.7998 -24.9004 -22.2002 -24.9004h-243.1c-12.4004 0 -22.7002 11.5 -22.7002 24.9004v335.2c0 13.2998 10.2998 23.8994 22.7002 23.8994h159.899
c3.40039 0 6.60059 -0.599609 9.5 -2.09961c2.5 -1.2998 4.80078 -2.7998 6.7002 -4.90039l83.7998 -91.6992c1.5 -1.80078 2.60059 -3.90039 3.5 -6.10059zM160.5 269.4v-10.8008c0 -1.39941 1.7998 -3.09961 3.40039 -3.09961h70.7998
c1.7002 0 2.7998 1.7002 2.7998 3.09961v10.8008c0 1.5 -1.2002 2.09961 -2.7998 2.09961h-70.7998c-1.60059 0 -3.40039 -0.599609 -3.40039 -2.09961zM160.5 141.4v-10.8008c0 -1.39941 1.7998 -3.09961 3.40039 -3.09961h122.199
c1.7002 0 2.40039 1.7002 2.40039 3.09961v10.8008c0 1.5 -0.799805 2.09961 -2.40039 2.09961h-122.199c-1.60059 0 -3.40039 -0.599609 -3.40039 -2.09961zM320.5 66.5996v10.8008c0 1.5 -0.799805 2.09961 -2.40039 2.09961h-154.199
c-1.60059 0 -3.40039 -0.599609 -3.40039 -2.09961v-10.8008c0 -1.39941 1.7998 -3.09961 3.40039 -3.09961h154.199c1.7002 0 2.40039 1.7002 2.40039 3.09961zM352.5 194.6v10.8008c0 1.5 -0.799805 2.09961 -2.40039 2.09961h-186.199
c-1.60059 0 -3.40039 -0.599609 -3.40039 -2.09961v-10.8008c0 -1.39941 1.7998 -3.09961 3.40039 -3.09961h186.199c1.7002 0 2.40039 1.7002 2.40039 3.09961zM305.6 270.5h60.1006l-71.2002 77.2998v-66c0 -6.09961 5.5 -11.2998 11.0996 -11.2998z" />
    <glyph glyph-name="uniF12F" unicode="&#xf12f;" 
d="M399.3 279.1c0.799805 -3.2998 1.2002 -5.89941 1.2002 -9.5v-244.1c0 -13.4004 -8.7998 -25.9004 -21.2002 -25.9004h-243.1c-12.4004 0 -23.7002 12.5 -23.7002 25.9004v335.2c0 13.2998 11.2998 22.8994 23.7002 22.8994h159.899
c3.30078 0 6.5 -0.0996094 9.40039 -1.59961c2.5 -1.2998 4.7002 -2.2998 6.59961 -4.40039l83.7002 -91.6992c1.5 -1.80078 2.7998 -3.90039 3.5 -6.80078zM305.5 337v-63.5h58zM144.5 31.5h224v210h-66.9004c-14.6992 0 -28.0996 13.5 -28.0996 28.2998v81.7002h-129v-320
z" />
    <glyph glyph-name="uniF130" unicode="&#xf130;" 
d="M0 272v32h512v-32h-512zM0 176v32h512v-32h-512zM0 80v32h512v-32h-512z" />
    <glyph glyph-name="uniF276" unicode="&#xf276;" 
d="M340.5 321c-0.599609 -0.299805 -0.599609 -0.299805 -1.2998 -0.599609c-1.2002 -0.400391 -4.10059 4.09961 -3.40039 4.69922c0.299805 0.400391 0.799805 0.700195 1.2002 1c0.400391 0.300781 0.799805 0.700195 1.2998 1c0.5 0.400391 0.900391 0.700195 1.2998 1
c0.5 0.300781 0.900391 0.700195 1.30078 1c0 0.300781 0 0.600586 -0.100586 0.800781c-0.299805 1.09961 -0.5 2.19922 -1 3.19922c-0.299805 0.600586 -0.200195 1.10059 0.200195 1.60059c0.900391 0.899414 2 1.2998 3.2998 1.09961
c0.299805 -0.0996094 0.700195 -0.299805 0.900391 -0.5c0.5 -0.399414 1 -0.899414 1.39941 -1.39941c0.400391 -0.5 0.800781 -1.10059 1.30078 -1.60059c0.5 -0.599609 1.09961 -1 1.7998 -1.2998c1.89941 -0.799805 3.39941 -2 4.7998 -3.40039
c3 -3.09961 5 -6.89941 6.2002 -11c0.0996094 -0.599609 0.200195 -1.19922 0.399414 -1.7998c-1.5 -1.2998 -3 -2.5 -4.69922 -3.39941c-1.10059 -0.600586 -2.30078 -1.10059 -3.5 -1.2002c-1.90039 -0.200195 -3.40039 0.299805 -4.60059 1.7002
c-0.799805 0.899414 -1.2998 2 -1.5 3.19922c-0.299805 2.30078 -0.599609 4.10059 -1.09961 6.30078c-0.200195 0.799805 -1 0.799805 -1 0.799805s-0.700195 0 -1.2998 -0.299805c-0.600586 -0.300781 -1.30078 -0.600586 -1.90039 -0.900391zM284.9 351.3
c-0.300781 0.299805 -0.600586 0.700195 -0.900391 1.2002c-0.5 1.09961 0 2.5 1.09961 3c0.200195 0.0996094 0.400391 0.0996094 0.600586 0.200195c3.5 1.2998 6.89941 2.59961 10.3994 3.89941c0.200195 0.100586 0.400391 0.100586 0.700195 0.200195
c1.2998 -0.5 2.5 -1.2002 3.5 -2.2002c1.5 -1.5 1.5 -2.89941 0 -4.39941c-0.299805 -0.200195 -0.5 -0.400391 -0.799805 -0.600586c-0.5 -0.299805 -0.700195 -0.699219 -0.799805 -1.19922c-0.299805 -1.10059 -0.700195 -2.2002 -1 -3.30078
c0 -0.199219 -0.100586 -0.399414 -0.200195 -0.699219h-0.900391c-2.59961 0.299805 -5.09961 0.799805 -7.59961 1.5c-1.59961 0.399414 -2.90039 1.2998 -4.09961 2.39941zM166.3 270.1c-1.7998 -0.0996094 -3.59961 0 -5.5 -0.0996094
c-4.59961 0.400391 -9.2002 1.2002 -13.7002 2c-0.899414 0.200195 -1.89941 0.299805 -2.7998 0.5c-0.599609 0.0996094 -1.2002 0.400391 -1.7998 0.599609c-0.299805 0.100586 -0.5 0.5 -0.5 0.900391s1.2002 2.59961 2.2002 3.40039c0.700195 0.5 1.5 0.799805 2.2998 1
c0.700195 0.199219 1.5 0.199219 2.2002 0.299805c1.2002 0.0996094 2.2998 -0.299805 3.2998 -0.900391c0.400391 -0.200195 0.799805 -0.399414 1.09961 -0.700195c0.400391 -0.299805 0.800781 -0.599609 1.2002 -0.899414
c1.7002 -1.40039 3.7002 -2.10059 5.90039 -2.2002c1.5 -0.0996094 3 -0.200195 4.5 -0.400391c0.700195 -0.0996094 1.39941 -0.199219 2.09961 -0.399414c0.400391 -0.100586 0.799805 -0.299805 1.2002 -0.5c0.200195 -0.100586 0.400391 -0.400391 0.599609 -0.600586
c0.400391 -0.599609 0.200195 -1.2998 -0.5 -1.59961c-0.5 -0.200195 -1.19922 -0.400391 -1.7998 -0.400391zM176.3 262.6c0.5 -0.299805 1.10059 -0.599609 1.7002 -0.699219c0.599609 -0.200195 1 -0.600586 1.2002 -1.10059s-0.100586 -2.09961 -0.5 -3.39941
c-0.100586 -0.200195 -0.100586 -0.300781 -0.200195 -0.400391c-0.200195 -0.200195 -0.400391 -0.400391 -0.700195 -0.299805c-0.299805 0.0996094 -0.599609 0.299805 -0.899414 0.399414c-2.2002 1.2002 -4.5 1.7002 -7 1.7002
c-1.10059 0 -2.30078 -0.0996094 -3.40039 -0.0996094c-1.2002 0 -2.5 -0.100586 -3.7002 0.0996094c-0.299805 0 -0.700195 0.200195 -1 0.299805c-0.200195 0.100586 -0.299805 0.400391 -0.0996094 0.600586s0.5 0.5 0.700195 0.599609
c0.599609 0.299805 1.19922 0.600586 1.7998 0.900391c2.39941 1.09961 4.89941 2.2998 7.39941 3.39941c0.300781 0.100586 0.600586 0.200195 0.800781 0.200195c0.199219 0 0.699219 -0.0996094 1 -0.299805c0.899414 -0.599609 1.89941 -1.2998 2.89941 -1.90039z
M256 416c123.7 0 224 -100.3 224 -224s-100.3 -224 -224 -224s-224 100.3 -224 224s100.3 224 224 224zM120.2 56.2002c11.2998 -11.2002 23.5996 -20.7998 36.7002 -28.7002c-1.40039 1.40039 -2.7002 2.90039 -3.5 3.5c-2.30078 1.7002 -5.10059 4.2998 -7 6.5
c-3.10059 3.59961 -4.10059 9 -6.5 13.0996c-0.100586 0.300781 -0.200195 0.600586 -0.300781 1c-0.299805 2.10059 -0.599609 4.30078 -0.899414 6.40039c-0.5 3.40039 -0.900391 6.7002 -1.40039 10.0996c0 0.300781 -0.0996094 0.600586 -0.299805 0.800781
c-0.700195 0.899414 -1.09961 2 -1.40039 3.09961c-0.399414 1.2998 -0.5 2.59961 -0.599609 4c-0.0996094 2.59961 0.0996094 5.2002 0.5 7.7998c0.200195 1.10059 0.400391 2.2002 0.599609 3.40039c0.300781 2.59961 0.700195 5.09961 1 7.7002
c0.100586 0.799805 0.200195 1.59961 0.300781 2.39941c-1 1 -1.5 2.2998 -1.7002 3.60059c-0.299805 1.59961 -0.200195 3.09961 -0.100586 4.69922c0.300781 2.40039 0.800781 4.80078 1.5 7.2002c0.200195 0.600586 0.300781 1.2998 0.400391 2
c0.299805 1.7002 0.5 3.40039 0.700195 5.10059c0.399414 3.19922 0.899414 6.39941 1.2998 9.59961c0.0996094 0.5 0.200195 0.900391 0.0996094 1.2998c-1.5 1.2002 -2 1.7002 -2.69922 2.7002c-1.60059 2.2998 -2.2002 4.90039 -2.10059 7.7002
c0 2 0.400391 3.89941 1 5.7002c0.100586 0.299805 0.100586 0.5 0.200195 0.799805c-0.400391 0.200195 -0.700195 0.399414 -1 0.599609c-4.09961 2.7002 -7.7998 5.90039 -10.7998 9.90039c-1.40039 1.89941 -2.7998 3.59961 -4.2998 5.39941
c-0.900391 1.2002 -1.80078 2.30078 -2.7002 3.5c-0.799805 1.10059 -1.5 2.30078 -2 3.60059c-0.900391 2.09961 -1.2002 4.2002 -0.700195 6.5c0.0996094 0.599609 0.0996094 1 -0.0996094 1.5c-0.800781 2.09961 -1.2002 4.2998 -1.40039 6.59961
c-0.200195 2.5 -0.0996094 4.90039 0.200195 7.40039c0.299805 2.2002 0.799805 4.2002 2 6.09961c0.5 0.799805 1 1.7998 1.59961 2.60059c1.5 2.19922 3.10059 4.5 4.7002 6.69922c1.2998 1.80078 2.5 3.60059 3.7998 5.40039
c0.799805 1.2002 1.5 2.59961 1.90039 4.09961c0.599609 2.10059 1.09961 4.10059 1.09961 6.30078c0 1.19922 -0.0996094 2.2998 -0.399414 3.39941c-0.5 1.7998 -1.5 3.10059 -3.2002 4c-0.299805 0.100586 -0.700195 0.400391 -1 0.600586
c-1.7002 1.2998 -3.40039 2.69922 -5.2002 4c-0.5 0.299805 -0.799805 0.799805 -0.900391 1.39941c-0.899414 3.5 -1.39941 5.2998 -2.19922 8.7998c-0.100586 0.600586 -0.700195 2.60059 -1.2002 3c-1.7002 1.40039 -3.2998 2.90039 -4.90039 4.30078
c-0.299805 0.199219 -0.5 0.899414 -0.599609 1.59961c-0.100586 1.09961 0.200195 1.7998 0.399414 3.09961c0.200195 1.30078 0.400391 2.60059 0.5 4c-0.399414 0.100586 -0.599609 0.200195 -0.899414 0.300781c-3 1.19922 -5.90039 2.59961 -8.60059 4.5
c-1.59961 1.09961 -3.09961 2.2998 -4.39941 3.7998c-1.10059 1.2002 -2 2.5 -2.60059 3.89941c-0.799805 1.80078 -1.19922 3.7002 -0.899414 5.7002c0.399414 3.2998 0.899414 6.5 1.2998 9.7998c0.0996094 0.600586 0.0996094 1.2002 0.200195 1.80078
c-0.200195 0.0996094 -0.299805 0.199219 -0.5 0.299805c-0.100586 0.0996094 -0.200195 0.299805 -0.400391 0.399414c-0.0996094 0 -0.0996094 0.200195 -0.200195 0.300781c-18.5996 -30 -28.5996 -64.7002 -28.5996 -100.9c0 -51.2998 20 -99.5 56.2002 -135.8z
M434.6 250.9c0.400391 0 0.700195 -0.100586 1.90039 -0.400391v0.799805c-0.299805 2.10059 -0.900391 4.2002 -1.7998 6.2002c-0.700195 1.5 -1.60059 3 -2.7002 4.2998c0 0 -9.7002 -6 -27.0996 14.4004c-17.4004 20.3994 -23.6006 16 -23.6006 16
s-2.5 -2.2998 -2.7002 -1.5c0 0.0996094 -0.199219 0.200195 -0.299805 0.200195c-0.0996094 0 -0.299805 -0.100586 -0.299805 -0.200195c-0.200195 -0.5 -0.400391 -0.900391 -0.5 -1.40039c-0.299805 -1.39941 -0.599609 -2.89941 -0.799805 -4.39941
c-0.400391 -2.5 -0.600586 -5 -0.900391 -7.5c-0.0996094 -0.5 -0.0996094 -0.900391 -0.200195 -1.40039c-0.299805 0 -0.5 -0.0996094 -0.799805 -0.200195c-2.7998 -0.799805 -5.7002 -1.5 -8.5 -2.2002c-2.09961 -0.5 -4.2002 -0.399414 -6.2002 0.400391
c-1.59961 0.599609 -3 1.5 -4.2998 2.7002c-1.7002 1.59961 -3.2002 3.39941 -4.2998 5.39941c-1.90039 3.30078 -3.7002 6.7002 -5.59961 10.1006c-0.100586 0.200195 -0.200195 0.399414 -0.300781 0.599609c0.100586 0.100586 0.300781 0.200195 0.400391 0.299805
c1.5 0.800781 2.90039 1.60059 4.2998 2.40039c0.200195 0.200195 0.5 0.299805 0.799805 0.400391c1.2002 0.399414 2.30078 0.899414 3.5 1.19922c1.80078 0.5 3.60059 0.800781 5.40039 0.800781c0.799805 0 1.7002 -0.100586 2.59961 -0.200195
c2.30078 1.5 4.7002 3 7.10059 4.5c0.299805 0.200195 0.599609 0.5 0.799805 0.799805c1.5 2.09961 3.09961 4.09961 4.7002 6.2002c0.200195 0.200195 0.299805 0.5 0.5 0.700195c-0.100586 0.299805 -0.200195 0.5 -0.299805 0.799805
c-0.700195 1.5 -1.30078 3.09961 -2 4.59961c-0.200195 0.600586 -0.300781 1.10059 -0.200195 1.60059c0.200195 1.59961 0.5 3.2998 0.700195 5c0 0.699219 0.199219 1.39941 0.199219 2.19922c-3 0.5 -6.09961 0.800781 -9.09961 1.30078
c-1.2998 2.09961 -2.5 4.19922 -3.7998 6.2998c-0.5 0.0996094 -0.900391 0.0996094 -1.2998 0.200195c-1.60059 0.299805 -3.2002 0.5 -4.90039 0.699219c-0.599609 0.100586 -1 0.300781 -1.40039 0.700195c-0.899414 0.799805 -1.5 1.7002 -2 2.7998
c-0.699219 1.5 -1.09961 3.2002 -1.39941 4.80078c-0.600586 3.89941 -0.600586 7.7998 -0.200195 11.6992c0 0.200195 0 0.400391 0.0996094 0.600586c3.10059 0.399414 6.30078 0.599609 9.5 1c-17.5996 11.2002 -36.7998 19.5 -57.0996 24.3994
c-0.0996094 -0.199219 -0.299805 -0.399414 -0.400391 -0.599609c-2.19922 -3.5 -4.39941 -7 -6.59961 -10.5c-0.599609 -1.09961 -0.299805 -0.900391 -1.5 -1.09961c-2.09961 -0.400391 -4.2002 -0.700195 -6.2998 -1.10059c-1.5 -0.299805 -1.5 -0.299805 -2.5 -1.39941
c-0.100586 -0.200195 -0.299805 -0.400391 -0.5 -0.600586c-2 -2.2998 -4 -4.5 -5.90039 -6.7998c-2.7998 -3.40039 -5.7002 -6.90039 -8.5 -10.4004c-0.200195 -0.199219 -0.399414 -0.5 -0.599609 -0.699219h-0.299805
c-0.200195 0.0996094 -0.5 0.199219 -0.700195 0.299805c-2.10059 1 -3.7998 2.5 -5.2002 4.2998c-1.5 1.90039 -2.59961 4.09961 -3.5 6.2998c-1.5 3.7998 -2.2002 7.60059 -2.59961 11.6006c-0.100586 0.599609 0 1 0.199219 1.5
c1.2002 3.09961 2.40039 6.19922 3.60059 9.2998c0.299805 0.899414 0.700195 1.7002 1 2.59961c0.200195 0.400391 0.0996094 0.700195 0 1c-0.200195 0.600586 -0.5 1.2002 -0.700195 1.7998v0c-1.7002 0.100586 -3.2998 0.100586 -5 0.100586h-3.40039
c0.100586 -0.200195 0.200195 -0.400391 0.300781 -0.600586c1.19922 -2.5 2.39941 -4.89941 3.5 -7.39941c0.0996094 -0.299805 0.399414 -0.600586 0.299805 -1c-0.299805 -0.200195 -0.5 -0.400391 -0.799805 -0.600586c-1.7002 -1.2998 -3.30078 -2.5 -5 -3.7998
c-0.300781 -0.299805 -0.700195 -0.700195 -1.10059 -1c-1.7002 -1.5 -3.2998 -3.09961 -5 -4.59961c-0.200195 -0.200195 -0.5 -0.400391 -0.700195 -0.600586c-0.5 1.10059 -0.799805 1.5 -1.69922 2.40039c-1.40039 1.2998 -2.90039 2.40039 -4.5 3.5
c-0.300781 0.299805 -0.600586 0.299805 -0.900391 0.299805c-2 -0.0996094 -3.90039 -0.0996094 -5.90039 -0.200195c-0.5 0 -0.899414 -0.0996094 -1.2998 -0.299805c-0.799805 -0.299805 -1.59961 -0.700195 -2.5 -0.899414
c-0.799805 -0.200195 -1.7002 -0.400391 -2.5 -0.400391c-1.59961 -0.0996094 -3 0.200195 -3.7998 1.7998c-0.400391 0.700195 -1 1 -1.7998 0.900391c-0.299805 -0.100586 -0.600586 -0.100586 -0.799805 -0.200195c-0.5 -0.200195 -1 -0.400391 -1.5 -0.700195
c-1.10059 -0.700195 -2.2002 -1.5 -3.10059 -2.39941c-1.09961 -1 -2.2998 -1.90039 -3.59961 -2.7002c-0.299805 -0.100586 -0.5 -0.299805 -0.700195 -0.400391c-1.7998 -1.2002 -3.59961 -2.39941 -5.5 -3.59961c-0.400391 -0.200195 -0.599609 -0.5 -0.700195 -1
c-0.0996094 -0.600586 -0.299805 -1.2002 -0.399414 -1.90039c-0.400391 -1.89941 -0.600586 -3.7002 -0.5 -5.59961c0 -1 0.199219 -2 0.599609 -3c0.700195 -1.5 1.7998 -2.2002 3.40039 -2.2998c0.599609 0 1.19922 0.0996094 1.69922 0.299805
c1.40039 0.599609 2.7002 1.09961 4 1.7998c1.7002 0.900391 3.2002 1.90039 4.60059 3.2002c1.09961 1.09961 2.09961 2.2998 2.59961 3.7998c0.100586 0.400391 0.299805 0.700195 0.5 1c0.400391 0.599609 0.799805 0.700195 1.40039 0.5
c0.200195 -0.0996094 0.5 -0.200195 0.700195 -0.299805c0.399414 -0.200195 0.699219 -0.400391 1.09961 -0.600586c1.40039 -0.699219 2.90039 -0.699219 4.2998 0c0.799805 0.400391 1.60059 1 2.2998 1.60059c0.600586 0.599609 1.10059 1.09961 1.7002 1.7002
c1.10059 1.09961 2.2998 1.89941 3.7002 2.2998c1.7998 0.5 3.2998 0 4.40039 -1.60059c0.0996094 -0.0996094 0.199219 -0.299805 0.299805 -0.399414c0.599609 -1.10059 1.39941 -1.90039 2.2998 -2.60059c0.599609 -0.5 1.2002 -0.899414 1.7998 -1.2998
c0.5 -0.299805 1 -0.700195 1.40039 -1.09961c0.700195 -0.600586 1 -1.40039 0.899414 -2.2998c0 -0.700195 -0.199219 -1.40039 -0.5 -2c-0.5 -1 -1.09961 -1.90039 -1.69922 -2.90039c-0.5 -0.900391 -1 -1.7002 -1.5 -2.59961
c-0.300781 -0.400391 -0.400391 -0.900391 -0.5 -1.40039c-0.100586 -0.599609 0.199219 -1 0.799805 -1.09961c0.299805 -0.100586 0.5 0 0.799805 0c0.900391 0.199219 1.7002 0.5 2.59961 0.899414c0.100586 0.100586 0.400391 0.100586 0.600586 0.200195v-1.09961
c-0.200195 -2.10059 -0.5 -4.10059 -1 -6.10059c-0.400391 -1.7002 -0.900391 -3.2002 -1.7002 -4.7002c-0.5 -0.899414 -1 -1.7998 -1.7998 -2.5c-1.40039 -1.39941 -3.2002 -1.89941 -5.2002 -1.5c-0.900391 0.200195 -1.7998 0.5 -2.59961 0.900391
c-0.600586 0.299805 -1.10059 0.599609 -1.60059 1.09961c-0.599609 0.600586 -1.2002 1 -2 1.30078c-1 0.299805 -2 0.299805 -2.89941 -0.100586c-0.5 -0.200195 -0.900391 -0.5 -1.30078 -0.799805c-0.599609 -0.5 -1.09961 -1 -1.5 -1.59961
c-0.5 -0.700195 -1 -1.40039 -1.39941 -2.2002c-0.200195 -0.400391 -0.400391 -0.600586 -0.799805 -0.700195c-0.300781 -0.0996094 -0.600586 -0.200195 -0.900391 -0.299805c-1.7002 -0.5 -3.40039 -0.799805 -5.2002 -1
c-2.7002 -0.299805 -5.2998 -0.299805 -7.89941 0c-0.600586 0.0996094 -1.2002 0.0996094 -1.80078 -0.100586c-3.09961 -0.899414 -6.19922 -1.7998 -9.2998 -2.69922c-0.599609 -0.100586 -1 -0.300781 -1.5 -0.600586c-1 -0.599609 -2 -1.2002 -3.09961 -1.7002
c-1.2998 -0.699219 -2.7002 -1.19922 -4.10059 -1.59961c-1 -0.200195 -2 -0.400391 -3 -0.299805c-0.699219 0 -1.2998 0.200195 -1.89941 0.700195c-0.200195 0.199219 -0.299805 0.299805 -0.5 0.399414c-5.2998 -5.7002 -18.2998 -6.59961 -22 -12.0996
c0 -0.200195 -0.100586 -0.400391 -0.100586 -0.600586c-0.299805 -1.89941 -0.599609 -3.69922 -0.899414 -5.59961c-0.5 -3.59961 -1.10059 -7.2998 -1.7002 -11c-0.0996094 -1 -0.299805 -1.90039 -0.400391 -2.7998c-0.0996094 -0.5 -0.399414 -0.799805 -0.799805 -1
c-0.799805 -0.299805 -1.59961 -0.400391 -2.2998 0.0996094c-0.400391 0.299805 -0.799805 0.600586 -1.09961 1c-0.400391 0.5 -0.700195 1 -1 1.60059c-0.5 1 -0.900391 1.89941 -1.2002 2.89941c-0.600586 1.5 -1.10059 3.10059 -1.2002 4.7998
c-0.200195 2.60059 -1.40039 4.60059 -3.5 6.2002c-1 0.799805 -2 1.40039 -3.2002 1.7998c-2 0.800781 -4.09961 1.2002 -6.2998 1.40039c-0.799805 0.0996094 -1.5 0.200195 -2.2998 0.0996094c-2 -0.199219 -3.7998 -0.599609 -5.7002 -1.09961
c-7.7002 -2.2998 -13.7002 -6.90039 -18.2998 -13.4004c-0.200195 -0.299805 -0.299805 -0.599609 -0.400391 -0.899414c-0.899414 -2.7002 -1.5 -5.5 -1.59961 -8.40039c-0.100586 -1.5 0.0996094 -2.89941 0.599609 -4.2998
c0.799805 -1.90039 2.10059 -3.09961 4.10059 -3.59961c1.59961 -0.400391 3.19922 -0.400391 4.69922 -0.100586c1.2002 0.200195 2.30078 0.5 3.5 0.799805c0.300781 0.100586 1.2002 0.200195 1.5 0.100586c1.10059 -0.5 1.40039 -1.2002 2.10059 -2.10059
c0.799805 -1 0.899414 -2.09961 0.5 -3.2998c-0.200195 -0.599609 -0.5 -1.09961 -0.900391 -1.59961c-0.799805 -0.900391 -1.59961 -1.60059 -2.5 -2.2998c-0.799805 -0.600586 -1.7002 -1.2002 -2.5 -1.7002s-0.399414 -1.5 -0.799805 -2.2998
c-0.5 -1 -1.2998 -1.60059 -0.700195 -2.5c0.299805 -0.400391 0.600586 -0.800781 1 -1.10059c0.5 -0.5 1.10059 -0.899414 1.7998 -1.2002c0.5 -0.199219 0.700195 -0.899414 0.700195 -1.2998c0 -0.5 -0.0996094 -0.799805 -0.200195 -1.59961
c-0.299805 -3.10059 -0.5 -6.2998 -0.399414 -9.40039c0.0996094 -0.700195 0.0996094 -1.39941 0.200195 -2.09961c0.5 -3.2998 2.2998 -5.7998 5.19922 -7.5c0.5 -0.299805 0.900391 -0.5 1.30078 -0.799805c1.59961 -1.10059 3.19922 -2 5 -2.5
c1.2998 -0.400391 2.7998 -0.600586 4.19922 -0.400391c2.2002 0.299805 3.90039 1.2998 5.40039 2.7998c1 1 1.7002 2.2002 2.40039 3.40039c0.199219 0.299805 0.399414 0.599609 0.599609 0.799805c1 1 2.2002 1.59961 3.59961 1.7002
c1.2002 0 2.30078 -0.299805 3.40039 -0.900391c0.900391 -0.599609 1.7998 -1.2002 2.5 -2c0.299805 -0.399414 0.700195 -0.700195 1.2002 -0.899414c2.7998 -1.40039 5.7002 -2.80078 8.5 -4.2002c0.299805 -0.200195 0.700195 -0.299805 1.09961 -0.400391
c1.60059 -0.299805 3.10059 -0.799805 4.60059 -1.39941c4.19922 -1.7002 7.7998 -4.30078 10.5 -8.10059c0.399414 -0.5 0.799805 -0.799805 1.39941 -1c7.2002 -2.39941 13.6006 -6.2002 18.9004 -11.5996c3.2002 -3.2998 5.7002 -7.10059 7.39941 -11.4004
c0.5 -1.2998 0.900391 -2.7002 1.30078 -4c0.0996094 -0.399414 0.199219 -0.700195 0.5 -1c1.59961 -1.5 2.89941 -3.2002 4.09961 -5c1.40039 -2 2.5 -4.2002 3.59961 -6.39941c0.100586 -0.400391 0.400391 -0.600586 0.800781 -0.800781
c0.399414 -0.199219 2.09961 -0.699219 3.2998 -1c5.09961 -1.19922 9.7998 -3 14.2998 -5.59961c3.5 -2.09961 5.7002 -3.5 8.2998 -6.7002c0.600586 -0.700195 1.40039 -2.09961 1.60059 -3.59961c0.199219 -1.5 0.0996094 -2.90039 -0.100586 -4.40039
c-1 -6.5 -4.2998 -11.5 -9.7998 -15.0996c-0.5 -0.299805 -0.799805 -0.700195 -1 -1.2998c-1.90039 -5.2002 -3.90039 -10.3008 -5.7998 -15.5c-0.200195 -0.400391 -0.400391 -0.900391 -0.700195 -1.30078c-2.7998 -3.7998 -5.5 -7.69922 -8.2998 -11.5
c-0.200195 -0.399414 -0.5 -0.699219 -0.900391 -0.899414c-0.899414 -0.5 -1.7998 -1 -2.7002 -1.5c-3.7998 -1.90039 -7.89941 -3.2002 -12.0996 -4.10059c-0.700195 -0.0996094 -1.09961 -0.399414 -1.5 -0.899414c-2.5 -3.2998 -5.09961 -6.60059 -7.7002 -9.90039
c-0.200195 -0.200195 -0.399414 -0.5 -0.599609 -0.799805c-0.799805 -1.2998 -1.5 -2.59961 -2.2998 -3.90039c-1.90039 -3 -3.90039 -5.89941 -5.80078 -8.7998c-0.5 -0.700195 -1 -1.2002 -1.69922 -1.7002c-4.30078 -2.89941 -8.7002 -5.7998 -13 -8.69922
c-0.400391 -0.300781 -0.800781 -0.600586 -1.10059 -0.900391c-2.2002 -2.09961 -4.39941 -4.2998 -6.7002 -6.5c-0.5 -0.5 -0.899414 -1.09961 -1.19922 -1.7002c-0.900391 -1.89941 -1.7002 -3.7998 -2.60059 -5.7002c-1 -2.09961 -1.7002 -3.7998 -2.7002 -5.89941
c-0.199219 -0.400391 -0.299805 -1.40039 -0.299805 -1.7998c0 -0.400391 0.100586 -1.2002 0.200195 -1.90039c1.2002 -6.40039 3.59961 -18.9004 4.7998 -25.4004c0 -0.299805 0.100586 -0.599609 0.100586 -0.899414c27.7998 -15.2998 59.1992 -23.4004 91.8994 -23.4004
c39.5 0 77.2002 11.9004 109 33.9004c-1 0.599609 -1.7002 1.7998 -1.59961 2.7998c0.0996094 0.799805 0.200195 1.59961 0.399414 2.2998c0.5 1.7002 1.10059 3.40039 1.80078 5c1.5 3.2998 3 6.60059 4.59961 9.90039c1.40039 3 2.90039 5.89941 4.09961 9
c0.5 1.2002 0.900391 2.2998 1.2002 3.5c0.200195 0.700195 0.200195 1.5 0.100586 2.2002c-0.200195 1.2998 -0.400391 2.69922 -0.700195 4.09961c-0.400391 2.2002 -0.900391 4.40039 -1.40039 6.59961c-0.599609 2.90039 -0.399414 5.7002 0.600586 8.5
c0.699219 1.90039 1.59961 3.80078 2.5 5.60059c1.09961 2.2998 2.59961 4.2998 4.2998 6.2002c0.399414 0.399414 0.799805 0.899414 1.2002 1.2998c1.09961 1.2002 2.19922 2.39941 3.2998 3.59961c1.5 1.7002 2.59961 3.5 3.39941 5.60059
c1.2002 2.89941 1.5 5.89941 0.800781 9c-0.400391 1.89941 -1 3.69922 -1.7002 5.5c-0.600586 1.7998 -1.2998 3.5 -1.7998 5.2998c-1 3.39941 -1 6.89941 0.0996094 10.2998c0.400391 1.2998 0.799805 2.59961 1.2998 3.7998c0.600586 1.7002 1.2998 3.2998 1.90039 5
c0.599609 1.7002 1.09961 3.40039 1.2998 5.2002c0.400391 2.59961 0.0996094 5.09961 -0.5 7.59961c-0.0996094 0.600586 -0.299805 1.2002 -0.5 1.80078c-0.400391 1 -1.09961 1.2998 -2.09961 1c-0.400391 -0.200195 -0.800781 -0.300781 -1.2002 -0.5
c-0.5 -0.300781 -1 -0.5 -1.5 -0.700195c-0.400391 -0.200195 -0.900391 -0.400391 -1.40039 -0.5c-0.899414 -0.200195 -1.7002 0.0996094 -2.2998 0.799805c-0.200195 0.200195 -0.299805 0.299805 -0.400391 0.5c-0.599609 0.900391 -1.39941 1.5 -2.2998 1.90039
c-0.799805 0.399414 -1.59961 0.599609 -2.39941 0.799805c-2.5 0.5 -5 0.599609 -7.5 0.5c-3.60059 -0.100586 -7.10059 -0.299805 -10.6006 -0.600586c-3.39941 -0.299805 -6.7002 0.200195 -9.89941 1.40039c-2.90039 1.09961 -5.7002 2.59961 -8.30078 4.2998
c-3.5 2.2998 -6.69922 4.90039 -9.7998 7.7002c-3.5 3.09961 -6.7998 6.40039 -10.2002 9.7002c-0.299805 0.299805 -0.599609 0.599609 -0.699219 1c-0.100586 0.399414 -0.300781 0.899414 -0.400391 1.2998c-0.400391 1.7002 -0.599609 3.40039 -0.599609 5.2002
c-0.100586 3.7998 0.399414 7.59961 1.09961 11.2998c0.900391 4.90039 2 9.7002 3.5 14.5c0.599609 1.90039 1 3.90039 1.2998 5.90039c0.200195 1.59961 0.400391 3.19922 0.299805 4.7998c0 1 -0.199219 1.89941 -0.699219 2.7998
c-0.100586 0.200195 -0.100586 0.299805 -0.200195 0.400391c-0.299805 0.599609 -0.400391 1.19922 -0.200195 1.7998c0.0996094 0.399414 0.200195 0.799805 0.400391 1.2002c0.299805 0.699219 0.599609 1.2998 0.899414 2c3.2002 6.2998 8.2002 10.1992 15 11.7998
c0.5 0.0996094 0.900391 0.399414 1.2998 0.799805c2.40039 3 4.90039 5.90039 7.40039 8.90039c0.400391 0.5 0.900391 0.799805 1.5 1c3.59961 1.09961 7.2002 2.19922 10.7998 3.2998c2.7002 0.899414 5.5 1.2998 8.2998 1.39941
c2.60059 0.100586 5.10059 0 7.60059 -0.399414c2.7002 -0.400391 5.39941 -1.10059 7.89941 -2.10059c0.600586 -0.199219 1.2002 -0.299805 1.90039 -0.299805c2.7998 0.100586 5.5 0.100586 8.2998 -0.200195c1.90039 -0.299805 3.7002 -0.599609 5.5 -1.19922
c0.799805 -0.300781 1.5 -0.700195 2.2002 -1.2002c0.599609 -0.5 1.09961 -0.900391 1.7002 -1.2998c4.59961 -3.60059 9.2002 -7.10059 13.7998 -10.7002c0.400391 -0.400391 0.900391 -0.600586 1.5 -0.5h0.599609c3 0.200195 6.10059 0.0996094 9.10059 -0.100586
c1.7998 -0.0996094 3.59961 -0.299805 5.39941 -0.699219z" />
    <glyph glyph-name="uniF277" unicode="&#xf277;" 
d="M256 416c64 0 160 -133.2 160 -256.9c0 -123.699 -64 -191.1 -160 -191.1s-160 67.4004 -160 191.1c0 123.7 96 256.9 160 256.9z" />
    <glyph glyph-name="uniF131" unicode="&#xf131;" 
d="M399 128h-286v0c-10 0 -16.7998 7.09961 -16.7998 15.7998c0 3.2002 0.899414 6.10059 2.59961 8.7002l138 190.8c4.60059 5.2998 11.5 8.7002 19.2002 8.7002c7.7998 0 14.7002 -3.40039 19.2998 -8.7002l137.7 -190.399c1.7002 -2.90039 2.7998 -5.7002 2.7998 -9
c0 -8.80078 -6.7998 -15.9004 -16.7998 -15.9004v0zM403.7 96c6.7998 0 12.2998 -5.40039 12.2998 -12.2002v-39.5996c0 -6.7002 -5.5 -12.2002 -12.2998 -12.2002h-295.3c-6.90039 0 -12.4004 5.5 -12.4004 12.2002v39.5996c0 6.7998 5.59961 12.2002 12.4004 12.2002
h295.3z" />
    <glyph glyph-name="uniF132" unicode="&#xf132;" 
d="M67 299.3c-4.09961 2.10059 -11 5.7998 -12.5 10.2002c-2.59961 7.5 0.200195 10.5 11.2998 10.5h191.2h191.2c11.0996 0 13.8994 -2.90039 11.2998 -10.5c-1.5 -4.2998 -8.40039 -8.09961 -12.5 -10.2002c-11 -5.7998 -163.8 -89.0996 -169.5 -92.0996
s-11.5 -4.40039 -20.5 -4.40039s-14.7998 1.40039 -20.5 4.40039s-158.5 86.2998 -169.5 92.0996zM455.7 294.8c8.89941 4.5 8.2998 -0.700195 8.2998 -4.89941v-205c0 -9.2002 -11.7002 -20.9004 -21.5 -20.9004h-185.5h-185.5c-9.7998 0 -23.5 11.5996 -23.5 20.9004v205
c0 4.09961 0.5 9.39941 9.2998 4.89941c8.2002 -4.2002 82.6006 -56.5996 131.3 -88.0996l-82.0996 -92.5c-2 -2 -2.90039 -4.5 -1.7002 -5.60059c1.2002 -1.19922 3.90039 -0.599609 5.90039 1.40039l98.5996 83.2002c14.9004 -9.60059 25.2998 -16.2002 27.2002 -17.2002
c7.7002 -3.90039 13.0996 -4.40039 20.5 -4.40039s12.7998 0.5 20.5 4.40039c1.7998 1 12.2998 7.59961 27.2002 17.2002l98.5996 -83.2002c2.10059 -1.90039 4.7002 -2.5 5.90039 -1.40039c1.09961 1.2002 0.200195 3.60059 -1.7998 5.60059l-82.2002 92.5
c48.7002 31.5 122.3 83.8994 130.5 88.0996z" />
    <glyph glyph-name="uniF133" unicode="&#xf133;" 
d="M256 320c98.7998 0 172.2 -70.5996 224 -129.4c-50.5996 -50.1992 -124.1 -126.6 -224 -126.6c-100 0 -156.6 60.2998 -224 128c78.2998 79.2002 142.1 128 224 128zM256 100.7c49.4004 0 89.5996 40.8994 89.5996 91.2998c0 50.2998 -40.1992 91.2998 -89.5996 91.2998
s-89.5996 -40.8994 -89.5996 -91.2998c0 -50.2998 40.1992 -91.2998 89.5996 -91.2998zM256 224c0 -17.7002 14.2998 -32 32.0996 -32c7.5 0 14.3008 2.59961 19.8008 6.90039c0.199219 -2.30078 0.399414 -4.60059 0.399414 -6.90039
c0 -29.4004 -23.5 -53.2998 -52.2998 -53.2998s-52.2998 23.8994 -52.2998 53.2998s23.5 53.2998 52.2998 53.2998c2.59961 0 5.09961 -0.200195 7.59961 -0.599609c-4.69922 -5.60059 -7.59961 -12.7998 -7.59961 -20.7002z" />
    <glyph glyph-name="uniF278" unicode="&#xf278;" 
d="M288 164v-68h64v-64h-64v-64h-64v64h-64v64h64v68c-55.2002 14.2998 -96 64.4004 -96 124c0 70.7002 57.2998 128 128 128s128 -57.2998 128 -128c0 -59.7002 -40.7998 -109.8 -96 -124zM256 208c44.0996 0 80 35.9004 80 80s-35.9004 80 -80 80s-80 -35.9004 -80 -80
s35.9004 -80 80 -80z" />
    <glyph glyph-name="uniF134" unicode="&#xf134;" 
d="M381 319.4c12.2002 0 19.5996 0 19.5996 -20.4004v-28.0996h-288v28.0996c0 20.4004 7.40039 20.4004 19.5 20.4004h248.9zM333 351.5c13.0996 0 19.4004 -0.299805 19.5 -18.7002h-192c0 18.4004 6.40039 18.7002 19.5 18.7002h153zM432.4 278.4
c13.3994 -8.5 17.6992 -16.9004 15.3994 -41.3008l-17.2002 -184.399c-3.69922 -20.7002 -15.7998 -21.2002 -23.8994 -21.2002h-299.9c-8.09961 0 -20.2998 0.5 -24 21.2002l-17.5 184.8c-2.7998 25.5996 0.700195 32 15 40.9004l15.2002 9.39941v-32.2998h321v32.2998z
" />
    <glyph glyph-name="uniF135" unicode="&#xf135;" 
d="M448.4 240c8.59961 0 15.5996 -6.90039 15.5996 -15.4004v-209.199c0 -8.5 -7 -15.4004 -15.5996 -15.4004h-384.801c-8.59961 0 -15.5996 6.90039 -15.5996 15.4004v209.199c0 7.7002 5.7002 13.7002 13.0996 14.9004c-1.7998 2 -3.2998 4.40039 -3.89941 7.2002
l-8.90039 45.3994c-1.59961 8.30078 3.90039 16.4004 12.4004 18l370.1 73.6006c8.5 1.59961 16.7002 -3.7998 18.2998 -12.2002l8.90039 -45.4004c1.59961 -8.39941 -3.90039 -16.5 -12.4004 -18.0996l-341.199 -68h344zM305 45.5996l-19.5996 58.4004l50.7998 36h-62.7002
l-19.2998 58.4004l-19.2002 -58.4004h-62.7002l50.7998 -36l-19.5 -58.4004l50.7002 36.3008z" />
    <glyph glyph-name="uniF279" unicode="&#xf279;" 
d="M426.4 265.5c0 0 11.7998 2.5 21.5 6.5c0 -16 -6.7002 -32.7002 -8.7002 -36.2002c-27.7998 -50.3994 -99.6006 -122.8 -181.601 -83.5c-65.3994 31.4004 -91.7998 28.7998 -116.8 23.2998c-0.899414 -0.199219 -1.59961 -0.299805 -2.39941 -0.5
c-3.10059 -0.599609 -15.2002 -5.09961 -26.5 -0.799805v196.601c0 15.5 14.2998 31.5 33.3994 35c39.2998 7.19922 106.5 4.7998 148.101 -74.3008c38.7998 -73.5996 97.1992 -72 133 -66.0996zM88 416c4.40039 0 8 -3.59961 8 -8v-432c0 -4.40039 -3.59961 -8 -8 -8h-16
c-4.40039 0 -8 3.59961 -8 8v432c0 4.40039 3.59961 8 8 8h16z" />
    <glyph glyph-name="uniF136" unicode="&#xf136;" 
d="M147.4 -3.90039c-68.8008 38.3008 -115.4 111.601 -115.4 195.9c0 123.7 100.3 224 224 224c23.5996 0 46.2998 -4.09961 67.7002 -11c1.7998 -0.599609 3.59961 -1.2002 5.39941 -1.7998c11.9004 -4.10059 23.5 -8.7998 34.4004 -14.7998
c0.299805 -0.200195 0.599609 -0.400391 1 -0.600586c68.9004 -38.2002 115.5 -111.6 115.5 -195.899c0 -123.7 -100.3 -224 -224 -224c-23.7002 0 -46.2998 4.09961 -67.7002 10.8994c-1.7998 0.600586 -3.59961 1.2002 -5.39941 1.7998
c-11.9004 4.10059 -23.5 8.80078 -34.4004 14.8008c-0.400391 0.199219 -0.700195 0.5 -1.09961 0.699219zM118.2 291.4c-20.2002 -28.1006 -32.6006 -62.2002 -32.6006 -99.4004c0 -65.0996 36.5 -121.6 90.1006 -150.3c6.09961 -3.2998 12.5 -6.10059 19 -8.60059
c1.7998 -0.699219 3.7002 -1.2998 5.59961 -1.89941c9.2002 -3.2002 18.7002 -5.7002 28.5 -7.2998c8.7998 -1.5 17.9004 -2.40039 27.2002 -2.40039c37.2002 0 71.4004 12.4004 99.4004 32.7002l-52.4004 52.3994l36.2998 40.4004l54.4004 -54.4004
c20.2998 28.1006 32.7002 62.2002 32.7002 99.4004c0 65.5 -37 122.3 -91.2002 150.8c-5.7998 3.10059 -11.7998 5.7002 -18 8.10059c-1.90039 0.699219 -3.7998 1.2998 -5.60059 1.89941c-9.19922 3.2002 -18.6992 5.7002 -28.5 7.2998
c-8.89941 1.5 -17.8994 2.40039 -27.1992 2.40039c-37.3008 0 -71.4004 -12.4004 -99.4004 -32.5996l52.4004 -52.4004l-36.3008 -40.5zM209.7 58.2002l38.7002 112.8h-85.3008l139.101 154.8l-38.6006 -112.8h85.3008z" />
    <glyph glyph-name="uniF137" unicode="&#xf137;" 
d="M96 160l224 256l-51 -192h147l-224.1 -256l51.0996 192h-147z" />
    <glyph glyph-name="uniF138" unicode="&#xf138;" 
d="M445.9 20.9004c2.5 -4.30078 2.59961 -9.7002 0 -13.9004c-2.60059 -4.40039 -7.30078 -7 -12.4004 -7h-177.5h-177.5c-5.2002 0 -9.7998 2.7002 -12.4004 7c-2.59961 4.2998 -2.5 9.59961 0 13.9004l117.801 199.199v149.9c0 7.7998 6.5 14 14.5 14
s14.5 -6.2998 14.5 -14v-80.2002c4 3.2002 10 5.10059 16.0996 5.10059c15.2998 0 27.5 -11.9004 27.5 -26.6006s-12.2002 -26.5996 -27.5 -26.5996c-6.09961 0 -12.0996 1.89941 -16.0996 5.09961v-30.3994c0 -2.40039 -0.900391 -4.80078 -2.10059 -6.90039l-35 -58.5h72
c-14.8994 6 -25.3994 20.7002 -25.3994 37.5c0 22.7002 19 41 42.5 41c14.7998 0 27.7998 -7.2998 35.3994 -18.4004c-0.700195 1.7002 -1.2998 3.5 -1.2998 5.30078v153.6c0 7.7998 6.5 14 14.5 14s14.5 -6.2998 14.5 -14v-149.9zM282.2 151h53l-31 53.5996
c2.2002 -4.89941 3.39941 -10.3994 3.39941 -16.0996c0 -16.7002 -10.5 -31.5 -25.3994 -37.5zM265.1 319.4c-12 0 -21.7998 9.39941 -21.6992 20.8994c0 11.5 9.69922 20.9004 21.6992 20.9004s21.7002 -9.2998 21.7002 -20.9004
c0 -11.5 -9.7002 -20.8994 -21.7002 -20.8994z" />
    <glyph glyph-name="uniF139" unicode="&#xf139;" 
d="M430.1 256c17.7002 0 18.6006 -7 17.7002 -18.2002l-12.0996 -185.3c-1 -11.2998 -3.10059 -20.5 -21.1006 -20.5h-316.199c-17.6006 0 -20.2002 9.2998 -21.1006 20.5l-13 183c-1 11.2998 -0.0996094 20.5 17.6006 20.5h348.199zM426.2 304.7l1.59961 -32.7002h-343.399
c0.5 6.2002 4 46.7002 5.5 63.4004c1.59961 18.0996 7.7998 16.5996 25.1992 16.5996h75.3008c28.2998 0 22.8994 0.200195 36.5996 -14.5996c16.5 -17.7002 19.0996 -17.4004 40.9004 -17.4004h143.199c10.6006 0 14.6006 -2.90039 15.1006 -15.2998z" />
    <glyph glyph-name="uniF27A" unicode="&#xf27a;" 
d="M270.2 299.1c0 -0.0996094 -0.100586 -0.0996094 0 0v-0.0996094v0.0996094zM320 282c0 -25.7998 -15 -48.2002 -36.5996 -58c-12.4004 -5.59961 -11.4004 -10.5996 -11.4004 -10.5996s16 -200 16 -213.101c0 -13.0996 -3.7998 -18.5 -9.2998 -24
c-5.60059 -5.5 -14.2002 -8.2002 -22.4004 -8.2002h-0.200195h-0.199219c-8.2002 0 -16.9004 2.7002 -22.4004 8.2002s-9.5 12.6006 -9.5 24c0 11.4004 16 213.101 16 213.101s-0.0996094 5.19922 -11.2998 10.2998c-22.1006 10.0996 -36.7002 32.5 -36.7002 58.2002
c0 43.1992 15 93.0996 23.7998 134.1h8l0.400391 -116.9c0 -6.09961 3 -11.0996 9.09961 -11.0996c5.7998 0 8.90039 4.2998 9.5 9.90039l0.100586 1.09961l9 117h8l10.2998 -116.9c0 -0.399414 -0.100586 -0.799805 0 -1.19922
c0.599609 -5.60059 2.89941 -9.90039 8.59961 -9.90039c6.10059 0 9 5 9 11.0996l0.200195 116.9h8v-0.299805c9 -40.5 24 -90.5 24 -133.7z" />
    <glyph glyph-name="uniF13A" unicode="&#xf13a;" 
d="M288 149.9c-101.6 0 -171 -8.90039 -224 -101.9c0 0 36.7998 208 224 208v80l160 -144l-160 -134.4v92.3008z" />
    <glyph glyph-name="uniF13B" unicode="&#xf13b;" 
d="M32 192.6c0 65.1006 49.5 111.4 110.7 111.4h226.6c61.2002 0 110.7 -46.2002 110.7 -111.4c0 -65.1992 -49.5 -112.6 -110.7 -112.6h-226.6c-61.2002 0 -110.7 47.4004 -110.7 112.6zM404.8 214.7c-10.7002 0 -19.3994 -8.5 -19.3994 -19s8.69922 -19 19.3994 -19
s19.4004 8.5 19.4004 19s-8.7002 19 -19.4004 19zM362.3 256.2c-10.7002 0 -19.3994 -8.5 -19.3994 -19s8.69922 -19 19.3994 -19c10.7998 0 19.5 8.5 19.5 19s-8.7002 19 -19.5 19zM362.3 173.1c-10.7002 0 -19.2998 -8.39941 -19.3994 -19
c0 -10.3994 8.69922 -18.8994 19.3994 -18.8994c10.7998 0 19.5 8.39941 19.5 18.8994c0 10.6006 -8.7002 19 -19.5 19zM319.8 214.7c-10.7002 0 -19.3994 -8.5 -19.3994 -19s8.69922 -19 19.3994 -19c10.7998 0 19.5 8.5 19.5 19s-8.7002 19 -19.5 19zM88 202.7v-21.7002
c0 -2.90039 1.90039 -5 4.59961 -5h0.5h34.8008v-38.4004v-1.09961c0 -2.59961 2.19922 -4.5 4.7998 -4.5h21.8994c2.7002 0 5.40039 2.09961 5.40039 4.90039v0.5v38.5996h37.4004h0.5c2.69922 0 5.19922 2.09961 5.19922 5v21.7002c0 2.7998 -2.5 5.2998 -5.19922 5.2998
h-0.600586h-37.2002v38.2998v0.5c0 2.7998 -2.69922 5.2002 -5.39941 5.2002h-21.9004c-2.7002 0 -4.7998 -2.40039 -4.7998 -5.2002v-0.599609v-38.2002h-34.5996h-1.10059c-2.5 0 -4.2998 -2.59961 -4.2998 -5.2998z" />
    <glyph glyph-name="uniF13C" unicode="&#xf13c;" 
d="M377.8 347.9c44.7998 -13.4004 67.2998 -60.4004 88.5 -148.801c21.2002 -88.5 17.2998 -152.399 -7.7002 -164.3c-25 -11.8994 -53.1992 15.4004 -80.0996 49.1006c-23.5 27.3994 -32.7998 28.0996 -122.5 28.0996c-89.7998 0 -100.7 -1.7002 -122.5 -28.0996
c-26.9004 -33.7002 -55.0996 -61 -80.0996 -49.1006c-25 11.9004 -28.9004 75.7998 -7.7002 164.3c21.2002 88.4004 43.5996 135.5 88.5 148.801c44.8994 13.3994 59 -11.9004 121.8 -11.9004s76.9004 25.2002 121.8 11.9004zM128.2 184.3
c21.7002 0 39.2998 17.7998 39.2998 39.6006c0 21.7998 -17.5996 39.5996 -39.2998 39.5996s-39.2998 -17.7998 -39.2998 -39.5996c0 -21.9004 17.5996 -39.6006 39.2998 -39.6006zM309.7 204.4c10.7002 0 19.2998 8.69922 19.3994 19.3994
c0 10.7002 -8.69922 19.4004 -19.3994 19.4004c-10.6006 0 -19.2998 -8.7002 -19.2998 -19.4004s8.69922 -19.3994 19.2998 -19.3994zM351.9 162c10.6992 0 19.3994 8.59961 19.3994 19.4004c0 10.6992 -8.7002 19.3994 -19.3994 19.3994
c-10.6006 0 -19.3008 -8.59961 -19.3008 -19.3994c0 -10.7002 8.7002 -19.4004 19.3008 -19.4004zM351.9 246.9c10.6992 0 19.3994 8.69922 19.3994 19.3994s-8.7002 19.4004 -19.3994 19.4004c-10.6006 0 -19.3008 -8.7002 -19.3008 -19.4004
s8.7002 -19.3994 19.3008 -19.3994zM394.2 204.4c10.7002 0 19.2998 8.69922 19.2998 19.3994s-8.7002 19.4004 -19.2998 19.4004c-10.6006 0 -19.2998 -8.7002 -19.2998 -19.4004s8.59961 -19.3994 19.2998 -19.3994z" />
    <glyph glyph-name="uniF13D" unicode="&#xf13d;" 
d="M411.1 192c0 -23.9004 14.7002 -42.7998 36.8008 -55.7998c-4 -13.2998 -9.30078 -26.1006 -15.8008 -38.2002c-24.8994 6.5 -45.0996 -3.2998 -62 -20.2002c-16.8994 -17 -22.0996 -37.0996 -15.5996 -62c-12 -6.5 -24.7998 -11.7998 -38.2002 -15.7998
c-13 22.2002 -36.5 36.9004 -60.3994 36.9004c-23.9004 0 -47.4004 -14.7002 -60.4004 -36.9004c-13.4004 4 -26.0996 9.2998 -38.2002 15.7998c6.5 24.9004 1.40039 45.1006 -15.5996 62c-16.9004 16.9004 -37 22.1006 -61.9004 15.6006
c-6.5 12 -11.7998 24.7998 -15.7998 38.1992c22.2002 13 37 36.5 37 60.4004s-14.7998 42.7998 -37 55.7998c4 13.4004 9.2998 26.2002 15.9004 38.2002c24.7998 -6.5 45 3.2998 61.8994 20.2002c16.9004 17 22.1006 37.0996 15.6006 62
c12 6.5 24.7998 11.7998 38.1992 15.7998c13 -22.2002 36.5 -36.9004 60.4004 -36.9004c24 0 47.4004 14.7002 60.4004 36.9004c13.3994 -4 26.1992 -9.2998 38.1992 -15.7998c-6.5 -24.9004 -1.2998 -45.1006 15.6006 -62c17 -17 37.0996 -26.7002 62 -20.2002
c6.5 -12 11.7998 -24.9004 15.7998 -38.2002c-22.0996 -13 -36.9004 -31.8994 -36.9004 -55.7998zM256 93.7002c54.2998 0 98.2998 44 98.2998 98.2998s-44 98.2998 -98.2998 98.2998s-98.2998 -44 -98.2998 -98.2998s44.0996 -98.2998 98.2998 -98.2998z" />
    <glyph glyph-name="uniF13E" unicode="&#xf13e;" 
d="M448 153.6h-44c-3.7998 -13.7998 -9.5 -26.6992 -16.7002 -38.5996l31.6006 -31.7002l-54.3008 -54.2998l-32.2998 32.2998c-11.7002 -6.7998 -24.3994 -11.8994 -37.8994 -15.3994v-46h-76.8008v46c-13.3994 3.5 -26.1992 8.59961 -37.8994 15.3994l-32.2998 -32.2998
l-54.3008 54.2998l31.7002 31.7002c-7.2002 12 -12.8994 24.9004 -16.7002 38.5996h-44.0996v76.8008h42.7998c3.5 14.3994 8.90039 28 16.1006 40.5l-29.8008 29.6992l54.3008 54.3008l29.0996 -29.1006c12.5996 7.60059 26.4004 13.5 41.0996 17.2998v40.9004h76.8008
v-40.9004c14.6992 -3.7998 28.5 -9.59961 41.0996 -17.2998l29.0996 29.1006l54.3008 -54.3008l-29.8008 -29.6992c7.2002 -12.5 12.7002 -26.1006 16.1006 -40.5h42.7998v-76.8008zM256 138.2c29.7002 0 53.7998 24.0996 53.7998 53.7998
s-24.0996 53.7998 -53.7998 53.7998s-53.7002 -24.0996 -53.7002 -53.7998s24 -53.7998 53.7002 -53.7998z" />
    <glyph glyph-name="uniF13F" unicode="&#xf13f;" 
d="M160 294.7c0 -3.7002 -3 -6.7002 -6.7002 -6.7002h-50.5c-3.7002 0 -6.7002 3 -6.7002 6.7002v50.5c0 3.7002 3 6.7002 6.7002 6.7002h50.5c3.7002 0 6.7002 -3 6.7002 -6.7002v-50.5zM288 294.7c0 -3.7002 -3 -6.7002 -6.7002 -6.7002h-50.5
c-3.7002 0 -6.7002 3 -6.7002 6.7002v50.5c0 3.7002 3 6.7002 6.7002 6.7002h50.5c3.7002 0 6.7002 -3 6.7002 -6.7002v-50.5zM416 294.7c0 -3.7002 -3 -6.7002 -6.7002 -6.7002h-50.5c-3.7002 0 -6.7002 3 -6.7002 6.7002v50.5c0 3.7002 3 6.7002 6.7002 6.7002h50.5
c3.7002 0 6.7002 -3 6.7002 -6.7002v-50.5zM160 166.7c0 -3.7002 -3 -6.7002 -6.7002 -6.7002h-50.5c-3.7002 0 -6.7002 3 -6.7002 6.7002v50.5c0 3.7002 3 6.7002 6.7002 6.7002h50.5c3.7002 0 6.7002 -3 6.7002 -6.7002v-50.5zM288 166.7
c0 -3.7002 -3 -6.7002 -6.7002 -6.7002h-50.5c-3.7002 0 -6.7002 3 -6.7002 6.7002v50.5c0 3.7002 3 6.7002 6.7002 6.7002h50.5c3.7002 0 6.7002 -3 6.7002 -6.7002v-50.5zM416 166.7c0 -3.7002 -3 -6.7002 -6.7002 -6.7002h-50.5c-3.7002 0 -6.7002 3 -6.7002 6.7002v50.5
c0 3.7002 3 6.7002 6.7002 6.7002h50.5c3.7002 0 6.7002 -3 6.7002 -6.7002v-50.5zM160 38.7002c0 -3.7002 -3 -6.7002 -6.7002 -6.7002h-50.5c-3.7002 0 -6.7002 3 -6.7002 6.7002v50.5c0 3.7002 3 6.7002 6.7002 6.7002h50.5c3.7002 0 6.7002 -3 6.7002 -6.7002v-50.5z
M288 38.7002c0 -3.7002 -3 -6.7002 -6.7002 -6.7002h-50.5c-3.7002 0 -6.7002 3 -6.7002 6.7002v50.5c0 3.7002 3 6.7002 6.7002 6.7002h50.5c3.7002 0 6.7002 -3 6.7002 -6.7002v-50.5zM416 38.7002c0 -3.7002 -3 -6.7002 -6.7002 -6.7002h-50.5
c-3.7002 0 -6.7002 3 -6.7002 6.7002v50.5c0 3.7002 3 6.7002 6.7002 6.7002h50.5c3.7002 0 6.7002 -3 6.7002 -6.7002v-50.5z" />
    <glyph glyph-name="uniF27B" unicode="&#xf27b;" 
d="M410 416c3.2998 0 6 -2.7002 6 -6v-84c0 -3.2998 -2.7002 -6 -6 -6h-52c-3.2998 0 -6 2.7002 -6 6v14.5c-6 5.2002 -16.0996 8.2998 -22 6.5c-7.40039 -2.2002 -22.7002 -12.7002 -29.7002 -25.0996c-6.7002 -11.9004 -6.2998 -27.7002 -6.2998 -65.9004l8 -2
c4.7002 -1.2002 7 -5.7002 7 -9c0 0 0.200195 -6.5 0.200195 -70.4004c0 -94.5996 10.7998 -200.6 10.7998 -200.6c0 -3.2998 -2.7002 -6 -6 -6h-84c-3.2998 0 -6 2.7002 -6 6c0 0 10.7998 106 10.7998 200.6c0 63.9004 0.200195 70.4004 0.200195 70.4004
c0 3.2998 2.7002 7.7002 7 9l6.59961 2c0 42.7002 -4 57.7998 -21.2998 73.5c-18 16.4004 -41.3994 19.5 -63.7002 17.2002c-22.3994 -2.40039 -50.3994 -34.7002 -57.6992 -44.7002c-7.30078 -10 -10.3008 2.40039 -10 11.0996
c0.599609 16.5 22.2998 60.6006 72.2998 81.4004s91.2998 21.5 102 21.5s26.5996 -1 37.8994 -3c11.3008 -2 15.6006 -18.4004 26.1006 -18.4004c6.89941 0 13.7998 5.80078 17.7998 9.80078v5.59961c0 3.2998 2.7002 6 6 6h52z" />
    <glyph glyph-name="uniF140" unicode="&#xf140;" 
d="M447.4 209.8c2.69922 -50.7002 -3.40039 -129.8 -13.1006 -161.899c-20.2998 -67 -40.3994 -80 -72.0996 -80s-58.2002 26.5 -58.2002 58.8994v106.101c0 32.5996 23.2998 59 53.2998 59c18.1006 0 34 -9.7002 43.7998 -24.4004c0 0 11 8.09961 13.1006 23
c2 14.9004 3.09961 32.5 -5.60059 63c-8.69922 30.5 -20.7998 20.2002 -35.5996 39c-2.5 3.2998 -5.2002 6.40039 -8 9.5c-3.2002 3.40039 -6.40039 6.7002 -9.7998 9.7002c-1.60059 1.5 -3.2002 2.7998 -4.7998 4.2002c-11 9.2998 -21.2002 17 -33.9004 22.7998
c-19 8.59961 -39.7002 13.2998 -60.7002 13.2998c-21.0996 0 -41.5996 -4.7002 -60.5 -13.2998c-12.7002 -5.7998 -22.7002 -13.5 -33.7002 -22.7998c-1.59961 -1.40039 -3.19922 -2.7002 -4.7998 -4.2002c-3.39941 -3 -6.59961 -6.2998 -9.7998 -9.7002
c-2.7998 -3.09961 -5.5 -6.2002 -8 -9.5c-14.7998 -18.7998 -26.9004 -8.5 -35.5996 -39c-8.7002 -30.5996 -7.7002 -48.0996 -5.60059 -63c2 -14.9004 13.1006 -23 13.1006 -23c9.7998 14.7002 25.7998 24.4004 43.7998 24.4004c30 0 53.2998 -26.5 53.2998 -59v-106
c0 -32.5 -26.5 -58.9004 -58.2002 -58.9004s-51.7998 13 -72.0996 80c-9.7002 32 -15.7998 111.1 -13 161.8c3.2002 59.7002 21.8994 108.601 55.8994 145.2c0.100586 0.0996094 0.100586 0.0996094 0.200195 0.200195c7.7002 8.39941 16 15.8994 24.7002 22.5996
c9 6.90039 18.5 13 28.4004 18.1006c25.2998 13.0996 52.8994 20 81.8994 20c29.1006 0 56.7998 -6.90039 82.1006 -20c9.89941 -5.10059 19.5 -11.2002 28.5 -18.1006c8.69922 -6.7002 17.0996 -14.2002 24.7998 -22.5996
c0.0996094 -0.100586 0.0996094 -0.100586 0.200195 -0.200195c34.0996 -36.5996 52.7998 -85.4004 56 -145.2z" />
    <glyph glyph-name="uniF141" unicode="&#xf141;" 
d="M429.9 352.4c45.5 -47.3008 45.5 -124.101 0 -171.4l-173.9 -181l-173.9 181.1c-45.5 47.3008 -45.5 124.101 0 171.4c40.4004 42.0996 105.9 42.0996 146.4 0l27.5 -28.5996l27.5 28.5c40.4004 42.0996 106 42.0996 146.4 0z" />
    <glyph glyph-name="uniF27C" unicode="&#xf27c;" 
d="M256 416c123.7 0 224 -100.3 224 -224s-100.3 -224 -224 -224s-224 100.3 -224 224s100.3 224 224 224zM434.3 263.5c-9.5 23.7998 -23.8994 45.5996 -42.5996 64.4004c-18.7002 18.5996 -40.5 33 -64.2998 42.5l-18.9004 -61.5
c14 -6.30078 26.7998 -15.1006 38 -26.3008c11.2002 -11.1992 20 -24 26.2998 -38zM256 96c53 0 96 43 96 96s-43 96 -96 96s-96 -43 -96 -96s43 -96 96 -96zM120.2 327.8c-18.6006 -18.7002 -33 -40.5 -42.6006 -64.3994l61.5 -18.9004
c6.30078 14 15.1006 26.7998 26.3008 38c11.1992 11.2002 24 20 38 26.2998l-18.9004 61.5c-23.7998 -9.5 -45.5996 -23.7998 -64.2998 -42.5zM77.7002 120.5c9.5 -23.7998 23.8994 -45.5996 42.5996 -64.4004c18.7002 -18.5996 40.5 -33 64.2998 -42.5l18.9004 61.5
c-14 6.30078 -26.7998 15.1006 -38 26.3008c-11.2002 11.1992 -20 24 -26.2998 38zM391.8 56.2002c18.6006 18.7002 33 40.5 42.6006 64.3994l-61.5 18.9004c-6.30078 -14 -15.1006 -26.7998 -26.3008 -38c-11.1992 -11.2002 -24 -20 -38 -26.2998l18.9004 -61.5
c23.7998 9.5 45.5996 23.7998 64.2998 42.5z" />
    <glyph glyph-name="uniF142" unicode="&#xf142;" 
d="M256 416c123.7 0 224 -100.3 224 -224s-100.3 -224 -224 -224s-224 100.3 -224 224s100.3 224 224 224zM276.2 89.2998c0.599609 17.7998 -11.9004 29.9004 -29.1006 30.4004c-16.3994 0.5 -30 -10.7998 -30.5 -28.6006c-0.5 -17.8994 12.4004 -29.5996 28.8008 -30.0996
c17.0996 -0.5 30.2998 10.5 30.7998 28.2998zM324.9 216.6c7.09961 9.7002 12.0996 21.7002 12.0996 36c0 23.2002 -8.5 40.4004 -24.5996 52.6006c-17.4004 13.2002 -37.1006 17.7998 -61.9004 17.7998c-18.9004 0 -35.0996 -3.7998 -47.7998 -12.5
c-18.7998 -12.7998 -27.7002 -34.5 -27.7002 -68.5h48.7002c0 9 -0.900391 18.9004 4.39941 27.2998c5.30078 8.40039 12.7002 14.7998 25.4004 14.7998c12.9004 0 19.5996 -3.69922 25.7998 -11.3994c5.2998 -6.60059 7.2998 -14.5 7.2998 -22.7998
c0 -7.2002 -3.59961 -13.9004 -8 -19.9004c-2.39941 -3.5 -5.5 -6.7002 -9.5 -9.7002c0 0 -26.1992 -15.5996 -35.5 -30.3994c-6.89941 -11 -9.2998 -24.7002 -9.89941 -41.3008c-0.100586 -1.19922 0.399414 -3.59961 4.5 -3.59961h39.0996s4.40039 2.7002 4.5 3.90039
c0.200195 6.09961 1 15.1992 2.10059 18.6992c2.09961 6.60059 6.09961 12.4004 12.5 17.3008l13.0996 9c11.7998 9.19922 21.2002 16.7998 25.4004 22.6992z" />
    <glyph glyph-name="uniF143" unicode="&#xf143;" 
d="M345.1 370.9c25.4004 -19.3008 38.9004 -46.4004 38.9004 -83.1006c0 -22.5 -7.90039 -41.5 -19.2002 -56.8994c-6.59961 -9.40039 -21.5 -21.3008 -40.2002 -35.9004l-20.6992 -14.2998c-10 -7.7998 -16.4004 -16.9004 -19.7002 -27.2998
c-1.7002 -5.5 -2.90039 -20.1006 -3.2998 -29.6006c-0.100586 -1.7998 -1.30078 -6.2002 -7.10059 -6.2002h-61.7998c-6.59961 0 -7.2998 3.90039 -7.2002 5.80078c0.900391 26.0996 4.7998 47.8994 15.7002 65.2998c14.5996 23.3994 56.0996 48.0996 56.0996 48.0996
c6.30078 4.7998 11.3008 9.7998 15.1006 15.4004c6.89941 9.5 12.7002 20 12.7002 31.3994c0 13.2002 -3.2002 25.6006 -11.6006 36c-9.89941 12.2002 -20.3994 18.1006 -40.7998 18.1006c-20.0996 0 -31.7998 -10.2002 -40.2002 -23.5
c-8.39941 -13.2998 -7 -28.7998 -7 -43.2002h-76.7998c0 53.9004 14 88 43.7998 108.3c20.2002 13.6006 45.7002 19.7002 75.5 19.7002c39.2998 0 70.2998 -7.2002 97.7998 -28.0996zM242 77.7998c27 -0.799805 46.7998 -20 46 -48.0996
c-0.799805 -28.1006 -21.7002 -45.5 -48.7002 -44.7002c-26 0.799805 -46.2998 19.2998 -45.5 47.5c0.900391 28.0996 22.2998 46.0996 48.2002 45.2998z" />
    <glyph glyph-name="uniF144" unicode="&#xf144;" 
d="M448 160h-48v-160h-96v128h-96v-128h-96v160h-48l192 224z" />
    <glyph glyph-name="uniF27D" unicode="&#xf27d;" 
d="M128 192h256l-128 -224zM402.5 275.4c8.09961 -5 13.5 -13.7002 13.2998 -23.5c0 -15.5 -13.3994 -28 -29.7998 -28h-4.09961h-252h-4.10059c-16.3994 0 -29.8994 12.5996 -29.8994 28c0 9.7998 5.2998 18.3994 13.5 23.3994
c0.699219 0.400391 1.5 0.799805 2.19922 1.2998c4.40039 2.80078 7.5 7.2002 8.40039 12.3008c0.0996094 0.299805 0.200195 0.599609 0.200195 1c-1.5 5.89941 -2.2998 12.0996 -2.2998 18.5c0 41.7998 33.8994 75.5996 75.5996 75.5996
c8.2002 0 16.2002 -1.2998 23.5996 -3.7998c-3.09961 -12.1006 -4.19922 -31.5 -4.19922 -31.5c1.69922 15 10.7998 29 10.7998 29c17.5996 23.2998 45.3994 38.2998 76.7998 38.2998c53.0996 0 96.0996 -43 96.0996 -96.0996c0 -10.6006 -1.7998 -20.8008 -5 -29.8008
l-0.0996094 -0.699219c0.299805 -4.2002 4.2998 -9.90039 8.7002 -12.7002c0.799805 -0.5 1.5 -0.900391 2.2998 -1.2998z" />
    <glyph glyph-name="uniF145" unicode="&#xf145;" 
d="M223.5 365.9c11.7998 -9.60059 36.4004 -29.7002 36.4004 -68c0 -37.3008 -21.5 -54.9004 -43.1006 -71.5c-6.7002 -6.60059 -14.3994 -13.6006 -14.3994 -24.7002c0 -11.1006 7.69922 -17.2002 13.2998 -21.7002l18.5 -14.0996
c22.5996 -18.6006 43.0996 -35.8008 43.0996 -70.6006c0 -47.3994 -46.7002 -95.2002 -135 -95.2002c-74.3994 -0.0996094 -110.3 34.7002 -110.3 72c0 18.1006 9.2002 43.8008 39.5 61.5c31.7998 19.1006 75 21.7002 98 23.2002
c-7.2002 9.10059 -15.4004 18.7002 -15.4004 34.2998c0 8.60059 2.60059 13.6006 5.10059 19.7002c-5.60059 -0.5 -11.2998 -1 -16.4004 -1c-54.3994 0 -85.2002 39.7998 -85.2002 79.1006c0 23.1992 10.8008 48.8994 32.9004 67.5
c29.2998 23.5996 64.2002 27.5996 91.9004 27.5996h105.699l-32.7998 -18.0996h-31.7998zM187 142.1c-4.09961 0.5 -6.7002 0.5 -11.7998 0.5c-4.60059 0 -32.2998 -1 -53.9004 -8c-11.2998 -4 -44.0996 -16.0996 -44.0996 -51.8994s35.3994 -61.5 90.2998 -61.5
c49.2998 0 75.4004 23.2002 75.4004 54.3994c0 25.7002 -16.9004 39.3008 -55.9004 66.5zM201.9 237.9c11.7998 11.5996 12.7998 27.6992 12.7998 36.7998c0 36.2998 -22.1006 92.7002 -64.7002 92.7002c-13.2998 0 -27.7002 -6.5 -35.9004 -16.6006
c-8.69922 -10.5996 -11.2998 -24.2002 -11.2998 -37.2998c0 -33.7998 20 -89.7002 64.2002 -89.7002c12.7998 -0.0996094 26.5996 6 34.9004 14.1006zM480 305.7v-17.7998h-78.2998v-80.9004h-17.7002v80.9004h-79.7002v17.7998h79.7002v78.2002h17.7002v-78.2002h78.2998z
" />
    <glyph glyph-name="uniF146" unicode="&#xf146;" 
d="M242.1 172.4c22.1006 -17.9004 44.9004 -36.4004 44.9004 -73.5c0 -49.2002 -47.9004 -99 -139.5 -99c-79.7998 0 -115.5 38.5996 -115.5 76.7998c0 9.59961 3.09961 42.8994 42.5 65.5996c26.7998 15.7998 60.9004 20.4004 84.9004 22.2998
c-4.5 6.90039 -8.10059 15.3008 -8.10059 26.2002c0 4 0.400391 7.2998 1.2002 10.2998c-1.5 -0.0996094 -3 -0.0996094 -4.5 -0.0996094c-18.7998 0 -45.7002 4.5 -67.0996 26.0996c-15.2002 15.2002 -23.9004 36.2002 -23.9004 57.4004
c0 26.0996 13 52.5996 34.7998 70.5996l0.100586 0.300781c31.8994 25.3994 69.2998 28.5996 94.5996 28.5996h133.5l-60.4004 -33h-13c11.4004 -13 23.3008 -30.7998 23.3008 -57.7002c0 -40.2998 -24.7002 -59.3994 -44.7002 -74.5996l-0.5 -0.400391
c-5.90039 -5.59961 -10.9004 -10.3994 -10.9004 -17.3994c0 -6.40039 4.2002 -10.1006 10 -14.7002l0.100586 -0.100586zM116.7 308.1c0 -13.1992 3.7002 -33.5996 14.0996 -51.3994c7.2002 -12.2998 20.2002 -27 40.7002 -27c9.90039 0 21.5996 4.7002 28.5996 11.3994
c10.2002 9.80078 10.2002 24.9004 10.2002 29.8008c0 17.5 -5.7002 38.0996 -14.8994 53.5996c-7.5 12.5996 -20.5 27.5996 -40.4004 27.5996c-10.7998 0 -22.5 -5.19922 -29 -13.0996c-6.2998 -7.40039 -9.2998 -17.5 -9.2998 -30.9004zM237.8 80
c0 20.2998 -12.8994 31.2002 -49.5 56.4004c-2.59961 0.199219 -4.7998 0.199219 -8.7002 0.199219c-5.7998 0 -31.1992 -1.19922 -50.0996 -7.2998c-16.2998 -5.7002 -37.7998 -16.3994 -37.7998 -42.5c0 -30.7002 32.2002 -51.2998 80.2998 -51.2998
c40.5996 0 65.7998 17.0996 65.7998 44.5zM402 306h78v-34h-78v-81h-34v81h-80v34h80v78h34v-78z" />
    <glyph glyph-name="uniF147" unicode="&#xf147;" 
d="M368 224c-26.5 0 -48 21.5 -48 48s21.5 48 48 48s48 -21.5 48 -48s-21.5 -48 -48 -48zM452 384c15.5996 0 28 -12.7002 28 -28.2998v-327.4c0 -15.5996 -12.4004 -28.2998 -28 -28.2998h-392c-15.5996 0 -28 12.7002 -28 28.2998v327.4
c0 15.5996 12.4004 28.2998 28 28.2998h392zM348.9 186.3l99.0996 -106.7l-0.299805 260.4c-0.400391 6.90039 -6 12 -12.9004 12h-357.7c-6.7998 0 -12.0996 -4.90039 -13.0996 -11.7002v-260.5l126.5 152.601c3.90039 4.5 10.0996 7.7998 16.7998 7.7998
s12.7002 -2.90039 16.7002 -7.5l53.7998 -58.2002c1.5 -1.5 3.2998 -3.2002 4.2998 -4.09961c2.80078 -2.5 6.7002 -4.10059 11 -4.10059c4.5 0 7.60059 1.90039 11.5 4.7002l18.7002 15.7998c4.10059 3.2998 7.7002 5.7002 12.7998 5.7002
c5.2002 0 9.80078 -2.7002 12.8008 -6.2002z" />
    <glyph glyph-name="uniF148" unicode="&#xf148;" 
d="M457.6 307.8c13.1006 -0.599609 23 -10.7998 22.4004 -23.2998l-13.9004 -263.3c-0.699219 -12.6006 -11.5996 -21.7998 -24.7998 -21.2002l-330.2 15.7002c-13.1992 0.700195 -23 10.8994 -22.3994 23.5l2.39941 45.7998l-15 -1.2002
c-11.6992 -0.899414 -21.8994 7 -22.8994 18.2998l-21.2002 235.801c-0.900391 11.1992 7.59961 20.6992 19.4004 21.6992l296 24.3008c11.7998 0.899414 21.8994 -7 22.8994 -18.3008l4.7998 -53.7998zM102.6 302.5c0.600586 12.5 11.6006 21.7002 24.8008 21.2998
l219 -10.5l-2.7002 30.7998c0 0.200195 -0.299805 0.300781 -0.299805 0.400391c0 0.200195 -0.300781 0.200195 -0.300781 0.400391c-0.799805 4.89941 -5.2998 8.2998 -10.5 7.89941l-261 -21.3994c-5.19922 -0.400391 -9 -4.40039 -9.5 -9.40039v-0.5v-0.5l16 -178
l17.4004 24.7002zM436.7 65.5996l10.3994 198.601c0 0.200195 -0.299805 0.299805 -0.299805 0.5s-0.299805 0.299805 -0.299805 0.5c-0.0996094 5.5 -4.59961 9.89941 -10.4004 10.2002l-58.2998 2.7998l-28.7002 1.39941l-204.199 9.80078
c-5.7002 0.299805 -10.5 -3.60059 -11.9004 -9v-0.5v-0.5l-3.2998 -62.9004l-6.7998 -128.9l-0.300781 -6.7998l6.80078 7.40039l101.1 108.8c3.59961 3.5 9.09961 5.90039 14.7998 5.59961c5.60059 -0.299805 10.7002 -2.7998 13.7998 -6.69922l42.8008 -48.9004
c1.19922 -1.2002 2.69922 -2.59961 3.5 -3.40039c2.2998 -2.19922 5.5 -3.59961 9.09961 -3.7998c3.7002 -0.200195 6.40039 1.2002 9.90039 3.2998l16.3994 11.9004c3.60059 2.59961 6.7998 4.2998 11.1006 4.09961c4.2998 -0.199219 8.19922 -2.59961 10.5996 -5.5
l27.5 -32.6992zM373.2 185.7c-19.5 0 -35.2002 15.7002 -35.2002 35.2002s15.7998 35.1992 35.2002 35.1992c19.5 0 35.2002 -15.7998 35.2002 -35.1992c0 -19.4004 -15.8008 -35.2002 -35.2002 -35.2002z" />
    <glyph glyph-name="uniF149" unicode="&#xf149;" 
d="M480 195c1.7002 -123.7 -97.2998 -225.3 -221 -227c-123.7 -1.59961 -225.3 97.2998 -227 221c-1.59961 123.7 97.2998 225.4 221 227s225.3 -97.2998 227 -221zM256 336.1c-17.7002 0 -32 -14.2998 -32 -32c0 -17.6992 14.2998 -32 32 -32s32 14.3008 32 32
c0 17.7002 -14.2998 32 -32 32zM300 53v11h-22v172h-66v-12h22v-160h-22v-11h88z" />
    <glyph glyph-name="uniF14A" unicode="&#xf14a;" 
d="M288 0h32v-16h-128v16h32v240h-32v16h96v-256zM255.8 303.5c-26.5996 0 -48.2002 21.5996 -48.2002 48.2002c0 26.5996 21.6006 48.2002 48.2002 48.2002c26.6006 0 48.2002 -21.6006 48.2002 -48.2002c0 -26.6006 -21.5996 -48.2002 -48.2002 -48.2002z" />
    <glyph glyph-name="uniF14B" unicode="&#xf14b;" 
d="M425.5 312.6c24.2002 -34 38.5 -75.6992 38.5 -120.6c0 -114.9 -93.0996 -208 -208 -208s-208 93.0996 -208 208s93.0996 208 208 208c44.9004 0 86.5996 -14.2998 120.6 -38.5c5.90039 4.7002 13.4004 7.5 21.6006 7.5c19.2002 0 34.7998 -15.5996 34.7998 -34.7998
c0 -8.10059 -2.7998 -15.7002 -7.5 -21.6006zM391.8 56.2002c17.7002 17.5996 31.5 38.2002 41.2002 61.0996c10 23.7002 15.0996 48.9004 15.0996 74.7998c0 26 -5.09961 51.1006 -15.0996 74.8008c-5.40039 12.6992 -12.0996 24.6992 -20 35.8994
c-4.59961 -2.09961 -9.59961 -3.2998 -14.9004 -3.2998c-19.1992 0 -34.7998 15.5996 -34.7998 34.7998c0 5.40039 1.2002 10.4004 3.2998 14.9004c-11.1992 7.89941 -23.1992 14.5996 -35.8994 20c-23.7002 10 -48.9004 15.0996 -74.7998 15.0996
c-26 0 -51.1006 -5.09961 -74.8008 -15.0996c-22.8994 -9.7002 -43.3994 -23.5 -61.0996 -41.2002s-31.5 -38.2002 -41.2002 -61.0996c-10 -23.7002 -15.0996 -48.9004 -15.0996 -74.8008c0 -26 5.09961 -51.0996 15.0996 -74.7998
c9.7002 -22.8994 23.6006 -43.5 41.2002 -61.0996c17.7002 -17.7002 38.2002 -31.5 61.0996 -41.2002c23.7002 -10 48.9004 -15.0996 74.8008 -15.0996c26 0 51.0996 5.09961 74.7998 15.0996c22.8994 9.7002 43.5 23.5996 61.0996 41.2002zM159.9 192
c0 64.0664 32.0332 96.0996 96.0996 96.0996s96.0996 -32.0332 96.0996 -96.0996s-32.0332 -96.0996 -96.0996 -96.0996s-96.0996 32.0332 -96.0996 96.0996z" />
    </font>
</defs>
</svg>
