<?xml version="1.0" standalone="no"?>
<!DOCTYPE svg PUBLIC "-//W3C//DTD SVG 1.1//EN" "http://www.w3.org/Graphics/SVG/1.1/DTD/svg11.dtd" >
<svg xmlns="http://www.w3.org/2000/svg">
<metadata>
<json>
{
	"fontFamily": "Ionicons",
	"fontURL": "http://ionicons.com",
	"designer": "Ben Sperry",
	"designerURL": "http://bensperry.com",
	"license": "MIT",
	"licenseURL": "http://opensource.org/licenses/MIT",
	"version": "Version 1.2.3",
	"fontId": "ionicons",
	"psName": "ionicons",
	"subFamily": "Regular",
	"fullName": "Ionicons",
	"description": "Generated by IcoMoon"
}
</json>
</metadata>
<defs>
<font id="ionicons" horiz-adv-x="1024">
<font-face units-per-em="1024" ascent="960" descent="-64" />
<missing-glyph horiz-adv-x="1024" />
<glyph unicode="&#x20;" d="" horiz-adv-x="512" />
<glyph unicode="&#xe0fc;" d="M596.6 448v0 0l-334.4 348.2c-8.4 8.6-8.2 22.8 0.4 31.6l59.8 61.2c8.6 8.8 22.6 9 31 0.4l408.4-425.4c4.4-4.4 6.4-10.4 6-16.2 0.2-6-1.8-11.8-6-16.2l-408.4-425.2c-8.4-8.6-22.4-8.4-31 0.4l-59.8 61.2c-8.6 8.8-8.8 23-0.4 31.6l334.4 348.4z" />
<glyph unicode="&#xe600;" d="M1017.2 662.4c0 90-66.2 162.4-148 162.4-110.8 5.2-223.8 7.2-339.2 7.2-6 0-12 0-18 0s-12 0-18 0c-115.2 0-228.4-2-339.2-7.2-81.6 0-147.8-72.8-147.8-162.8-5-71.2-7.2-142.4-7-213.6-0.2-71.2 2-142.4 6.8-213.8 0-90 66.2-163 147.8-163 116.4-5.4 235.8-7.8 357.2-7.6 121.6-0.4 240.6 2 357.2 7.6 81.8 0 148 73 148 163 4.8 71.4 7 142.6 6.8 214 0.4 71.2-1.8 142.4-6.6 213.8zM414 252.2v393l290-196.4-290-196.6z" />
<glyph unicode="&#xe601;" d="M530 768c130.6 0 237.4-2.2 336.2-6.6h2.8c46.2 0 84-44 84-98.2v-2.2l0.2-2.2c4.6-68 6.8-138.6 6.8-209.8v0 0c0.2-71.2-2.2-141.8-6.8-209.8l-0.2-2.2v-2.2c0-27.6-9.4-53.2-26.8-72.2-15.6-17.2-36-26.8-57.2-26.8h-3.2c-105.8-5-217.6-7.6-332.8-7.6-7 0-14.2 0-21.2 0v0c-7.2 0-14.4 0-21.6 0-115.6 0-227.4 2.6-332.4 7.4h-3.2c-21.2 0-41.4 9.6-57 26.8-17.2 19-26.8 44.6-26.8 72.2v2.2l-0.2 2.2c-4.8 68.2-7 138.8-6.6 209.4v0.2 0.2c-0.2 70.6 2 141 6.6 209.2l0.2 2.2v2.2c0 54.4 37.6 98.6 83.8 98.6h2.8c99 4.6 205.8 6.6 336.4 6.6h36.2M530 832c-6 0-12 0-18 0s-12 0-18 0c-115.2 0-228.4-1.6-339.2-6.6-81.6 0-147.8-72.6-147.8-162.6-5-71.6-7.2-142.8-7-214.2-0.2-71.4 1.8-142.6 6.8-214 0-90 66.2-163.2 147.8-163.2 109.6-5.2 221.4-7.6 335.6-7.6 7.2 0 14.6 0 21.8 0 7.2 0 14.4 0 21.4 0 114.2 0 226 2.4 335.8 7.6 81.8 0 148 73.2 148 163.2 4.8 71.4 7 142.8 6.8 214.2 0.2 71.4-2 142.6-6.8 214.2 0 90-66.2 162.2-148 162.2-110.8 5.2-223.8 6.8-339.2 6.8v0zM414 252.4v392.8l290-196.4-290-196.4z" />
<glyph unicode="&#xe602;" d="M769.2 823.2c-22.6 0-45 1.6-65.2 8.8l-192-320-192 320c-20.2-7.2-41.4-8.8-64-8.8-22.2 0-44.2 1.8-64 8.8l256-425.4v-342.6c20 7 41.6 8.8 64 8.8s44-1.8 64-8.8v342l256 426c-19.8-6.8-40.6-8.8-62.8-8.8z" />
<glyph unicode="&#xe603;" d="M769.2 823.2c-22.6 0-45 1.6-65.2 8.8l-192-320-192 320c-20.2-7.2-41.4-8.8-64-8.8-22.2 0-44.2 1.8-64 8.8l256-425.4v-342.6c20 7 41.6 8.8 64 8.8s44-1.8 64-8.8v342l256 426c-19.8-6.8-40.6-8.8-62.8-8.8zM548.4 423l-4.4-8v-8.8-302.6c-10 1.2-22.4 1.4-32 1.4s-20-0.2-32-1.4v303 8.8l-4.8 7.6-221.2 368.2c0.6 0 1.4 0 2 0 15.2 0 32 0.6 49.4 3.8l179.6-299.6 26.8-45.6 28 45.8 179.6 299.8c18-3.2 35.2-3.4 49.6-3.4 0.4 0 0.6 0 1 0l-221.6-369z" />
<glyph unicode="&#xe604;" d="M518 417.4l-65.6-191.4h-0.2l-50.8-146.2c3.6-1 7-1.8 10.6-2.8 0.2 0 0.4 0 0.6 0 31.6-8.4 64.8-13 99-13 17 0 33.6 1 49.8 3.6 22.4 2.8 44 7.6 65 14.2 0 0 0 0 0 0 5.2 1.6 10.4 3.4 15.6 5.2-5.6 12-17.6 38.6-18.2 39.8l-105.8 290.6zM161.6 599c-20-45.2-33.6-100.8-33.6-151 0-12.6 0.6-25.2 1.8-37.6 13.8-142.4 105.8-262 232.2-315.8 5.2-2.2 10.6-4.4 16-6.4l-186 510.6c-16 0.6-19-0.4-30.4 0.2zM860.4 609.2c-8.6 18.6-18.8 36.4-30.2 53.2-3.2 4.8-6.8 9.6-10.2 14.4-43 57.6-101.6 102.8-169.8 129.2-42.8 16.8-89.6 26-138.4 26-120.6 0-228.4-56-298.8-143.4-13-16-24.6-33.2-35-51.2 28.4-0.2 63.6-0.2 67.6-0.2 36.2 0 92 4.4 92 4.4 18.8 1.2 20.8-26.2 2.2-28.4 0 0-18.8-2.2-39.6-3.2l125.8-374 75.6 226.6-53.6 147.2c-18.8 1-36.2 3.2-36.2 3.2-18.8 1-16.4 29.6 2 28.4 0 0 57-4.4 91-4.4 36.2 0 92 4.4 92 4.4 18.6 1.2 21-26.2 2.2-28.4 0 0-18.6-2.2-39.4-3.2l124.6-371.2 34.6 115.2c17.4 44.8 26.2 81.8 26.2 111.4 0 42.6-15.4 72.2-28.6 95.2-17.4 28.6-33.8 52.6-33.8 80.8 0 31.8 24 61.4 58 61.4 1.4 0 3 0 4.4 0 52.4 1.4 69.6-50.6 71.8-86 0 0 0-0.8 0-1.2 0.8-14.4 0.2-25 0.2-37.6 0-34.8-6.6-74.2-26.2-123.6l-78-225.6-44.6-131.4c3.6 1.6 7 3.2 10.6 5 113.4 54.8 196 164 213.4 293.4 2.6 17 3.8 34.4 3.8 52 0 57.8-12.8 112.6-35.6 161.6z" />
<glyph unicode="&#xe605;" d="M511.8 832c-211.4 0-383.8-172.4-383.8-384.2 0-211.6 172.4-383.8 383.8-383.8 17 0 33.6 1 49.8 3.6 171.4 22 307.6 157.4 330.6 328.2 2.6 17 3.8 34.4 3.8 52 0 211.8-172.4 384.2-384.2 384.2zM166.8 447.8c0 50 10.8 97.6 30 140.4l164.6-451c-115.2 56-194.6 174.2-194.6 310.6zM556.6 105.4c-14.6-1.8-29.6-2.8-44.8-2.8-33.8 0-66.4 5-97.2 14.2l37.6 110h0.2l65.4 191 106.2-290.8c0.8-1.6 1.8-3.2 2.6-4.6-22.4-8-45.8-13.6-70-17zM559.6 609.8c20.8 1 39.4 3.2 39.4 3.2 18.8 2 16.4 29.6-2.2 28.4 0 0-56-4.4-92-4.4-33.8 0-91 4.4-91 4.4-18.4 1.2-20.8-27.4-2-28.4 0 0 17.4-2.2 36.2-3.2l53.8-147.4-75.6-226.6-125.8 374c21 1 39.6 3.2 39.6 3.2 18.4 2 16.4 29.6-2.2 28.4 0 0-55.8-4.4-92-4.4-6.6 0-14.2 0.2-22.2 0.4 61.6 93.6 167.8 155.4 288.2 155.4 90 0 171.8-34.4 233.2-90.4-1.6 0-3 0.2-4.6 0.2-34 0-58-29.6-58-61.4 0-28.4 16.4-52.4 33.8-80.8 13.2-23 28.6-52.6 28.6-95.2 0-29.6-8.8-66.8-26.2-111.4l-34.6-115.2-124.4 371.2zM685.4 149.4l27.4 79.4 78 225.6c19.8 49.2 26.2 88.6 26.2 123.6 0 12.6-0.8 24.6-2.2 35.6 27-49.2 42.4-105.6 42.4-165.8 0-16-1-31.6-3-47-14.8-107.4-79-199.2-168.8-251.4z" />
<glyph unicode="&#xe606;" d="M404.2 426.6h-217.4c-14.8 0-26.8-12.2-26.8-27.4v-178c0-13.2 9.2-23.8 21.4-26.4l210.8-42.2 13.8-2.4c14 0.6 25.4 12.8 25.4 27v222c0 15.4-12.4 27.4-27.2 27.4v0zM836.8 426.6h-336.4c-14.8 0-26.8-12.2-26.8-27.4v-241-0.4c0-11 6.6-20.2 15.8-24.4 0.4-0.4 0.4-0.4 0.4-0.4l10.6-2.2c0.4 0 0.4 0 0.6 0l329.4-65.8c0.4-0.2 1-0.6 1.4-0.6 0.2 0 0.4 0 0.6 0.2 1.4-0.8 2.8-0.8 4.2-0.8 14.8 0 27.2 12 27.2 27v308.4c0.2 15.4-12.2 27.4-27 27.4v0zM836.8 832c-1.4 0-2.8 0-4.2-0.8-0.2 0.2-0.4 0.2-0.6 0.2-0.4 0-1-0.2-1.4-0.6l-329.6-65.6c-0.4 0-0.4 0-0.6 0l-10.2-2.2c0 0-0.4 0-0.8-0.4-9.2-4.2-15.8-13.8-15.8-24.8v-241c0-15.2 12-27.4 26.8-27.4h336.4c14.8 0 27.2 12.2 27.2 27.4v308.2c0 14.8-12.4 27-27.2 27v0zM406 746l-13.8-2.4-210.8-42.4c-12.2-2.6-21.4-13.2-21.4-26.4v-178c0-15.2 12-27.4 26.8-27.4h217.6c14.8 0 27.2 12.2 27.2 27.4v222.2c-0.2 14.2-11.4 26.2-25.6 27v0z" />
<glyph unicode="&#xe607;" d="M399.8 394.6v-211l-1.6 0.2-206.6 41.6v169.2h208.2M404.2 426.6h-217.4c-14.8 0-26.8-12.2-26.8-27.4v-178c0-13.2 9.2-23.8 21.4-26.4l210.8-42.2 13.8-2.4c14 0.6 25.4 12.8 25.4 27v222c0 15.4-12.4 27.4-27.2 27.4v0zM832.4 394.6v-294.4l-4.2-2.2-322.8 64.4v232h327M836.8 426.6h-336.4c-14.8 0-26.8-12.2-26.8-27.4v-241-0.4c0-11 6.6-20.2 15.8-24.4 0.4-0.4 0.4-0.4 0.4-0.4l10.6-2.2c0.4 0 0.4 0 0.6 0l329.4-65.8c0.4-0.2 1-0.6 1.4-0.6 0.2 0 0.4 0 0.6 0.2 1.4-0.8 2.8-0.8 4.2-0.8 14.8 0 27.2 12 27.2 27v308.4c0.2 15.4-12.2 27.4-27 27.4v0zM828 797.8l4.2-2.2v-294.4h-327v232l322.8 64.6M836.8 832c-1.4 0-2.8 0-4.2-0.8-0.2 0.2-0.4 0.2-0.6 0.2-0.4 0-1-0.2-1.4-0.6l-329.6-65.6c-0.4 0-0.4 0-0.6 0l-10.2-2.2c0 0-0.4 0-0.8-0.4-9.2-4.2-15.8-13.8-15.8-24.8v-241c0-15.2 12-27.4 26.8-27.4h336.4c14.8 0 27.2 12.2 27.2 27.4v308.2c0 14.8-12.4 27-27.2 27v0zM399.8 712.2v-211h-208.2v169.2l208.2 41.8M406 746l-13.8-2.4-210.8-42.4c-12.2-2.6-21.4-13.2-21.4-26.4v-178c0-15.2 12-27.4 26.8-27.4h217.6c14.8 0 27.2 12.2 27.2 27.4v222.2c-0.2 14.2-11.4 26.2-25.6 27v0z" />
<glyph unicode="&#xe608;" d="M834.4 832c-15.2 0-30-1.4-43.2-3.4-38.2-5.8-171-52.4-215.2-188.6 11.2 2 21.8 3.2 31.8 3.2 54.8 0 89.4-32 83-104.6-3.2-35.8-21.4-75-41.8-112.6-17.6-32.6-46.8-88.6-84.6-88.6-12.6 0-26 6.2-40.4 21.4-52 55.2-48 160.8-60 231.2-6.6 39.4-13.6 88.6-26.6 129.2-11.2 34.8-37 77-68.4 86.2-7.4 2.2-15.2 3.2-23.2 3.2-28.2 0-57.6-11.8-76.8-23-78-45.6-137.6-110.4-205-164 13.4-12.8 18.6-42.6 38.2-45.6 2.8-0.4 5.6-0.6 8.4-0.6 28 0 54.4 18.6 77.4 18.6 12.6 0 24.2-5.6 34.4-22.8 18.8-31.8 24.6-66.4 36.6-100.6 16.2-45.4 28.6-95 41.6-147.4 22.2-88.6 49.6-221 126.6-253.6 9.8-4.2 20.8-5.8 32.2-5.8 34.6 0 73.6 15.8 96.2 29.2 81 47.6 144.2 116.8 198.2 187 123.6 166.4 191.8 355 202.2 408.8 6.6 37.2 6.6 75.6-16.6 104.6-23.2 29.6-65.4 38.6-105 38.6v0z" />
<glyph unicode="&#xe609;" d="M939.4 793.4c-23.2 29.6-65.4 38.6-105 38.6-15.2 0-30-1.4-43.2-3.4-38.2-5.8-171-52.4-215.2-188.6 11.2 2 21.8 3.2 31.8 3.2 54.8 0 89.4-32 83-104.6-3.2-35.8-21.4-75-41.8-112.6-17.6-32.6-46.8-88.6-84.6-88.6-12.6 0-26 6.2-40.4 21.4-52 55.2-48 160.8-60 231.2-6.6 39.4-13.6 88.6-26.6 129.2-11.2 34.8-37 77-68.4 86.2-7.4 2.2-15.2 3.2-23.2 3.2-28.2 0-57.6-11.8-76.8-23-78-45.6-137.6-110.4-205-164 13.4-12.8 18.6-42.6 38.2-45.6 2.8-0.4 5.6-0.6 8.4-0.6 28 0 54.4 18.6 77.4 18.6 12.6 0 24.2-5.6 34.4-22.8 18.8-31.8 24.6-66.4 36.6-100.6 16.2-45.4 28.6-95 41.6-147.4 22.2-88.6 49.6-221 126.6-253.6 9.8-4.2 20.8-5.8 32.2-5.8 34.6 0 73.6 15.8 96.2 29.2 81 47.6 144.2 116.8 198.2 187 123.6 166.4 191.8 355 202.2 408.8 6.6 37.2 6.6 75.6-16.6 104.6zM924.8 695c-5-25.6-24.6-84.8-56.2-154.8-27.6-60.8-74.2-151.8-140-240.6-65.8-85.6-124-140.6-189-178.8-20.8-12.2-53.6-24.6-80-24.6-7.8 0-14.6 1.2-19.8 3.4-23.4 9.8-44.6 36.4-62.8 78.6-17.8 41.4-29.8 90.4-40.6 133.6-1.6 6.8-3.2 13.2-4.8 19.6l-0.6 2.4c-13.2 52.2-25.6 101.6-41.8 147.6-3.4 10-6.4 20-9.6 30.6-7.2 24.8-14.8 50.4-29.8 75.6-19 31.6-44 38.4-61.8 38.4-16.6 0-31.4-5.4-45.8-10.6-11.6-4.2-22.4-8.2-31.6-8.2-1.4 2-3 4.8-4.4 7.4 15.8 13.2 31.2 26.8 46.2 40.2 41.2 36.6 84 74.4 132.6 102.8 15.4 9 39.4 18.6 60.6 18.6 5.2 0 10.2-0.6 14.4-1.8 15.8-4.6 36.8-33.8 46.8-65.2 10.4-32.4 16.8-71.8 22.6-106.6 1-6.2 2-12.2 3-18 2.8-16 4.6-34.4 6.6-53.8 7-67.6 14.8-144 61.6-193.8 19.6-21 41.2-31.6 63.8-31.6 56 0 90.6 64.4 111.4 102.8l1.4 2.6c20.4 37.4 41.6 81.6 45.4 125 4 45.2-5.6 80.6-28.2 105.4-16.8 18.4-40.4 29.6-68.6 33 18.4 32.2 44.4 60 78 82.6 39.8 26.8 77.8 38.2 92.4 40.4 12.6 1.8 25.8 2.8 38.2 2.8 22.2 0 62-3.4 80.2-26.2 13.4-17 16.8-42 10.2-78.8z" />
<glyph unicode="&#xe60a;" d="M984 741c-34.8-15.4-72-25.8-111.2-30.6 40 24 70.8 62 85.2 107.2-37.4-22.2-78.8-38.4-123-47-35.4 37.8-85.8 61.4-141.4 61.4-107 0-193.6-86.8-193.6-193.8 0-15.2 1.6-30 5-44.2-161 8-303.8 85.2-399.2 202.6-16.6-28.6-26.2-62-26.2-97.4 0-67.2 34.4-126.6 86.4-161.4-32 0.8-62 9.6-88 24.2 0-0.8 0-1.6 0-2.4 0-94 66.8-172.2 155.4-190-16.2-4.4-33.4-6.8-51-6.8-12.4 0-24.6 1.2-36.4 3.6 24.6-77 96.2-133 181-134.6-66.2-52-149.8-83-240.6-83-15.6 0-31 1-46.2 2.8 85.4-55.6 187.2-87.6 296.4-87.6 356.6 0 551.4 295.4 551.4 551.6 0 8.4-0.2 16.8-0.6 25 37.8 27.4 70.6 61.4 96.6 100.4z" />
<glyph unicode="&#xe60b;" d="M984 741c-34.8-15.4-72-25.8-111.2-30.6 40 24 70.8 62 85.2 107.2-37.4-22.2-78.8-38.4-123-47-35.4 37.8-86 61.4-141.4 61.4-107 0-193.6-86.8-193.6-193.8 0-15.2 1.6-30 5-44.2-161 8-304 85.2-399.4 202.6-16.6-28.6-26.2-62-26.2-97.4 0-67.2 34.2-126.6 86.2-161.4-31.6 0.8-61.6 9.6-87.6 24.2 0-0.8 0-1.6 0-2.4 0-94 66.8-172.2 155.4-190-16.2-4.4-33.4-6.8-51-6.8-12.4 0-24.6 1.2-36.4 3.6 24.6-77 96.2-133 181-134.6-66.2-52-149.8-83-240.6-83-15.6 0-31 1-46.2 2.8 85.4-55.6 187.2-87.6 296.4-87.6 356.4 0 551.4 295.4 551.4 551.6 0 8.4-0.2 16.8-0.6 25 37.6 27.4 70.6 61.4 96.6 100.4zM868.4 666.6l-14-10.2 0.8-17.2c0.4-7.6 0.6-15.6 0.6-23.6 0-60.4-11.8-123.6-34-183-23.4-62.4-57-118.8-100-167.6-46-52.2-100.4-93-162.2-121.6-67.6-31.4-142.6-47.2-223-47.2-57.8 0-114.8 9.6-169 28.4 19.8 3.8 39.2 9.2 58.2 15.8 43.4 15.2 83.8 37.4 120.2 66l70.6 55.4-89.8 1.6c-52.2 1-99.4 26.8-128.6 67.8 14.6 1 29 3.6 43 7.4l121.4 40.4-123.4 21.8c-59.2 11.8-105.6 55.8-122.6 111.6 15.6-4 30.8-5.6 47.8-6.6 0 0 63.6-2.8 111.6 0.2-26 12.4-92.8 58.4-92.8 58.4-45 30.2-72 80.4-72 134.8 0 12.8 1.6 25.6 4.4 38 43.8-44.8 94-82.2 150.2-111 74-38.2 153.8-59.6 237.2-63.8l42.4-2.2-9.6 41.4c-2.8 11.8-4.2 24.2-4.2 37 0 88.8 72.6 161.4 161.8 161.4 44.6 0 87.6-18.6 118-51.2l12.2-13 17.4 3.4c9 1.8 17.8 3.8 26.6 6.2-2-2.8-11.4-12.2-22-21.6-9-8-35.6-33-35.6-33s26-8.2 42.2-10c16.2-1.8 34.8 1.2 37.8 1.6-5.6-4.6-15.6-11.6-21.6-15.8z" />
<glyph unicode="&#xe60c;" d="M642.4 167.4c-23.6 0-44.8 5.6-63 16.6-13.8 8.2-23 19.2-28 32.8-5.2 13.8-7.2 44.6-7.2 92.8v202.4h192v128h-192v224h-123.8c-5.4-43-15-89.4-29-117.2-14-27.8-28-51.6-51.2-71.4-23.2-19.8-51.2-35.8-83.8-46.6v-116.8h96v-280.8c0-38 4-67 11.8-87 8-20 22.2-39 42.8-56.8 20.6-17.8 45.6-31.4 74.6-41 29.2-9.6 62.8-14.4 100.8-14.4 33.4 0 60.6 3.4 89.4 10.2 28.8 6.8 61 18.6 96.4 35.2v131.2c-41.8-27.4-83.6-41.2-125.8-41.2z" />
<glyph unicode="&#xe60d;" d="M642.4 167.4c-23.6 0-44.8 5.6-63 16.6-13.8 8.2-23 19.2-28 32.8-5.2 13.8-7.2 44.6-7.2 92.8v202.4h192v128h-192v224h-123.8c-5.4-43-15-89.4-29-117.2s-28-51.6-51.2-71.4c-23.2-19.8-51.2-35.8-83.8-46.6v-116.8h96v-280.8c0-38 4-67 11.8-87 8-20 22.2-39 42.8-56.8 20.6-17.8 45.6-31.4 74.6-41 29.2-9.6 62.8-14.4 100.8-14.4 33.4 0 60.6 3.4 89.4 10.2 28.8 6.8 61 18.6 96.4 35.2v131.2c-41.8-27.4-83.6-41.2-125.8-41.2zM736 98c-26.2-11.4-50.2-19.8-71.8-24.8-26.2-6.2-51.2-9.2-82.2-9.2-34.4 0-65 4.4-90.8 12.8-25 8.2-46.4 20-63.8 35-16.6 14.4-28 29.2-34 44.4-4.4 11-9.6 33.2-9.6 75.2v312.6h-95.8v62.6c26.8 11.2 51 26 72.6 44.4 26.4 22.4 43.2 49.8 59.2 81.4 14.2 28 23.2 68 28.2 99.6h64v-224h192v-64h-192v-234.2c0-69.2 4.8-92 9.2-104 7.6-20.6 21.6-37.2 42-49.2 23.4-14 50-21 79.4-21 31.4 0 62.6 6.6 93.4 19.6v-57.2z" />
<glyph unicode="&#xe60e;" d="M873.8 366.4c5.6 25 8.4 50.8 8.4 77.4 0 199.4-164 361.2-366.4 361.2-21.4 0-42.2-1.8-62.6-5.2-32.6 20.4-71.2 32.2-112.8 32.2-117.2 0-212.4-93.8-212.4-209.4 0-38.8 10.6-75 29.2-106-4.8-23.4-7.4-47.8-7.4-72.6 0-199.6 164-361.2 366.2-361.2 23 0 45.4 2 67 6 30-15.8 64.2-24.8 100.4-24.8 117.4 0 212.4 93.8 212.4 209.4 0.2 33.4-7.8 65-22 93zM703.8 271.4c-17-23.6-42-42.4-74.4-55.6-32.2-13.2-70.6-19.8-114.6-19.8-52.6 0-96.6 9.2-131.2 27.2-24.6 13.2-44.8 30.8-60.4 52.8-15.6 22-23.4 44-23.4 65.2 0 13.2 5.2 24.6 15.2 34.2 10 9.2 23 14 38.2 14 12.6 0 23.4-3.6 32.2-11 8.4-7 15.6-17.4 21.4-31 6.6-14.6 13.6-27 21.2-36.8 7.2-9.4 17.4-17.2 30.6-23.4 13.4-6.2 31.2-9.4 53.2-9.4 30.2 0 55 6.4 73.6 19 18.4 12.2 27.2 27 27.2 45 0 14.2-4.6 25.4-14.2 34.2-10 9.2-23 16.4-39.2 21.2-16.6 5.2-39.2 10.6-67.2 16.4-38 8-70.2 17.6-96 28.4-26.2 11-47.4 26.4-63 45.4-15.8 19.4-23.6 43.8-23.6 72.4 0 27.4 8.4 51.8 24.8 73 16.4 21 40.2 37.4 71.2 48.6 30.4 11.2 66.6 16.8 107.4 16.8 32.8 0 61.4-3.8 85.4-11 24.2-7.4 44.4-17.4 60.6-29.8 16-12.4 28-25.6 35.6-39.4 7.6-14 11.4-27.8 11.4-41.2 0-12.8-5-24.6-15-34.8-10-10.2-22.6-15.6-37.6-15.6-13.6 0-24.2 3.2-31.6 9.6-6.8 6-14 15.2-21.8 28.6-9.2 17-20.2 30.6-32.8 40.2-12.4 9.2-32.8 14-61.2 14-26.2 0-47.6-5.2-63.4-15.4-15.2-9.8-22.6-21.2-22.6-34.6 0-8.2 2.4-15 7.4-21 5.2-6.2 12.4-11.8 21.8-16.4 9.6-4.8 19.6-8.6 29.4-11.2 10.2-2.8 27.2-7 50.6-12.2 29.8-6.2 57-13.4 81-20.8 24.4-7.8 45.4-17.2 62.6-28.2 17.6-11.2 31.4-25.8 41.4-43 9.8-17.2 14.8-38.8 14.8-63.6 0.8-30.2-7.8-57.4-25-81z" />
<glyph unicode="&#xe60f;" d="M340.4 768c28 0 55.4-7.8 79.2-22.6l20.6-12.8 24 4c17 3 34.4 4.4 51.8 4.4 81 0 157-31 214-87.4 56.8-56 88.2-130.6 88.2-209.8 0-21.4-2.4-42.8-7-63.6l-5-22.2 10.2-20.4c10.2-20.2 15.4-41.8 15.4-64.4 0-80.2-66.6-145.4-148.4-145.4-25 0-48.6 5.8-70.4 17.4l-19.6 10.4-21.8-4c-18.2-3.4-37-5-55.6-5-81 0-157 31-214 87.4-56.8 56-88.2 130.6-88.2 209.8 0 20 2 40.2 6 59.8l5 24.4-12.8 21.4c-13 22.2-20 47.4-20 73.2 0 80.2 66.6 145.4 148.4 145.4M340.4 832c-117.2 0-212.4-93.8-212.4-209.4 0-38.8 10.6-75 29.2-106-4.8-23.4-7.4-47.8-7.4-72.6 0-199.6 164-361.2 366.2-361.2 23 0 45.4 2 67 6 30-15.8 64.2-24.8 100.4-24.8 117.4 0 212.4 93.8 212.4 209.4 0 33.4-8 65-22.2 93 5.6 25 8.4 50.8 8.4 77.4 0 199.4-164 361.2-366.4 361.2-21.4 0-42.2-1.8-62.6-5.2-32.4 20.4-71 32.2-112.6 32.2v0zM703.8 271.8c-17-23.6-42-42.4-74.4-55.6-32.2-13.2-70.6-19.8-114.6-19.8-52.6 0-96.6 9.2-131.2 27.2-24.6 13.2-44.8 30.8-60.4 52.8-15.6 22-23.4 44-23.4 65.2 0 13.2 5.2 24.6 15.2 34.2 10 9.2 23 14 38.2 14 12.6 0 23.4-3.6 32.2-11 8.4-7 15.6-17.4 21.4-31 6.6-14.6 13.6-27 21.2-36.8 7.2-9.4 17.4-17.2 30.6-23.4 13.4-6.2 31.2-9.4 53.2-9.4 30.2 0 55 6.4 73.6 19 18.4 12.2 27.2 27 27.2 45 0 14.2-4.6 25.4-14.2 34.2-10 9.2-23 16.4-39.2 21.2-16.6 5.2-39.2 10.6-67.2 16.4-38 8-70.2 17.6-96 28.4-26.2 11-47.4 26.4-63 45.4-15 19.2-23 43.6-23 72.2 0 27.4 8.4 51.8 24.8 73 16.4 21 40.2 37.4 71.2 48.6 30.4 11.2 66.6 16.8 107.4 16.8 32.8 0 61.4-3.8 85.4-11 24.2-7.4 44.4-17.4 60.6-29.8 16-12.4 28-25.6 35.6-39.4 7.6-14 11.4-27.8 11.4-41.2 0-12.8-5-24.6-15-34.8-10-10.2-22.6-15.6-37.6-15.6-13.6 0-24.2 3.2-31.6 9.6-6.8 6-14 15.2-21.8 28.6-9.2 17-20.2 30.6-32.8 40.2-12.4 9.2-32.8 14-61.2 14-26.2 0-47.6-5.2-63.4-15.4-15.2-9.8-22.6-21.2-22.6-34.6 0-8.2 2.4-15 7.4-21 5.2-6.2 12.4-11.8 21.8-16.4 9.6-4.8 19.6-8.6 29.4-11.2 10.2-2.8 27.2-7 50.6-12.2 29.8-6.2 57-13.4 81-20.8 24.4-7.8 45.4-17.2 62.6-28.2 17.6-11.2 31.4-25.8 41.4-43 9.8-17.2 14.8-38.8 14.8-63.6 0-30-8.6-57.2-25.6-80.8z" />
<glyph unicode="&#xe610;" d="M239.8 287.8c-61.6 0-111.8-50.2-111.8-111.6 0-61.6 50.2-111.2 111.8-111.2 61.8 0 111.8 49.8 111.8 111.2 0 61.4-50 111.6-111.8 111.6zM128 576v-159.8c96 0 188.2-28.4 256-96.2 67.8-67.8 96-159.8 96-256h160c0 279.8-232 512-512 512zM128 832v-159.8c342 0 607.8-266 607.8-608.2h160.2c0 423.4-344 768-768 768z" />
<glyph unicode="&#xe611;" d="M239.8 287.8c-61.6 0-111.8-50.2-111.8-111.6 0-61.6 50.2-111.2 111.8-111.2 61.8 0 111.8 49.8 111.8 111.2 0 61.4-50 111.6-111.8 111.6zM239.8 97c-44 0-79.8 35.6-79.8 79.2 0 43.8 35.8 79.6 79.8 79.6 44 0 79.8-35.8 79.8-79.6 0-43.6-35.8-79.2-79.8-79.2zM128 576v-159.8c96 0 188.2-28.4 256-96.2 67.8-67.8 96-159.8 96-256h160c0 279.8-232 512-512 512zM607 96h-96c-6.2 99.4-42 184.2-104.4 246.6-62.4 62.6-146.6 98.4-246.6 104.6v95.6c52-3.6 104.2-16 153.4-37 57-24.4 108.4-59.2 152.8-103.6 44.4-44.4 79.2-95.8 103.6-152.8 21.2-49.2 33.6-100.6 37.2-153.4zM128 832v-159.8c342 0 607.8-266 607.8-608.2h160.2c0 423.4-344 768-768 768zM582.8 519c-112 112.2-260.8 177-422.8 184.6v95.8c380-16.4 687-323 703.4-703.4h-96.4c-7.6 161.8-72.4 311-184.2 423z" />
<glyph unicode="&#xe612;" d="M961 458c0 55.4-44.4 100.4-99 100.4-26 0-49.4-10-67.2-26.6-64.8 45.6-152.2 75.6-249.8 81.2l43.8 146.4 134.2-27c4.6-45.4 42.4-80.8 88.6-80.8 0.2 0 0.2 0 0.4 0 0.2 0 0.2 0 0.4 0 49.2 0 89 40.4 89 90.2s-40 90.2-89.2 90.2c-0.2 0-0.2 0-0.4 0 0 0-0.2 0-0.2 0-34.4 0-64-19.6-79-48.6l-179.4 36-61.6-206-5-0.2c-100.6-4.4-191-34.8-257.4-81.4-17.6 16.6-41.2 26.6-67.2 26.6-54.6 0-99-45-99-100.4 0-39.2 22-73 54.2-89.6-1.6-9.8-2.4-19.6-2.4-29.6 0.2-151.6 178-274.8 397.2-274.8s397 123.2 397 275c0 10-0.8 19.8-2.2 29.6 32.2 16.6 54.2 50.4 54.2 89.4zM131.6 417.8c-13.2 9-21.8 24.2-21.8 41.6 0 27.6 22.2 50.2 49.4 50.2 11.2 0 21.6-3.8 30-10.2-27-23.8-47-51.4-57.6-81.6zM778.6 741.8c0 18.4 14.8 33.6 33 33.6s33-15 33-33.6c0-18.4-14.8-33.6-33-33.6s-33 15-33 33.6zM317 383.2c0 35.2 28.4 63.6 63.6 63.6s63.6-28.4 63.6-63.6c0-35.2-28.4-63.6-63.6-63.6s-63.6 28.4-63.6 63.6zM512 160c-95.2 0.4-152 57-154.4 59.4l25.2 24.8c0.4-0.4 47.4-48.4 129.2-48.8 80.6 0.4 128.4 48.4 129 48.8l25.2-24.8c-2.4-2.4-59-59-154.2-59.4zM644.6 319.6c-35.2 0-63.6 28.4-63.6 63.6s28.4 63.6 63.6 63.6 63.6-28.4 63.6-63.6c0-35.2-28.6-63.6-63.6-63.6zM892.8 417c-10.8 30.6-31.2 58.8-58.6 82.8 8.4 6.6 19 10.4 30.4 10.4 27.8 0 50.2-22.8 50.2-51 0.2-17.6-8.6-33-22-42.2z" />
<glyph unicode="&#xe613;" d="M708.2 383.2c0-35.125-28.475-63.6-63.6-63.6s-63.6 28.475-63.6 63.6c0 35.125 28.475 63.6 63.6 63.6 35.125 0 63.6-28.475 63.6-63.6zM444.2 383.2c0-35.125-28.475-63.6-63.6-63.6s-63.6 28.475-63.6 63.6c0 35.125 28.475 63.6 63.6 63.6 35.125 0 63.6-28.475 63.6-63.6zM961 458c0 55.4-44.4 100.4-99 100.4-26 0-49.4-10-67.2-26.6-66.4 46.8-156.8 77-257.4 81.4l46.6 155.4 139.2-27.8c0.4-49.4 40.2-89.4 89-89.4 49.2 0 89 40.4 89 90.2s-39.8 90.4-89 90.4c-37.2 0-69-23.2-82.4-56l-170.4 34-58.8-196.4-14.2-0.4c-100.6-4.4-191-34.8-257.4-81.4-17.6 16.6-41.2 26.6-67.2 26.6-54.6 0-99-45-99-100.4 0-39.2 22-73 54.2-89.6-1.6-9.8-2.4-19.6-2.4-29.6 0.4-151.6 178.2-274.8 397.4-274.8s397 123.2 397 275c0 10-0.8 19.8-2.2 29.6 32.2 16.6 54.2 50.4 54.2 89.4zM812.2 796.2c29.6 0 53.6-24.4 53.6-54.4s-24-54.4-53.6-54.4c-29.6 0-53.6 24.4-53.6 54.4 0 30 24 54.4 53.6 54.4zM98.4 458c0 35.6 28.6 64.4 63.6 64.4 14.4 0 27.8-5 38.4-13.2-34.6-30.4-60.2-66-74-104.8-16.8 11.8-28 31.4-28 53.6zM772.8 174.2c-69.2-47.8-161.8-74.2-260.8-74.2s-191.6 26.4-260.8 74.2c-65 45-100.8 103.6-100.8 164.8 0 6.4 0.4 13 1.2 19.4 1.4 12 4.4 23.8 8.6 35.4 11.2 31.2 32 60.6 61.4 86.8 8.8 7.8 18.4 15.4 28.8 22.6 0.2 0.2 0.6 0.4 0.8 0.6 69.2 47.8 161.8 74.2 260.8 74.2 99 0 191.6-26.4 260.8-74.2 0.2-0.2 0.6-0.4 0.8-0.6 10.4-7.2 20-14.8 28.8-22.6 29.4-26.2 50.2-55.6 61.4-86.8 4.2-11.6 7-23.4 8.6-35.4 0.8-6.4 1.2-12.8 1.2-19.4 0-61.2-35.8-119.8-100.8-164.8zM897.6 404.6c-13.8 38.8-39.4 74.4-74 104.8 10.6 8.2 24 13.2 38.4 13.2 35 0 63.6-29 63.6-64.4 0-22.4-11.2-42-28-53.6zM641 244.2c-0.4-0.4-48.4-48.4-129-48.8-81.8 0.4-128.8 48.4-129.2 48.8l-25.2-24.8c2.4-2.4 59.2-59 154.4-59.4 95.2 0.4 151.8 57 154.2 59.4l-25.2 24.8z" />
<glyph unicode="&#xe614;" d="M512 896c-247.4 0-448-200.6-448-448 0-183.4 110.4-341 268.2-410.4-1.2 31.2-0.2 68.8 7.8 102.8 8.6 36.4 57.6 244.2 57.6 244.2s-14.4 28.6-14.4 70.8c0 66.4 38.4 116 86.4 116 40.8 0 60.4-30.6 60.4-67.2 0-41-26.2-102.2-39.6-159-11.2-47.6 23.8-86.2 70.8-86.2 84.8 0 142 109 142 238.2 0 98.2-66.2 171.6-186.4 171.6-135.8 0-220.6-101.4-220.6-214.6 0-39 11.6-66.6 29.6-87.8 8.2-9.8 9.4-13.8 6.4-25-2.2-8.2-7-28-9.2-36-3-11.4-12.2-15.4-22.4-11.2-62.6 25.6-91.8 94-91.8 171.2 0 127.2 107.4 279.8 320.2 279.8 171 0 283.6-123.8 283.6-256.6 0-175.8-97.8-307-241.8-307-48.4 0-93.8 26.2-109.4 55.8 0 0-26-103.2-31.6-123.2-9.4-34.6-28-69-45-96 40.2-11.8 82.8-18.4 127-18.4 247.4 0 448 200.6 448 448 0.2 247.6-200.4 448.2-447.8 448.2z" />
<glyph unicode="&#xe615;" d="M512 896c-247.4 0-448-200.6-448-448s200.6-448 448-448 448 200.6 448 448-200.6 448-448 448zM783.6 176.4c-72.6-72.4-169-112.4-271.6-112.4-32.4 0-64.2 4-94.8 11.8 5.6 12.6 10.4 25.6 14 38.6 5.6 20 31.6 123.2 31.6 123.2 15.6-29.6 61-55.8 109.4-55.8 144 0 241.8 131.2 241.8 307 0 132.8-112.6 256.6-283.6 256.6-212.8 0-320.2-152.6-320.2-279.8 0-77 29.2-145.6 91.8-171.2 10.2-4.2 19.4-0.2 22.4 11.2 2 7.8 7 27.8 9.2 36 3 11.2 1.8 15.2-6.4 25-18 21.4-29.6 48.8-29.6 87.8 0 113.2 84.6 214.6 220.6 214.6 120.2 0 186.4-73.4 186.4-171.6 0-129.2-57.2-238.2-142-238.2-46.8 0-82 38.8-70.8 86.2 13.4 56.8 39.6 118 39.6 159 0 36.6-19.6 67.2-60.4 67.2-48 0-86.4-49.6-86.4-116 0-42.2 14.4-70.8 14.4-70.8s-49-207.8-57.6-244.2c-2.6-11-4.4-22.2-5.8-33.6-34.6 18-66.6 41.2-94.8 69.6-72.8 72.4-112.8 168.8-112.8 271.4s40 199 112.4 271.6c72.6 72.4 169 112.4 271.6 112.4s199-40 271.6-112.4c72.4-72.6 112.4-169 112.4-271.6s-40-199-112.4-271.6z" />
<glyph unicode="&#xe616;" d="M834.4 832h-640.8c-35 0-65.6-25.2-65.6-59.8v-642.2c0-34.8 30.6-65.8 65.6-65.8h640.6c35.2 0 61.6 31.2 61.6 65.8v642.2c0.2 34.6-26.4 59.8-61.4 59.8zM366 192h-110v342h110v-342zM314.8 586h-0.8c-35.2 0-58 26.2-58 59 0 33.4 23.4 59 59.4 59 36 0 58-25.4 58.8-59 0-32.8-22.8-59-59.4-59zM768 192h-110v187c0 44.8-16 75.4-55.8 75.4-30.4 0-48.4-20.6-56.4-40.6-3-7.2-3.8-17-3.8-27v-194.8h-110v342h110v-47.6c16 22.8 41 55.6 99.2 55.6 72.2 0 126.8-47.6 126.8-150.2v-199.8z" />
<glyph unicode="&#xe617;" d="M365.6 192v342.2h-109.8v-342.2h109.8zM314.8 586c36.6 0 59.4 26.2 59.4 59-0.6 33.4-22.8 59-58.8 59-36 0-59.4-25.6-59.4-59 0-32.8 22.8-59 58-59h0.8zM641.2 542c-58.2 0-83.2-32.8-99.2-55.6v47.6h-110v-342h110v194.8c0 10 0.8 20 3.8 27 8 20 26 40.6 56.4 40.6 39.8 0 55.8-30.6 55.8-75.4v-187h110v199.8c0 102.6-54.4 150.2-126.8 150.2zM834.4 832h-640.8c-35 0-65.6-25.2-65.6-59.8v-642.2c0-34.8 30.6-65.8 65.6-65.8h640.6c35.2 0 61.6 31.2 61.6 65.8v642.2c0.2 34.6-26.4 59.8-61.4 59.8zM828 128c-2.2 0-626.2 0-629.8 0s-6.2 2.8-6.2 6.2 0 627.6 0 629.8 2 4 4 4 630 0 632 0 4-2 4-4c0-46.6 0-629.8 0-632 0-1.8-1.8-4-4-4z" />
<glyph unicode="&#xe618;" d="M128 832v-768h768v768h-768zM556 402v-144h-80v144l-132 240h94.2l79.4-167.2 76 167.2h90.4l-128-240z" />
<glyph unicode="&#xe619;" d="M832 768v-640h-640v640h640M896 832h-768v-768h768v768 0zM593.4 642h90.6l-127.8-240v-144h-79.8v144l-132.4 240h94.2l79.4-167.2 75.8 167.2z" />
<glyph unicode="&#xe61a;" d="M484.2 408.8l-36.4 27.4-0.2 0.2c-11.6 9.2-20 16.6-20 29.4 0 14 10 23.6 21.8 34.8l1 0.8c40 30.4 89.4 68.6 89.4 149.2 0 53.8-23.8 89.4-46.6 115.4h26l120.8 66h-267c-50.6 0-125.4-6.4-189.2-57.2l-0.2-0.6c-43.6-36-69.6-89-69.6-141.2 0-42.4 17.4-84.4 47.8-114.8 42.8-43.2 96.6-52.2 134.2-52.2 3 0 6 0 9 0.2-1.6-6-2.4-12.6-2.4-20.6 0-21.8 7.2-38.6 16.2-52.4-48-3.8-116.2-13-169.8-44.6-78.8-45.4-85-112-85-131.2 0-76.4 71.4-153.6 231-153.6 183.2 0 279 99.6 279 198 0 74.2-45.6 111.2-89.8 147zM233.4 680.2c0 26.8 6 47 18.6 61.8 13 15.8 36.4 26.2 58 26.2 39.8 0 65.8-30 80.8-55.2 18.4-31 29.8-72.2 29.8-107.2 0-9.8 0-40-20.4-59.6-14-13.4-37.4-22.8-57.2-22.8-41 0-67 29.4-81.4 54-20.8 35.6-28.2 76.4-28.2 102.8zM475.6 224c0-54.8-50.4-89-131.6-89-96.2 0-160.6 41.2-160.6 102.6 0 52.2 43 73.6 75.6 85 37.8 12.2 88.6 14.6 100.2 14.6 7.8 0 12.2 0 17.4-0.4 73.2-50.4 99-72.2 99-112.8zM804 676v156h-68v-156h-160v-68h160v-162h68v162h156v68z" />
<glyph unicode="&#xe61b;" d="M447 795.8c23.6-19.2 72.8-59.4 72.8-136 0-74.6-43-109.8-86.2-143-13.4-13.2-28.8-27.2-28.8-49.4 0-22.2 15.4-34.4 26.6-43.4l37-28.2c45.2-37.2 86.2-71.6 86.2-141.2 0-94.8-93.4-190.4-270-190.4-148.8-0.2-220.6 69.4-220.6 144 0 36.2 18.4 87.6 79 123 63.6 38.2 150 43.4 196 46.4-14.4 18.2-30.8 37.4-30.8 68.6 0 17.2 5.2 27.2 10.2 39.4-11.2-1-22.6-2-32.8-2-108.8 0-170.4 79.6-170.4 158.2 0 46.4 21.6 97.8 65.8 135 58.6 47.2 128.4 55.2 183.8 55.2h211.4l-65.6-36.2h-63.6zM374 348.2c-8.2 1-13.4 1-23.6 1-9.2 0-64.6-2-107.8-16-22.6-8-88.2-32.2-88.2-103.8 0-71.6 70.8-123 180.6-123 98.6 0 150.8 46.4 150.8 108.8 0 51.4-33.8 78.6-111.8 133M403.8 539.8c23.6 23.2 25.6 55.4 25.6 73.6 0 72.6-44.2 185.4-129.4 185.4-26.6 0-55.4-13-71.8-33.2-17.4-21.2-22.6-48.4-22.6-74.6 0-67.6 40-179.4 128.4-179.4 25.6-0.2 53.2 12 69.8 28.2M960 675.4h-156.6v156.4h-35.4v-156.4h-159.4v-35.6h159.4v-161.8h35.4v161.8h156.6z" />
<glyph unicode="&#xe61c;" d="M512 896c-247.4 0-448-205.8-448-459.4 0-203 128.4-375 306.4-435.8 2.8-0.6 5.2-0.8 7.6-0.8 16.6 0 23 12.2 23 22.8 0 11-0.4 39.8-0.6 78.2-16.8-3.8-31.8-5.4-45.2-5.4-86.2 0-105.8 67-105.8 67-20.4 53-49.8 67.2-49.8 67.2-39 27.4-0.2 28.2 2.8 28.2 0.2 0 0.2 0 0.2 0 45-4 68.6-47.6 68.6-47.6 22.4-39.2 52.4-50.2 79.2-50.2 21 0 40 6.8 51.2 12 4 29.6 15.6 49.8 28.4 61.4-99.4 11.6-204 51-204 227 0 50.2 17.4 91.2 46 123.2-4.6 11.6-20 58.4 4.4 121.6 0 0 3.2 1 10 1 16.2 0 52.8-6.2 113.2-48.2 35.8 10.2 74 15.2 112.2 15.4 38-0.2 76.4-5.2 112.2-15.4 60.4 42 97 48.2 113.2 48.2 6.8 0 10-1 10-1 24.4-63.2 9-110 4.4-121.6 28.6-32.2 46-73.2 46-123.2 0-176.4-104.8-215.2-204.6-226.6 16-14.2 30.4-42.2 30.4-85 0-61.4-0.6-111-0.6-126 0-10.8 6.2-23 22.8-23 2.4 0 5.2 0.2 8 0.8 178.2 60.8 306.4 233 306.4 435.8 0 253.6-200.6 459.4-448 459.4z" />
<glyph unicode="&#xe61d;" d="M512 896c-247.4 0-448-205.8-448-459.4 0-203 128.4-375 306.4-435.8 2.8-0.6 5.2-0.8 7.6-0.8 16.6 0 23 12.2 23 22.8 0 11-0.4 39.8-0.6 78.2-16.8-3.8-31.8-5.4-45.2-5.4-86.2 0-105.8 67-105.8 67-20.4 53-49.8 67.2-49.8 67.2-39 27.4-0.2 28.2 2.8 28.2 0.2 0 0.2 0 0.2 0 45-4 68.6-47.6 68.6-47.6 22.4-39.2 52.4-50.2 79.2-50.2 21 0 40 6.8 51.2 12 4 29.6 15.6 49.8 28.4 61.4-99.4 11.6-204 51-204 227 0 50.2 17.4 91.2 46 123.2-4.6 11.6-20 58.4 4.4 121.6 0 0 3.2 1 10 1 16.2 0 52.8-6.2 113.2-48.2 35.8 10.2 74 15.2 112.2 15.4 38-0.2 76.4-5.2 112.2-15.4 60.4 42 97 48.2 113.2 48.2 6.8 0 10-1 10-1 24.4-63.2 9-110 4.4-121.6 28.6-32.2 46-73.2 46-123.2 0-176.4-104.8-215.2-204.6-226.6 16-14.2 30.4-42.2 30.4-85 0-61.4-0.6-111-0.6-126 0-10.8 6.2-23 22.8-23 2.4 0 5.2 0.2 8 0.8 178.2 60.8 306.4 233 306.4 435.8 0 253.6-200.6 459.4-448 459.4zM355.2 63.8c4.4 0 8.8 0.2 13.4 0.4 0-5.6 0-11 0.2-15.8 0-4.8 0-9.2 0.2-13-31.2 11.6-60.6 27-88.2 46 19.6-10.6 44.2-17.6 74.4-17.6zM378 209.6c-1.6-4.4-3-9-4.2-13.8-6.8-2-15-3.6-23.4-3.6-21.8 0-38 10.8-51.2 33.8-4.8 9.2-13.6 21.4-25.8 32.6 33.6-28.2 72.6-41.8 104.6-49zM758 91.8c-31.6-23.8-66-42.6-102-56.4 0 3.8 0 8.2 0 13 0 23.8 0 59.6 0 100.8 0 24.8-4.2 45-10 61 74.4 16.6 184 67.4 184 250.8 0 49.2-14.2 93-42.4 130.2 6.2 25.8 11 71.2-10.2 126l-5.4 14.2-14.4 4.8c-3 1-9.6 2.6-20 2.6-23 0-61.8-8.2-119-45.6-34 8.4-69.6 12.8-106.2 12.8h-0.6c-36.6 0-72.4-4.4-106.2-12.8-57.2 37.4-96 45.6-119 45.6-10.4 0-17-1.8-20-2.8l-14.4-4.8-5.4-14.2c-21.2-55-16.4-100.4-10.2-126-28.2-37.4-42.4-81.2-42.4-130.2 0-99.2 32-159.8 73.2-197-16.2 13.2-37.2 24.2-62.4 26h-2.6c-26.2 0-44.6-10.8-50.4-29.4-9.4-29.6 19.6-50 29.2-56.8l1-1.2 3-1.2c3.2-2 20.2-14 33.8-49 4-12.4 12.6-29 27.2-44.4-26.2 22.4-49.6 48-69.8 76.2-52.6 73.6-80.4 161-80.4 252.6 0 57.8 11 113.8 32.8 166.6 21 51 51 96.6 89.4 135.8 38.2 39.2 82.8 70 132.2 91.4 51.2 22.2 105.6 33.6 161.6 33.6s110.4-11.2 161.6-33.4c49.6-21.4 94-52.2 132.2-91.4 38.2-39.2 68.4-85 89.4-135.8 21.8-52.8 32.8-108.8 32.8-166.6 0-91.6-27.6-179-80.2-252.6-25.2-35.4-55.4-66.4-89.8-92.4z" />
<glyph unicode="&#xe61e;" d="M576 576v76.2c0 34.4 7.6 51.8 61 51.8h67v128h-111.8c-137 0-182.2-62.8-182.2-170.6v-85.4h-90v-128h90v-384h166v384h112.8l15.2 128h-128z" />
<glyph unicode="&#xe61f;" d="M576 576v76.2c0 34.4 7.6 51.8 61 51.8h67v128h-111.8c-137 0-182.2-62.8-182.2-170.6v-85.4h-90v-128h90v-384h166v384h112.8l15.2 128h-128zM660.4 480h-116.4v-31-353h-102v353 31h-90v64h90v33 84.4c0 49 10.8 82.4 31 103.6 22.4 24 62.2 35 119.2 35h79.8v-64h-35c-24 0-55-2.2-74.2-23.4-16.2-18-18.8-40.2-18.8-60.2v-75.2-33.2h124l-7.6-64z" />
<glyph unicode="&#xe620;" d="M354 806l-226-147.8 156.2-125.4 227.8 141zM128 407.4l226-147.8 158 132.2-227.8 141zM512 391.8l158-132.2 226 147.8-156.2 125.4zM896 658.2l-226 147.8-158-132.2 227.8-141zM512.4 363.4l-159.6-132-68.8 44.4v-49.8l228-136 228 136v49.8l-68.4-44.4z" />
<glyph unicode="&#xe621;" d="M354 805.8l-226-147.8 156.6-126 227.4 141.6-158 132.2zM182.8 653.4l169 113.6 105.8-92-170.8-105-104 83.4zM739.6 534l-227.6-142.2 158-132.2 38 25.2v-40.4l-196-118.4-196 117v41l38-24.4 158 132.2-227.6 142.2-156.4-126.6 156-103v-78.8l228-135.6 228 137v78.4l156 102.4-156.4 126.2zM286.8 498.2l170.8-110.8-105.8-88.2-169 111.6 104 87.4zM566.4 387.4l170.8 110.8 104.2-87.2-169-111.6-106 88zM896 658l-226 147.8-158-132.2 227.6-141.6 156.4 126zM566.4 674.8l105.8 92 169-113.6-104-83.2-170.8 104.8z" />
<glyph unicode="&#xe622;" d="M512 832c-212 0-384-172-384-384 0-212.2 172-384 384-384s384 171.8 384 384c0 212-172 384-384 384zM512 129c-176.2 0-319 142.8-319 319s142.8 319 319 319c176.2 0 319-142.8 319-319 0-176.2-142.8-319-319-319zM612.6 466.6c46.8 4.4 101.8 5.8 154.4 4.8-4.6 50.8-24 97.4-54 135.2-33-29.8-76-56.2-126.6-78 9.2-20 17.8-40.8 26.2-62zM670.8 648.8c-43.6 34.6-98.8 55.2-158.8 55.2-10.2 0-20.4-0.6-30.4-1.8 27.6-35.4 53.4-75.2 77.2-119 43.4 18.4 81.2 40.6 112 65.6zM411.8 683.6c-68.2-29-121.4-86.8-144-158.2 82.2 1.4 159.2 14 226.8 34.6-25.2 46-53.2 87.4-82.8 123.6zM766 415.6c-44.6 1.2-92 0.4-133.8-3 8.2-24.6 16.2-49.8 23-75.8 7.6-29.2 14-58.2 19.2-86.8 49.2 40.6 83.2 99.2 91.6 165.6zM516 447.8c7.8 3.2 17.6 6 28.6 8.6-6.8 16.6-14.2 32.8-21.6 48.6-78.2-25.2-169.2-40.6-266.6-42.6-0.2-4.8-0.4-9.6-0.4-14.6 0-58.2 19.4-111.8 52-154.8 49.8 65 121.8 118.6 208 154.8zM565.2 403.6c-13.8-3-25.8-6.4-34.8-10.6-74.2-33.6-136.6-83.2-180.8-143 44.2-36.4 100.8-58 162.4-58 37 0 72 7.8 103.6 21.8-5.4 30.2-12 60.6-20 91.4-8.8 33.8-19.2 66.8-30.4 98.4z" />
<glyph unicode="&#xe623;" d="M512 832c-212 0-384-172-384-384 0-212.2 172-384 384-384s384 171.8 384 384c0 212-172 384-384 384zM755.8 655c43.2-50.8 70.6-115.2 75.4-185.8-69.2 3.6-152 3.6-218.4-2.6-8.4 21.2-17 42-26.4 62 76.6 33.2 135.6 76.8 169.4 126.4zM512 768c77.6 0 148.8-27.6 204.2-73.6-34.8-44-89.4-82.2-157.4-111.2-37.2 68.8-80 128-125.6 174.6 25.4 6.4 51.6 10.2 78.8 10.2zM367.2 733c46.2-46 89.6-104.6 127.6-173.2-72.2-22-155-34.6-243.4-34.6-16.8 0-33.2 0.6-49.4 1.6 23 90.2 84 165 165.2 206.2zM192.6 463.2c18.2-0.8 36.6-1.2 55.2-1 100.8 1.2 194.6 17 275.2 42.8 7.6-15.8 14.8-32 21.6-48.6-11-2.6-20.8-5.4-28.6-8.6-110.2-46.2-197-120.8-244-211-49.6 56.4-80 130.2-80 211.2 0 5.2 0.2 10.2 0.6 15.2zM512 128c-74 0-142 25.2-196.2 67.4 42.6 84.4 118.6 154.2 214.4 197.6 9 4.2 21 7.6 34.8 10.6 11.4-31.6 21.6-64.4 30.6-98.4 13.8-53 23.6-105.4 29.6-156.2-35.2-13.4-73.2-21-113.2-21zM685 179c-6 51.4-15.8 104.2-29.8 157.8-6.8 26-14.6 51.2-23 75.8 62.8 5.2 138 4.4 197.8 0-10.8-98.2-66-182.6-145-233.6z" />
<glyph unicode="&#xe624;" d="M580.8 670l-126.8 98 127.2-204.4zM658 768v-159.2-166.8h-72.8l-126.4 197.2 3.4-197.2h-80.2v214l-74.6 58.6c2-2.4 4-4.8 5.8-7.4 20-27.8 30-61 30-101 0-98.4-61.2-164.2-153.8-164.2h-125.4v-0.8l399.2-313.2h496.8v403.8l-302 236.2zM259.8 603.8c0 58-28.4 90.2-79.4 90.2h-38.4v-178h38c52 0 79.8 30.8 79.8 87.8z" />
<glyph unicode="&#xe625;" d="M581.8 668.2l-128.8 99.8 129.2-205.6zM65 440M658 768v-160.6-167.4h-71.8l-126.4 196 3.4-196h-81.2v214.2l-74.2 58.2c2-2.4 4.2-4.8 6-7.2 20-27.6 30-61.4 30-101 0-97.8-61-164-153.6-164h-126.2l400.2-312h495.8v402.4l-302 237.4zM928 160h-452.6l-318.2 248h33c27 0 52.4 5.4 75.4 14.8s42.8 23.6 59.6 41.4c9.6 10.2 18.8 22 24.8 34.2v-57.4-33h146l-0.6 33-1.4 83.8 65.2-101.4 9.4-15.2h121.4v33 166.2 94l0.4-0.6 237.6-185.6v-355.2zM181.2 659.2c22 0 47.4-6.4 47.4-57.6 0-13.8-2-32.6-12-43.6-7.2-7.8-19.2-12-35.4-12h-7.2v114h6M181.4 692h-39.4v-178h39c52 0 79.8 31.2 79.8 87.8 0 57.6-28.6 90.2-79.4 90.2v0z" />
<glyph unicode="&#xe626;" d="M141.4 631l338.4-163.4c8.8-4.2 20.6-6.4 32.2-6.4s23.4 2.2 32.2 6.4l338.4 163.4c17.8 8.6 17.8 22.6 0 31.2l-338.4 163.4c-8.8 4.2-20.6 6.4-32.2 6.4s-23.4-2.2-32.2-6.4l-338.4-163.4c-17.8-8.6-17.8-22.6 0-31.2zM882.6 463.6c0 0-61.8 29.8-70 33.8s-10.4 3.8-19-0.2-249.6-120.4-249.6-120.4c-9-4.2-20.6-6.4-32.2-6.4s-23.4 2.2-32.2 6.4c0 0-234.6 113.2-245.6 118.6-12 5.8-15.4 5.8-26.2 0.6-11.2-5.4-66.8-32.2-66.8-32.2-17.8-8.6-17.8-22.6 0-31.2l338.4-163.4c8.8-4.2 20.6-6.4 32.2-6.4s23.4 2.2 32.2 6.4l338.4 163.4c18.2 8.4 18.2 22.4 0.4 31zM882.6 265c0 0-61.8 29.8-70 33.8s-10.4 3.8-19-0.2-249.4-120.6-249.4-120.6c-9-4.2-20.6-6.4-32.2-6.4s-23.4 2.2-32.2 6.4c0 0-234.6 113.2-245.6 118.6-12 5.8-15.4 5.8-26.2 0.6-11.2-5.4-66.8-32.2-66.8-32.2-17.8-8.6-17.8-22.6 0-31.2l338.4-163.4c8.8-4.4 20.6-6.4 32.2-6.4s23.4 2.2 32.2 6.4l338.4 163.4c18 8.6 18 22.6 0.2 31.2z" />
<glyph unicode="&#xe627;" d="M141.4 631l338.4-163.4c8.8-4.2 20.6-6.4 32.2-6.4s23.4 2.2 32.2 6.4l338.4 163.4c17.8 8.6 17.8 22.6 0 31.2l-338.4 163.4c-8.8 4.2-20.6 6.4-32.2 6.4s-23.4-2.2-32.2-6.4l-338.4-163.4c-17.8-8.6-17.8-22.6 0-31.2zM493.6 796.8c3.2 1.6 9.8 3.2 18.4 3.2 8.6 0 15-1.6 18.4-3.2l311-150.2-311-150.2c-3.2-1.6-9.8-3.2-18.4-3.2s-15 1.6-18.4 3.2l-311 150.2 311 150.2zM882.6 463.6c0 0-61.8 29.8-70 33.8s-10.4 3.8-19-0.2-249.6-120.4-249.6-120.4c-9-4.2-20.6-6.4-32.2-6.4s-23.4 2.2-32.2 6.4c0 0-234.6 113.2-245.6 118.6-12 5.8-15.4 5.8-26.2 0.6-11.2-5.4-66.8-32.2-66.8-32.2-17.8-8.6-17.8-22.6 0-31.2l338.4-163.4c8.8-4.2 20.6-6.4 32.2-6.4s23.4 2.2 32.2 6.4l338.4 163.4c18.2 8.4 18.2 22.4 0.4 31zM530.4 297.8c-3.2-1.6-9.8-3.2-18.4-3.2s-15 1.6-18.4 3.2l-311 150.2 37.8 18.2 245.4-118.6c12.8-6.2 29.2-9.6 46.2-9.6s33.2 3.4 46.2 9.6l245.4 118.6 37.8-18.2-311-150.2zM882.6 265c0 0-61.8 29.8-70 33.8s-10.4 3.8-19-0.2-249.4-120.6-249.4-120.6c-9-4.2-20.6-6.4-32.2-6.4s-23.4 2.2-32.2 6.4c0 0-234.6 113.2-245.6 118.6-12 5.8-15.4 5.8-26.2 0.6-11.2-5.4-66.8-32.2-66.8-32.2-17.8-8.6-17.8-22.6 0-31.2l338.4-163.4c8.8-4.4 20.6-6.4 32.2-6.4s23.4 2.2 32.2 6.4l338.4 163.4c18 8.6 18 22.6 0.2 31.2zM530.4 99.2c-3.2-1.6-9.8-3.2-18.4-3.2s-15 1.6-18.4 3.2l-311 150.2 37.8 18.2 245.4-118.6c12.8-6.2 29.2-9.6 46.2-9.6s33.2 3.4 46.2 9.6l245.4 118.6 37.8-18.2-311-150.2z" />
<glyph unicode="&#xe628;" d="M821 401.6c-10 23-25.4 43.2-56.2 60.2-16.4 9-32.2 15.6-50.8 20 10.8 5 20 10.8 32.6 22 15 13.2 26.2 31.4 31.2 46.6 5.2 15 8.2 36 7 56.4-2.2 33.6-8.8 66.2-26.4 89.6-17.6 23.4-42.4 41.4-75.2 54-25.2 9.6-51 15.6-91 17.8v127.8h-80v-128h-64v128h-82v-128h-174.2v-96h55.8c17.4 0 29.2-1.6 35.2-4.6 6.2-3 10.6-7 13-12 2.6-5 3.8-16.8 3.8-35v-346.4c0-18-1.2-29.6-3.8-34.8-2.6-5.2-4-9.8-10.2-12.6-6.2-2.8-6.4-2.6-23.6-2.6h-52.8l-17.4-96h174v-128h82v128h64v-128h80v128.8c52 2.6 89 9.4 118.8 20.6 38.6 14.4 68.2 35.4 89.4 63 21.2 27.6 29.8 69.8 31.6 102.4 1.4 29-1.8 66.4-10.8 86.8zM448 660h64v-148h-64v148zM448 236v180h64v-180h-64zM592 652.2c12-5 19.8-15 27.6-25.4 8.6-11.4 13-26.6 13-42.8 0-15.6-5.8-29-15-41-7.6-9.8-13.6-16.6-25.6-22.2v131.4zM649.6 278.8c-15.6-13.8-24.6-20.2-44.2-27.6-4-1.6-9.4-2.8-13.4-3.8v165.6c10-1.6 15.2-3.6 22.6-6.8 15.6-6.6 30.4-13.8 39.6-26.4 9.2-12.6 16-31.2 16-49.4 0-21.8-5.6-38.4-20.6-51.6z" />
<glyph unicode="&#xe629;" d="M559.4 864v-94-30.2l30.2-1.6c33.8-1.8 57.6-6.6 81.4-15.8 27.6-10.6 48.4-25.2 62.2-43.4 11.4-15.2 18-38.8 20-72.4 1.2-17.6-2-34.2-5.2-44-3-8.8-10.6-22.6-22.2-32.8-10.8-9.6-17.2-13.4-24.6-16.8l-84.2-38.6 90-21.6c14.8-3.6 28-8.8 42.8-17 26.4-14.6 36-30.2 42.4-45 5.8-13.4 9.2-44.4 7.8-72.4-1.4-26.8-8.8-63-25.2-84.6-17.2-22.4-42.6-40.2-75.6-52.6-27.2-10.2-62.2-16.2-109-18.6l-30.4-1.4v-30.4-98.8h-16v96 32h-127.8v-32-96h-18v96 32h-166.4l6 32h25.6c17.2 0 24.2 0.8 35 6 0.4 0.2 0.8 0.4 1.4 0.6 16.2 7.4 22 21.2 24.4 27.2 0.2 0.6 0.6 1.4 0.6 1.6 5.8 11.8 6 26.2 6 48.8v356c0 23.4-0.2 27.2-6.2 39-5.8 11.6-14.6 20.2-26.8 26-11.8 5.6-26.4 6.8-49 6.8h-25.8v32h175.2v32 96h18v-96-32h127.6v32 96h15.8M591.4 896h-79.8v-128h-63.6v128h-81.8v-128h-174.2v-96h56.8c17.4 0 29-0.6 35.2-3.6s9.4-6.6 12-11.6c2.6-5 2.8-6.2 2.8-24.6v-356c0-18-0.2-29.4-1.8-35.2-2.4-5.4-4.4-10.4-10.6-13.2-6.2-2.8-5.8-3.8-23.2-3.8h-54.8l-16.4-96h174.2v-128h81.8v128h63.6v-128h79.8v130.8c52 2.6 88.8 9.4 118.6 20.6 38.6 14.4 68.6 35.4 89.8 63 21 27.6 30 69.8 31.8 102.4 1.6 29-1.4 66.4-10.4 86.8-10 23-25.4 43.2-56.2 60.2-16.2 9-32.2 15.6-50.8 20 10.8 5 19.8 10.8 32.6 22 15 13.2 26 31.4 31.2 46.6 5.2 15 8.2 36 7 56.4-2.2 33.6-8.8 66.2-26.4 89.6-17.6 23.4-43.4 41.4-76.2 54-25.2 9.6-51 15.6-91 17.8v125.8 0zM512 660h-64v-148h64v148zM512 416h-64v-180h64v180 0zM592 652.2v-131.2c12 5.8 19 13.6 26.6 23.4 9.2 12 14 25.8 14 41.4 0 16.2-4.8 30-13.4 41.6-7.8 10.2-15.2 19.8-27.2 24.8v0zM592 412.8v-165.6c4 1.2 7.6 1.6 11.6 3.2 19.6 7.6 31.6 15.8 47.2 29.4 15 13.2 19.4 31.8 19.4 53.2 0 18.2-6.6 33.8-15.8 46.4-9.2 12.6-23.4 19.8-38.8 26.4-7.4 3.4-13.6 5.4-23.6 7v0z" />
<glyph unicode="&#xe62a;" d="M667.2 652.2c-67.2 0-95.6-33-142.4-33-48 0-84.6 32.8-142.8 32.8-57 0-117.8-35.8-156.4-96.8-54.2-86-45-248 42.8-386 31.4-49.4 73.4-104.8 128.4-105.4 0.4 0 0.6 0 1 0 47.8 0 62 32.2 127.8 32.6 0.4 0 0.6 0 1 0 64.8 0 77.8-32.4 125.4-32.4 0.4 0 0.6 0 1 0 55 0.6 99.2 62 130.6 111.2 22.6 35.4 31 53.2 48.4 93.2-127 49.6-147.4 234.8-21.8 305.8-38.4 49.4-92.2 78-143 78v0zM652.4 832c-40-2.8-86.6-29-114-63.2-24.8-31-45.2-77-37.2-121.6 1 0 2 0 3.2 0 42.6 0 86.2 26.4 111.6 60.2 24.6 32.2 43.2 77.8 36.4 124.6v0z" />
<glyph unicode="&#xe62b;" d="M667.2 620.2c32.6 0 66.4-14.8 94.8-40.8-19.8-17-35.8-37.4-47.4-60.4-16-32-23.2-68.6-20.4-105.4 2.6-37.4 15.2-73.2 36-103.6 16-23.2 36.4-42.4 60-56.6-10-21.4-18.4-36.8-33.6-61-16.8-26.2-61-96-104-96.4h-0.8c-14.8 0-24.4 4.4-38.6 11.2-20 9.4-44.6 21.2-86.8 21.2h-1.2c-42.2-0.2-67.6-11.8-87.8-21.2-14.8-6.8-24.6-11.4-39.8-11.4h-0.8c-39.2 0.4-75 48.6-101.6 90.4-38.6 60.8-63.4 131.2-69.8 198.2-5.8 61 4 117 27 153.4 16 25.4 37 46.6 60.8 61.2 22.4 13.6 46 20.8 68.4 20.8 24.8 0 45.4-7.6 67.4-15.6 23-8.4 47-17.2 75.4-17.2 27.2 0 48.6 8.4 69.2 16.4 22.4 8.8 42.8 16.8 73.6 16.8M667.2 652.2c-67.2 0-95.6-33-142.4-33-48 0-84.6 32.8-142.8 32.8-57 0-117.8-35.8-156.4-96.8-54.2-86-45-248 42.8-386 31.4-49.4 73.4-104.8 128.4-105.4 0.4 0 0.6 0 1 0 47.8 0 62 32.2 127.8 32.6 0.4 0 0.6 0 1 0 64.8 0 77.8-32.4 125.4-32.4 0.4 0 0.6 0 1 0 55 0.6 99.2 62 130.6 111.2 22.6 35.4 31 53.2 48.4 93.2-127 49.6-147.4 234.8-21.8 305.8-38.4 49.4-92.2 78-143 78v0zM619.8 791c-5.4-29.8-21-53.6-29.2-64.4-14.8-19.6-36-34.8-57.6-42.2 1 6 2.6 12.2 4.8 18.4 7 20.4 17.8 36.4 25.6 46.2 14.2 17.6 35.2 32.8 56.4 42M652.4 832c-40-2.8-86.6-29-114-63.2-24.8-31-45.2-77-37.2-121.6 1 0 2 0 3.2 0 42.6 0 86.2 26.4 111.6 60.2 24.6 32.2 43.2 77.8 36.4 124.6v0z" />
<glyph unicode="&#xe62c;" d="M288 423.2v-179.2c0-13.8 9-28 22.8-28h57.2v-104c0-26.6 21.4-48 48-48s48 21.4 48 48v104h98v-104c0-15 6.8-28.4 17.6-37.2 7.8-6.8 18.2-10.8 29.4-10.8 0.2 0 0.4 0 0.6 0 0.2 0 0.2 0 0.4 0 26.6 0 48 21.4 48 48v104h55.2c14 0 22.8 14.2 22.8 27.8v179.2 153h-448v-152.8zM816 608c-26.6 0-48-21.4-48-48v-192c0-26.6 21.4-48 48-48s48 21.4 48 48v192c0 26.6-21.4 48-48 48zM208 608c-26.6 0-48-21.4-48-48v-192c0-26.6 21.4-48 48-48s48 21.4 48 48v192c0 26.6-21.4 48-48 48zM622.4 781.8l37 43.8c0.8 1-0.4 3.2-2.6 5-2.2 1.6-4.8 2-5.4 0.8l-38.4-45.6c-27.2 10.8-60.4 17.6-101.2 17.6-41 0.2-74.4-6.4-101.6-17l-38 44.8c-0.8 1-3.2 0.8-5.4-0.8-2.2-1.6-3.4-3.6-2.6-5l36.6-43.2c-96.4-41.8-110.8-144.4-112.8-174.4h447.2c-1.8 30.2-16 131.4-112.8 174zM413.6 682.2c-14.8 0-27 12-27 26.6s12 26.6 27 26.6c14.8 0 27-12 27-26.6 0-14.6-12-26.6-27-26.6zM610.4 682.2c-14.8 0-27 12-27 26.6s12 26.6 27 26.6c14.8 0 27-12 27-26.6 0-14.6-12.2-26.6-27-26.6z" />
<glyph unicode="&#xe62d;" d="M704 544v-121-177h-78v-31-103c0-8.8-6-15.8-14.6-16v0h-0.2c-0.2 0-0.4 0-0.6 0-3.2 0-6.2 1.2-8.6 3.2l-0.2 0.2-0.8 0.2c-4 3.2-6.8 8-6.8 12.4v103 31h-162.2v-31-103c0-8.8-7.2-16-16-16s-16 7.2-16 16v103 31h-80v177.2 120.8h384M736 576h-448v-152.8-179.2c0-13.8 11-30 24.8-30h55.2v-102c0-26.6 21.4-48 48-48s48 21.4 48 48v102h98v-102c0-15 7.8-28.4 18.6-37.2 7.8-6.8 18.6-10.8 30-10.8 0.2 0 0.6 0 0.8 0 0.2 0-0.6 0-0.4 0 26.6 0 47.2 21.4 47.2 48v102h57.2c14 0 20.8 16.2 20.8 29.8v179.2 153h-0.2zM816 576c8.8 0 16-7.2 16-16v-192c0-8.8-7.2-16-16-16s-16 7.2-16 16v192c0 8.8 7.2 16 16 16M816 608c-26.6 0-48-21.4-48-48v-192c0-26.6 21.4-48 48-48s48 21.4 48 48v192c0 26.6-21.4 48-48 48v0zM208 576c8.8 0 16-7.2 16-16v-192c0-8.8-7.2-16-16-16s-16 7.2-16 16v192c0 8.8 7.2 16 16 16M208 608c-26.6 0-48-21.4-48-48v-192c0-26.6 21.4-48 48-48s48 21.4 48 48v192c0 26.6-21.4 48-48 48v0zM510 771.4h1.8c28.4 0 54.6-3.8 77.6-11.2l20-8.8c57.4-25.2 79.8-74.8 88.8-111.4h-372.6c8.8 37.2 31.2 87.2 88.2 112l20.6 9c22.6 6.8 48 10.4 75.6 10.4M370.8 832c-1 0-2.4-0.4-3.6-1.6-2.2-1.6-3.4-3.6-2.6-5l36.6-44.2c-96.4-41.8-110.8-143.4-112.8-173.4h447.2c-2.2 30-16.4 130.2-113.2 172.8l37 44.4c0.8 1-0.4 3.4-2.6 5.2-1.4 1-3 1.6-4 1.6-0.6 0-1-0.2-1.4-0.6l-38.4-45.4c-27.2 10.8-60.4 17.6-101.2 17.6-0.6 0-1.2 0-2 0-40 0-72.8-6.6-99.6-17l-38 45c0 0.4-0.6 0.6-1.4 0.6v0zM413.2 682.2c-14.8 0-27 12-27 26.6s12 26.6 27 26.6c14.8 0 27-12 27-26.6 0-14.6-12-26.6-27-26.6zM610 682.2c-14.8 0-27 12-27 26.6s12 26.6 27 26.6c14.8 0 27-12 27-26.6 0-14.6-12.2-26.6-27-26.6z" />
<glyph unicode="&#xe62e;" d="M512 864c-0.2 0-0.2 0-0.4 0 0 0 0 0-0.2 0-0.2 0-0.4 0-0.4 0-229.4-0.6-415-186.6-415-416 0-229.4 185.6-415.4 415-416 0.2 0 0.4 0 0.4 0 0 0 0.2 0 0.2 0 0.2 0 0.2 0 0.4 0 229.8 0 416 186.2 416 416 0 229.8-186.2 416-416 416zM512 65.2c-0.2 0-0.2 0-0.4 0 0 0 0 0-0.2 0-0.2 0-0.4 0-0.4 0-210.8 0.6-381.8 171.8-381.8 382.8 0 211 170.8 382.2 381.8 382.6 0.2 0 0.2 0 0.4 0 0 0 0.2 0 0.2 0 0.2 0 0.2 0 0.4 0 211.4 0 382.8-171.4 382.8-382.8 0-211.2-171.4-382.6-382.8-382.6zM644.6 616.4c-37.4-9-76-14.4-115.8-15.6v-136.2h135.2c-1.2 56.2-8.2 107.2-19.4 151.8zM528.6 795v-163.8c37 1.2 73 6 107.6 14.4-26.2 82.8-67 137.2-107.6 149.4zM386.8 645.8c35-8.4 71.2-13.4 108.4-14.6v164.2c-40.6-11.8-82-66.2-108.4-149.6zM761.2 693.2c-45.2 46-103 79.6-167.8 95 29.6-30.6 54.4-77.4 72.2-134.6 33.4 10.2 65.4 23.4 95.6 39.6zM694.6 464.6h166.6c-3.6 77.6-32.6 148.8-79 205.2-34.2-18.8-70.4-34.2-108.2-45.6 12.2-48 19.4-102.2 20.6-159.6zM359 464.6h136.4v136.2c-40.2 1.2-79.2 6.6-116.8 15.8-11.4-44.6-18.4-95.8-19.6-152zM664 431.4h-135.4v-136c39.8-1.2 78.6-6.4 116-15.6 11.2 44.4 18.2 95.6 19.4 151.6zM378.6 279.6c37.6 9.2 76.6 14.6 116.8 15.8v136h-136.4c1.2-56.2 8.2-107.4 19.6-151.8zM495.4 100.8v164.2c-37.2-1.2-73.6-6.2-108.6-14.6 26.4-83.4 67.8-138 108.6-149.6zM593.4 107.8c64.8 15.6 122.6 49 168 95.2-30.2 16.2-62.2 29.4-95.6 39.6-17.8-57.4-42.8-104-72.4-134.8zM429.4 787.8c-64.2-15.6-121.6-49-166.6-94.8 30-16 61.6-29.2 94.6-39.2 17.8 57 42.6 103.4 72 134zM674 271.8c38-11.4 74.2-26.8 108.4-45.6 46.4 56.4 75.4 127.6 79 205.2h-166.6c-1.4-57.4-8.6-111.4-20.8-159.6zM528.6 265v-164c40.6 12.2 81.4 66.6 107.6 149.6-34.6 8.4-70.6 13.2-107.6 14.4zM349.2 624.4c-37.6 11.4-73.6 26.6-107.4 45.4-46.4-56.4-75.4-127.6-79-205.2h165.8c1 57.6 8.4 111.8 20.6 159.8zM328.4 431.4h-165.8c3.6-77.6 32.6-148.8 79-205.2 33.8 18.6 69.8 34 107.4 45.4-12 48-19.4 102.2-20.6 159.8zM262.6 203c45-45.8 102.4-79.2 166.8-94.8-29.4 30.6-54.2 77.2-72 134.2-33-10.2-64.8-23.4-94.8-39.4z" />
<glyph unicode="&#xe62f;" d="M512 864c-0.2 0-0.2 0-0.4 0 0 0 0 0-0.2 0-0.2 0-0.4 0-0.4 0-229.4-0.6-415-186.6-415-416 0-229.4 185.6-415.4 415-416 0.2 0 0.4 0 0.4 0 0 0 0.2 0 0.2 0 0.2 0 0.2 0 0.4 0 229.8 0 416 186.2 416 416 0 229.8-186.2 416-416 416zM528.6 615c44.2 1.2 87 7 128.4 17 12.4-49 20.2-105.6 21.4-167.6h-149.8v150.6zM528.6 648.4v179.6c44.8-12.4 90.4-72.2 119.2-164-38.4-9.2-78.2-14.4-119.2-15.6zM495.4 828.4v-180.2c-41.4 1.2-81.6 6.6-120.2 16 29.2 92.4 75 152.6 120.2 164.2zM495.4 615v-150.4h-150.8c1.2 62 9 118.6 21.4 167.6 41.6-10 85-16 129.4-17.2zM311 464.6h-181.2c3.6 85.6 35.6 164 86.6 226 37-20.4 76.4-37.2 117.6-49.6-13.6-53-21.6-112.8-23-176.4zM311 431.4c1.2-63.4 9.2-123.4 22.8-176.4-41.2-12.6-80.4-29.2-117.6-49.6-51 62-82.8 140.4-86.6 226h181.4zM344.6 431.4h150.8v-150.2c-44.4-1.2-87.8-7.2-129.4-17.4-12.4 49-20.2 105.6-21.4 167.6zM495.4 247.8v-180.4c-45.2 11.8-91 71.8-120.2 164.2 38.6 9.6 78.8 15 120.2 16.2zM528.6 68v180c41-1.2 80.8-6.6 119.4-15.8-29-92-74.4-151.8-119.4-164.2zM528.6 281.2v150.2h149.8c-1.2-61.8-9-118.4-21.4-167.4-41.4 10-84.2 16-128.4 17.2zM711.8 431.4h182.4c-3.6-85.6-35.6-163.8-86.6-226-37.4 20.6-77 37.4-118.6 50 13.6 53 21.6 112.6 22.8 176zM711.8 464.6c-1.2 63.4-9.2 123.2-22.6 176.2 41.6 12.6 81.2 29.4 118.4 49.8 51-62 83-140.4 86.6-226.2h-182.4zM784.8 716.2c-33.2-17.6-68-32.2-104.6-43.2-19.4 62.6-46.8 113.6-79 147.2 70.8-17 134-53.8 183.6-104zM421.6 819.8c-32.2-33.4-59.4-84.4-78.6-146.6-36.2 11-70.8 25.4-103.6 43 49 50 111.8 86.6 182.2 103.6zM239.2 180c32.8 17.6 67.6 32 103.6 43 19.4-62.4 46.6-113.2 78.8-146.8-70.4 17-133.2 53.6-182.4 103.8zM601.2 75.8c32.4 33.6 59.6 84.6 79.2 147.4 36.6-11 71.4-25.6 104.6-43.2-49.6-50.4-113-87.2-183.8-104.2z" />
<glyph unicode="&#xe630;" d="M547 421.6c20.2 13.4 46.2 30.4 89 61 37.2 26.4 99.8 72.8 99.8 194.8 0 98.6-57.4 186.6-57.4 186.6h-332.6c0 0-57.6-88.8-57.6-187.6 0-122 62.4-168.2 99.4-194.6 42.8-30.4 70-49.2 87.4-60.6 10-6.6 21-28.2 21-37.2v-320h-146v-32h320v32h-142v320c0 10 9.2 31 19 37.6zM368.2 832h287.8c14.8 0 48-89 48-154.6 0-1.8 0-3.6 0-5.4h-383.8c0 1.4 0 3 0 4.4 0 65.8 33.2 129.6 48 155.6z" />
<glyph unicode="&#xe631;" d="M547 421.6c20.2 13.4 46.2 30.4 89 61 37.2 26.4 99.8 72.8 99.8 194.8 0 98.6-57.4 186.6-57.4 186.6h-332.6c0 0-57.6-88.8-57.6-187.6 0-122 62.4-168.2 99.4-194.6 42.8-30.4 70-49.2 87.4-60.6 10-6.6 21-28.2 21-37.2v-320h-146v-32h320v32h-142v320c0 10 9.2 31 19 37.6zM368.2 832h287.8c14.8 0 48-89 48-154.6 0-1.8 0-3.6 0-5.4h-383.8c0 1.4 0 3 0 4.4 0 65.8 33.2 129.6 48 155.6zM512.2 448c-11.4 0-22 3-31.4 8.2-15.8 10.6-39.8 27-74.6 51.8-15.2 10.8-38 27.2-55.6 53.4-14.8 22.2-24.2 48-28.2 78.4h379.2c-10.8-79.8-55.6-111.6-83.8-131.6-30-21.4-51.4-36.6-68.6-48.4-10.4-7.4-23.2-11.8-37-11.8z" />
<glyph unicode="&#xe632;" d="M499.8 528h-115.8v-160h115.8l140.2-112v384z" />
<glyph unicode="&#xe633;" d="M748.2 704l-27.2-20.6c48.2-65.8 77-147.2 77-235.4s-28.8-169.6-77.2-235.4l27.2-20.6c52.6 71.4 83.8 160 83.8 256s-31 184.6-83.6 256zM640 256.4c40 53.6 64 119.8 64 191.6s-24 138-64 191.6l-27.2-20.2c35.8-48 57.2-107.2 57.2-171.4s-21.4-123.4-57.2-171.4l27.2-20.2zM546.2 320.2c27.4 35.8 43.8 79.8 43.8 127.8 0 48-16.4 92-43.8 127.8l-27-19.6c23.2-30.2 37-67.6 37-108.2s-13.8-77.8-37-108.2l27-19.6zM307.8 528h-115.8v-160h115.8l140.2-112v384z" />
<glyph unicode="&#xe634;" d="M607.4 704h-442c-37.6 0-71.4-28.2-71.4-65.4v-375.8c0-37.2 33.8-70.8 71.4-70.8h442c37.6 0 66.6 33.6 66.6 70.8v375.8c0 37.2-29 65.4-66.6 65.4zM734 534v-171.2l196-106.8v384l-196-106z" />
<glyph unicode="&#xe635;" d="M607.4 704h-442c-37.6 0-71.4-28.2-71.4-65.4v-375.8c0-37.2 33.8-70.8 71.4-70.8h442c37.6 0 66.6 33.6 66.6 70.8v375.8c0 37.2-29 65.4-66.6 65.4zM640 262.8c0-18.6-13.8-36.8-32.6-36.8h-442c-18.8 0-37.4 18.2-37.4 36.8v375.8c0 18.6 18 31 36.8 31l442-0.2c18.8 0 33.2-12.2 33.2-30.8v-375.8zM734 534v-171.2l196-106.8v384l-196-106zM896 580v-264.6l-128 67v131.2l128.2 67.2-0.2-0.8z" />
<glyph unicode="&#xe636;" d="M528 672v-324h-32v324h-304v-608h640v608zM528 833.2l109.6-109.4 23.2 23.2-148.8 149-149-149 23.4-23.2 109.6 109.4v-161.2h32z" />
<glyph unicode="&#xe637;" d="M576 672v-32h224v-544h-576v544h224v32h-256v-608h640v608zM386.2 723.8l-23.2 23.2 149 149 149-149-23.2-23.2-109.4 109.4v-486h-32.8v486z" />
<glyph unicode="&#xe638;" d="M512 352c-17.6 0-32-14.4-32-32s14.4-32 32-32 32 14.4 32 32-14.4 32-32 32zM336 512v144c0 97 79 176 176 176s176-79 176-176v-16h32v16c0 114.8-93.2 208-208 208-115 0-208-93.2-208-208v-144h-112v-480h640v480h-496zM528 258v-82c0-8.8-7.2-16-16-16s-16 7.2-16 16v82c-27.6 7.2-48 32.2-48 62 0 35.4 28.6 64 64 64s64-28.6 64-64c0-29.8-20.4-54.8-48-62z" />
<glyph unicode="&#xe639;" d="M336 512v144c0 97 79 176 176 176s176-79 176-176v-16h32v16c0 114.8-93.2 208-208 208-115 0-208-93.2-208-208v-144h-112v-480h640v480h-496zM800 64h-576v416h576v-416zM512 384c-35.4 0-64-28.6-64-64 0-29.8 20.4-54.8 48-62v-82c0-8.8 7.2-16 16-16s16 7.2 16 16v82c27.6 7.2 48 32.2 48 62 0 35.4-28.6 64-64 64zM512 288c-17.6 0-32 14.4-32 32s14.4 32 32 32 32-14.4 32-32-14.4-32-32-32z" />
<glyph unicode="&#xe63a;" d="M895.8 223.6c0 33.6 7.2 166.2-97.4 271.4-70.4 70.8-160.6 106.8-286.6 112.4v160.6l-383.8-256 384-256v159.6c80-2.2 124.8-18.2 173.4-40 61.8-27.6 110.6-88 151.6-153.2l38.4-62.4h20.6c0 20.2-0.2 45.8-0.2 63.6z" />
<glyph unicode="&#xe63b;" d="M895.8 223.6c0 33.6 7.2 166.2-97.4 271.4-70.4 70.8-160.6 106.8-286.6 112.4v160.6l-383.8-256 384-256v159.6c80-2.2 124.8-18.2 173.4-40 61.8-27.6 110.6-88 151.6-153.2l38.4-62.4h20.6c0 20.2-0.2 45.8-0.2 63.6zM864.4 237.2c-95.2 161.6-202.4 210.8-384.4 210.8v-129.6l-296.2 193.4 296.2 193.6v-129.4c402 0 384.4-338.8 384.4-338.8z" />
<glyph unicode="&#xe63c;" d="M640 734v39.4c0 32.4-26.2 58.6-58.6 58.6h-139c-32.2 0-58.4-26.2-58.4-58.6v-39.4h-160v-30h42.2l47.2-581.4c0-32.4 26.2-58.6 58.6-58.6h282c32.4 0 58.6 26.2 58.6 58.6l46.6 581.4h40.8v30h-160zM414 773.4c0 16.2 12.4 28.6 28.6 28.6h139c16.2 0 28.6-12.4 28.6-28.6v-39.4h-196v39.4h-0.2zM405.4 158l-21.4 482h29l21.8-482h-29.4zM526 158h-28v482h28v-482zM618.6 158h-29.2l21.6 482h29l-21.4-482z" />
<glyph unicode="&#xe63d;" d="M800 733.4h-160v40c0 32.4-26.2 58.6-58.6 58.6h-139c-32.2 0-58.4-26.2-58.4-58.6v-40h-160v-29.4h42.2l47.2-581.4c0-32.4 26.2-58.6 58.6-58.6h282c32.4 0 58.6 26.2 58.6 58.6l46.6 581.4h40.8v29.4zM413.2 773.4c0 16.2 13.2 29.4 29.2 29.4h139c16.2 0 29.2-13.2 29.2-29.4v-40h-197.4v40zM683.2 124.2v-0.8-0.8c0-16.2-13.2-29.4-29.2-29.4h-282c-16.2 0-29.2 13.2-29.2 29.4v0.8 0.8l-47.4 579.8h434.4l-46.6-579.8zM498 640h28v-482h-28v482zM640 640h-29.2l-21.4-482h29.2zM413 640h-29l21.4-482h29.2z" />
<glyph unicode="&#xe63e;" d="M512 864c-229.8 0-416-186.2-416-416s186.2-416 416-416c229.8 0 416 186.2 416 416 0 229.8-186.2 416-416 416zM301 659c5.2 4.6 239.8-169.8 239.8-169.8 2-1.4 3.2-3 4.4-4.4 10-9.2 16.4-22 16.4-36.6 0-27.4-22.2-49.8-49.8-49.8-15.6 0-29.4 7.4-38.6 18.8-0.8 0.8-1.6 1.4-2.2 2.2 0.2-0.2-175 234.8-170 239.6zM512.2 65.6c-211.4 0-382.8 171.4-382.8 382.8 0 105.6 42.8 201.4 112 270.6l23.6-23.6c-63.2-63.2-102.4-150.6-102.4-247 0-192.6 156.8-349.4 349.4-349.4s349 156.8 349 349.4c0 180.6-141 330.2-317 348v-156.4h-32v191.2c211.4 0 383-171.4 383-382.8s-171.6-382.8-382.8-382.8z" />
<glyph unicode="&#xe63f;" d="M473.2 416.8c9.2-11.4 23-18.8 38.8-18.8 27.6 0 50 22.4 50 50 0 14.6-6.4 27.6-16.4 36.8-1.2 1.4-2.6 3-4.4 4.4 0 0-235.4 175-240.6 170.4-5.2-4.6 170.6-240.4 170.6-240.4 0.4-0.8 1.4-1.6 2-2.4zM512.4 864v0h-0.4v-224h32v189.4c195.6-16.6 350.6-181 350.6-381 0-211-171.4-382.8-382.4-382.8-211 0-382.6 171.6-382.6 382.6 0 105.6 43 201.2 112.2 270.4l-23.8 23.6c-75.4-75.4-122-179.4-122-294.2 0-229.8 186.2-416 416-416 229.8 0 416 186.2 416 416 0 229.8-186 416-415.6 416z" />
<glyph unicode="&#xe640;" d="M512 896c-247.4 0-448-200.6-448-448s200.6-448 448-448c247.4 0 448 200.6 448 448 0 247.4-200.6 448-448 448zM512 816c8.8 0 16-7.2 16-16s-7.2-16-16-16-16 7.2-16 16 7.2 16 16 16zM160 432c-8.8 0-16 7.2-16 16 0 8.8 7.2 16 16 16s16-7.2 16-16c0-8.8-7.2-16-16-16zM215.2 258.2c-7.6-4.4-17.4-1.8-21.8 5.8-4.4 7.6-1.8 17.4 5.8 21.8 7.6 4.4 17.4 1.8 21.8-5.8 4.4-7.6 1.8-17.4-5.8-21.8zM221 616c-4.4-7.6-14.2-10.2-21.8-5.8-7.6 4.4-10.2 14.2-5.8 21.8s14.2 10.2 21.8 5.8c7.6-4.4 10.2-14.2 5.8-21.8zM328 766.6c7.6 4.4 17.4 1.8 21.8-5.8 4.4-7.6 1.8-17.4-5.8-21.8-7.6-4.4-17.4-1.8-21.8 5.8-4.4 7.6-1.8 17.4 5.8 21.8zM349.8 135.2c-4.4-7.6-14.2-10.2-21.8-5.8-7.6 4.4-10.2 14.2-5.8 21.8 4.4 7.6 14.2 10.2 21.8 5.8s10.2-14.2 5.8-21.8zM512 80c-8.8 0-16 7.2-16 16s7.2 16 16 16 16-7.2 16-16-7.2-16-16-16zM528 420.2c-2.6-1.4-5.2-2.6-8-3.2v-245c0-4.4-3.6-8-8-8s-8 3.6-8 8v245c-8 2-15.2 7.2-19.8 15-6 10.4-5.4 23 0.4 32.6l-75.2 125.8c-4.6 7.6-2 17.4 5.4 22 7.6 4.6 17.4 2 22-5.4l76-126.8c10.8-0.2 21.2-6 26.8-16 9-15.6 3.8-35-11.6-44zM696 129.4c-7.6-4.4-17.4-1.8-21.8 5.8-4.4 7.6-1.8 17.4 5.8 21.8 7.6 4.4 17.4 1.8 21.8-5.8 4.4-7.6 1.8-17.4-5.8-21.8zM701.8 744.8c-4.4-7.6-14.2-10.2-21.8-5.8-7.6 4.4-10.2 14.2-5.8 21.8 4.4 7.6 14.2 10.2 21.8 5.8 7.6-4.4 10.2-14.2 5.8-21.8zM830.6 264c-4.4-7.6-14.2-10.2-21.8-5.8-7.6 4.4-10.2 14.2-5.8 21.8 4.4 7.6 14.2 10.2 21.8 5.8 7.6-4.4 10.4-14.2 5.8-21.8zM824.8 610.2c-7.6-4.4-17.4-1.8-21.8 5.8s-1.8 17.4 5.8 21.8c7.6 4.4 17.4 1.8 21.8-5.8 4.6-7.6 1.8-17.4-5.8-21.8zM864 432c-8.8 0-16 7.2-16 16 0 8.8 7.2 16 16 16s16-7.2 16-16c0-8.8-7.2-16-16-16z" />
<glyph unicode="&#xe641;" d="M512 896c-247.4 0-448-200.6-448-448s200.6-448 448-448c247.4 0 448 200.6 448 448 0 247.4-200.6 448-448 448zM806.2 153.8c-38.2-38.2-82.8-68.2-132.2-89.2-51.2-21.6-105.8-32.6-162-32.6-56.2 0-110.6 11-162 32.6-49.6 21-94 51-132.2 89.2-38.2 38.2-68.2 82.8-89.2 132.2-21.6 51.4-32.6 105.8-32.6 162 0 56.2 11 110.6 32.6 162 21 49.6 51 94 89.2 132.2 38.2 38.2 82.8 68.2 132.2 89.2 51.4 21.6 105.8 32.6 162 32.6 56.2 0 110.6-11 162-32.6 49.6-21 94-51 132.2-89.2 38.2-38.2 68.2-82.8 89.2-132.2 21.6-51.2 32.6-105.8 32.6-162 0-56.2-11-110.6-32.6-162-21-49.4-51-94-89.2-132.2zM528 800c0-8.837-7.163-16-16-16s-16 7.163-16 16c0 8.837 7.163 16 16 16 8.837 0 16-7.163 16-16zM528 96c0-8.837-7.163-16-16-16s-16 7.163-16 16c0 8.837 7.163 16 16 16 8.837 0 16-7.163 16-16zM880 448c0-8.837-7.163-16-16-16s-16 7.163-16 16c0 8.837 7.163 16 16 16 8.837 0 16-7.163 16-16zM176 448c0-8.837-7.163-16-16-16s-16 7.163-16 16c0 8.837 7.163 16 16 16 8.837 0 16-7.163 16-16zM352 752.8c0-8.837-7.163-16-16-16s-16 7.163-16 16c0 8.837 7.163 16 16 16 8.837 0 16-7.163 16-16zM704 143.2c0-8.837-7.163-16-16-16s-16 7.163-16 16c0 8.837 7.163 16 16 16 8.837 0 16-7.163 16-16zM832.8 624c0-8.837-7.163-16-16-16s-16 7.163-16 16c0 8.837 7.163 16 16 16 8.837 0 16-7.163 16-16zM223.2 272c0-8.837-7.163-16-16-16s-16 7.163-16 16c0 8.837 7.163 16 16 16 8.837 0 16-7.163 16-16zM223.2 624c0-8.837-7.163-16-16-16s-16 7.163-16 16c0 8.837 7.163 16 16 16 8.837 0 16-7.163 16-16zM832.8 272c0-8.837-7.163-16-16-16s-16 7.163-16 16c0 8.837 7.163 16 16 16 8.837 0 16-7.163 16-16zM704 752.8c0-8.837-7.163-16-16-16s-16 7.163-16 16c0 8.837 7.163 16 16 16 8.837 0 16-7.163 16-16zM352 143.2c0-8.837-7.163-16-16-16s-16 7.163-16 16c0 8.837 7.163 16 16 16 8.837 0 16-7.163 16-16zM512.8 480l-76 126.8c-4.6 7.6-14.4 10-22 5.4s-10-14.4-5.4-22l75.2-125.8c-5.8-9.6-6.4-22.2-0.4-32.6 4.4-7.8 11.6-12.8 19.8-15v-244.8c0-4.4 3.6-8 8-8s8 3.6 8 8v245c2.8 0.8 5.4 1.8 8 3.2 15.4 8.8 20.6 28.4 11.8 43.8-5.8 10-16.2 15.6-27 16z" />
<glyph unicode="&#xe642;" d="M427 192l114 152h-64.4zM656.8 606.6c-5.4 0-10.8 0-16-0.6-15.8 70-78.2 122.8-152.8 122.8-86.6 0-156.6-70.4-156.6-157 0-5.2 0.2-10.4 0.8-15.6-52.8-4.6-94.2-51.4-94.2-105.6 0-57.2 46.4-106.6 103.4-106.6h135.2l11 34h-82.6l44 198h106l-40-128h104l-78-104h115.8c71.4 0 129.2 60.2 129.2 131.8 0 71.4-57.8 130.8-129.2 130.8z" />
<glyph unicode="&#xe643;" d="M619 448h-104l40 128h-106l-44-198h82.6l-60.6-186zM656.8 606.6c-5.4 0-10.8 0-16-0.6-15.8 70-78.2 122.8-152.8 122.8-86.6 0-156.6-70.4-156.6-157 0-5.2 0.2-10.4 0.8-15.6-52.8-4.6-94.2-51.4-94.2-105.6 0-57.2 46.4-106.6 103.4-106.6h22.6v34h-22.6c-19 0-37 8.2-50.8 22-13.6 14-21.2 32.6-21.2 52 0 37.2 29 67.6 66.4 73.8 3.2 0.6 17.6 2.6 28.4 3.6 0 0-1 10.6-1.2 19.2-0.2 8.6-0.2 18.8-0.2 23 0 69.2 56.2 125.4 125.2 125.4 29 0 56.2-9.6 78.6-27.8 21.8-17.8 37.2-42.6 43.4-69.8l6.2-28 28.4 3.6c4.2 0.6 8.2 0.8 12.2 0.8 53.8 0 97.6-44.6 97.6-98.8 0-54.2-43.8-98.8-97.6-98.8h-16.8v-34h16.8c71.4 0 129.2 60.2 129.2 131.8 0 71.2-57.8 130.6-129.2 130.6z" />
<glyph unicode="&#xe644;" d="M831.8 289c-29.2 30-112.2 86.2-166.6 86.2-12.6 0-23.6-2.8-32.6-8.6-26.6-17-47.8-30.2-58-30.2-5.6 0-11.6 5-24.8 16.4l-2.2 2c-36.6 31.8-44.4 40-58.6 54.8l-3.6 3.8c-2.6 2.6-4.8 5-7 7.2-12.4 12.8-21.4 22-53.2 58l-1.4 1.6c-15.2 17.2-25.2 28.4-25.8 36.6-0.6 8 6.4 21 24.2 45.2 21.6 29.2 22.4 65.2 2.6 107-15.8 33-41.6 64.6-64.4 92.4l-2 2.4c-19.6 24-42.4 36-67.8 36-28.2 0-51.6-15.2-64-23.2-1-0.6-2-1.4-3-2-27.8-17.6-48-41.8-55.6-66.4-11.4-37-19-85 35.6-184.8 47.2-86.4 90-144.4 158-214.2 64-65.6 92.4-86.8 156-132.8 70.8-51.2 138.8-80.6 186.4-80.6 44.2 0 79 0 128.6 59.8 52 62.8 30.4 101.2-0.8 133.4z" />
<glyph unicode="&#xe645;" d="M831.8 289c-29.2 30-112.2 86.2-166.6 86.2-12.6 0-23.6-2.8-32.6-8.6-26.6-17-47.8-30.2-58-30.2-5.6 0-11.6 5-24.8 16.4l-2.2 2c-36.6 31.8-44.4 40-58.6 54.8l-3.6 3.8c-2.6 2.6-4.8 5-7 7.2-12.4 12.8-21.4 22-53.2 58l-1.4 1.6c-15.2 17.2-25.2 28.4-25.8 36.6-0.6 8 6.4 21 24.2 45.2 21.6 29.2 22.4 65.2 2.6 107-15.8 33-41.6 64.6-64.4 92.4l-2 2.4c-19.6 24-42.4 36-67.8 36-28.2 0-51.6-15.2-64-23.2-1-0.6-2-1.4-3-2-27.8-17.6-48-41.8-55.6-66.4-11.4-37-19-85 35.6-184.8 47.2-86.4 90-144.4 158-214.2 64-65.6 92.4-86.8 156-132.8 70.8-51.2 138.8-80.6 186.4-80.6 44.2 0 79 0 128.6 59.8 52 62.8 30.4 101.2-0.8 133.4zM808.8 177.2c-40-48.4-63-48.4-104.6-48.4-40.6 0-103.6 28-168.4 74.6-62 44.8-89.6 65.4-151.8 129.2-65.8 67.4-107.2 123.6-152.8 207-48.2 88.2-42.8 126.8-33 158.6 5.2 17 20.8 35.2 42 48.4 1 0.6 2 1.4 3.2 2 10.6 6.8 28.2 18.2 47.4 18.2 16 0 30.2-8 43.8-24.6l2-2.4c51-62.4 90.8-117.6 60.8-158.4-21.2-28.6-32.4-48-30.6-68 1.6-19.4 14.6-34 34.2-56l1.4-1.6c32.2-36.4 41.4-46 54.2-59 2.2-2.2 4.4-4.6 7-7.2l3.6-3.8c14.8-15.4 23-23.8 60.6-56.8l2.2-2c16-14 27.8-24.2 45-24.2 17.8 0 37.4 11.2 74.6 35 3.8 2.4 9.2 3.8 16 3.8 43.4 0 118.2-49.6 144.4-76.6 24-24.4 36-42.8-1.2-87.8z" />
<glyph unicode="&#xe646;" d="M496 768h32v-118h-32v118zM496 246h32v-118h-32v118zM714 464h118v-32h-118v32zM192 464h118v-32h-118v32zM736.539 251.474l-23.759-23.759-67.599 67.599 23.759 23.759 67.599-67.599zM383.109 604.814l-23.759-23.759-67.74 67.74 23.759 23.759 67.74-67.74zM712.626 672.51l23.755-23.762-67.608-67.589-23.755 23.762 67.608 67.589zM359.275 319.064l23.755-23.762-67.75-67.731-23.755 23.762 67.75 67.731zM514.2 298.6c-83.6 0-151.6 68-151.6 151.6s68 151.6 151.6 151.6 151.6-68 151.6-151.6c-0.2-83.6-68.2-151.6-151.6-151.6z" />
<glyph unicode="&#xe647;" d="M496 768h32v-118h-32v118zM496 246h32v-118h-32v118zM714 464h118v-32h-118v32zM192 464h118v-32h-118v32zM736.539 251.474l-23.759-23.759-67.599 67.599 23.759 23.759 67.599-67.599zM383.109 604.814l-23.759-23.759-67.74 67.74 23.759 23.759 67.74-67.74zM712.626 672.51l23.755-23.762-67.608-67.589-23.755 23.762 67.608 67.589zM359.275 319.064l23.755-23.762-67.75-67.731-23.755 23.762 67.75 67.731zM514.2 298.6c-83.6 0-151.6 68-151.6 151.6s68 151.6 151.6 151.6 151.6-68 151.6-151.6c-0.2-83.6-68.2-151.6-151.6-151.6zM514.2 568c-65 0-117.8-52.8-117.8-117.8s52.8-117.8 117.8-117.8c65 0 117.8 52.8 117.8 117.8s-52.8 117.8-117.8 117.8z" />
<glyph unicode="&#xe648;" d="M795.2 666.6l-3.6 3.4h36.8l17-15.6 45 45.6-81.6 80.6-46.4-44.6 17.6-18.4v-37.2l-10 9.4c-62.6 56.6-140 90.4-226 97.8v76.4h-64v-76h-4c-87.4-6-170-45-232-106v35.6l17.8 18.4-45.8 44.4-81.6-80.4 45-45.6 17 15.6h35.6c-0.6 0-1.4-1.4-2-2.2-65.6-70.2-102-161.8-102-257 0-208.8 172.2-378.8 384.2-378.8 211.6 0 383.8 169.8 383.8 378.6 0 95.2-36 186.2-100.8 256zM528 323.6l-16-35.6-16 35.6c-28 7-48 31.6-48 61 0 27.6 23 52 48 60.6v258.8h32v-258.6c27-7.4 48-31.8 48-60.8 0-29.4-20-54-48-61z" />
<glyph unicode="&#xe649;" d="M795.2 666.6l-3.6 3.4h36.8l17-15.6 45 45.6-81.6 80.6-46.4-44.6 17.6-18.4v-37.2l-10 9.4c-62.6 56.6-140 90.4-226 97.8v76.4h-64v-76h-4c-87.4-6-170-45-232-106v35.6l17.8 18.4-45.8 44.4-81.6-80.4 45-45.6 17 15.6h35.6c-0.6 0-1.4-1.4-2-2.2-65.6-70.2-102-161.8-102-257 0-208.8 172.2-378.8 384.2-378.8 211.6 0 383.8 169.8 383.8 378.6 0 95.2-36 186.2-100.8 256zM512.6 68.6c-191 0-346.2 153.4-346.2 341.8 0 188.6 155.4 341.8 346.2 341.8 191 0 346.2-153.4 346.2-341.8 0.2-188.4-155.2-341.8-346.2-341.8zM528 445.4v258.6h-32v-258.8c-25-8.6-48-33-48-60.6 0-29.4 20-54 48-61l16-35.6 16 35.6c28 7 48 31.6 48 61 0 29-21 53.4-48 60.8z" />
<glyph unicode="&#xe64a;" d="M960 546h-342.8l-105.2 318.2-105.2-318.2h-342.8l280.4-195.8-109.2-318.2 276.8 197.2 276.8-197.2-109.4 318.2 280.6 195.8z" />
<glyph unicode="&#xe64b;" d="M960 546h-342.8l-105.2 318.2-105.2-318.2h-342.8l280.4-195.8-109.2-318.2 276.8 197.2 276.8-197.2-109.4 318.2 280.6 195.8zM725.2 117.6l-213.2 152-213.2-152 85.2 245-216 149.4h262l82 246.6 82-246.6h262l-216-149.2 85.2-245.2z" />
<glyph unicode="&#xe64c;" d="M512.2 832c-247.6 0-448.2-197.4-448.2-442 0-128.6 55.8-244 144.2-326h607.6c88.4 82 144.2 197.4 144.2 326 0 244.6-200.2 442-447.8 442zM556.4 375.8c-0.8-0.8-1.6-1.6-2.4-2.4-9.8-12.2-24.8-20-41.8-20-29.8 0-53.8 23.8-53.8 53.2 0 15.6 7 29.4 17.8 39.2 1.4 1.6 2.6 3.2 4.8 4.8l218.4 135.2 20-21.6-163-188.4zM807.2 101l-4.8-5-29.8 30-38.4 38.4 21 20.8 47.2-46.4c29.6 31.8 45.4 60.6 62.8 99 19.4 42.4 30.4 86.2 33 134.2h-58.2v30h58.8c-1.2 46-11.2 94-30.2 138-17.2 40-41 75.6-70.6 107.6l-51.8-51.4-10.2 10.2-10 9.6-1 1 51.8 51.4c-33.4 31-72 55.4-114.2 73-43.2 18-88.4 26.4-136.4 27.8v-69.2h-28v69.4c-48-1.4-93-9.8-136.2-27.8-42.4-17.6-81.2-42.2-114.8-73.4l51.6-51.2-1-1-20-19.6-51.8 51.2c-29.6-32-53.4-68-70.6-107.8-19-44-29.2-92-30.2-138h58.8v-30h-58.4c2.6-48 13.6-91.8 33-134.2 17.6-38.4 33.2-67.4 62.8-99.2l47 46.4 21.2-20.8-38.4-38-29.6-29.8-1.2 1.2c-81.6 74.6-125 193.6-125 293.2 0 0.2 0 0.4 0 0.6 0 0.2 0 0.6 0 0.6 0 168.4 107.6 315.2 251.8 376.2 50.4 21.4 106.6 32 165 32 0 0 0 0 0 0s0 0 0 0 0 0 0 0c58-0.2 115.8-10.4 165.8-32 145.6-62.8 250.6-208.2 250.6-376.6 0-0.2 0-0.4 0-0.6 0-0.2 0-0.4 0-0.6 0-116.2-50.6-218.8-121.4-289.2z" />
<glyph unicode="&#xe64d;" d="M960 390c0 244.2-199.4 441.4-446.4 442-0.4 0-1 0-1.4 0 0 0 0 0 0 0 0 0 0 0 0 0-247.6 0-448.2-197.4-448.2-442 0-0.2 0-0.4 0-0.4 0-0.2 0-0.4 0-0.6 0-128 55.2-243 143-323.8l1-1 73.2 73.2-22.6 22.6-50.6-50.6c-31.6 34.4-57.2 72-76 113.6-20.8 46-32.8 94.8-35.4 145h63.4v32h-63.8c1.2 52 12.2 102.6 32.6 150.2 18.4 43.2 44 82.6 75.8 117.2l55.4-55.4 11 11 10.6 10.4 1 1-55.6 55.6c36 33.6 77.4 60.4 123 79.4 46.4 19.4 95.4 28.6 146 30.2v-73.6h32v73.8c50.6-1.6 99.8-10.6 146.2-30.2 45.4-19 86.6-45.6 122.6-79.2l-55.8-55.8 1-1 10.6-10.4 11-11 55.8 55.8c32-34.6 57.6-74 76-117.4 20.4-47.8 31.2-98.2 32.4-150.4h-63.8v-32h63.4c-2.8-50.2-14.6-99.2-35.4-145-19-41.6-44.6-79.2-76.2-113.6l-50.8 50.4-22.6-22.6 73.4-73.2 5.2 5c85.4 80.6 139.2 194 139.2 320 0 0.2 0 0.4 0 0.6-0.2-0.2-0.2 0-0.2 0.2zM480.8 450.6c-2.2-1.6-3.4-3.2-4.8-4.8-10.8-9.8-17.8-23.6-17.8-39.2 0-29.4 24.2-53.2 53.8-53.2 17 0 32 7.8 41.8 20 0.8 0.8 1.8 1.6 2.4 2.4l162.8 188.4-20 21.6-218.2-135.2z" />
<glyph unicode="&#xe64e;" d="M674 768v-283.6l-482 283.6v-640l482 283.6v-283.6h158v640h-158z" />
<glyph unicode="&#xe64f;" d="M674 768v-283.6l-482 283.6v-640l482 283.6v-283.6h158v640h-158zM657.8 439.2l-433.8-255.2v528 0l449-264-15.2-8.8zM800 160h-94v251.6 17 56 251.4h94v-576z" />
<glyph unicode="&#xe650;" d="M192 768v-640h158v283.6l482-283.6v640l-482-283.6v283.6h-158z" />
<glyph unicode="&#xe651;" d="M192 768v-640h158v283.6l482-283.6v640l-482-283.6v283.6h-158zM351.2 448l15.2 8.8 433.6 255.2v-528l-448.8 264zM224 736h94v-251.6-56-17-251.4h-94v576z" />
<glyph unicode="&#xe652;" d="M896.6 110.6l-226.6 226.8c41.6 52 66.6 118.2 66.6 190.2 0 168.2-136.2 304.4-304 304.4-168 0-304-136.4-304-304.4s136.2-304.4 304-304.4c72.4 0 138.8 25.4 191 67.6l226.4-226.8 46.6 46.6zM240.2 334.8c-51.4 51.4-79.6 119.8-79.6 192.6s28.4 141.2 79.6 192.6 119.8 80 192.4 80c72.6 0 141-28.4 192.4-79.8s79.6-119.8 79.6-192.6-28.4-141.2-79.6-192.6c-51.4-51.4-119.8-79.8-192.4-79.8-72.6-0.2-141 28.2-192.4 79.6z" />
<glyph unicode="&#xe653;" d="M689 364c30 47.2 47.6 103.2 47.6 163.4 0 168.2-136.2 304.6-304.2 304.6-168.2 0-304.4-136.4-304.4-304.6 0-168.2 136.2-304.6 304.2-304.6 61 0 117.8 18 165.4 48.8l13.8 9.6 217.2-217.2 67.4 68.6-217 217.2 10 14.2zM602.8 697.6c45.4-45.4 70.4-105.8 70.4-170s-25-124.6-70.4-170c-45.4-45.4-105.8-70.4-170-70.4-64.2 0-124.6 25-170 70.4-45.4 45.4-70.4 105.8-70.4 170 0 64.2 25 124.6 70.4 170 45.4 45.4 105.8 70.4 170 70.4 64.2 0 124.6-25 170-70.4z" />
<glyph unicode="&#xe654;" d="M512 704l-448-256 448-256v246.4l448-246.4v512l-448-246.4v246.4 0z" />
<glyph unicode="&#xe655;" d="M928 650v-403.8l-367 201.8 367 202M480 648v-155.4-54.2-191.2l-352 200.8 352 200.4M512 704l-448-256 448-256v246.4l448-246.4v512l-448-246.4v246.4 0z" />
<glyph unicode="&#xe656;" d="M512 832c211.8 0 383.4-171.4 383.8-383l110 105 18-18.2-140.6-135.8-133.2 135.8 18 18.2 102.2-104.8c-0.6 197-161 357.2-358.2 357.2-197.6 0-358.4-160.8-358.4-358.4 0-197.6 160.8-358.4 358.4-358.4 157.2 0 291 102 339 243.2l24.8-7c-51.2-152.2-194.6-261.8-363.8-261.8-212 0-384 172-384 384s172 384 384 384z" />
<glyph unicode="&#xe657;" d="M512 864c-229.8 0-416-186.2-416-416s186.2-416 416-416c229.8 0 416 186.2 416 416s-186.2 416-416 416zM512 191.8c-141.4 0-256 114.6-256 256.2s114.6 256.2 256 256.2v87.8l192-128-192-111.4v111.6c-119.2 0-216.2-97-216.2-216.2s97-216.2 216.2-216.2 216.2 96.2 216.2 216.2h39.8c0-142-114.6-256.2-256-256.2z" />
<glyph unicode="&#xe658;" d="M728.2 448c0-120-97-216.4-216.2-216.4s-216.2 97-216.2 216.4c0 119.2 97 216.2 216.2 216.2v-111.6l192 111.4-192 128v-88c-141.4 0-256-114.8-256-256.2 0-141.6 114.6-256.2 256-256.2 141.4 0 256 114.2 256 256.2h-39.8zM512 864c-229.8 0-416-186.2-416-416s186.2-416 416-416c229.8 0 416 186.2 416 416s-186.2 416-416 416zM512 66.6c-210.2 0-381.4 171-381.4 381.4 0 210.2 171 381.4 381.4 381.4 210.2 0 381.4-171 381.4-381.4 0-210.2-171.2-381.4-381.4-381.4z" />
<glyph unicode="&#xe659;" d="M512 191.8c-141.4 0-256 114.6-256 256.2s114.6 256.2 256 256.2v87.8l192-128-192-111.4v111.6c-119.2 0-216.2-97-216.2-216.2s97-216.2 216.2-216.2 216.2 96.2 216.2 216.2h39.8c0-142-114.6-256.2-256-256.2z" />
<glyph unicode="&#xe65a;" d="M128 160h20.6l38.4 62.4c41 65.4 89.8 125.6 151.6 153.2 48.8 21.8 93.4 37.8 173.4 40v-159.6l384 256-384 256v-160.6c-126-5.6-216.2-41.4-286.6-112.4-104.6-105.4-97.4-238-97.4-271.4 0.2-17.8 0-43.4 0-63.6z" />
<glyph unicode="&#xe65b;" d="M128 160h20.6l38.4 62.4c41 65.4 89.8 125.6 151.6 153.2 48.8 21.8 93.4 37.8 173.4 40v-159.6l384 256-384 256v-160.6c-126-5.6-216.2-41.4-286.6-112.4-104.6-105.4-97.4-238-97.4-271.4 0.2-17.8 0-43.4 0-63.6zM544 576v129.4l296.2-193.6-296.2-193.4v129.6c-182 0-289.2-49.2-384.4-210.8 0 0-17.6 338.8 384.4 338.8z" />
<glyph unicode="&#xe65c;" d="M772.4 672c-121.2 0-219.6-99.8-219.6-223.6 0-80.8 42-152.4 105-190.4h-291.6c63 38 105 109.6 105 190.4 0 123.8-98.4 223.8-219.6 223.8-121.2 0-219.6-100.4-219.6-224 0-123.8 98.4-224.2 219.6-224.2h520.8c121.2 0 219.6 100.2 219.6 224s-98.4 224-219.6 224zM256 320c-70.6 0-128 57.4-128 128s57.4 128 128 128 128-57.4 128-128c0-70.6-57.4-128-128-128zM768 320c-70.6 0-128 57.4-128 128s57.4 128 128 128 128-57.4 128-128c0-70.6-57.4-128-128-128zM768 544c-53 0-96-43-96-96s43-96 96-96 96 43 96 96c0 53-43 96-96 96zM256 544c-53 0-96-43-96-96s43-96 96-96 96 43 96 96c0 53-43 96-96 96z" />
<glyph unicode="&#xe65d;" d="M772.4 672c-121.2 0-219.6-100.2-219.6-224 0-80.8 42-151.4 105-190.8h-291.6c63 39.4 105 110 105 190.8 0 123.8-98.4 224-219.6 224-121.2 0-219.6-100.2-219.6-224 0-123.8 98.4-224 219.6-224h520.8c121.2 0 219.6 100.2 219.6 224s-98.4 224-219.6 224zM64.6 448c0 105.2 84 190.8 187 190.8 103.2 0 187-85.6 187-190.8s-84-190.8-187-190.8c-103.2 0-187 85.6-187 190.8zM772.4 257.2c-103.2 0-187 85.6-187 190.8s84 190.8 187 190.8 187-85.6 187-190.8-83.8-190.8-187-190.8zM768 544c53 0 96-43 96-96s-43-96-96-96-96 43-96 96c0 53 43 96 96 96M768 576c-70.6 0-128-57.4-128-128s57.4-128 128-128 128 57.4 128 128c0 70.6-57.4 128-128 128v0zM256 544c53 0 96-43 96-96s-43-96-96-96-96 43-96 96c0 53 43 96 96 96M256 576c-70.6 0-128-57.4-128-128s57.4-128 128-128 128 57.4 128 128c0 70.6-57.4 128-128 128v0z" />
<glyph unicode="&#xe65e;" d="M800 458.8c0 75.4-60.8 138.2-135.8 138.2-5.6 0-11.4 0.2-16.8-0.6-16.6 73.8-82.2 133.6-160.6 133.6-91 0-164.6-78.2-164.6-169.6 0-5.6 0.2-11 0.8-16.4-55.4-5-99-54.6-99-111.8 0-58.6 45.8-109.6 103.2-112.6l-51-74.8 26.6-19.4 64.2 94.2h72.2l-94.2-138.2 26.6-19.4 107.4 157.6h75.8l-52-75.4 26.6-19.4 65.2 94.8h69.4c0.2 0 0.6 0 0.8 0l-94.2-138.2 26.6-19.4 113.2 166.2c52.4 19.8 89.6 71.6 89.6 130.6z" />
<glyph unicode="&#xe65f;" d="M800 458.8c0 75.4-60.8 138.2-135.8 138.2-5.6 0-11.4 0.2-16.8-0.6-16.6 73.8-82.2 133.6-160.6 133.6-91 0-164.6-78.2-164.6-169.6 0-5.6 0.2-11 0.8-16.4-55.4-5-99-54.6-99-111.8 0-58.6 45.8-109.6 103.2-112.6l-51-74.8 26.6-19.4 64.2 94.2h72.2l-94.2-138.2 26.6-19.4 107.4 157.6h75.8l-52-75.4 26.6-19.4 65.2 94.8h69.4c0.2 0 0.6 0 0.8 0l-94.2-138.2 26.6-19.4 113.2 166.2c52.4 19.8 89.6 71.6 89.6 130.6zM664.2 355.8h-84.2l-0.2 0.2-0.2-0.2h-246.8c-20 0-39 8.8-53.4 23.4s-22.2 34.4-22.2 55c0 39.4 30.4 71.4 69.8 78 3.4 0.6 18.4 2.8 30 3.8 0 0-1 11.2-1.4 20.2-0.4 9-0.2 19.8-0.2 24.2 0 72.8 59 136.2 131.6 136.2 30.4 0 59-14.2 82.6-33.2 23-18.6 39.2-44.8 45.6-73.6l6.6-29.4 29.8 3.6c4.4 0.6 8.6 0.8 12.8 0.8 56.6 0 102.6-47.4 102.6-104.4-0.2-57.4-46.2-104.6-102.8-104.6z" />
<glyph unicode="&#xe660;" d="M865 736h-65v96h-576v-96h-63c-35.2 0-65-27.6-65-62.6v-316.8c0-35 29.8-64.6 65-64.6h63v252h576v-252h65c35.2 0 63 29.6 63 64.6v316.8c0 35-27.8 62.6-63 62.6zM256 512h512v-448h-512v448z" />
<glyph unicode="&#xe661;" d="M865 736h-65v96h-576v-96h-63c-35.2 0-65-27.6-65-62.6v-316.8c0-35 29.8-64.6 65-64.6h95v-228h512v228h97c35.2 0 63 29.6 63 64.6v316.8c0 35-27.8 62.6-63 62.6zM256 800h512v-64h-512v64zM736 96h-448v384h448v-384zM896 356.6c0-17.4-13.4-32.6-31-32.6h-97v188h-512v-188h-95c-17.6 0-33 15.2-33 32.6v316.8c0 17.4 15.4 30.6 33 30.6h704c17.6 0 31-13.2 31-30.6v-316.8z" />
<glyph unicode="&#xe662;" d="M384 640c0-35.346-28.654-64-64-64s-64 28.654-64 64c0 35.346 28.654 64 64 64 35.346 0 64-28.654 64-64zM877.6 381.2l-408 427.6c-15.2 15.2-35.2 23-55 23.2h-223c-35.2 0-63.6-28.4-63.6-63.6v-216.2c0-21.6 8.6-41 22.6-55.4l428-414.4c12.2-12.2 28.6-18.4 45-18.4 16.2 0 32.6 6 45 18.4l209 208.8c12.4 12.4 18.4 28.6 18.4 45s-6.2 32.8-18.4 45zM320 544c-53 0-96 43-96 96s43 96 96 96 96-43 96-96-43-96-96-96z" />
<glyph unicode="&#xe663;" d="M414.2 800c12.2-0.2 23.8-5 32.4-13.6l408.2-427.6c5.8-5.8 9-13.8 9-22.4s-3.2-16.4-9-22.2l-208.8-209.2c-5.8-5.8-13.8-9-22.2-9-8.6 0-16.6 3.2-22.4 9l-0.4 0.4-427.8 414.2c-8.6 9-13.2 20.6-13.2 32.8v216c0 17.4 14.2 31.6 31.6 31.6h222.6M414.4 832h-222.8c-35.2 0-63.6-28.4-63.6-63.6v-216.2c0-21.6 8.6-41 22.6-55.4l428-414.4c12.2-12.2 28.6-18.4 45-18.4 16.2 0 32.6 6 45 18.4l209 208.8c12.4 12.4 18.4 28.6 18.4 45s-6.2 32.8-18.4 45l-408 427.6c-15.4 15.2-35.2 23-55.2 23.2v0zM320 704c35.4 0 64-28.6 64-64s-28.6-64-64-64-64 28.6-64 64 28.6 64 64 64M320 736c-53 0-96-43-96-96s43-96 96-96 96 43 96 96-43 96-96 96v0z" />
<glyph unicode="&#xe664;" d="M512 864c-229.8 0-416-186.2-416-416s186.2-416 416-416c229.8 0 416 186.2 416 416s-186.2 416-416 416zM768 430h-240v-238h-34v238h-238v34h238v240h34v-240h240v-34z" />
<glyph unicode="&#xe665;" d="M512 864c-229.8 0-416-186.2-416-416s186.2-416 416-416c229.8 0 416 186.2 416 416s-186.2 416-416 416zM512 66.6c-210.2 0-381.4 171-381.4 381.4s171.2 381.4 381.4 381.4 381.4-171.2 381.4-381.4-171.2-381.4-381.4-381.4zM528.2 704h-33.6v-239.8h-238.6v-33.6h238.6v-238.6h33.6v238.6h239.8v33.6h-239.8z" />
<glyph unicode="&#xe666;" d="M768 430h-240v-238h-34v238h-238v34h238v240h34v-240h240v-34z" />
<glyph unicode="&#xe667;" d="M256 768v-640l512 320-512 320z" />
<glyph unicode="&#xe668;" d="M288 710.2l419.6-262.2-419.6-262.2v524.4M256 768v-640l512 320-512 320z" />
<glyph unicode="&#xe669;" d="M128 416c0-10.8 0.4-21.4 1.2-32 2.6-34.2 9.4-67.4 19.8-98.8 15.8-47.6 39.8-91.4 70.6-129.6 76.2-94.8 193.2-155.6 324.4-155.6 229.8 0 416 186.2 416 416 0 131.2-60.8 248.2-155.6 324.4-38.2 30.8-82 54.8-129.6 70.6-31.4 10.4-64.6 17.2-98.8 19.8-10.6 0.8-21.2 1.2-32 1.2v-416h-416zM64 480c0-10.8 0.4-21.4 1.2-32h446.8v32 414.8c-10.6 0.8-21.2 1.2-32 1.2-229.8 0-416-186.2-416-416z" />
<glyph unicode="&#xe66a;" d="M128 416c0-10.8 0.4-21.4 1.2-32 2.6-34.2 9.4-67.4 19.8-98.8 15.8-47.6 39.8-91.4 70.6-129.6 76.2-94.8 193.2-155.6 324.4-155.6 229.8 0 416 186.2 416 416 0 131.2-60.8 248.2-155.6 324.4-38.2 30.8-82 54.8-129.6 70.6-31.4 10.4-64.6 17.2-98.8 19.8-10.6 0.8-21.2 1.2-32 1.2v-416h-416zM161.4 384h414.6v32 382.6c40.6-3.4 80-13 117.4-28.8 31.8-13.4 61.2-31 88.2-52.2 11.8-9.4 23.2-19.4 33.8-30.2 23.2-23.2 43-48.8 59.4-76.8 8.6-14.6 16.2-29.6 22.8-45.4 20-47.4 30.2-97.6 30.2-149.4s-10.2-102.2-30.2-149.4c-19.4-45.8-47-86.8-82.4-122-35.2-35.2-76.4-63-122-82.4-47.4-20-97.6-30.2-149.4-30.2s-102.2 10.2-149.4 30.2c-15.6 6.6-30.8 14.2-45.4 22.8-27.8 16.4-53.6 36.2-76.8 59.4-10.8 10.8-20.8 22-30.2 33.8-21.2 27-38.8 56.4-52.2 88.2-15.6 37.8-25.2 77.2-28.4 117.8zM64 480c0-10.8 0.4-21.4 1.2-32h446.8v32 414.8c-10.6 0.8-21.2 1.2-32 1.2-229.8 0-416-186.2-416-416zM96 480c0 51.8 10.2 102.2 30.2 149.4 19.4 45.8 47 86.8 82.4 122 35.2 35.2 76.4 63 122 82.4 47.2 20 97.6 30.2 149.4 30.2v-384h-384z" />
<glyph unicode="&#xe66b;" d="M192 704v-640h768v640h-768zM832 832h-768v-640h96v544h672z" />
<glyph unicode="&#xe66c;" d="M192 704v-640h768v640h-768zM928 96h-704v576h704v-576zM64 832v-640h96v32h-64v576h704v-64h32v96z" />
<glyph unicode="&#xe66d;" d="M832 654h-50v50h-28v-50h-50v-28h50v-50h28v50h50zM726.6 232.2c-25.8 9.2-62.8 12.4-86.4 17.6-13.6 3-33.4 10.6-40 18.4-6.6 8-2.6 81.8-2.6 81.8s12.2 19.2 18.8 36c6.6 16.8 13.8 62.8 13.8 62.8s13.6 0 18.4 23.8c5.2 26 13.2 36.8 12.2 56.2-1 18-10.4 19-11.4 19 0 0 0 0 0 0s9.8 27.2 11.2 84.8c1.6 68.2-50.6 135.4-148.6 135.4-98 0-150-67-148.6-135.2 1.2-57.4 11.2-84.8 11.2-84.8s0 0 0 0c-1 0-10.4-1-11.4-19-1-19.4 7.2-29.8 12.2-55.8 4.8-23.8 18.4-24 18.4-24s7.2-46.2 13.8-63c6.6-17 18.8-36 18.8-36s4-73.8-2.6-81.8c-6.6-8-26.4-15.4-40-18.4-23.8-5.2-60.6-8.6-86.4-17.8-25.8-9.2-105.4-40.2-105.4-104.2h640c0 64-79.6 95-105.4 104.2z" />
<glyph unicode="&#xe66e;" d="M832 654h-50v50h-28v-50h-50v-28h50v-50h28v50h50zM404.8 556.6c0 0 0 0 0 0v0zM726.6 232.2c-25.8 9.2-62.8 12.4-86.4 17.6-13.6 3-33.4 10.6-40 18.4-6.6 8-2.6 81.8-2.6 81.8s12.2 19.2 18.8 36c6.6 16.8 13.8 62.8 13.8 62.8s13.6 0 18.4 23.8c5.2 26 13.2 36.8 12.2 56.2-1 18-10.4 19-11.4 19 0 0 0 0 0 0s9.8 27.2 11.2 84.8c1.6 68.2-50.6 135.4-148.6 135.4-98 0-150-67-148.6-135.2 1.2-57.4 11.2-84.8 11.2-84.8s0 0 0 0c-1 0-10.4-1-11.4-19-1-19.4 7.2-29.8 12.2-55.8 4.8-23.8 18.4-24 18.4-24s7.2-46.2 13.8-63c6.6-17 18.8-36 18.8-36s4-73.8-2.6-81.8c-6.6-8-26.4-15.4-40-18.4-23.8-5.2-60.6-8.6-86.4-17.8-25.8-9.2-105.4-40.2-105.4-104.2h640c0 64-79.6 95-105.4 104.2zM512 160h-274.6c4 6 9.4 10.2 16.4 15.2 14 10.2 32.2 19.6 54.2 27.2 13.6 4.8 33.4 8 50.8 10.6 11.4 1.8 22.2 3.4 31.8 5.6 6.8 1.6 41.6 10 57.6 29.2 9 10.8 11.6 25.4 11.2 64.6-0.2 20-1.2 38.6-1.2 39.4l-0.4 8.4-4.6 7c-3 4.6-11.6 19-16 30.6-3.6 9.4-9.2 38.4-12 56.2 0 0 0.8-2-1 7.4-1.8 9.4-16.8 8.6-18.8 16-1.8 7.2-3.6 13.8-8.6 36.4-5 22.6 5.6 22.4 7.8 32.4 1.2 6.2 0 11.4 0 11.6 0 0 0 0 0 0-0.6 2-8.2 26.8-9.4 75.4-0.6 26.4 9.2 51.2 27.6 69.8 21.2 21.6 52 33 89 33 38 0 68-11.4 89.2-33 18.4-18.6 28.2-43.4 27.6-69.8-1-48.4-8.6-73.2-9.4-75.4 0 0 0 0 0 0 0-0.2-1.2-3.4-0.8-10.4 0.4-10.8 13.6-11 8.6-33.6-5-22.6-6.8-29.2-8.6-36.4-1.8-7.2-17-6.6-18.8-16s-1-7.4-1-7.4c-2.8-17.8-8.4-46.8-12-56.2-4.6-11.6-13.2-26-16-30.6l-4.6-7-0.4-8.4c0-0.8-1-19.4-1.2-39.4-0.4-39.2 2.2-53.8 11.2-64.6 16-19 50.8-27.6 57.6-29.2 9.6-2.2 20.4-3.8 31.8-5.6 17.4-2.6 37.2-5.8 50.8-10.6 22-7.8 40.4-17.2 54.2-27.4 7-5 12.4-9.2 16.4-15.2h-274.4z" />
<glyph unicode="&#xe66f;" d="M726.6 232.2c-25.8 9.2-62.8 12.4-86.4 17.6-13.6 3-33.4 10.6-40 18.4-6.6 8-2.6 81.8-2.6 81.8s12.2 19.2 18.8 36 13.8 62.8 13.8 62.8 13.6 0 18.4 23.8c5.2 26 13.2 36.8 12.2 56.2-1 18-10.4 19-11.4 19v0c0 0 9.8 27.2 11.2 84.8 1.6 68.2-50.6 135.4-148.6 135.4s-150-67-148.6-135.2c1.2-57.4 11.2-84.8 11.2-84.8v0c-1 0-10.4-1-11.4-19-1-19.4 7.2-29.8 12.2-55.8 4.8-23.8 18.4-24 18.4-24s7.2-46.2 13.8-63c6.6-17 18.8-36 18.8-36s4-73.8-2.6-81.8c-6.6-8-26.4-15.4-40-18.4-23.8-5.2-60.6-8.6-86.4-17.8-25.8-9.2-105.4-40.2-105.4-104.2h640c0 64-79.6 95-105.4 104.2z" />
<glyph unicode="&#xe670;" d="M404.8 556.6v0 0zM726.6 232.2c-25.8 9.2-62.8 12.4-86.4 17.6-13.6 3-33.4 10.6-40 18.4-6.6 8-2.6 81.8-2.6 81.8s12.2 19.2 18.8 36 13.8 62.8 13.8 62.8 13.6 0 18.4 23.8c5.2 26 13.2 36.8 12.2 56.2-1 18-10.4 19-11.4 19v0c0 0 9.8 27.2 11.2 84.8 1.6 68.2-50.6 135.4-148.6 135.4s-150-67-148.6-135.2c1.2-57.4 11.2-84.8 11.2-84.8v0c-1 0-10.4-1-11.4-19-1-19.4 7.2-29.8 12.2-55.8 4.8-23.8 18.4-24 18.4-24s7.2-46.2 13.8-63c6.6-17 18.8-36 18.8-36s4-73.8-2.6-81.8c-6.6-8-26.4-15.4-40-18.4-23.8-5.2-60.6-8.6-86.4-17.8-25.8-9.2-105.4-40.2-105.4-104.2h640c0 64-79.6 95-105.4 104.2zM512 160h-274.6c4 6 9.4 10.2 16.4 15.2 14 10.2 32.2 19.6 54.2 27.2 13.6 4.8 33.4 8 50.8 10.6 11.4 1.8 22.2 3.4 31.8 5.6 6.8 1.6 41.6 10 57.6 29.2 9 10.8 11.6 25.4 11.2 64.6-0.2 20-1.2 38.6-1.2 39.4l-0.4 8.4-4.6 7c-3 4.6-11.6 19-16 30.6-3.6 9.4-9.2 38.4-12 56.2 0 0 0.8-2-1 7.4-1.8 9.4-16.8 8.6-18.8 16-1.8 7.2-3.6 13.8-8.6 36.4-5 22.6 5.6 22.4 7.8 32.4 1.2 6.2 0 11.4 0 11.6v0c-0.6 2-8.2 26.8-9.4 75.4-0.6 26.4 9.2 51.2 27.6 69.8 21.2 21.6 52 33 89 33 38 0 68-11.4 89.2-33 18.4-18.6 28.2-43.4 27.6-69.8-1-48.4-8.6-73.2-9.4-75.4v0c0-0.2-1.2-3.4-0.8-10.4 0.4-10.8 13.6-11 8.6-33.6-5-22.6-6.8-29.2-8.6-36.4-1.8-7.2-17-6.6-18.8-16-1.8-9.4-1-7.4-1-7.4-2.8-17.8-8.4-46.8-12-56.2-4.6-11.6-13.2-26-16-30.6l-4.6-7-0.4-8.4c0-0.8-1-19.4-1.2-39.4-0.4-39.2 2.2-53.8 11.2-64.6 16-19 50.8-27.6 57.6-29.2 9.6-2.2 20.4-3.8 31.8-5.6 17.4-2.6 37.2-5.8 50.8-10.6 22-7.8 40.4-17.2 54.2-27.4 7-5 12.4-9.2 16.4-15.2l-274.4 0.2z" />
<glyph unicode="&#xe671;" d="M698.4 290.4c22.6-7.8-22.4 7.8 0 0v0zM698.4 290.4c-27 9.4-56.2 10-83.2 19.4-8.2 2.8-24.4 6.2-27.8 15.6-3.2 9.2-3.2 20-3.8 29.6-0.4 7.6-0.6 15.2-0.6 22.8 0 5 12.8 15.6 15.6 20.2 10.8 18 11.8 42.2 13.8 62.6 17.4-4.8 19.6 27.4 22.6 37.2 2.2 6.8 15.6 53.6-5.2 47.2 5 8.8 7 19.6 8.4 29.4 4 25.6 5.6 53.6-2.2 78.6-16.2 52-66 81.2-118.6 82.8-53.4 1.8-107-23.8-127-75.6-9.6-25.2-8.8-52.6-5.6-79 1.4-12 3.4-25.4 9.4-36.2-19.4 5.8-9-35.4-6.8-42.6 3.2-10.2 6-46.8 24.2-41.8 1.6-16.2 3.4-32.8 7.8-48.6 3-10.6 9.2-19.6 16.4-27.8 3.6-4 5.4-4.4 5.2-9.6-0.2-15.6 0.2-32.4-3.8-47.6-4-15.2-37.4-21.6-50.8-24.4-36-7.4-69.2-10.8-99.2-33.2-35-25.8-53.2-66-53.2-109.4 166.6 0 333.2 0 499.8 0 18.8 0 37.4 0 56.2 0 0 59-35.6 111-91.6 130.4zM286.6 315c1.2 0.6 2.4 1.2 3.2 1.6-0.6-0.2-1.2-0.6-1.6-0.8-0.6-0.2-1-0.4-1.6-0.8zM286.6 315c-6.8-3.4-15-7.6 1.6 0.8 6 3 4.8 2.4 1.6 0.8 13.6 6.4 28.2 8 42.8 9.4 5.6 0.6 8.2 4.4 4 9.8-8 10.2-35.6 12.2-47.2 16.8-7.2 2.8-9.2 5.4-9.8 13.4-0.2 3.6-2.2 19.6 0.6 22.2 2 2 14.6 1.2 17.4 1.6 11.4 1.4 23 3.8 33.8 8 4.6 1.8 9 4 13 6.8 4.8 3.6-3.6 12.4-5.8 17.2-6.8 15-9.8 31.4-10.8 47.8-2 32.2 3 64.6-3 96.6-9 49-46.8 73.6-95 73.6-29.8 0-59.2-10.2-75.8-36.2-18.4-28.6-17.4-64.2-16.4-96.8 0.6-18.6 1.4-37.4-1.2-56-1.2-8-3-15.8-5.8-23.4-2.2-5.8-13.4-20.2-9-23.2 16.6-11.8 44.6-15.8 64.6-14.2 0.6-9.8 2.4-22.4-1.2-31.6-5.6-14.4-47.4-18.2-60-22.4-35-11.6-61-40-61-80 36.6 0 73 0 109.6 0 16.4 0 32.8 0 49.4 0 2.6 0 12.6 18.6 15.4 21.6 13.6 15 30.2 28 48.2 37.4zM898.6 336.2c-16.2 5.2-47.4 6.8-59 20.8-5.8 7-2.6 24.8-2 33.2 8.8-0.8 18.4 0.6 27.4 1.8 8.2 1.2 16.2 2.8 24 5.6 3.6 1.4 7.2 2.8 10.6 4.8 7.8 4.6 4.2 5.4 0.2 12.2-21.8 36.6-12 83-13 123.2-0.8 33.4-9.6 70-40 88.8-27.4 17-68 17.6-97.4 5.6-84.8-34-34.8-146.4-63.8-210.8-5-10.8-12.2-14.6 0.4-21 7-3.6 14.6-6 22.2-7.8 11.6-2.8 23.6-4.4 35.6-4.8 2 0 0.6-25.2 0-27.8-2.2-9.8-23.6-12.6-31.6-14.8-8.2-2.2-21.8-2.8-25.8-11.4-6-12.8 19.8-9.6 26.2-10.8 20.6-3.8 38.8-15.2 54.8-28.2 12-9.8 28.2-23 32.6-39 53.4 0 107 0 160.4 0-0.4 40.2-26.6 68.8-61.8 80.4z" />
<glyph unicode="&#xe672;" d="M512 736v0 0zM698.4 290.4c-27 9.4-56.2 10-83.2 19.4-8.2 2.8-24.4 6.2-27.8 15.6-3.2 9.2-3.2 20-3.8 29.6-0.4 7.6-0.6 15.2-0.6 22.8 0 5 12.8 15.6 15.6 20.2 10.8 18 11.8 42.2 13.8 62.6 17.4-4.8 19.6 27.4 22.6 37.2 2.2 6.8 15.6 53.6-5.2 47.2 5 8.8 7 19.6 8.4 29.4 4 25.6 5.6 53.6-2.2 78.6-16.2 52-66 81.2-118.6 82.8-53.4 1.8-107-23.8-127-75.6-9.6-25.2-8.8-52.6-5.6-79 1.4-12 3.4-25.4 9.4-36.2-19.4 5.8-9-35.4-6.8-42.6 3.2-10.2 6-46.8 24.2-41.8 1.6-16.2 3.4-32.8 7.8-48.6 3-10.6 9.2-19.6 16.4-27.8 3.6-4 5.4-4.4 5.2-9.6-0.2-15.6 0.2-32.4-3.8-47.6-4-15.2-37.4-21.6-50.8-24.4-36-7.4-69.2-10.8-99.2-33.2-35-25.8-53.2-66-53.2-109.4 166.6 0 333.2 0 499.8 0 18.8 0 37.4 0 56.2 0 0 59-35.6 111-91.6 130.4-22.4 7.8 22.6-7.8 0 0zM294.2 232.8c11.2 11.8 25.4 22.2 40.8 28 21 8 44.8 7.6 66.6 13.2 18 4.6 40.4 11.8 54.4 24.8 12.8 12 14.2 30.4 15.4 47 1 14 0.8 27.8 0.8 41.8 0 9.8-11.4 15.4-17 23.2-9 12.2-9.4 30.4-11.2 45-0.8 6.4-1 14.6-6.4 19-6 4.8-10.4 7.4-13.4 15-4 10.4-5.4 21.6-8.6 32.4-2 7 5 13.6 7.8 19.4 5.2 10.6-3.8 27-5.6 38-5.6 32.8-5.4 68.6 18.2 94.6 47.4 52.4 156 35.8 171.6-37.8 4.8-23 1.8-49.8-4.6-72.2-2.8-9.6-6-16.6-0.4-26 8.4-13.6 4.8-22.4 0.8-37.6-3.2-12.6-7.2-18.2-16.8-26-8-6.4-6.8-22.4-8.2-31.6-1.6-11.2-2.6-23-9.4-32.4-2.6-3.6-16.8-14.8-16.8-18.6 0-22-1-44.4 2.8-66.2 5.2-31 31.2-38.4 57.2-49 26.4-10.2 57-6.4 82.6-19 26.4-13 51.8-36.8 59.4-66.2-158.6 0-317.2 0-475.8 0-2.8 0-5.6 0-8.4 0 3.8 16.6 13 29.2 24.2 41.2 18.4 19.4-11.8-12.6 0 0zM288.2 316c14 7 29.2 8.6 44.6 10.2 5.6 0.6 8.2 4.4 4 9.8-8 10.2-35.6 12.2-47.2 16.8-7.2 2.8-9.2 5.4-9.8 13.4-0.2 3.6-2.2 19.6 0.6 22.2 2 2 14.6 1.2 17.4 1.6 11.4 1.4 23 3.8 33.8 8 4.6 1.8 9 4 13 6.8 4.8 3.6-3.6 12.4-5.8 17.2-6.8 15-9.8 31.4-10.8 47.8-2 32.2 3 64.6-3 96.6-9 49-46.8 73.6-95 73.6-29.8 0-59.2-10.2-75.8-36.2-18.4-28.6-17.4-64.2-16.4-96.8 0.6-18.6 1.4-37.4-1.2-56-1.2-8-3-15.8-5.8-23.4-2.2-5.8-13.4-20.2-9-23.2 16.6-11.8 44.6-15.8 64.6-14.2 0.6-9.8 2.4-22.4-1.2-31.6-5.6-14.4-47.4-18.2-60-22.4-35.2-11.8-61.2-41.2-61.2-80.2 36.6 0 73 0 109.6 0 16.4 0 32.8 0 49.4 0 2.6 0 12.6 18.6 15.4 21.6 14 15.6 31.2 29 49.8 38.4 18 9-29.2-14.8 0 0zM205.6 288c-32.6 0-65.2 0-97.8 0 14.2 23.6 49.8 22 73.2 30.4 21.6 7.8 35.4 21 37.6 44 0.2 2.6 0.4 58.4-1.8 58.4-17.4 0.6-35.6 0.2-53 2.8 13.8 44.6 0.6 90.6 8 135.6 5.4 32.6 26.2 50.6 59.4 50.6 31.8 0 55.4-14.8 62.2-46.8 9.6-46.4-4-93.8 10.8-139.8-11-2.8-22.6-3.2-34-3.6-5.6-0.2-11.4-0.4-17-0.6-3.6-0.2-2.4-6.4-2.6-9.4-2-21.8-10-56.2 7.4-73.8-19.2-12-40-28.6-52.4-47.8zM799.6 256c53.4 0 107 0 160.4 0 0 39-26.2 68.6-61.4 80.2-16.2 5.2-47.4 6.8-59 20.8-5.8 7-2.6 24.8-2 33.2 8.8-0.8 18.4 0.6 27.4 1.8 8.2 1.2 16.2 2.8 24 5.6 3.6 1.4 7.2 2.8 10.6 4.8 7.8 4.6 4.2 5.4 0.2 12.2-21.8 36.6-12 83-13 123.2-0.8 33.4-9.6 70-40 88.8-27.4 17-68 17.6-97.4 5.6-84.8-34-34.8-146.4-63.8-210.8-5-10.8-12.2-14.6 0.4-21 7-3.6 14.6-6 22.2-7.8 11.6-2.8 23.6-4.4 35.6-4.8 2 0 0.6-25.2 0-27.8-2.2-9.8-23.6-12.6-31.6-14.8-8.2-2.2-21.8-2.8-25.8-11.4-6-12.8 19.8-9.6 26.2-10.8 20.6-3.8 38.8-15.2 54.8-28.2 11.8-9.6 27.8-23.2 32.2-38.8zM798.8 310.2c-10.2 9.4-20.8 18.6-32.6 26 17.6 17.6 9.4 51.8 7.4 73.8-1.2 12.6-4 9.4-16.6 9.8-12 0.4-25.6-0.2-37 3.6 14.4 44.6 2.6 90.4 10 135.8 5.6 34.2 29 51 63 51 30.8 0 52-15.4 58.4-46 9.8-46.2-5.2-94 9-140-17-2.6-34.6-2-51.8-2.6-4.2-0.2-3.8-50.2-3.4-54.6 1.4-23.4 12.2-37.6 34.4-46.6 24.2-9.8 62-7.2 76.8-31.8-18.6 0-37 0-55.6 0-11.2 0-22.4 0-33.8 0-14.2-0.2-17.8 12.2-28.2 21.6-10 9.2 8-7.2 0 0z" />
<glyph unicode="&#xe673;" d="M256 768h158v-640h-158v640zM610 768h158v-640h-158v640z" />
<glyph unicode="&#xe674;" d="M382 736v-576h-94v576h94M414 768h-158v-640h158v640 0zM736 736v-576h-94v576h94M768 768h-158v-640h158v640 0z" />
<glyph unicode="&#xe675;" d="M610 502c-83 0-150.4-68-150.4-151.8 0-5 0.2-10.2 0.8-15-50.8-4.6-90.4-50.8-90.4-103 0-55.4 44.4-104 99.4-104h302.6c68.6 0 124 59.2 124 128.4s-55.6 127-124 127c-5.2 0-10.4 0.4-15.4-0.2-15.2 67.2-75 118.6-146.6 118.6v0zM416 768h32v-110h-32v110zM128 468h112v-34h-112v34zM220.6 648.2l22.4 22.6 63.8-64.2-22.4-22.6zM576.2 584.2l-22.4 22.4 63.6 64.2 22.4-22.6zM243 249l-22.4 22.6 63.8 64.2 22.4-22.6zM413.4 388.8c1 0.2 1.8 0.2 2.8 0.4 0 0.4 0 0.6 0 1-0.4-0.2-1-0.4-1.4-0.6-0.6-0.4-1-0.6-1.4-0.8zM430.2 603.6c-78.8 0-142.8-64.4-142.8-143.6 0-46.8 22.4-88.2 56.8-114.6 6.4-4.8 13-9.2 20.2-12.8 9 24.2 26.6 44.6 49 56.2 0.4 0.2 0.8 0.4 1.4 0.8 0.4 0.2 1 0.4 1.4 0.6-0.4 4.6-0.6 9.4-0.6 14-0.6 63.8 60.6 139.2 122.2 149 0.2 0.2 0.6 0.2 0.8 0.4-26.4 30.6-65.2 50-108.4 50z" />
<glyph unicode="&#xe676;" d="M610 471.2c27.8 0 54-9.4 75.6-27 21-17.2 35.8-41 41.6-67.4l6-27 27.2 3.4c4 0.6 7.8 0.8 11.6 0.8 51.8 0 93.8-44.6 93.8-97 0-52.4-42-97-93.8-97h-303c-18.4 0-35.6 9.4-48.8 22.8s-20.4 32.2-20.4 51c0 36 27.8 65.8 63.8 71.8 3.2 0.6 16.8 2.6 27.4 3.6 0 0-1 10.4-1.2 18.8-0.2 8.4-0.2 18.2-0.2 22.2 0.2 66.8 54 121 120.4 121M610 502c-83 0-150.4-68-150.4-151.8 0-5 0.2-10.2 0.8-15-50.8-4.6-90.4-50.8-90.4-103 0-55.4 44.4-104 99.4-104h302.6c68.6 0 124 59.2 124 128.4s-55.6 127-124 127c-5.2 0-10.4 0.4-15.4-0.2-15.2 67.2-75 118.6-146.6 118.6v0zM416 768h32v-110h-32v110zM128 468h112v-34h-112v34zM220.6 648.2l22.4 22.6 63.8-64.2-22.4-22.6zM576.2 584.2l-22.4 22.4 63.6 64.2 22.4-22.6zM243 249l-22.4 22.6 63.8 64.2 22.4-22.6zM389.4 356c-41.2 16.4-70.4 56.8-70.4 104 0 61.6 49.8 111.8 111.2 111.8 31.8 0 60.4-13.4 80.6-35 9.6 7 19.4 12.6 27.8 16.6-26.2 30.6-65 50.2-108.4 50.2-78.8 0-142.8-64.4-142.8-143.6 0-55.6 31.6-104 77.8-127.8 7.4 10.4 16 18.2 24.2 23.8z" />
<glyph unicode="&#xe677;" d="M192 460.8l212-93.4 428 400.6zM832 768l-396.2-431.4 103.8-208.6z" />
<glyph unicode="&#xe678;" d="M192 460.8l233.2-102.6 114.4-230.2 292.4 640-640-307.2zM456.2 367l311.4 332.4-229.2-497.8-82.2 165.4zM763.6 703.4l-330-314.2-165.6 72.8 495.6 241.4z" />
<glyph unicode="&#xe679;" d="M512 864c-229.8 0-416-186.2-416-416s186.2-416 416-416c229.8 0 416 186.2 416 416 0 229.8-186.2 416-416 416zM512 192v256h-255.4l447.4 192-192-448z" />
<glyph unicode="&#xe67a;" d="M512 831c102.2 0 198.4-39.8 270.8-112.2s112.2-168.4 112.2-270.8-39.8-198.4-112.2-270.8-168.4-112.2-270.8-112.2-198.4 39.8-270.8 112.2c-72.2 72.4-112.2 168.6-112.2 270.8s39.8 198.4 112.2 270.8c72.4 72.2 168.6 112.2 270.8 112.2M512 864c-229.8 0-416-186.2-416-416s186.2-416 416-416c229.8 0 416 186.2 416 416 0 229.8-186.2 416-416 416v0zM704 640l-447.4-192h255.4v-256z" />
<glyph unicode="&#xe67b;" d="M832 320.2v483.8l-448-69.2v-474.4c-18 0-41.8-0.8-87-2.6-85.2-3.2-105-43.6-105-82.6 0-49.8 27-87 125.2-82.8 105.6 4.6 100.6 98 100.6 165v323l382 64v-321.2c-18 0-39.8-0.8-85.2-2.6-85.2-3.2-105-43.6-105-82.6 0-49.8 26-87 124.4-82.8 106 4.6 98 98 98 165z" />
<glyph unicode="&#xe67c;" d="M704.2 755.4c0 0.2 0 0.4 0 0.4-0.2 0.6-0.2 1-0.4 1.6 0 0 0 0.2 0 0.2-1.2 3-3.6 6-7 6.8l-4 0.8-180.8 38.8v-545.2c-16 0-44.8-0.8-89-2.6-83.6-3.2-102.8-43.2-102.8-81.8 0-49.2 26.4-86.2 123-82 103.6 4.6 102.8 97 102.8 163.4v385l147.2-27c6-1.2 10.8 4.6 10.8 10.6v128.8c0 0.8 0.2 1.6 0.2 2.2z" />
<glyph unicode="&#xe67d;" d="M512 512c-35.4 0-64-28.6-64-64s28.6-64 64-64c35.4 0 64 28.6 64 64s-28.6 64-64 64v0zM256.8 512c-35.4 0-64-28.6-64-64s28.6-64 64-64c35.4 0 64 28.6 64 64s-28.8 64-64 64v0zM768 512c-35.4 0-64-28.6-64-64s28.6-64 64-64 64 28.6 64 64-28.6 64-64 64v0z" />
<glyph unicode="&#xe67e;" d="M512 484c19.8 0 36-16.2 36-36s-16.2-36-36-36-36 16.2-36 36 16.2 36 36 36M512 512c-35.4 0-64-28.6-64-64s28.6-64 64-64c35.4 0 64 28.6 64 64s-28.6 64-64 64v0zM256.8 484c19.8 0 36-16.2 36-36s-16.2-36-36-36c-19.8 0-36 16.2-36 36s16.2 36 36 36M256.8 512c-35.4 0-64-28.6-64-64s28.6-64 64-64c35.4 0 64 28.6 64 64s-28.8 64-64 64v0zM768 484c19.8 0 36-16.2 36-36s-16.2-36-36-36-36 16.2-36 36 16.2 36 36 36M768 512c-35.4 0-64-28.6-64-64s28.6-64 64-64 64 28.6 64 64-28.6 64-64 64v0z" />
<glyph unicode="&#xe67f;" d="M686.2 330c-3.6-0.2-7-0.2-10.6-0.2-58.2 0-113 22.6-154.2 63.8-41.2 41.2-63.8 96-63.8 154.2 0 33.2 7.4 65.2 21.2 94.2 6.2 12.8 13.6 25 22.2 36.4-15.2-1.6-29.8-4.8-44-9.2-93.6-29.6-161.4-117-161.4-220.4 0-127.6 103.4-231 231-231 70.6 0 133.6 31.6 176 81.4 9.6 11.4 18.4 23.8 25.6 37-13.6-3.4-27.6-5.6-42-6.2z" />
<glyph unicode="&#xe680;" d="M686.2 330c-3.6-0.2-7-0.2-10.6-0.2-58.2 0-113 22.6-154.2 63.8-41.2 41.2-63.8 96-63.8 154.2 0 33.2 7.4 65.2 21.2 94.2 6.2 12.8 13.6 25 22.2 36.4-15.2-1.6-29.8-4.8-44-9.2-93.6-29.6-161.4-117-161.4-220.4 0-127.6 103.4-231 231-231 70.6 0 133.6 31.6 176 81.4 9.6 11.4 18.4 23.8 25.6 37-13.6-3.4-27.6-5.6-42-6.2zM526.6 249.8c-109.8 0-199 89.2-199 199 0 78.2 45.2 145.8 110.8 178.4-8.4-25-12.8-51.6-12.8-79.4 0-131.8 102-239.8 231.2-249.4-34.8-30.4-80.4-48.6-130.2-48.6z" />
<glyph unicode="&#xe681;" d="M992 192v576h-960v-576h350v-32h-128v-32h514v32h-128v32h352zM64 736h896v-512h-896v512zM96 704h832v-448h-832v448z" />
<glyph unicode="&#xe682;" d="M992 192v576h-960v-576h350v-32h-128v-32h514v32h-128v32h352zM64 736h896v-512h-896v512z" />
<glyph unicode="&#xe683;" d="M512 864c-229.8 0-416-186.2-416-416s186.2-416 416-416c229.8 0 416 186.2 416 416s-186.2 416-416 416zM768 430h-512v34h512v-34z" />
<glyph unicode="&#xe684;" d="M512 864c-229.8 0-416-186.2-416-416s186.2-416 416-416c229.8 0 416 186.2 416 416s-186.2 416-416 416zM512 66.6c-210.2 0-381.4 171-381.4 381.4 0 210.2 171 381.4 381.4 381.4 210.2 0 381.4-171 381.4-381.4 0-210.2-171.2-381.4-381.4-381.4zM256 464h512v-34h-512v34z" />
<glyph unicode="&#xe685;" d="M768 430h-512v34h512v-34z" />
<glyph unicode="&#xe686;" d="M512 253c87.4 0 158 75 158 167v309c0 92-70.6 167-158 167s-158-75-158-167v-309c0-92 70.6-167 158-167zM734 576v-159.4c0-120.4-99.6-218.4-220-218.4s-220 98-220 218.4v159.4h-38v-159.4c0-134.4 106-245.2 240-255v-125.6h-146v-36h322v36h-138v125.6c132 9.8 234 120.6 234 255v159.4h-34z" />
<glyph unicode="&#xe687;" d="M512 896c-87.4 0-158-75-158-167v-309c0-92 70.6-167 158-167s158 75 158 167v309c0 92-70.6 167-158 167zM638 420c0-74.4-56.6-135-126-135s-126 60.6-126 135v309c0 74.4 56.6 135 126 135s126-60.6 126-135v-309zM734 576v-159.4c0-120.4-99.6-218.4-220-218.4s-220 98-220 218.4v159.4h-38v-159.4c0-134.4 106-245.2 240-255v-125.6h-146v-36h322v36h-138v125.6c132 9.8 234 120.6 234 255v159.4h-34z" />
<glyph unicode="&#xe688;" d="M272.965 879.782l27.613 16.17 515.204-879.813-27.613-16.17-515.204 879.813zM512.4 253.2c24.6 0 47.6 5.8 68.4 16.4l-226.8 385.6v-235.2c0-92 70.8-166.8 158.4-166.8zM670 420v309c0 92-70.4 167-158 167-50.8 0-95.6-25.2-124.6-64.4l273.8-466.6c5.8 17.2 8.8 35.8 8.8 55zM768 416.6v159.4h-34v-159.4c0-43-12.4-83.2-34.2-117l19.8-34c30.6 42.4 48.4 94.6 48.4 151zM534 161.6c34 2.4 66 11.6 94.6 26l-18.8 32.2c-29-14-61.4-21.8-95.4-21.8-120.6 0-220.2 98-220.2 218.2v159.8h-38v-159.4c0-134.4 106-245.2 240-254.8v-125.8h-146v-36h322v36h-138v125.6z" />
<glyph unicode="&#xe689;" d="M544 416v32 96h-64v-96-32h-128v-64h128v-32-96h64v96 32h128v64h-96zM672 704v64c-1 36.4-27.2 64-64.4 64h-198.2c-37.2 0-57.4-27.4-57.4-64v-64h-256v-640h832v640h-256zM384 763.8c0 20.4 5.8 36.2 27.4 36.2h194.2c20.8 0 34.4-15.4 34.4-36.2v-59.8h-256v59.8zM704 320h-128v-128h-128v128h-128v128h128v128h128v-128h128v-128z" />
<glyph unicode="&#xe68a;" d="M544 544v-96-32h128v-64h-128v-32-96h-64v96 32h-128v64h128v32 96h64M576 576h-128v-128h-128v-128h128v-128h128v128h128v128h-128v128 0zM672 704v64c-1 36.4-27.2 64-64.4 64h-198.2c-37.2 0-57.4-27.4-57.4-64v-64h-256v-640h832v640h-256zM384 763.8c0 20.4 5.8 36.2 27.4 36.2h194.2c20.8 0 34.4-15.4 34.4-36.2v-59.8h-256v59.8zM896 96h-768v576h768v-576z" />
<glyph unicode="&#xe68b;" d="M512 352c-17.6 0-32-14.4-32-32s14.4-32 32-32 32 14.4 32 32-14.4 32-32 32zM720 512v144c0 114.8-93.2 208-208 208-115 0-208-93.2-208-208v-144h-112v-480h640v480h-112zM528 258v-82c0-8.8-7.2-16-16-16s-16 7.2-16 16v82c-27.6 7.2-48 32.2-48 62 0 35.4 28.6 64 64 64s64-28.6 64-64c0-29.8-20.4-54.8-48-62zM688 512h-352v144c0 97 79 176 176 176s176-79 176-176v-144z" />
<glyph unicode="&#xe68c;" d="M720 512v144c0 114.8-93.2 208-208 208-115 0-208-93.2-208-208v-144h-112v-480h640v480h-112zM336 656c0 97 79 176 176 176s176-79 176-176v-144h-352v144zM800 64h-576v416h576v-416zM576 320c0 35.4-28.6 64-64 64s-64-28.6-64-64c0-29.8 20.4-54.8 48-62v-82c0-8.8 7.2-16 16-16s16 7.2 16 16v82c27.6 7.2 48 32.2 48 62zM512 288c-17.6 0-32 14.4-32 32s14.4 32 32 32 32-14.4 32-32-14.4-32-32-32z" />
<glyph unicode="&#xe68d;" d="M512 896c-148 0-268.4-117.4-268.4-265.4 0-32.8 7-68.6 19.6-100.8h-0.2l1.2-2.4c1-2.2 2-4.4 3-6.6l244.8-520.8 244.8 520.6c1 2.2 2.2 4.4 3.2 6.8l0.8 2.2c13 32.2 19.6 66.2 19.6 100.6 0 148.4-120.4 265.8-268.4 265.8zM512 546.2c-51.8 0-93.8 42-93.8 93.8s42 93.8 93.8 93.8c51.8 0 93.8-42 93.8-93.8 0-51.8-42-93.8-93.8-93.8z" />
<glyph unicode="&#xe68e;" d="M512 896c-148 0-268.4-117.4-268.4-265.4 0-32.8 7-68.6 19.6-100.8h-0.2l1.2-2.4c1-2.2 2-4.4 3-6.6l244.8-520.8 244.8 520.6c1 2.2 2.2 4.4 3.2 6.8l0.8 2.2c13 32.2 19.6 66.2 19.6 100.6 0 148.4-120.4 265.8-268.4 265.8zM730.2 541.2l-0.4-1c-0.6-1.2-1.2-2.6-1.8-3.8l-2-4.2-214-454.8-216 458.8c-0.6 1.2-1.2 2.4-1.6 3.6-11.8 29-18.2 61.2-18.2 90.8 0 130 105.8 233 236 233s236-102.8 236-233c-0.2-30.4-6.2-60.4-18-89.4zM512 768c-70.6 0-128-57.4-128-128s57.4-128 128-128 128 57.4 128 128-57.4 128-128 128zM512 546.2c-51.8 0-93.8 42-93.8 93.8s42 93.8 93.8 93.8c51.8 0 93.8-42 93.8-93.8 0-51.8-42-93.8-93.8-93.8z" />
<glyph unicode="&#xe68f;" d="M800 614.2c0 155.6-132.2 281.8-288 281.8-155.8 0-288-126.2-288-282 0-62 26.4-118 60.4-166h-0.6c21.8-30 42.8-55.4 63-90 44-75.6 37.2-148.6 37.4-163.2v-2.8h64v256l-64 128h33.2l62.8-128v-256h64v256l62.8 128h33l-64-128v-256h64v2.8c0 17.8-7.2 87.6 36.8 163.2 20.2 34.6 41.2 60 63 90h-0.2c34 48 60.4 104 60.4 166.2zM448 32h128v-32h-128v32zM416 96h192v-32h-192v32zM416 160h192v-32h-192v32z" />
<glyph unicode="&#xe690;" d="M800 614.2c0 155.6-132.2 281.8-288 281.8-155.8 0-288-126.2-288-282 0-62 26.4-118 60.4-166h-0.6c21.8-30 42.8-55.4 63-90 44-75.6 37.2-148.6 37.4-163.2v-2.8h256v2.8c0 17.8-7.2 87.6 36.8 163.2 20.2 34.6 41.2 60 63 90h-0.2c33.8 48 60.2 104 60.2 166.2zM702 451.2c-1.2-1.6-2.2-3-3.4-4.6-16.2-21.8-33-44.4-49.4-72.2-34.6-59.4-40.8-115.8-41.6-150.2h-31.6v223.8l64 128h-33.2l-62.8-128v-224h-64v224l-62.8 128h-33.2l64-128v-224h-31.8c-1 34.4-7.8 91.4-41.8 150-9 15.4-18.2 30-27.4 42h0.4l-37.2 51.2c-31.6 43.2-54.2 94.2-54.2 147.2 0 66.8 32 129.6 79.2 176.8s110 73.4 176.8 73.4c66.8 0 129.6-26.2 176.8-73.4 47.2-47.2 79.2-110 79.2-176.8 0-53-22.6-103.8-54.2-147l-11.8-16.2zM448 32h128v-32h-128v32zM416 96h192v-32h-192v32zM416 160h192v-32h-192v32z" />
<glyph unicode="&#xe691;" d="M789.2 277.6c-59 0-106.8-47.8-106.8-106.8s47.8-106.8 106.8-106.8c59 0 106.8 47.8 106.8 106.8s-47.8 106.8-106.8 106.8zM512 277.6c-59 0-106.8-47.8-106.8-106.8s47.8-106.8 106.8-106.8c59 0 106.8 47.8 106.8 106.8s-47.8 106.8-106.8 106.8zM234.8 277.6c-59 0-106.8-47.8-106.8-106.8s47.8-106.8 106.8-106.8c59 0 106.8 47.8 106.8 106.8s-47.8 106.8-106.8 106.8zM789.2 554.8c-59 0-106.8-47.8-106.8-106.8s47.8-106.8 106.8-106.8c59 0 106.8 47.8 106.8 106.8s-47.8 106.8-106.8 106.8zM512 554.8c-59 0-106.8-47.8-106.8-106.8s47.8-106.8 106.8-106.8c59 0 106.8 47.8 106.8 106.8s-47.8 106.8-106.8 106.8zM234.8 554.8c-59 0-106.8-47.8-106.8-106.8s47.8-106.8 106.8-106.8c59 0 106.8 47.8 106.8 106.8s-47.8 106.8-106.8 106.8zM789.2 618.4c59 0 106.8 47.8 106.8 106.8s-47.8 106.8-106.8 106.8c-59 0-106.8-47.8-106.8-106.8 0-59 47.8-106.8 106.8-106.8zM512 832c-59 0-106.8-47.8-106.8-106.8s47.8-106.8 106.8-106.8c59 0 106.8 47.8 106.8 106.8 0 59-47.8 106.8-106.8 106.8zM234.8 832c-59 0-106.8-47.8-106.8-106.8s47.8-106.8 106.8-106.8c59 0 106.8 47.8 106.8 106.8 0 59-47.8 106.8-106.8 106.8z" />
<glyph unicode="&#xe692;" d="M789.2 277.6c-59 0-106.8-47.8-106.8-106.8s47.8-106.8 106.8-106.8c59 0 106.8 47.8 106.8 106.8s-47.8 106.8-106.8 106.8zM789.2 96c-41.2 0-74.8 33.6-74.8 74.8 0 41.2 33.6 74.8 74.8 74.8s74.8-33.6 74.8-74.8c0-41.2-33.6-74.8-74.8-74.8zM512 277.6c-59 0-106.8-47.8-106.8-106.8s47.8-106.8 106.8-106.8c59 0 106.8 47.8 106.8 106.8s-47.8 106.8-106.8 106.8zM512 96c-41.2 0-74.8 33.6-74.8 74.8 0 41.2 33.6 74.8 74.8 74.8s74.8-33.6 74.8-74.8c0-41.2-33.6-74.8-74.8-74.8zM234.8 277.6c-59 0-106.8-47.8-106.8-106.8s47.8-106.8 106.8-106.8c59 0 106.8 47.8 106.8 106.8s-47.8 106.8-106.8 106.8zM234.8 96c-41.2 0-74.8 33.6-74.8 74.8 0 41.2 33.6 74.8 74.8 74.8s74.8-33.6 74.8-74.8c0-41.2-33.4-74.8-74.8-74.8zM789.2 554.8c-59 0-106.8-47.8-106.8-106.8s47.8-106.8 106.8-106.8c59 0 106.8 47.8 106.8 106.8s-47.8 106.8-106.8 106.8zM789.2 373.2c-41.2 0-74.8 33.6-74.8 74.8s33.6 74.8 74.8 74.8 74.8-33.6 74.8-74.8c0-41.2-33.6-74.8-74.8-74.8zM512 554.8c-59 0-106.8-47.8-106.8-106.8s47.8-106.8 106.8-106.8c59 0 106.8 47.8 106.8 106.8s-47.8 106.8-106.8 106.8zM512 373.2c-41.2 0-74.8 33.6-74.8 74.8s33.6 74.8 74.8 74.8 74.8-33.6 74.8-74.8c0-41.2-33.6-74.8-74.8-74.8zM234.8 554.8c-59 0-106.8-47.8-106.8-106.8s47.8-106.8 106.8-106.8c59 0 106.8 47.8 106.8 106.8s-47.8 106.8-106.8 106.8zM234.8 373.2c-41.2 0-74.8 33.6-74.8 74.8s33.6 74.8 74.8 74.8 74.8-33.6 74.8-74.8c0-41.2-33.4-74.8-74.8-74.8zM789.2 618.4c59 0 106.8 47.8 106.8 106.8s-47.8 106.8-106.8 106.8c-59 0-106.8-47.8-106.8-106.8 0-59 47.8-106.8 106.8-106.8zM789.2 800c41.2 0 74.8-33.6 74.8-74.8s-33.6-74.8-74.8-74.8-74.8 33.6-74.8 74.8c0 41.2 33.4 74.8 74.8 74.8zM512 832c-59 0-106.8-47.8-106.8-106.8s47.8-106.8 106.8-106.8c59 0 106.8 47.8 106.8 106.8 0 59-47.8 106.8-106.8 106.8zM512 650.4c-41.2 0-74.8 33.6-74.8 74.8s33.6 74.8 74.8 74.8 74.8-33.6 74.8-74.8c0-41.2-33.6-74.8-74.8-74.8zM234.8 832c-59 0-106.8-47.8-106.8-106.8s47.8-106.8 106.8-106.8c59 0 106.8 47.8 106.8 106.8 0 59-47.8 106.8-106.8 106.8zM234.8 650.4c-41.2 0-74.8 33.6-74.8 74.8 0 41.2 33.6 74.8 74.8 74.8s74.8-33.6 74.8-74.8c0-41.2-33.4-74.8-74.8-74.8z" />
<glyph unicode="&#xe693;" d="M851 690.4c9.4 11.8 15 27 15 43.2 0 38.4-31.2 69.8-69.6 69.8-16.4 0-31.4-5.6-43.2-15-68 48.4-150 75.6-239.8 75.6-229.8 0-417.4-185-417.4-415.2 0-230.2 187.4-416.8 417.2-416.8 229.8 0 414.8 186.6 414.8 416.8 0 90-28.6 173.4-77 241.6zM796 777.4c24.4 0 44-19.8 44-44 0-24.4-19.8-44-44-44-24.4 0-44 19.8-44 44 0 24.2 19.6 44 44 44zM783.6 176.6c-35.2-35.2-76.4-63.2-122.2-82.6-47.4-20-96.4-30.4-148.4-30.4-51.8 0-103.4 10.2-150.8 30.4-45.8 19.4-86.8 47-122.2 82.6-35.2 35.2-63 76.6-82.4 122.4-20 47.4-30.2 97.8-30.2 149.8 0 51.8 10.2 102.4 30.2 149.8 19.4 45.8 47 87 82.4 122.4s76.4 63.2 122.2 82.6c47.4 20 98.8 28.2 150.8 28.2 51.8 0 101-8 148.4-28.2 25.4-10.8 49.4-24.2 71.8-40-4.2-9-6.6-19-6.6-29.8 0-38.4 31.2-69.8 69.6-69.8 10.6 0 20.6 2.4 29.8 6.6 15.8-22.4 29.2-46.4 40-72 20-47.4 30.2-97.8 30.2-149.8 0-51.8-10.2-102.4-30.2-149.8-19.4-45.8-47-87-82.4-122.4zM513 639.8c-106 0-192-85.6-192-191.8s85.8-192.2 192-192.2c106 0 192 86 192 192.2s-86 191.8-192 191.8zM513 288.4c-88.2 0-159.4 71.6-159.4 159.6 0 88.2 71.2 159.2 159.4 159.2s159.4-71.2 159.4-159.2c0-88.2-71.4-159.6-159.4-159.6z" />
<glyph unicode="&#xe694;" d="M512 864c-229.8 0-416-186.2-416-416s186.2-416 416-416c229.8 0 416 186.2 416 416 0 229.8-186.2 416-416 416zM503 656c22.2 0 40-18 40-40s-18-40-40-40c-22 0-40 18-40 40s17.8 40 40 40zM576 256h-128v16h32v240h-32v16h96v-256h32v-16z" />
<glyph unicode="&#xe695;" d="M543 616c0-22.091-17.909-40-40-40s-40 17.909-40 40c0 22.091 17.909 40 40 40 22.091 0 40-17.909 40-40zM544 272v256h-96v-16h32v-240h-32v-16h128v16zM512 864c-229.8 0-416-186.2-416-416s186.2-416 416-416c229.8 0 416 186.2 416 416 0 229.8-186.2 416-416 416zM512 66.6c-210.2 0-381.4 171-381.4 381.4 0 210.2 171 381.4 381.4 381.4 210.2 0 381.4-171 381.4-381.4 0-210.2-171.2-381.4-381.4-381.4z" />
<glyph unicode="&#xe696;" d="M543 616c0-22.091-17.909-40-40-40s-40 17.909-40 40c0 22.091 17.909 40 40 40 22.091 0 40-17.909 40-40zM544 272v256h-96v-16h32v-240h-32v-16h128v16z" />
<glyph unicode="&#xe697;" d="M843.8 561.4c-33.4 30-78 46.6-125.2 46.6s-91.8-16.6-125.2-46.6l-63.2-57 44.8-40.4 62.2 56c21.6 19.4 50.6 30.2 81.4 30.2s59.8-10.8 81.4-30.2c21.4-19.2 33.2-44.8 33.2-72.2 0-27.2-11.8-52.8-33.2-72-21.6-19.4-50.6-30.2-81.4-30.2-30.8 0-59.8 10.8-81.4 30.2l-206.6 185.4c-33.4 30-78 46.6-125.2 46.6s-91.8-16.6-125.2-46.6c-33.6-30-52.2-70.2-52.2-113.2 0-43 18.6-83.2 52.2-113.4 33.4-30 78-46.6 125.2-46.6 47.2 0 91.8 16.6 125.2 46.6l63.2 56.8-44.8 40.4-62-55.8c-21.6-19.4-50.6-30.2-81.4-30.2s-59.8 10.8-81.4 30.2c-21.4 19.2-33.2 44.8-33.2 72 0 27.2 11.8 52.8 33.2 72.2 21.6 19.4 50.6 30.2 81.4 30.2 30.8 0 59.8-10.8 81.4-30.2l206.6-185.4c33.4-30 78-46.6 125.2-46.6s91.8 16.6 125.2 46.6c33.6 30.2 52.2 70.4 52.2 113.4-0.2 42.8-18.8 83-52.4 113.2z" />
</font>
</defs>
</svg>
