<?xml version="1.0" standalone="no"?>
<!DOCTYPE svg PUBLIC "-//W3C//DTD SVG 1.1//EN" "http://www.w3.org/Graphics/SVG/1.1/DTD/svg11.dtd" >
<svg xmlns="http://www.w3.org/2000/svg">
<metadata>Generated by IcoMoon</metadata>
<defs>
<font id="icomoon" horiz-adv-x="1024">
<font-face units-per-em="1024" ascent="960" descent="-64" />
<missing-glyph horiz-adv-x="1024" />
<glyph unicode="&#x20;" d="" horiz-adv-x="512" />
<glyph unicode="&#xe600;" d="M728.8 318.2c-10.6-15-23.2-29.4-37.6-42.8-14.2-13.2-30.2-25-47.4-34.8-17.2-9.8-35.8-17.6-55-23s-39.6-8.2-60.6-8.2c-31.8 0-62.4 5.2-91 15.2-28.4 10-53.6 25-75 44.8-21.4 19.6-43.4 51.8-56.4 82-11.6 26.8-16.2 55.6-16.2 99 0 31.2 7.2 66 19.6 95.2 12 28 28.6 52.8 49.8 73.8 20.8 20.6 46 37.2 75.2 49.6 26.2 11 57 16.4 94.2 16.4 29.8 0 58-4.8 83.8-14 25.6-9.2 47.8-22.4 66.2-39.2 17.4-15.8 28-34.8 39.4-60.4 10-22.4 13.6-41.8 13.6-71.8 0-24.8-4.4-48.2-13-69.8-8.6-21.2-15-34-28-50-13.2-15.8-21.2-25.4-36.2-34.2-17.2-10-30.6-14.8-42-14.8-7.2 0-12.6 1.4-15.6 4-3 2.6-4.8 6-5.4 10.8-0.8 5.6-0.2 12.6 2 20.8 2.2 8.8 5.6 17.2 9.8 27.4l75.8 203.8h-35.6l-12.4-33c-7.6 12.2-18.2 23-31.8 31-21 12.2-39 17.6-62.4 17.6-27 0-52-7-74.4-20.8-22-13.6-41-31.2-56.4-52.6-15-20.6-18.6-31.4-25.8-52.8l-1.2-3.4c-8.4-24.8-12.6-49.2-12.6-72.4 0-15.4 2.8-30 8.2-43.6 5.4-13.6 12.8-25.6 22.2-35.6 9.4-10.2 20.8-18.2 33.8-24.2s27.4-9 42.6-9c17 0 33.2 2.8 52.2 9.4 12.6 4.4 23.8 11.6 34.8 22.8 2-6.4 5.4-12 10.6-17 10-10 23.4-15.2 39.8-15.2 17.2 0 35.6 6 58 18.6 19.8 11.2 31.4 24 46.6 42.2 16.4 19.6 24.6 36 33.8 59.4 10 25 15 52 15 80.6 0 36-4.8 60.4-17 87.2-13.2 28.6-26.4 51.6-48 70.8-21.8 19.2-47.8 34.2-77 44.6-29 10.2-60.6 15.4-93.4 15.4-40.2 0-74.4-6-104.4-18.2-33-13.4-61.8-32-86-55.2-24.4-23.6-44-51.8-58-83.8-14.6-33.2-22.8-73.4-22.8-110.2 0-50.2 6.2-85.2 20.6-116.8 16-34.6 42-70.8 66.6-92 25.2-21.8 54.2-38.2 86.4-48.4 31.8-10.2 64.6-15.4 97.6-15.4 22.8 0 45.6 3.2 68 9.2 22.4 6.2 44 14.8 64.2 26.2 20.2 11.2 39 25 56.4 41.2 17.2 16.2 37.2 41.6 44 53.8 2.6 4.8 4.4 8.6 5.8 11.6h-37l-1-1.8zM551.6 371.2c-8.8-11.2-15.4-19-23.6-24.4-8.8-6-15.8-9.8-24.8-11.8-9.2-2.4-18.6-3.4-27.4-3.4-11.2 0-21.6 2-30.8 6-9.4 4-17.4 9.6-24.2 16.8-6.8 7.2-12.2 15.8-16.2 25.4-3.8 9.6-5.8 20.4-5.8 32 0 19 3.6 39.4 10.6 60.6 0.8 2.4 1.6 4.8 2.2 6.8 5.6 17.2 8.6 23 19 40 11.4 18.8 28.2 33.2 46 45 17.2 11.6 36.4 17.4 57 17.4 8.4 0 17.2-1 26.4-3 7.2-1.6 11.2-3.8 18-7.8 1.2-0.6 2.2-1.2 3.4-2 7.8-4.4 14.8-10.2 20.8-17.4 5.4-6.4 9.6-14.8 12.6-24.6l-41.2-115.6c-6.4-16.2-13.8-29.6-22-40z" />
<glyph unicode="&#xe601;" d="M685.8 629.2l18.2 12.8 18.2-12.8 45.8-29v231.8c-41.4 0-89 0-128 0v-231.8l45.8 29zM864 832c0 0-26.6 0-64 0v-293l-96 64-96-64v293c-24.2 0-41.2 0-44.8 0-16.2 0-35.2-14.4-35.2-30s0-658 0-658l-16-11-16 11c0 0 0 644 0 658s-18.4 30-35.2 30-300.8 0-300.8 0c-37.6 0-66-26.6-66-64v-572.2c0-37.6 28.4-67.8 66-67.8 0 0 259 0 286.6 0 27.6 0 49.4-8.4 49.4-38.8 0-18.2 0-25.2 0-25.2h32c0 0 0 6.8 0 25.2 0 30.6 21.8 38.8 49.4 38.8s286.6 0 286.6 0c37.6 0 66 30.2 66 67.8v572.2c0 37.4-28.4 64-66 64z" />
<glyph unicode="&#xe602;" d="M864 832h-300.8c-20.6 0-38.6-9.2-51.2-23.4v0 0c-12.4 14.4-30.6 23.4-51.2 23.4h-300.8c-37.6 0-66-26.6-66-64v-572.2c0-37.6 28.4-67.8 66-67.8 0 0 259 0 286.6 0 27.6 0 49.4-8.4 49.4-38.8 0-18.2 0-25.2 0-25.2h32c0 0 0 6.8 0 25.2 0 30.6 21.8 38.8 49.4 38.8s286.6 0 286.6 0c37.6 0 66 30.2 66 67.8v572.2c0 37.4-28.4 64-66 64zM496 137.8c-9.4 15.6-27 22.2-47.6 22.2h-288.4c-18.8 0-32 17-32 35.8v572.2c0 18.8 13.2 32 32 32 0 0 261.2 0 286.6 0 25.6 0 49.4-25.6 49.4-44.4v-617.8zM640 800c37.6 0 86 0 128 0v-200.8l-45.8 29-18.2 12.8-18.2-12.8-45.8-29v200.8zM896 195.8c0-18.8-13.2-35.8-32-35.8h-288.4c-20.6 0-38.2-4.6-47.6-22.2v617.8c0 18.8 23.8 44.4 49.4 44.4 4.4 0 15.4 0 30.6 0v-262l96 64 96-64v262c37.2 0 64 0 64 0 18.8 0 32-13.4 32-32v-572.2z" />
<glyph unicode="&#xe603;" d="M684.6 281.2c-14-13-29.4-24.2-46-33.8-16.8-9.6-34.6-17-53.2-22.2-18.6-5.2-38.2-8-58.4-8-30.6 0-60.4 5-88.4 14.8-27.4 9.6-51.8 24.2-72.2 43.2-20.4 18.6-41.8 49.8-54.4 79.2-11 25.6-15.6 53.2-15.6 95.8 0 30.2 7 63.6 19 92 11.6 27.2 27.8 51.2 48 71.2 20 19.8 44.4 36 72.6 48 25.2 10.6 55 15.8 91.2 15.8 28.6 0 56-4.6 81-13.6 24.4-8.8 45.8-21.4 63.6-37.6 16.4-15 26.6-33.2 37.4-57.8 9.4-21 13-39.6 13-68.6 0-23.6-4.2-46.2-12.4-66.8-8.2-20.2-14.4-32.6-26.8-48-13-15.6-20.2-24.2-34-32.2-16-9.4-28.2-13.8-38-13.8-7.8 0-10.2 1.8-10.4 2-1.2 1-2.2 2.4-2.8 5.8-0.6 4.6 0 10.8 1.8 17.8 2 8 5 15.6 9.4 26.2l80 214.8h-52.6l-9.2-24.4c-7.2 8.4-15.8 15.6-25.4 21.2-22.8 13.2-42 18.6-66.4 18.6-28.4 0-55-7.4-78.6-22-23-14.2-42.8-32.6-58.6-54.6-15.6-21.6-19.6-33.2-26.8-54.6l-1.2-3.6c-8.6-25.6-13-50.8-13-75 0-16.2 3-32 8.8-46.6 5.8-14.8 13.8-27.6 23.8-38 9.8-10.8 22-19.4 36.4-26 14-6.4 29.4-9.8 46-9.8 18.4 0 35.2 3 54.8 9.8 10.8 3.8 20.4 9.2 29.6 17 2-3.4 4.6-6.4 7.6-9.2 11.6-11.6 27-17.6 45.4-17.6 18.4 0 38.2 6.2 62 19.6 21.2 12 33.6 25.8 48.8 44 17.2 20.6 25.8 38.2 35 61.6 10.4 25.8 15.6 54 15.6 83.6 0 37.2-5 62.6-17.8 90.6-13.6 29.6-27.4 53.4-50 73.4-22.4 20-49.2 35.4-79.6 46.2-30 10.6-62.2 15.8-96 15.8-41.2 0-76.4-6.2-107.4-18.8-33.6-13.6-63.4-32.8-88.6-56.8-25.2-24.4-45.4-53.6-59.8-86.4-15-34-23.4-75.2-23.4-113.4 0-51.4 6.4-87.4 21.4-120.2 16.6-36 43.6-73 68.6-94.6 26.2-22.8 56.2-39.6 89.2-50 32.6-10.4 66.4-15.8 100-15.8 23 0 46.6 3.2 70.2 9.4 23.8 6.6 46 15.6 66 27 20.4 11.4 40 25.6 58 42.4 18 16.8 38.4 43 45.6 55.8 3.8 7 6.2 12.2 7.4 15.4h-55.2c-10.6-13-22-26-35-38.2zM544.2 376.2c-9-11.4-14.8-18.2-21.8-22.8-7.8-5.4-14-8.8-22-10.6h-0.2c-8-2-16.6-3.2-25.4-3.2-10.2 0-19.4 1.8-27.6 5.4-8.4 3.6-15.4 8.4-21.6 15-6 6.4-11 14-14.6 22.8-3.4 8.8-5.2 18.6-5.2 29 0 18 3.4 37.6 10.2 58 0.8 2.4 1.6 5 2.2 6.8 5.4 16.6 8.2 21.8 18.2 38.4 9.2 15.2 23.6 29.2 43.6 42.6 15.8 10.6 33.4 16 52.6 16 7.8 0 16-1 24.6-2.8 6.2-1.4 9.4-3.2 15.6-6.8l0.4-0.2c0.8-0.4 1.6-0.8 2.6-1.4l0.6-0.4c7-4 13.2-9.2 18.6-15.6 4.2-5 7.6-11.4 10.2-19.4l-40.2-113c-6.2-15.2-13.2-28-20.8-37.8z" />
<glyph unicode="&#xe604;" d="M795.2 666.6l-3.6 3.4h36.8l17-15.6 45 45.6-81.6 80.6-46.4-44.6 17.6-18.4v-37.2l-10 9.4c-62.6 56.6-140 90.4-226 97.8v76.4h-64v-76h-4c-87.4-6-170-45-232-106v35.6l17.8 18.4-45.8 44.4-81.6-80.4 45-45.6 17 15.6h35.6c-0.6 0-1.4-1.4-2-2.2-65.6-70.2-102-161.8-102-257 0-208.8 172.2-378.8 384.2-378.8 211.6 0 383.8 169.8 383.8 378.6 0 95.2-36 186.2-100.8 256zM528 323.6l-16-35.6-16 35.6c-28 7-48 31.6-48 61 0 27.6 23 52 48 60.6v258.8h32v-258.6c27-7.4 48-31.8 48-60.8 0-29.4-20-54-48-61z" />
<glyph unicode="&#xe605;" d="M795.2 666.6l-3.6 3.4h36.8l17-15.6 45 45.6-81.6 80.6-46.4-44.6 17.6-18.4v-37.2l-10 9.4c-62.6 56.6-140 90.4-226 97.8v76.4h-64v-76h-4c-87.4-6-170-45-232-106v35.6l17.8 18.4-45.8 44.4-81.6-80.4 45-45.6 17 15.6h35.6c-0.6 0-1.4-1.4-2-2.2-65.6-70.2-102-161.8-102-257 0-208.8 172.2-378.8 384.2-378.8 211.6 0 383.8 169.8 383.8 378.6 0 95.2-36 186.2-100.8 256zM512.6 68.6c-191 0-346.2 153.4-346.2 341.8 0 188.6 155.4 341.8 346.2 341.8 191 0 346.2-153.4 346.2-341.8 0.2-188.4-155.2-341.8-346.2-341.8zM528 445.4v258.6h-32v-258.8c-25-8.6-48-33-48-60.6 0-29.4 20-54 48-61l16-35.6 16 35.6c28 7 48 31.6 48 61 0 29-21 53.4-48 60.8z" />
<glyph unicode="&#xe606;" d="M512 864c-229.8 0-416-186.2-416-416s186.2-416 416-416c229.8 0 416 186.2 416 416 0 229.8-186.2 416-416 416zM301 659c5.2 4.6 239.8-169.8 239.8-169.8 2-1.4 3.2-3 4.4-4.4 10-9.2 16.4-22 16.4-36.6 0-27.4-22.2-49.8-49.8-49.8-15.6 0-29.4 7.4-38.6 18.8-0.8 0.8-1.6 1.4-2.2 2.2 0.2-0.2-175 234.8-170 239.6zM512.2 65.6c-211.4 0-382.8 171.4-382.8 382.8 0 105.6 42.8 201.4 112 270.6l23.6-23.6c-63.2-63.2-102.4-150.6-102.4-247 0-192.6 156.8-349.4 349.4-349.4s349 156.8 349 349.4c0 180.6-141 330.2-317 348v-156.4h-32v191.2c211.4 0 383-171.4 383-382.8s-171.6-382.8-382.8-382.8z" />
<glyph unicode="&#xe607;" d="M473.2 416.8c9.2-11.4 23-18.8 38.8-18.8 27.6 0 50 22.4 50 50 0 14.6-6.4 27.6-16.4 36.8-1.2 1.4-2.6 3-4.4 4.4 0 0-235.4 175-240.6 170.4-5.2-4.6 170.6-240.4 170.6-240.4 0.4-0.8 1.4-1.6 2-2.4zM512.4 864v0h-0.4v-224h32v189.4c195.6-16.6 350.6-181 350.6-381 0-211-171.4-382.8-382.4-382.8-211 0-382.6 171.6-382.6 382.6 0 105.6 43 201.2 112.2 270.4l-23.8 23.6c-75.4-75.4-122-179.4-122-294.2 0-229.8 186.2-416 416-416 229.8 0 416 186.2 416 416 0 229.8-186 416-415.6 416z" />
<glyph unicode="&#xe608;" d="M876.8 575.2c24.4 28.4 39.2 64.6 39.2 104.4 0.2 87.6-71 159.2-160.8 164.2-3.2 0.2-6.2 0.2-9.6 0.2-40.8 0.2-78.2-13.6-107.6-36.2l107.6-104.8-21.2-20.8c-51.4 38.8-114.4 64-182.4 69.8v0.2c0 17-14 31-31 31s-31-14-31-31v-0.2c-68-5.8-130-31-181.2-69.8l-20.8 20.6 107.6 104.8c-29.4 22.8-66.8 36.4-107.4 36.2-3.2 0-6.4-0.2-9.6-0.2-90-5-161.2-76.6-160.8-164.2 0-39.6 14.8-76 39.2-104.4l108 105.2 19-19c-70.2-63.8-114.2-156-114.2-258.4 0-87.8 32.4-168 86-229.4l-72.8-89.2 25-20.2 70.4 85.8c63.2-60.4 148.8-97.8 243.2-97.8h0.2c0 0 0.4 0 0.6 0 94.4 0 180.4 37.4 243.6 97.8l70.4-86 24.6 20.2-73 89.4c53.6 61.6 86 141.8 86 229.4 0 102.2-44 194.6-114.4 258.6l19 19 108.2-105.2zM544 352h-224v32h192v256h32v-288z" />
<glyph unicode="&#xe609;" d="M876.8 575.2c24.4 28.4 39.2 64.6 39.2 104.4 0.2 87.6-71 159.2-160.8 164.2-3.2 0.2-6.2 0.2-9.6 0.2-40.8 0.2-78.2-13.6-107.6-36.2l107.6-104.8-21-20.8c-51.4 38.8-114 64-182 69.8v0.2c0 17-14 31-31 31s-31-14-31-31v-0.2c-67.8-5.8-130.2-31-181.4-69.8l-20.8 20.8 107.6 104.8c-29.4 22.8-66.8 36.4-107.4 36.2-3.2 0-6.4-0.2-9.6-0.2-90-5-161.2-76.6-160.8-164.2 0-39.6 14.8-76 39.2-104.4l108 105.2 19-19c-70.2-63.8-114.2-156-114.2-258.4 0-87.8 32.4-168 86-229.4l-72.8-89.2 24.6-20.4 70.4 85.8c63.2-60.4 148.8-97.8 243.2-97.8h0.2c0 0 0.4 0 0.6 0 94.4 0 180.4 37.4 243.6 97.8l70.4-86 24.6 20.2-73 89.4c53.6 61.6 86 141.8 86 229.4 0 102.2-44 194.6-114.4 258.6l19 19 108.2-105.2zM152.4 624.4c-8.4 17.2-12.8 36.8-13 56-0.2 70.2 56.8 129.2 131 133.6 25.4 1.4 46.2-2.8 64.2-12.2l-182.2-177.4zM831.8 407c0-175.4-144-314.2-320.2-314.2-176 0-319.6 138.8-319.6 314.2 0 175.4 143.6 317.4 319.8 317.4 176.2 0 320-141.8 320-317.4zM689.4 801.6c17.6 9.6 38.6 13.6 64.2 12.2 74.4-4 131.2-63 131-133.6 0-19.2-4.6-38.8-13-56.2l-182.2 177.6zM512 640v-256h-192v-32h224v288z" />
<glyph unicode="&#xe60a;" d="M800 458.8c0 75.4-60.8 138.2-135.8 138.2-5.6 0-11.4 0.2-16.8-0.6-16.6 73.8-82.2 133.6-160.6 133.6-91 0-164.6-78.2-164.6-169.6 0-5.6 0.2-11 0.8-16.4-55.4-5-99-54.6-99-111.8 0-58.6 45.8-109.6 103.2-112.6l-51-74.8 26.6-19.4 64.2 94.2h72.2l-94.2-138.2 26.6-19.4 107.4 157.6h75.8l-52-75.4 26.6-19.4 65.2 94.8h69.4c0.2 0 0.6 0 0.8 0l-94.2-138.2 26.6-19.4 113.2 166.2c52.4 19.8 89.6 71.6 89.6 130.6z" />
<glyph unicode="&#xe60b;" d="M800 458.8c0 75.4-60.8 138.2-135.8 138.2-5.6 0-11.4 0.2-16.8-0.6-16.6 73.8-82.2 133.6-160.6 133.6-91 0-164.6-78.2-164.6-169.6 0-5.6 0.2-11 0.8-16.4-55.4-5-99-54.6-99-111.8 0-58.6 45.8-109.6 103.2-112.6l-51-74.8 26.6-19.4 64.2 94.2h72.2l-94.2-138.2 26.6-19.4 107.4 157.6h75.8l-52-75.4 26.6-19.4 65.2 94.8h69.4c0.2 0 0.6 0 0.8 0l-94.2-138.2 26.6-19.4 113.2 166.2c52.4 19.8 89.6 71.6 89.6 130.6zM664.2 355.8h-84.2l-0.2 0.2-0.2-0.2h-246.8c-20 0-39 8.8-53.4 23.4s-22.2 34.4-22.2 55c0 39.4 30.4 71.4 69.8 78 3.4 0.6 18.4 2.8 30 3.8 0 0-1 11.2-1.4 20.2-0.4 9-0.2 19.8-0.2 24.2 0 72.8 59 136.2 131.6 136.2 30.4 0 59-14.2 82.6-33.2 23-18.6 39.2-44.8 45.6-73.6l6.6-29.4 29.8 3.6c4.4 0.6 8.6 0.8 12.8 0.8 56.6 0 102.6-47.4 102.6-104.4-0.2-57.4-46.2-104.6-102.8-104.6z" />
<glyph unicode="&#xe60c;" d="M192 218.2c0-31 25.4-58.2 56.4-58.2h532.6c31 0 51 27.2 51 58.2v325.8h-640v-325.8zM832 622.4c0 31-20 49.6-51 49.6 0 0-309.4 0-334 0-9.4 0-21.4 19.8-37 38-14.2 16.6-29.4 26-41 26-15 0-120.6 0-120.6 0-31 0-56.4-17.8-56.4-48.6v-111.4h640v46.4z" />
<glyph unicode="&#xe60d;" d="M894.2 447.6c-90.6 104.4-215.8 224.4-382.2 224.4-67.2 0-128.8-19-193.8-59.6-54.8-34.4-111-82.8-188.2-162.4l-2-2 13.4-13.8c110.2-112.8 205.4-210.2 370.6-210.2 73 0 143.8 23.8 216.4 72.8 61.8 41.8 114.4 94.8 156.6 137.6l11 11-1.8 2.2zM512 640c66.2 0 129.8-19 194.4-61.2 47.8-31.2 94.8-73.4 147.4-132.2-76.6-77.4-191.6-190.6-341.8-190.6-68.4 0-128.4 16.8-188.4 56.4-55 36.2-104.6 86.6-152.4 135.6 118.2 119.4 216.8 192 340.8 192zM512 288c88.2 0 160 71.8 160 160s-71.8 160-160 160c-88.2 0-160-71.8-160-160 0-88.2 71.8-160 160-160zM512 575.4c70.4 0 128-57.2 128-127.4s-57.6-127.4-128-127.4c-70.4 0-127.8 57.2-127.8 127.4 0 70.2 57.4 127.4 127.8 127.4zM576 448v0c0-35-28.8-64-63.6-64s-64.4 30.4-64.4 65.4 31.6 62.6 64 62.6v32c-53 0-95.8-43.2-95.8-96.4 0-53.2 43-96.2 95.8-96.2s96 43.2 96 96.2v0.4h-32z" />
<glyph unicode="&#xe60e;" d="M513.6 640c-51.4 0-99.6-20-135.8-56.2s-56.2-84.4-56.2-135.8 20-99.4 56.2-135.8c36.2-36.2 84.6-56.2 135.8-56.2 51.4 0 99.6 20 135.8 56.2 36.2 36.2 56.2 84.4 56.2 135.8s-20 99.4-56.2 135.8c-36.2 36.2-84.4 56.2-135.8 56.2zM513.6 288c-88.6 0-160 71.8-160 160s71.4 160 160 160c88.6 0 160-71.8 160-160 0-88.2-71.4-160-160-160zM849 528h-30.4c-24.8 0-45.6 20.8-45.6 46.4 0 12.8 5.4 24.2 15 32.8l19.6 19.2c19.4 19.2 19.4 50.4 0 69.8l-44.6 44.2c-8.8 8.8-21.8 14-35 14s-26-5.2-35-14l-18.8-18.8c-9-10-21.4-15.4-34.4-15.4-25.6 0-47.4 20.8-47.4 45.4v30.2c0 27-21 50.2-48 50.2h-60.8c-27.6 0-49.6-23-49.6-50.2v-30.4c0-24.6-21.2-45.4-46.8-45.4-12.8 0-24.4 5.4-33.2 14.8l-19.4 19.2c-8.8 9-21.8 14-35 14s-26-5.2-35-14l-44.6-44c-19.2-19.2-19.2-50.6 0-69.6l18.8-18.8c10-9 15.6-20.4 15.6-33.4 0-25.6-20.8-46.4-45.6-46.4h-30.4c-27.4 0.2-50.4-22.2-50.4-49.4v-30.4-30.4c0-27 23-49.6 50.4-49.6h30.4c24.8 0 45.6-20.8 45.6-46.4 0-12.8-5.6-24.6-15.6-33.6l-18.8-18.4c-19.2-19.2-19.2-50.4 0-69.6l44.6-44.4c8.8-9 21.8-14 35-14s26 5.2 35 14l19.4 19.2c8.4 9.4 20.2 14.8 33 14.8 25.6 0 46.8-20.8 46.8-45.4v-30.4c0-27 22-50.2 49.4-50.2h60.8c27.2 0 49.8 23 49.8 50.2v30.4c0 24.6 21 45.4 46.6 45.4 12.8 0 24.6-5.6 33.8-15.4l18.8-18.8c9-8.8 21.8-14 35-14s26 5.2 35 14l44.6 44.4c19.2 19.2 19.2 50.6 0 69.8l-19.6 19.2c-9.6 8.6-15 20.8-15 33.4 0 25.6 20.8 47.2 45.6 47.2h30.4c27.2 0 46.6 20.6 46.6 47.8v30.8 30.4c0 27.2-19.4 49.6-46.6 49.6zM864 448v-30.2c0-8.4-4.6-15.8-14.6-15.8h-30.4c-20.6 0-40.2-8.8-55-24-14.6-15-22.6-34.8-22.6-55.6 0-21.6 8.8-41.6 25-56.4l19-18.8c6.6-6.8 6.6-18 0-24.6l-44.6-44.4c-3.2-3-7.8-4.8-12.6-4.8-4.8 0-9.6 1.8-12.6 4.8l-18.2 18.2c-15.4 16.2-35.6 25.2-57 25.2-20.8 0-40-8-55-22.4-15.2-14.8-23.2-34.2-23.2-55v-30.4c0-9.8-8.6-18.2-17.8-18.2h-60.8c-9.2 0-17.4 8.4-17.4 18.2v30.4c0 20.6-8.2 40.2-23.4 55-15 14.4-34.6 22.4-55.2 22.4-21.2 0-41.6-9-56.2-24.8l-18.6-18.6c-3.2-3-7.8-4.8-12.6-4.8s-9.6 1.6-12.2 4.4l-0.4 0.4-44.6 44.4c-6.6 6.6-6.6 17.6 0 24.4l18.2 18c16.4 15.2 25.4 35.4 25.4 57 0 20.8-8 39.8-22.6 54.8-14.8 15.2-34.4 23-55 23h-30.6c-10 0-18.4 8.6-18.4 17.6v30.6 30.4c0 9 8.4 17.6 18.4 17.6h30.4c20.6 0 40.2 7.8 55 23 14.6 15 22.6 34.4 22.6 55 0 21.6-9 41.8-25.4 56.8l-18.4 18.2c-4.4 4.4-5 9.4-5 12.2 0 2.6 0.6 7.8 5 12.2l44.4 44.2c3.2 3 7.8 4.8 12.6 4.8s9.6-1.6 12.2-4.4l19.2-19.2c14.8-16 34.8-24.8 56.2-24.8 20.8 0 40.2 8 55.2 22.4 15.2 14.8 23.6 34.2 23.6 55v30.4c0 9.8 8 18.2 17 18.2h61c9 0 16-8.4 16-18.2v-30.4c0-20.6 8.8-40.2 24-55 15-14.4 34.8-22.4 55.6-22.4 21.6 0 42 9 57.2 25.2l18.2 18.2c3.2 3 7.8 4.8 12.6 4.8 4.8 0 9.6-1.8 12.6-4.6l44.6-44.2c3.2-3.2 5.2-7.6 5.2-12.2 0-4.6-1.8-9-5-12.2l-19-18.8c-16-14.8-25-34.8-25-56.4 0-20.8 8-39.8 22.6-54.8 14.8-15.2 34.4-23 55-23h30.4c10.8 0 14.8-10 15-18v-30z" />
<glyph unicode="&#xe60f;" d="M849 527h-30.4c-24.8 0-45.6 21.4-45.6 46.8 0 12.8 5.4 24.4 15 33l19.6 19.2c19.4 19.2 19.4 50.6 0 69.8l-44.6 44.2c-8.8 8.8-21.8 14-35 14s-26-5.2-35-14l-18.8-18.8c-9-10-21-15.4-34-15.4-25.6 0-47 20.8-47 45.4v30.6c0 27-21.8 50.2-49 50.2h-60.8c-27.2 0-48.8-23-48.8-50.2v-30.4c0-24.6-21.4-45.4-47-45.4-12.8 0-24.6 5.4-33.2 14.8l-19.4 19.2c-8.8 9-21.8 14-35 14s-26-5.2-35-14l-45-44c-19.2-19.2-19.2-50.6 0-69.6l18.8-18.8c10-9 15.6-21 15.6-33.8 0-25.6-20.8-46.8-45.6-46.8h-30.4c-27.4 0-50.4-21.4-50.4-48.6v-30.4-30.4c0-27 23-48.6 50.4-48.6h30.4c24.8 0 45.6-21.4 45.6-46.8 0-12.8-5.6-24.8-15.6-33.8l-18.8-18.6c-19.2-19.2-19.2-50.6 0-69.6l44.6-44.4c8.8-9 21.8-14 35-14s26 5.2 35 14l19.4 19.2c8.4 9.4 20.4 14.8 33.2 14.8 25.6 0 47-20.8 47-45.4v-30.4c0-27 21.6-50.2 49-50.2h60.8c27.2 0 48.8 23 48.8 50.2v30.4c0 24.6 21.4 45.4 47 45.4 12.8 0 24.8-5.6 34-15.4l18.8-18.8c9-8.8 21.8-14 35-14s26 5.2 35 14l44.6 44.4c19.2 19.2 19.2 50.6 0 69.8l-19.6 19.2c-9.6 8.6-15 20.4-15 33 0 25.6 20.8 46.8 45.6 46.8h30.4c27.2 0 46.6 21.4 46.6 48.6v30.6 30.4c0.4 27.2-19 48.6-46.2 48.6zM673.6 448v0c0-88.2-71.4-160-160-160s-160 71.8-160 160v0 0c0 88.2 71.4 160 160 160s160-71.8 160-160v0z" />
<glyph unicode="&#xe610;" d="M575.6 480c17.6 0 32.2-14.4 32.2-32s-14-32-31.8-32h-128c-17.6 0-32 14.4-32 32s14.4 32 32 32h126M576 512h-128c-35.2 0-64-28.8-64-64s28.8-64 64-64h128c35.2 0 64 28.8 64 64s-28.8 64-64 64v0zM832 736h-640v-160h32v-416h576v416h32v160zM768 192h-512v384h512v-384zM800 608h-576v96h576v-96z" />
<glyph unicode="&#xe611;" d="M224 160h576v384h-576v-384zM448 480h128c17.6 0 32-14.4 32-32s-14.4-32-32-32h-128c-17.6 0-32 14.4-32 32s14.4 32 32 32zM192 736v-160h640v160z" />
<glyph unicode="&#xe612;" d="M160 352h704v-32h-704v32zM160 464h704v-32h-704v32zM160 576h704v-32h-704v32z" />
<glyph unicode="&#xe613;" d="M851 690.4c9.4 11.8 15 27 15 43.2 0 38.4-31.2 69.8-69.6 69.8-16.4 0-31.4-5.6-43.2-15-68 48.4-150 75.6-239.8 75.6-229.8 0-417.4-185-417.4-415.2 0-230.2 187.4-416.8 417.2-416.8 229.8 0 414.8 186.6 414.8 416.8 0 90-28.6 173.4-77 241.6zM796 777.4c24.4 0 44-19.8 44-44 0-24.4-19.8-44-44-44-24.4 0-44 19.8-44 44 0 24.2 19.6 44 44 44zM783.6 176.6c-35.2-35.2-76.4-63.2-122.2-82.6-47.4-20-96.4-30.4-148.4-30.4-51.8 0-103.4 10.2-150.8 30.4-45.8 19.4-86.8 47-122.2 82.6-35.2 35.2-63 76.6-82.4 122.4-20 47.4-30.2 97.8-30.2 149.8 0 51.8 10.2 102.4 30.2 149.8 19.4 45.8 47 87 82.4 122.4s76.4 63.2 122.2 82.6c47.4 20 98.8 28.2 150.8 28.2 51.8 0 101-8 148.4-28.2 25.4-10.8 49.4-24.2 71.8-40-4.2-9-6.6-19-6.6-29.8 0-38.4 31.2-69.8 69.6-69.8 10.6 0 20.6 2.4 29.8 6.6 15.8-22.4 29.2-46.4 40-72 20-47.4 30.2-97.8 30.2-149.8 0-51.8-10.2-102.4-30.2-149.8-19.4-45.8-47-87-82.4-122.4zM513 639.8c-106 0-192-85.6-192-191.8s85.8-192.2 192-192.2c106 0 192 86 192 192.2s-86 191.8-192 191.8zM513 288.4c-88.2 0-159.4 71.6-159.4 159.6 0 88.2 71.2 159.2 159.4 159.2s159.4-71.2 159.4-159.2c0-88.2-71.4-159.6-159.4-159.6z" />
<glyph unicode="&#xe614;" d="M865 736h-65v96h-576v-96h-63c-35.2 0-65-27.6-65-62.6v-316.8c0-35 29.8-64.6 65-64.6h95v-228h512v228h97c35.2 0 63 29.6 63 64.6v316.8c0 35-27.8 62.6-63 62.6zM256 800h512v-64h-512v64zM736 96h-448v384h448v-384zM896 356.6c0-17.4-13.4-32.6-31-32.6h-97v188h-512v-188h-95c-17.6 0-33 15.2-33 32.6v316.8c0 17.4 15.4 30.6 33 30.6h704c17.6 0 31-13.2 31-30.6v-316.8z" />
<glyph unicode="&#xe615;" d="M640 734v39.4c0 32.4-26.2 58.6-58.6 58.6h-139c-32.2 0-58.4-26.2-58.4-58.6v-39.4h-160v-30h42.2l47.2-581.4c0-32.4 26.2-58.6 58.6-58.6h282c32.4 0 58.6 26.2 58.6 58.6l46.6 581.4h40.8v30h-160zM414 773.4c0 16.2 12.4 28.6 28.6 28.6h139c16.2 0 28.6-12.4 28.6-28.6v-39.4h-196v39.4h-0.2zM405.4 158l-21.4 482h29l21.8-482h-29.4zM526 158h-28v482h28v-482zM618.6 158h-29.2l21.6 482h29l-21.4-482z" />
<glyph unicode="&#xe616;" d="M736 736c-22-2.8-49.8-7-79.4-7-46.2 0-88 11.4-130.4 20.4-43 9.2-87.4 18.6-134.4 18.6-93.8 0-125.6-20.2-128.8-22.4l-6.8-4.8v-5.2-323.4-284.2h32v286.6c12 5 43.6 13.8 103.8 13.8 43.6 0 84.4-16.6 127.8-26 44-9.4 89.6-19.2 139-19.2 29.4 0 55.4 4 77.4 6.6 12 1.4 22.6 2.8 32 4.4v313.8 33c-9.4-1.8-20.2-3.4-32.2-5zM736 422c-22-2.8-47.8-7-77.4-7-46.2 0-90 9.4-132.4 18.4-43 9.2-87.2 26.6-134.2 26.6-51.4 0-83.8-6-103.8-12v274.6c12 5 43.8 13.6 103.8 13.6 43.6 0 84.4-8.6 127.8-18 44-9.4 87.6-21.2 137-21.2 29.4 0 57.4 4 79.4 6.6l-0.2-281.6z" />
<glyph unicode="&#xe617;" d="M930.8 466c-4.4 44-24.8 86-57.8 116.8-34.2 31.8-78.6 49.4-125.4 49.4-83 0-154.6-54.8-177-134-14 14-37 23.4-58.6 23.4-21.6 0-44.6-9.4-58.6-23.4-22.4 79.2-94 134-177 134-46.6 0-91.2-17.4-125.4-49.2-33-31-53.4-73-57.8-117h-29.2v-36h29.2c4.4-44 24.8-86 57.8-116.8 34.2-31.8 78.6-49.4 125.4-49.4 101.6 0 184.2 82.4 184.2 184 0 0.2 0 0.2 0 0.2v0c0 19.8 23 43.2 51.4 43.2s51.4-23.4 51.4-43.2v0c0 0 0 0 0-0.2 0-101.6 82.6-184 184.2-184 46.6 0 91.2 17.4 125.4 49.4 33 30.8 53.4 73 57.8 117h29.2v36h-29.2z" />
<glyph unicode="&#xe618;" d="M930.8 466c-4.4 44-24.8 86-57.8 116.8-34.2 31.8-78.6 49.4-125.4 49.4-83 0-154.6-54.8-177-134-14 14-37 23.4-58.6 23.4-21.6 0-44.6-9.4-58.6-23.4-22.4 79.2-94 134-177 134-46.6 0-91.2-17.4-125.4-49.2-33-31-53.4-73-57.8-117h-29.2v-36h29.2c4.4-44 24.8-86 57.8-116.8 34.2-31.8 78.6-49.4 125.4-49.4 101.6 0 184.2 82.4 184.2 184 0 0.2 0 0.2 0 0.2v0c0 19.8 23 43.2 51.4 43.2s51.4-23.4 51.4-43.2v0c0 0 0 0 0-0.2 0-101.6 82.6-184 184.2-184 46.6 0 91.2 17.4 125.4 49.4 33 30.8 53.4 73 57.8 117h29.2v36h-29.2zM747.6 294c-85 0-154 69.2-154 154 0 85 69.2 154 154 154 85 0 154-69.2 154-154 0-85-69-154-154-154zM276.4 294c-85 0-154 69.2-154 154 0 85 69.2 154 154 154 85 0 154-69.2 154-154 0-85-69-154-154-154z" />
<glyph unicode="&#xe619;" d="M736 736c-22-2.8-49.8-7-79.4-7-46.2 0-88 11.4-130.4 20.4-43 9.2-87.4 18.6-134.4 18.6-93.8 0-125.6-20.2-128.8-22.4l-6.8-4.8v-5.2-323.4-284.2h32v286.6c12 5 43.6 13.8 103.8 13.8 43.6 0 84.4-16.6 127.8-26 44-9.4 89.6-19.2 139-19.2 29.4 0 55.4 4 77.4 6.6 12 1.4 22.6 2.8 32 4.4v313.8 33c-9.4-1.8-20.2-3.4-32.2-5z" />
<glyph unicode="&#xe61a;" d="M843.8 561.4c-33.4 30-78 46.6-125.2 46.6s-91.8-16.6-125.2-46.6l-63.2-57 44.8-40.4 62.2 56c21.6 19.4 50.6 30.2 81.4 30.2s59.8-10.8 81.4-30.2c21.4-19.2 33.2-44.8 33.2-72.2 0-27.2-11.8-52.8-33.2-72-21.6-19.4-50.6-30.2-81.4-30.2-30.8 0-59.8 10.8-81.4 30.2l-206.6 185.4c-33.4 30-78 46.6-125.2 46.6s-91.8-16.6-125.2-46.6c-33.6-30-52.2-70.2-52.2-113.2 0-43 18.6-83.2 52.2-113.4 33.4-30 78-46.6 125.2-46.6 47.2 0 91.8 16.6 125.2 46.6l63.2 56.8-44.8 40.4-62-55.8c-21.6-19.4-50.6-30.2-81.4-30.2s-59.8 10.8-81.4 30.2c-21.4 19.2-33.2 44.8-33.2 72 0 27.2 11.8 52.8 33.2 72.2 21.6 19.4 50.6 30.2 81.4 30.2 30.8 0 59.8-10.8 81.4-30.2l206.6-185.4c33.4-30 78-46.6 125.2-46.6s91.8 16.6 125.2 46.6c33.6 30.2 52.2 70.4 52.2 113.4-0.2 42.8-18.8 83-52.4 113.2z" />
<glyph unicode="&#xe61b;" d="M846.6 561.2c-31.8 30.2-74.2 46.8-119.4 46.8-45.2 0-87.6-16.6-119.4-46.8l-72.4-68.6 23.4-22.4 72.4 68.8c25.6 24.2 59.6 37.6 95.8 37.6 36.2 0 70.2-13.4 95.8-37.6 52.8-50.2 52.8-131.8 0-181.8-25.6-24.2-59.6-37.6-95.8-37.6-36.2 0-70.2 13.4-95.8 37.6l-215.2 204c-32 30.2-74.4 46.8-119.4 46.8-45.2 0-87.6-16.6-119.4-46.8-65.8-62.4-65.8-163.8 0-226.2 31.8-30.2 74.2-46.8 119.4-46.8 45.2 0 87.6 16.6 119.4 46.8l72.2 68.6-23.4 22.2-72.4-68.6c-25.6-24.2-59.6-37.6-95.8-37.6s-70.2 13.4-95.8 37.6c-52.8 50.2-52.8 131.8 0 181.8 25.6 24.2 59.6 37.6 95.8 37.6 36.2 0 70.2-13.4 95.8-37.6l215.2-204c32-30.2 74.4-46.8 119.4-46.8 45.2 0 87.6 16.6 119.4 46.8 66 62.2 66 163.8 0.2 226.2z" />
<glyph unicode="&#xe61c;" d="M882 128c0-27.6-22.4-50-50-50s-50 22.4-50 50 22.4 50 50 50 50-22.4 50-50zM306 128c0-27.6-22.4-50-50-50s-50 22.4-50 50 22.4 50 50 50 50-22.4 50-50zM255.8 768l-22.2 64h-105.6v-34h83.4l115-426.6c-64.8-22.6-119.8-75.8-130.6-146.2-3.8-23.4-3.8-33.2-3.8-33.2h704v33.4h-665.4c9.4 63.2 77.6 116.2 148.2 125s486.6 68.4 486.6 68.4l30.6 349.2h-640.2z" />
<glyph unicode="&#xe61d;" d="M882 128c0-27.6-22.4-50-50-50s-50 22.4-50 50 22.4 50 50 50 50-22.4 50-50zM306 128c0-27.6-22.4-50-50-50s-50 22.4-50 50 22.4 50 50 50 50-22.4 50-50zM255.8 768l-22.2 64h-105.6v-34h83.4l115-426.6c-64.8-22.6-119.8-75.8-130.6-146.2-3.8-23.4-3.8-33.2-3.8-33.2h704v33.4h-665.4c9.4 63.2 77.6 116.2 148.2 125s486.6 68.4 486.6 68.4l30.6 349.2h-640.2zM832 448l-470-66.6c-1.8-0.4-3.6-0.8-5.4-1.2l-89.4 354.6h595.4l-30.6-286.8z" />
<glyph unicode="&#xe61e;" d="M686.2 330c-3.6-0.2-7-0.2-10.6-0.2-58.2 0-113 22.6-154.2 63.8-41.2 41.2-63.8 96-63.8 154.2 0 33.2 7.4 65.2 21.2 94.2 6.2 12.8 13.6 25 22.2 36.4-15.2-1.6-29.8-4.8-44-9.2-93.6-29.6-161.4-117-161.4-220.4 0-127.6 103.4-231 231-231 70.6 0 133.6 31.6 176 81.4 9.6 11.4 18.4 23.8 25.6 37-13.6-3.4-27.6-5.6-42-6.2z" />
<glyph unicode="&#xe61f;" d="M686.2 330c-3.6-0.2-7-0.2-10.6-0.2-58.2 0-113 22.6-154.2 63.8-41.2 41.2-63.8 96-63.8 154.2 0 33.2 7.4 65.2 21.2 94.2 6.2 12.8 13.6 25 22.2 36.4-15.2-1.6-29.8-4.8-44-9.2-93.6-29.6-161.4-117-161.4-220.4 0-127.6 103.4-231 231-231 70.6 0 133.6 31.6 176 81.4 9.6 11.4 18.4 23.8 25.6 37-13.6-3.4-27.6-5.6-42-6.2zM526.6 249.8c-109.8 0-199 89.2-199 199 0 78.2 45.2 145.8 110.8 178.4-8.4-25-12.8-51.6-12.8-79.4 0-131.8 102-239.8 231.2-249.4-34.8-30.4-80.4-48.6-130.2-48.6z" />
<glyph unicode="&#xe620;" d="M427 192l114 152h-64.4zM656.8 606.6c-5.4 0-10.8 0-16-0.6-15.8 70-78.2 122.8-152.8 122.8-86.6 0-156.6-70.4-156.6-157 0-5.2 0.2-10.4 0.8-15.6-52.8-4.6-94.2-51.4-94.2-105.6 0-57.2 46.4-106.6 103.4-106.6h135.2l11 34h-82.6l44 198h106l-40-128h104l-78-104h115.8c71.4 0 129.2 60.2 129.2 131.8 0 71.4-57.8 130.8-129.2 130.8z" />
<glyph unicode="&#xe621;" d="M619 448h-104l40 128h-106l-44-198h82.6l-60.6-186zM656.8 606.6c-5.4 0-10.8 0-16-0.6-15.8 70-78.2 122.8-152.8 122.8-86.6 0-156.6-70.4-156.6-157 0-5.2 0.2-10.4 0.8-15.6-52.8-4.6-94.2-51.4-94.2-105.6 0-57.2 46.4-106.6 103.4-106.6h22.6v34h-22.6c-19 0-37 8.2-50.8 22-13.6 14-21.2 32.6-21.2 52 0 37.2 29 67.6 66.4 73.8 3.2 0.6 17.6 2.6 28.4 3.6 0 0-1 10.6-1.2 19.2-0.2 8.6-0.2 18.8-0.2 23 0 69.2 56.2 125.4 125.2 125.4 29 0 56.2-9.6 78.6-27.8 21.8-17.8 37.2-42.6 43.4-69.8l6.2-28 28.4 3.6c4.2 0.6 8.2 0.8 12.2 0.8 53.8 0 97.6-44.6 97.6-98.8 0-54.2-43.8-98.8-97.6-98.8h-16.8v-34h16.8c71.4 0 129.2 60.2 129.2 131.8 0 71.2-57.8 130.6-129.2 130.6z" />
<glyph unicode="&#xe622;" d="M488 608.4c29 0 56.2-9.6 78.6-27.8 21.8-17.8 37.2-42.6 43.4-69.8l6.2-28 28.4 3.6c4.2 0.6 8.2 0.8 12.2 0.8 53.8 0 97.6-44.2 97.6-98.4 0-54.2-43.8-98.4-97.6-98.4h-315.4c-19 0-37 7.8-50.8 21.6-13.6 14-21.2 32.4-21.2 51.8 0 37.2 29 67.6 66.4 73.8 3.2 0.6 17.6 2.4 28.4 3.4 0 0-1 10.6-1.2 19.2-0.2 8.6-0.2 18.8-0.2 23 0.2 68.8 56.2 125.2 125.2 125.2M488 640c-86.6 0-156.6-70.4-156.6-157 0-5.2 0.2-10.4 0.8-15.6-52.8-4.6-94.2-51-94.2-105.2 0-57.2 46.4-106.2 103.4-106.2h315.4c71.4 0 129.2 59.8 129.2 131.4s-57.8 130.6-129.2 130.6c-5.4 0-10.8 0-16-0.6-15.8 70-78.2 122.6-152.8 122.6v0z" />
<glyph unicode="&#xe623;" d="M496 768h32v-118h-32v118zM496 246h32v-118h-32v118zM714 464h118v-32h-118v32zM192 464h118v-32h-118v32zM736.539 251.474l-23.759-23.759-67.599 67.599 23.759 23.759 67.599-67.599zM383.109 604.814l-23.759-23.759-67.74 67.74 23.759 23.759 67.74-67.74zM712.626 672.51l23.755-23.762-67.608-67.589-23.755 23.762 67.608 67.589zM359.275 319.064l23.755-23.762-67.75-67.731-23.755 23.762 67.75 67.731zM514.2 298.6c-83.6 0-151.6 68-151.6 151.6s68 151.6 151.6 151.6 151.6-68 151.6-151.6c-0.2-83.6-68.2-151.6-151.6-151.6z" />
<glyph unicode="&#xe624;" d="M496 768h32v-118h-32v118zM496 246h32v-118h-32v118zM714 464h118v-32h-118v32zM192 464h118v-32h-118v32zM736.539 251.474l-23.759-23.759-67.599 67.599 23.759 23.759 67.599-67.599zM383.109 604.814l-23.759-23.759-67.74 67.74 23.759 23.759 67.74-67.74zM712.626 672.51l23.755-23.762-67.608-67.589-23.755 23.762 67.608 67.589zM359.275 319.064l23.755-23.762-67.75-67.731-23.755 23.762 67.75 67.731zM514.2 298.6c-83.6 0-151.6 68-151.6 151.6s68 151.6 151.6 151.6 151.6-68 151.6-151.6c-0.2-83.6-68.2-151.6-151.6-151.6zM514.2 568c-65 0-117.8-52.8-117.8-117.8s52.8-117.8 117.8-117.8c65 0 117.8 52.8 117.8 117.8s-52.8 117.8-117.8 117.8z" />
<glyph unicode="&#xe625;" d="M512 736.2c0 0 0 0 0 0v0zM698.4 290.4c-22.4 7.8-59 10.2-75 16.4-11.2 4.4-29 9-34.6 16-5.8 6.8-5.8 56.2-5.8 56.2s14 13 19.8 27.6c5.8 14.6 9.6 54.2 9.6 54.2s1.2-0.4 3-0.4c4.2 0 11.8 2.8 15.4 21.2 4.4 22.6 12.8 34.4 10.6 51-1.6 11.2-6.4 13-9.2 13-1.4 0-2.4-0.4-2.4-0.4s11.4 16.8 11.4 74c0 58.8-45.4 116.8-129.2 117-84-0.2-129.2-58.2-129.2-117 0-57 11.4-74 11.4-74s-1 0.4-2.4 0.4c-3 0-7.8-1.8-9.2-13-2.2-16.6 6-28.6 10.6-51 3.6-18.4 11.2-21.2 15.4-21.2 1.8 0 3 0.4 3 0.4s3.8-39.8 9.6-54.2c5.8-14.6 19.8-27.6 19.8-27.6s0-49.4-5.8-56.2c-5.8-6.8-23.4-11.6-34.6-16-16-6.2-52.6-8.6-75-16.4-22.4-7.8-91.6-40.4-91.6-130.4h556c0 90-69 122.6-91.6 130.4zM288.2 316c18 9 35.6 9 49.2 10.8 0 0 7.6 12.4-17.4 16.8 0 0-34.2 8.6-38.2 13.4-4 4.8-1.6 31.4-1.6 31.4s47.8 1.6 66.8 18.4c-31 46.4-14.4 100.6-20.8 151.2-6.2 50.4-36.4 82-94.2 82-0.2 0 0 0-2 0v0c-56 0-84.8-31.6-91.2-82.2-6.4-50.6 12-110.8-19.8-151.4 17.8-15.8 61.8-16.6 66.8-16.6 0.4 0 0.4 0 0.4 0 0 0 0.2 0.2 0.2 0.2s2-28.4-2-33.2c-4-4.8-15.8-9.2-23.8-11-17.6-3.8-36.2-10-51.6-15.4-15.4-5.2-45-36.4-45-74.4h160.4c4.4 16 34.6 45.2 63.8 60zM799.6 256h160.4c0 38-29.6 69.2-45 74.6s-34.2 11.6-51.6 15.4c-8.2 1.8-19.8 6.2-23.8 11-4 4.8-2 33.2-2 33.2s0.2-0.2 0.2-0.2c0 0 0.2 0 0.4 0 5 0 49.2 0.6 67 16.6-31.8 40.6-13.6 100.8-20 151.4-6.4 50.4-35.2 82-91.2 82v0c-2 0-2 0-2 0-57.8 0-88.2-31.6-94.4-82.2-6.4-50.6 10.2-104.8-20.8-151.2 19-16.8 66.8-18.4 66.8-18.4s2.4-26.6-1.6-31.4-38.2-13.4-38.2-13.4c-25-4.4-17.4-16.8-17.4-16.8 13.6-1.8 31.4-1.8 49.2-10.8 29.4-14.6 59.6-43.8 64-59.8z" />
<glyph unicode="&#xe626;" d="M610 502c-83 0-150.4-68-150.4-151.8 0-5 0.2-10.2 0.8-15-50.8-4.6-90.4-50.8-90.4-103 0-55.4 44.4-104 99.4-104h302.6c68.6 0 124 59.2 124 128.4s-55.6 127-124 127c-5.2 0-10.4 0.4-15.4-0.2-15.2 67.2-75 118.6-146.6 118.6v0zM416 768h32v-110h-32v110zM128 468h112v-34h-112v34zM220.6 648.2l22.4 22.6 63.8-64.2-22.4-22.6zM576.2 584.2l-22.4 22.4 63.6 64.2 22.4-22.6zM243 249l-22.4 22.6 63.8 64.2 22.4-22.6zM413.4 388.8c1 0.2 1.8 0.2 2.8 0.4 0 0.4 0 0.6 0 1-0.4-0.2-1-0.4-1.4-0.6-0.6-0.4-1-0.6-1.4-0.8zM430.2 603.6c-78.8 0-142.8-64.4-142.8-143.6 0-46.8 22.4-88.2 56.8-114.6 6.4-4.8 13-9.2 20.2-12.8 9 24.2 26.6 44.6 49 56.2 0.4 0.2 0.8 0.4 1.4 0.8 0.4 0.2 1 0.4 1.4 0.6-0.4 4.6-0.6 9.4-0.6 14-0.6 63.8 60.6 139.2 122.2 149 0.2 0.2 0.6 0.2 0.8 0.4-26.4 30.6-65.2 50-108.4 50z" />
<glyph unicode="&#xe627;" d="M512 736.2c0 0 0 0 0 0v0zM698.4 290.4c-22.4 7.8-59 10.2-75 16.4-11.2 4.4-29 9-34.6 16-5.8 6.8-5.8 56.2-5.8 56.2s14 13 19.8 27.6c5.8 14.6 9.6 54.2 9.6 54.2s1.2-0.4 3-0.4c4.2 0 11.8 2.8 15.4 21.2 4.4 22.6 12.8 34.4 10.6 51-1.6 11.2-6.4 13-9.2 13-1.4 0-2.4-0.4-2.4-0.4s11.4 16.8 11.4 74c0 58.8-45.4 116.8-129.2 117-84-0.2-129.2-58.2-129.2-117 0-57 11.4-74 11.4-74s-1 0.4-2.4 0.4c-3 0-7.8-1.8-9.2-13-2.2-16.6 6-28.6 10.6-51 3.6-18.4 11.2-21.2 15.4-21.2 1.8 0 3 0.4 3 0.4s3.8-39.8 9.6-54.2c5.8-14.6 19.8-27.6 19.8-27.6s0-49.4-5.8-56.2c-5.8-6.8-23.4-11.6-34.6-16-16-6.2-52.6-8.6-75-16.4-22.4-7.8-91.6-40.4-91.6-130.4h556c0 90-69 122.6-91.6 130.4zM294.2 232.8c18.4 19.4 39.2 27.6 41.6 28.4 8.8 3 23.2 5.4 35.8 7.4 15 2.2 29 4.4 40 8.6 2 0.8 4.6 1.8 7.4 2.8 14.2 5 30.2 10.6 40.4 22.6 7.8 9.2 10.6 21.8 12.2 49.4 0.8 14 0.4 26.8 0.4 27.4v13.8l-9.8 9.4c-2.2 2-9.4 10-11.8 16-2.4 6-5.6 28.4-7 41-2.4 23-12 11-19.4 30.4-4 10.4-5.8 22.8-8.6 32.4-2.8 9.8 12.8 18.4 9.2 30.6-3.8 12.2-10 27.8-10 66.4 0 41 30.6 84.6 97.2 84.8 66.6 0 97.2-43.8 97.2-84.8 0-38.6-6.2-54.2-10-66.4-3.8-12.2 12-20.8 9.2-30.6-2.8-9.8-4.6-22-8.6-32.4-7.6-19.4-17-7.4-19.4-30.4-1.4-12.6-4.6-34.8-7-41-2.4-6-9.4-14-11.6-16l-9.6-9.4v-13.8c0-0.6-0.4-13.4 0.2-27.4 1.6-27.6 4.2-40.2 12-49.4 10.2-12 26.2-17.6 40.4-22.6 2.8-1 5.4-2 7.4-2.8 11-4.2 25.2-6.4 40-8.6 12.6-1.8 27-4.2 35.8-7.4 2.4-0.8 23.2-9.2 41.6-28.4 11.8-12.4 20-22.8 24.6-40.8h-484.2c4.4 18 12.6 28.2 24.4 40.8zM288.2 316c18 9 35.6 9 49.2 10.8 0 0 7.6 12.4-17.4 16.8 0 0-34.2 8.6-38.2 13.4-4 4.8-1.6 31.4-1.6 31.4s47.8 1.6 66.8 18.4c-31 46.4-14.4 100.6-20.8 151.2-6.2 50.4-36.4 82-94.2 82-0.2 0 0 0-2 0v0c-56 0-84.8-31.6-91.2-82.2-6.4-50.6 12-110.8-19.8-151.4 17.8-15.8 61.8-16.6 66.8-16.6 0.4 0 0.4 0 0.4 0 0 0 0.2 0.2 0.2 0.2s2-28.4-2-33.2c-4-4.8-15.8-9.2-23.8-11-17.6-3.8-36.2-10-51.6-15.4-15.4-5.2-45-36.4-45-74.4h160.4c4.4 16 34.6 45.2 63.8 60zM205.6 288h-97.8c4.8 8 9.8 11.6 12.4 13 14.2 5 31.4 10.2 47.4 13.6 6.8 1.4 29.6 7.4 41.6 21.8 6 7 12 18 9.2 56l-1.2 28.6-28.6 1c0 0-2.2 0-2.2 0h-1.2c-7.4 0-14.8 0.8-21.4 1.8 8.4 27.2 7.6 56.4 6.6 83-0.6 17-1 33.8 0.8 48 4.6 36.4 22.2 55.2 58.6 55.2h1.4c40 0 58.8-18.4 63.6-55.4 1.8-14.2 1.6-29.8 1.2-46-0.6-26.8-1.2-56.2 8.2-85.4-0.8-0.2-1.4-0.4-2.2-0.6-12-2.2-22.4-2.6-22.4-2.6l-28.2-1-2.6-28c-3.2-35 2.4-47 8.8-54.6 0.2-0.2 0.2-0.2 0.4-0.4-11.4-7.2-22.6-16.8-32.6-26-8.2-7-14.6-14-19.8-22zM799.6 256h160.4c0 38-29.6 69.2-45 74.6s-34.2 11.6-51.6 15.4c-8.2 1.8-19.8 6.2-23.8 11-4 4.8-2 33.2-2 33.2s0.2-0.2 0.2-0.2c0 0 0.2 0 0.4 0 5 0 49.2 0.6 67 16.6-31.8 40.6-13.6 100.8-20 151.4-6.4 50.4-35.2 82-91.2 82v0c-2 0-2 0-2 0-57.8 0-88.2-31.6-94.4-82.2-6.4-50.6 10.2-104.8-20.8-151.2 19-16.8 66.8-18.4 66.8-18.4s2.4-26.6-1.6-31.4-38.2-13.4-38.2-13.4c-25-4.4-17.4-16.8-17.4-16.8 13.6-1.8 31.4-1.8 49.2-10.8 29.4-14.6 59.6-43.8 64-59.8zM798.8 310.2c-10 9.2-21.2 18.8-32.6 26 0.2 0.2 0.2 0.2 0.4 0.4 6.4 7.8 12 19.8 8.8 54.6l-2.6 28-28.2 1c0 0-10.4 0.4-22.4 2.6-0.8 0.2-1.6 0.4-2.2 0.6 9.4 29 8.8 58.6 8.2 85.4-0.4 16.2-0.6 31.8 1.2 46 4.6 37 23.6 55.4 63.6 55.4h1.4c36.4 0 53.8-18.8 58.6-55.2 1.8-14.2 1.2-31 0.8-48-0.8-26.6-1.8-55.8 6.6-83-6.6-1-14-1.8-21.4-1.8h-1.2c0 0-2.2 0-2.2 0l-28.8-0.8-1.2-28.6c-2.8-38.2 3.4-49 9.2-56 12-14.4 35-20.4 41.6-21.8 15.8-3.4 33.2-8.6 47.4-13.6 2.6-1.4 7.6-5 12.4-13h-97.8c-5.2 7.6-11.6 14.6-19.6 21.8z" />
<glyph unicode="&#xe628;" d="M726.6 232.2c-25.8 9.2-62.8 12.4-86.4 17.6-13.6 3-33.4 10.6-40 18.4-6.6 8-2.6 81.8-2.6 81.8s12.2 19.2 18.8 36 13.8 62.8 13.8 62.8 13.6 0 18.4 23.8c5.2 26 13.2 36.8 12.2 56.2-1 18-10.4 19-11.4 19v0c0 0 9.8 27.2 11.2 84.8 1.6 68.2-50.6 135.4-148.6 135.4s-150-67-148.6-135.2c1.2-57.4 11.2-84.8 11.2-84.8v0c-1 0-10.4-1-11.4-19-1-19.4 7.2-29.8 12.2-55.8 4.8-23.8 18.4-24 18.4-24s7.2-46.2 13.8-63c6.6-17 18.8-36 18.8-36s4-73.8-2.6-81.8c-6.6-8-26.4-15.4-40-18.4-23.8-5.2-60.6-8.6-86.4-17.8-25.8-9.2-105.4-40.2-105.4-104.2h640c0 64-79.6 95-105.4 104.2z" />
<glyph unicode="&#xe629;" d="M404.8 556.6v0 0zM726.6 232.2c-25.8 9.2-62.8 12.4-86.4 17.6-13.6 3-33.4 10.6-40 18.4-6.6 8-2.6 81.8-2.6 81.8s12.2 19.2 18.8 36 13.8 62.8 13.8 62.8 13.6 0 18.4 23.8c5.2 26 13.2 36.8 12.2 56.2-1 18-10.4 19-11.4 19v0c0 0 9.8 27.2 11.2 84.8 1.6 68.2-50.6 135.4-148.6 135.4s-150-67-148.6-135.2c1.2-57.4 11.2-84.8 11.2-84.8v0c-1 0-10.4-1-11.4-19-1-19.4 7.2-29.8 12.2-55.8 4.8-23.8 18.4-24 18.4-24s7.2-46.2 13.8-63c6.6-17 18.8-36 18.8-36s4-73.8-2.6-81.8c-6.6-8-26.4-15.4-40-18.4-23.8-5.2-60.6-8.6-86.4-17.8-25.8-9.2-105.4-40.2-105.4-104.2h640c0 64-79.6 95-105.4 104.2zM512 160h-274.6c4 6 9.4 10.2 16.4 15.2 14 10.2 32.2 19.6 54.2 27.2 13.6 4.8 33.4 8 50.8 10.6 11.4 1.8 22.2 3.4 31.8 5.6 6.8 1.6 41.6 10 57.6 29.2 9 10.8 11.6 25.4 11.2 64.6-0.2 20-1.2 38.6-1.2 39.4l-0.4 8.4-4.6 7c-3 4.6-11.6 19-16 30.6-3.6 9.4-9.2 38.4-12 56.2 0 0 0.8-2-1 7.4-1.8 9.4-16.8 8.6-18.8 16-1.8 7.2-3.6 13.8-8.6 36.4-5 22.6 5.6 22.4 7.8 32.4 1.2 6.2 0 11.4 0 11.6v0c-0.6 2-8.2 26.8-9.4 75.4-0.6 26.4 9.2 51.2 27.6 69.8 21.2 21.6 52 33 89 33 38 0 68-11.4 89.2-33 18.4-18.6 28.2-43.4 27.6-69.8-1-48.4-8.6-73.2-9.4-75.4v0c0-0.2-1.2-3.4-0.8-10.4 0.4-10.8 13.6-11 8.6-33.6-5-22.6-6.8-29.2-8.6-36.4-1.8-7.2-17-6.6-18.8-16-1.8-9.4-1-7.4-1-7.4-2.8-17.8-8.4-46.8-12-56.2-4.6-11.6-13.2-26-16-30.6l-4.6-7-0.4-8.4c0-0.8-1-19.4-1.2-39.4-0.4-39.2 2.2-53.8 11.2-64.6 16-19 50.8-27.6 57.6-29.2 9.6-2.2 20.4-3.8 31.8-5.6 17.4-2.6 37.2-5.8 50.8-10.6 22-7.8 40.4-17.2 54.2-27.4 7-5 12.4-9.2 16.4-15.2l-274.4 0.2z" />
<glyph unicode="&#xe62a;" d="M512 896c-148 0-268.4-117.4-268.4-265.4 0-32.8 7-68.6 19.6-100.8h-0.2l1.2-2.4c1-2.2 2-4.4 3-6.6l244.8-520.8 244.8 520.6c1 2.2 2.2 4.4 3.2 6.8l0.8 2.2c13 32.2 19.6 66.2 19.6 100.6 0 148.4-120.4 265.8-268.4 265.8zM512 546.2c-51.8 0-93.8 42-93.8 93.8s42 93.8 93.8 93.8c51.8 0 93.8-42 93.8-93.8 0-51.8-42-93.8-93.8-93.8z" />
<glyph unicode="&#xe62b;" d="M512 896c-148 0-268.4-117.4-268.4-265.4 0-32.8 7-68.6 19.6-100.8h-0.2l1.2-2.4c1-2.2 2-4.4 3-6.6l244.8-520.8 244.8 520.6c1 2.2 2.2 4.4 3.2 6.8l0.8 2.2c13 32.2 19.6 66.2 19.6 100.6 0 148.4-120.4 265.8-268.4 265.8zM730.2 541.2l-0.4-1c-0.6-1.2-1.2-2.6-1.8-3.8l-2-4.2-214-454.8-216 458.8c-0.6 1.2-1.2 2.4-1.6 3.6-11.8 29-18.2 61.2-18.2 90.8 0 130 105.8 233 236 233s236-102.8 236-233c-0.2-30.4-6.2-60.4-18-89.4zM512 768c-70.6 0-128-57.4-128-128s57.4-128 128-128 128 57.4 128 128-57.4 128-128 128zM512 546.2c-51.8 0-93.8 42-93.8 93.8s42 93.8 93.8 93.8c51.8 0 93.8-42 93.8-93.8 0-51.8-42-93.8-93.8-93.8z" />
<glyph unicode="&#xe62c;" d="M832 654h-50v50h-28v-50h-50v-28h50v-50h28v50h50zM726.6 232.2c-25.8 9.2-62.8 12.4-86.4 17.6-13.6 3-33.4 10.6-40 18.4-6.6 8-2.6 81.8-2.6 81.8s12.2 19.2 18.8 36c6.6 16.8 13.8 62.8 13.8 62.8s13.6 0 18.4 23.8c5.2 26 13.2 36.8 12.2 56.2-1 18-10.4 19-11.4 19 0 0 0 0 0 0s9.8 27.2 11.2 84.8c1.6 68.2-50.6 135.4-148.6 135.4-98 0-150-67-148.6-135.2 1.2-57.4 11.2-84.8 11.2-84.8s0 0 0 0c-1 0-10.4-1-11.4-19-1-19.4 7.2-29.8 12.2-55.8 4.8-23.8 18.4-24 18.4-24s7.2-46.2 13.8-63c6.6-17 18.8-36 18.8-36s4-73.8-2.6-81.8c-6.6-8-26.4-15.4-40-18.4-23.8-5.2-60.6-8.6-86.4-17.8-25.8-9.2-105.4-40.2-105.4-104.2h640c0 64-79.6 95-105.4 104.2z" />
<glyph unicode="&#xe62d;" d="M793.2 256l38.8 41.4-320 342.6-320-342.6 38.6-41.4 281.4 301z" />
<glyph unicode="&#xe62e;" d="M793.2 640l38.8-41.4-320-342.6-320 342.6 38.6 41.4 281.4-301z" />
<glyph unicode="&#xe62f;" d="M896 192v484.4l-262.2-199.6 136.2-154.8-4-4-157.8 139.2-96.2-73.2-96.2 73.2-157.8-139.2-4 4 136 154.8-262 199.2v-484zM879.4 704h-735.4l368-279.8z" />
<glyph unicode="&#xe630;" d="M128 704v-512h768v512h-768zM512 424.2l-325.6 247.8h651.2l-325.6-247.8zM160 224v427.8l230.2-175.2-136.2-154.6 4-4 157.8 139.2 96.2-73.2 96.2 73.2 157.8-139.2 4 4-136.2 154.8 230.2 175v-427.8h-704z" />
<glyph unicode="&#xe631;" d="M192 460.8l212-93.4 428 400.6zM832 768l-396.2-431.4 103.8-208.6z" />
<glyph unicode="&#xe632;" d="M192 460.8l233.2-102.6 114.4-230.2 292.4 640-640-307.2zM456.2 367l311.4 332.4-229.2-497.8-82.2 165.4zM763.6 703.4l-330-314.2-165.6 72.8 495.6 241.4z" />
<glyph unicode="&#xe633;" d="M832 654h-50v50h-28v-50h-50v-28h50v-50h28v50h50zM404.8 556.6c0 0 0 0 0 0v0zM726.6 232.2c-25.8 9.2-62.8 12.4-86.4 17.6-13.6 3-33.4 10.6-40 18.4-6.6 8-2.6 81.8-2.6 81.8s12.2 19.2 18.8 36c6.6 16.8 13.8 62.8 13.8 62.8s13.6 0 18.4 23.8c5.2 26 13.2 36.8 12.2 56.2-1 18-10.4 19-11.4 19 0 0 0 0 0 0s9.8 27.2 11.2 84.8c1.6 68.2-50.6 135.4-148.6 135.4-98 0-150-67-148.6-135.2 1.2-57.4 11.2-84.8 11.2-84.8s0 0 0 0c-1 0-10.4-1-11.4-19-1-19.4 7.2-29.8 12.2-55.8 4.8-23.8 18.4-24 18.4-24s7.2-46.2 13.8-63c6.6-17 18.8-36 18.8-36s4-73.8-2.6-81.8c-6.6-8-26.4-15.4-40-18.4-23.8-5.2-60.6-8.6-86.4-17.8-25.8-9.2-105.4-40.2-105.4-104.2h640c0 64-79.6 95-105.4 104.2zM512 160h-274.6c4 6 9.4 10.2 16.4 15.2 14 10.2 32.2 19.6 54.2 27.2 13.6 4.8 33.4 8 50.8 10.6 11.4 1.8 22.2 3.4 31.8 5.6 6.8 1.6 41.6 10 57.6 29.2 9 10.8 11.6 25.4 11.2 64.6-0.2 20-1.2 38.6-1.2 39.4l-0.4 8.4-4.6 7c-3 4.6-11.6 19-16 30.6-3.6 9.4-9.2 38.4-12 56.2 0 0 0.8-2-1 7.4-1.8 9.4-16.8 8.6-18.8 16-1.8 7.2-3.6 13.8-8.6 36.4-5 22.6 5.6 22.4 7.8 32.4 1.2 6.2 0 11.4 0 11.6 0 0 0 0 0 0-0.6 2-8.2 26.8-9.4 75.4-0.6 26.4 9.2 51.2 27.6 69.8 21.2 21.6 52 33 89 33 38 0 68-11.4 89.2-33 18.4-18.6 28.2-43.4 27.6-69.8-1-48.4-8.6-73.2-9.4-75.4 0 0 0 0 0 0 0-0.2-1.2-3.4-0.8-10.4 0.4-10.8 13.6-11 8.6-33.6-5-22.6-6.8-29.2-8.6-36.4-1.8-7.2-17-6.6-18.8-16s-1-7.4-1-7.4c-2.8-17.8-8.4-46.8-12-56.2-4.6-11.6-13.2-26-16-30.6l-4.6-7-0.4-8.4c0-0.8-1-19.4-1.2-39.4-0.4-39.2 2.2-53.8 11.2-64.6 16-19 50.8-27.6 57.6-29.2 9.6-2.2 20.4-3.8 31.8-5.6 17.4-2.6 37.2-5.8 50.8-10.6 22-7.8 40.4-17.2 54.2-27.4 7-5 12.4-9.2 16.4-15.2h-274.4z" />
<glyph unicode="&#xe634;" d="M895.8 223.6c0 33.6 7.2 166.2-97.4 271.4-70.4 70.8-160.6 106.8-286.6 112.4v160.6l-383.8-256 384-256v159.6c80-2.2 124.8-18.2 173.4-40 61.8-27.6 110.6-88 151.6-153.2l38.4-62.4h20.6c0 20.2-0.2 45.8-0.2 63.6z" />
<glyph unicode="&#xe635;" d="M895.8 223.6c0 33.6 7.2 166.2-97.4 271.4-70.4 70.8-160.6 106.8-286.6 112.4v160.6l-383.8-256 384-256v159.6c80-2.2 124.8-18.2 173.4-40 61.8-27.6 110.6-88 151.6-153.2l38.4-62.4h20.6c0 20.2-0.2 45.8-0.2 63.6zM864.4 237.2c-95.2 161.6-202.4 210.8-384.4 210.8v-129.6l-296.2 193.4 296.2 193.6v-129.4c402 0 384.4-338.8 384.4-338.8z" />
<glyph unicode="&#xe636;" d="M128 160h20.6l38.4 62.4c41 65.4 89.8 125.6 151.6 153.2 48.8 21.8 93.4 37.8 173.4 40v-159.6l384 256-384 256v-160.6c-126-5.6-216.2-41.4-286.6-112.4-104.6-105.4-97.4-238-97.4-271.4 0.2-17.8 0-43.4 0-63.6z" />
<glyph unicode="&#xe637;" d="M128 160h20.6l38.4 62.4c41 65.4 89.8 125.6 151.6 153.2 48.8 21.8 93.4 37.8 173.4 40v-159.6l384 256-384 256v-160.6c-126-5.6-216.2-41.4-286.6-112.4-104.6-105.4-97.4-238-97.4-271.4 0.2-17.8 0-43.4 0-63.6zM544 576v129.4l296.2-193.6-296.2-193.4v129.6c-182 0-289.2-49.2-384.4-210.8 0 0-17.6 338.8 384.4 338.8z" />
<glyph unicode="&#xe638;" d="M320 729.2l41.4 38.8 342.6-320-342.6-320-41.4 38.6 301 281.4z" />
<glyph unicode="&#xe639;" d="M704 729.2l-41.4 38.8-342.6-320 342.6-320 41.4 38.6-301 281.4z" />
<glyph unicode="&#xe63a;" d="M728.2 448c0-120-97-216.4-216.2-216.4s-216.2 97-216.2 216.4c0 119.2 97 216.2 216.2 216.2v-111.6l192 111.4-192 128v-88c-141.4 0-256-114.8-256-256.2 0-141.6 114.6-256.2 256-256.2 141.4 0 256 114.2 256 256.2h-39.8zM512 864c-229.8 0-416-186.2-416-416s186.2-416 416-416c229.8 0 416 186.2 416 416s-186.2 416-416 416zM512 66.6c-210.2 0-381.4 171-381.4 381.4 0 210.2 171 381.4 381.4 381.4 210.2 0 381.4-171 381.4-381.4 0-210.2-171.2-381.4-381.4-381.4z" />
<glyph unicode="&#xe63b;" d="M896.4 414.6v64l-66.6 17.4c-1.4 8.8-3.2 17.6-5.2 26.4l55.2 41.8-24.4 59.2-68.8-9.6c-4.6 7.4-9.8 14-15 21.2l35.4 59.4-45.2 45.2-60.4-34.8c-7 5.2-14 10.2-21.4 14.6l10.6 70-59 24.6-43.2-56.6c-8.2 2-16.4 3.8-24.6 5.2l-17.4 69.4h-64l-18.4-69.8c-8-1.2-16.2-3-24.2-4.8l-43 58-59.2-24.6 9.6-71.4c-7.6-4.6-16-9-23.4-14.4l-62.6 37.4-45.2-45.2 37.6-63c-4.8-6.8-9-14-13.4-21l-71 10-24.4-59.2 57.8-43.4c-2-8-3.6-16.2-4.8-24.4l-69.6-17.8v-64l69.4-17.8c1.2-8.4 3-16.6 4.8-25l-56.8-42.6 24.6-59 70 10c4.6-7.6 9-15.4 14.2-22.6l-35.8-61.2 45.2-45.2 60.4 36.4c7.2-5.2 14.8-10 22.4-14.6l-9-68.6 59.2-24.4 41.2 55.6c8.8-2.2 17.8-3.6 26.8-5l17.6-66.2h64l16.6 66.2c9.2 1.4 18.2 3 27.2 5.2l41.4-54.2 59.2 24.4-10 67.4c7.2 4.4 13.6 9.8 20.4 14.8l58-33.8 45.2 45.2-33.6 57.8c5.6 7.6 11 14.8 15.8 22.8l67.6-9.6 24.6 59-54.4 41c2.2 9 4 17.8 5.4 27l66.6 17.2zM769.4 433.6c-1.2-25.2-6.2-50-14.6-73.8-2.6-7.2-6-15.4-10.4-24.6-10.2-21.4-22.2-39.8-37.8-57.4 0 0-5.2-5.8-12.8-13.6-7.6-7.6-12.8-12.4-12.8-12.4-17.8-15.4-38.8-28.8-59.6-38.4-7.8-3.6-15-6.2-21.4-8.4-23.8-8.4-48.6-13.4-73.6-14.6-8.4-0.4-17-0.4-25.6 0-25.2 1.4-50.2 6.4-74 14.8-7.8 2.8-15.6 6-23.2 9.6-23 11-44 25.2-62.8 42.4-2.8 2.6-5.4 5.2-7.8 7.6-3 3-6.2 6.4-9.2 9.6-17.2 19-31.4 40.4-42 63.6-2.8 6.2-5.6 12.6-8 19.2 0 0-2.6 6.8-6.2 20-3.6 13.4-5.2 21-5.2 21-2.2 12.2-3.6 24.4-4.2 36.6-0.4 7.6-0.4 15.2 0 22.6 1.2 25.8 6.2 51.2 15 75.4 2.6 7 5.4 14 8.4 20.6 10.8 23.4 25.2 45 42.6 64.2 2.8 3.2 5.8 6.2 8.6 9s5.8 5.8 9 8.6c18.4 16.8 39.2 30.8 61.8 41.4 7.6 3.6 15.2 6.8 23.2 9.6 24.2 8.8 49.6 13.8 75.4 15 7.4 0.4 15 0.4 22.6 0 12.4-0.6 25-2 37.4-4.4 0 0 9.2-2 16.6-3.8 7.4-1.8 21-6.6 21-6.6 6.6-2.4 14.2-5 21.8-8.6 23.2-10.8 44.6-24.8 63.6-42 3.4-3 6.6-6 9.6-9.2 2.4-2.4 4.8-5 7.6-7.8 17.2-18.8 31.6-40 42.4-62.8 3.6-7.4 6.8-15.2 9.6-23.2 8.6-23.8 13.6-48.6 14.8-74 0.6-8.2 0.6-16.8 0.2-25.2zM556 666c-10.8 2-21.8 3.4-32.6 3.8-6.6 0.2-13.2 0.2-19.8 0-22.4-1-44.8-5.4-66-13-6.8-2.4-13.6-5.2-20.2-8.4-19.2-9.2-37.4-21.2-54-36.2-2.6-2.4-5.4-5-7.8-7.6-2.6-2.6-5-5.2-7.6-7.8-15.6-17.2-28-36.2-37.2-56.2-2.8-6-5.2-12-7.4-18-7.6-21.4-12-43.6-13-66-0.4-6.6-0.4-13.2 0-19.8 0.4-10.8 1.6-21.4 3.6-32l206.8 55.2 55.2 206zM302 373c0.4-1 0.6-1.4 0.8-2.4 2.2-6.4 4.8-12.8 7.8-19 9.2-19.8 21.4-38.6 36.8-55.6 2.6-2.8 5.2-5.6 8-8.4 2.2-2.2 4.6-4.4 6.8-6.6 16.8-15.4 35.4-27.8 55-37.2 6.6-3.2 13.4-6 20.2-8.4 21-7.6 42.8-12 64.6-13 7.4-0.4 15-0.4 22.4 0 21.8 1 43.6 5.2 64.4 12.6 6.4 2.2 12.2 4.4 18.4 7.2 18.8 8.6 37 20.6 52.2 33.6l-151.8 151.8-205.6-54.6zM724.4 522.4c-2.4 6.8-5.2 13.6-8.4 20.2-9.4 19.6-21.8 38.2-37.2 55-2.2 2.4-4.4 4.6-6.6 7-2.8 2.8-5.6 5.4-8.4 8-17 15.4-35.8 27.6-55.6 36.8-6.2 2.8-12.8 5.2-19.2 7.6-0.8 0.2-1.8 0.6-2.6 0.8l-56-207.4 151.8-151.8c14.6 16.6 24.8 32.8 33.2 50.4 3.4 7 7 14.8 9.4 21.8 7.4 20.8 11.6 42.6 12.8 64.6 0.4 7.4 0.4 15 0 22.4-1.2 21.8-5.6 43.6-13.2 64.6z" />
<glyph unicode="&#xe63c;" d="M754.6 533.2c-2.8 7.8-6 15.6-9.6 23.2-11 23-25.2 44-42.4 62.8-2.6 2.8-5.2 5.4-7.6 7.8-3 3-6.4 6.2-9.6 9.2-19 17.2-40.4 31.4-63.6 42-7.6 3.6-15.4 6.4-21.8 8.6 0 0-13.8 4.8-21 6.6-7.4 1.8-16.6 3.8-16.6 3.8-12.4 2.4-24.8 3.8-37.4 4.4-7.6 0.4-15.2 0.4-22.6 0-25.8-1.2-51.2-6.2-75.4-15-7.8-2.8-15.6-6-23.2-9.6-22.4-10.8-43.2-24.6-61.8-41.4-3.2-2.8-6.2-5.8-9-8.6s-5.8-5.8-8.6-9c-17.4-19.2-31.8-40.8-42.6-64.2-3-6.6-5.8-13.6-8.4-20.6-8.8-24.2-13.8-49.6-15-75.4-0.4-7.4-0.4-15 0-22.6 0.6-12.2 2-24.4 4.2-36.6 0 0 1.6-7.8 5.2-21 3.6-13.4 6.2-20 6.2-20 2.4-6.6 5-13 8-19.2 10.8-23.2 24.8-44.6 42-63.6 3-3.4 6-6.6 9.2-9.6 2.4-2.4 5-4.8 7.8-7.6 18.8-17.2 40-31.6 62.8-42.4 7.4-3.6 15.2-6.8 23.2-9.6 23.8-8.6 48.6-13.6 74-14.8 8.6-0.4 17.2-0.4 25.6 0 25.2 1.2 50 6 73.6 14.6 6.2 2.2 13.6 4.8 21.4 8.4 20.8 9.6 41.8 23 59.6 38.4 0 0 5.2 4.8 12.8 12.4 7.6 7.6 12.8 13.6 12.8 13.6 15.4 17.6 27.6 36 37.8 57.4 4.4 9.2 8 17.4 10.4 24.6 8.4 23.8 13.4 48.6 14.6 73.8 0.4 8.4 0.4 17.2 0 25.6-1.6 25-6.4 49.8-15 73.6zM290.2 436.6c-0.2 6.6-0.2 13.2 0 19.8 1 22.4 5.4 44.8 13 66 2.2 6 4.6 12 7.4 18 9.2 20 21.8 39 37.2 56.2 2.4 2.6 5 5.4 7.6 7.8 2.6 2.6 5.2 5 7.8 7.6 16.4 15 34.8 27 54 36.2 6.6 3.2 13.4 6 20.2 8.4 21.4 7.6 43.6 12 66 13 6.6 0.2 13.2 0.4 19.8 0 11-0.4 21.8-1.8 32.6-3.8l-55.2-206-207-55.4c-1.8 10.6-3 21.4-3.4 32.2zM607.4 242.2c-6.2-2.8-12-5-18.4-7.2-20.8-7.4-42.6-11.6-64.4-12.6-7.4-0.4-15-0.2-22.4 0-22 1.2-43.8 5.4-64.6 13-6.8 2.4-13.6 5.2-20.2 8.4-19.6 9.4-38.2 21.8-55 37.2-2.4 2.2-4.6 4.4-6.8 6.6-2.8 2.8-5.4 5.6-8 8.4-15.4 17-27.6 35.8-36.8 55.6-2.8 6.2-5.4 12.6-7.8 19-0.4 1-0.6 1.4-0.8 2.4l205.6 54.6 151.8-151.8c-15.2-13.2-33.4-25-52.2-33.6zM737.6 435.2c-1-21.8-5.2-43.6-12.8-64.6-2.6-7.2-6.2-15-9.4-21.8-8.4-17.6-18.6-33.8-33.2-50.4l-151.8 151.8 56 207.4c0.8-0.2 1.8-0.6 2.6-0.8 6.4-2.2 13-4.6 19.2-7.6 19.8-9.2 38.6-21.4 55.6-36.8 2.8-2.6 5.6-5.2 8.4-8 2.2-2.2 4.4-4.6 6.6-7 15.4-16.8 27.8-35.4 37.2-55 3.2-6.6 6-13.4 8.4-20.2 7.6-21 11.8-42.8 13-64.8 0.4-7.2 0.4-14.8 0.2-22.2zM896.4 414.6v64l-66.6 17.4c-1.4 8.8-3.2 17.6-5.2 26.4l55.2 41.8-24.4 59.2-68.8-9.6c-4.6 7.4-9.8 14-15 21.2l35.4 59.4-45.2 45.2-60.4-34.8c-7 5.2-14 10.2-21.4 14.6l10.6 70-59 24.6-43.2-56.6c-8.2 2-16.4 3.8-24.6 5.2l-17.4 69.4h-64l-18.4-69.8c-8-1.2-16.2-3-24.2-4.8l-43 58-59.2-24.6 9.6-71.4c-7.6-4.6-16-9-23.4-14.4l-62.6 37.4-45.2-45.2 37.6-63c-4.8-6.8-9-14-13.4-21l-71 10-24.4-59.2 57.8-43.4c-2-8-3.6-16.2-4.8-24.4l-69.6-17.8v-64l69.4-17.8c1.2-8.4 3-16.6 4.8-25l-56.8-42.6 24.6-59 70 10c4.6-7.6 9-15.4 14.2-22.6l-35.8-61.2 45.2-45.2 60.4 36.4c7.2-5.2 14.8-10 22.4-14.6l-9-68.6 59.2-24.4 41.2 55.6c8.8-2.2 17.8-3.6 26.8-5l17.6-66.2h64l16.6 66.2c9.2 1.4 18.2 3 27.2 5.2l41.4-54.2 59.2 24.4-10 67.4c7.2 4.4 13.6 9.8 20.4 14.8l58-33.8 45.2 45.2-33.6 57.8c5.6 7.6 11 14.8 15.8 22.8l67.6-9.6 24.6 59-54.4 41c2.2 9 4 17.8 5.4 27l66.6 17.2zM805.2 344.8l34.6-26.2-5.6-13.4-43 6-20.8 3-11-18c-4.6-7.4-9.6-14.6-14.2-20.6l-12.6-17 10.2-17.8 21.2-36.4-10.4-10.4-54.6 31.8-16.8-12.4c-1.2-0.8-2.2-1.6-3.2-2.4-5.4-4-10.4-7.6-15.2-10.6l-18-11 3.2-21 6.4-42.6-13.4-5.6-26.4 34.6-12.8 16.6-20.4-5c-7.8-2-16.2-3.6-24.4-4.8l-21-3.2-5-20.4-10.6-42h-14.4l-11.4 42.4-5.4 20.2-20.6 3.2c-8.2 1.2-16.4 2.8-24 4.8l-20.6 5-12.6-17-26.4-35.8-13.4 5.6 6 44.4 2.8 20.6-17.8 10.8c-7.6 4.6-14 9-20 13.2l-17.2 12.6-18.6-11.4-39-23.6-10.2 10.2 23.4 40 10.6 18.2-12.2 17c-4 5.6-8 11.8-13 20l-11 18.2-21-3-45.4-6.4-5.4 13.2 53.8 40.4-4.8 20.4c-1.8 7.4-3.2 15-4.4 22.4l-3.2 20.8-20.6 5.2-45.4 11.8v14.4l66 16.8 3.4 20.8c1.2 7.6 2.6 15 4.4 22l4.8 20.4-54.6 41 5.4 13.2 67.4-9.6 11 18c3.8 6.2 7.8 12.8 12.2 18.6l12.4 17-11.2 18.4-24.8 41.6 10 10 59.6-35.6 17.2 12.4c5.2 3.8 11.4 7.6 17.8 11.4l3 1.8 17.8 10.8-2.8 20.6-6.2 47 13.4 5.6 40.6-54.8 20.6 4.8c7.2 1.6 14.4 3.2 21.8 4.2l20.6 3.2 5.4 20.4 12.2 46h14.4l11.4-45.4 5.2-20.6 21-3.4c7.4-1.2 14.8-2.6 22.2-4.4l20.2-4.8 12.6 16.6 27.6 37 13.2-5.6-6.8-45.2-3.2-21 18.2-11c6.2-3.8 12.6-8 19.4-13l16.8-12.2 17.6 10 39 22.4 10.2-10.2-22.6-38-10.8-18 12.6-17c5.4-7.4 9.6-13.6 13.2-19.2l11-17.8 20.8 3 44.2 6.2 5.6-13.4-52.4-39.4 5-20.4c1.8-7.6 3.4-15.6 4.8-23.8l3.2-20.8 20.2-5.2 42.4-11v-14.4l-42.4-11-20.4-5.2-3.2-20.8c-1.2-8.2-2.8-16.4-4.8-24.2l-5-20.4 17.4-13.4z" />
<glyph unicode="&#xe63d;" d="M128 660v-596h596v596h-596zM300 832v-142h454v-454h142v596z" />
<glyph unicode="&#xe63e;" d="M128 660v-596h596v596h-596zM692 96h-532v532h532v-532zM896 832h-596v-142h32v110h532v-532h-110v-32h142z" />
<glyph unicode="&#xe63f;" d="M605.4 832l-319.4-448h191.6l-59-320 319.4 448h-191.6l59 320z" />
<glyph unicode="&#xe640;" d="M512 384c-59.6 0-109.8 40.8-124 96h-228v-288h704v288h-228c-14.2-55.2-64.4-96-124-96zM288 512h128c0-53 43-96 96-96s96 43 96 96h256l-127 192h-1v-160h-32v160h-384v-160h-32v160h-1l-127-192h128z" />
<glyph unicode="&#xe641;" d="M547.8 696l-33-178.2-6.8-37.8h168l-199.6-280 33 178.2 6.6 37.8h-167.8l199.6 280M605.4 832l-319.4-448h191.6l-59-320 319.4 448h-191.6l59 320z" />
<glyph unicode="&#xe642;" d="M681.6 794c-67.6 0-129.6-31.6-169.6-83.6-40 52-102 83.6-169.6 83.6-118.2 0-214.4-96.6-214.4-215.4 0-55.8 21.2-108.8 59.8-149.2l324.2-327.4 318.4 321.6c42 40.6 65.6 95.8 65.6 155 0 118.8-96.2 215.4-214.4 215.4v0z" />
<glyph unicode="&#xe643;" d="M512 768c-212.2 0-384-138.2-384-308.6 0-61.4 22.4-118.6 60.8-166.6 1.8-1.8 5.8-7.6 7.2-9.8 0 0-2 3.2-2.2 3.8 0 0 0 0 0 0v0c0 0 0 0 0 0 4.6-6.6 7.2-14.2 7.2-22.4 0-2.8-35.8-116-35.8-116v0c-2.6-8.8 4.2-17.8 15.2-20 1.6-0.4 3.2-0.4 4.8-0.4 2.6 0 5 0.4 7.4 1l3.2 1.2 101.2 44c1.8 0.8 18 7 20 7.8 0 0 1.2 0.4 1.2 0.4 0 0-0.2 0-1.2-0.4 6.8 2.4 14.4 3.6 22.4 3.6 7.2 0 14.2-1 20.6-3 0.2 0 0.4 0 0.4-0.2 1-0.4 2-0.6 3-1 46.2-15.8 96.8-20.6 150.2-20.6 212 0 382 128.2 382 298.6 0.4 170.4-171.6 308.6-383.6 308.6v0z" />
<glyph unicode="&#xe644;" d="M512 736c194 0 352-124 352-276.6 0-71.8-35.2-138.4-99-187.8-65.6-50.8-154.8-78.6-251-78.6-57.8 0-102 6-139.4 18.6-1.2 0.4-2.6 1-4 1.4-0.6 0.2-1.2 0.4-1.6 0.4-9.4 2.8-19.4 4.2-29.4 4.2-11.2 0-22.2-1.8-32.6-5.2v0l-0.6-0.2c-1.2-0.4-17.8-6.6-22-8.6v0l-79.2-34.4c27.6 87.8 27.6 89.6 27.6 95.2 0 14.2-4.4 28.2-12.6 40.4-1 1.4-2 2.8-3.2 4.2-1.4 1.8-2.6 3.4-3.6 4.6-34.8 43.8-53.2 94.2-53.2 146-0.2 152.4 157.8 276.4 351.8 276.4M512 768c-212.2 0-384-138.2-384-308.6 0-61.4 22.4-118.6 60.8-166.6 1.8-1.8 5.8-7.6 7.2-9.8 0 0-2 3.2-2.2 3.8 0 0 0 0 0 0v0c0 0 0 0 0 0 4.6-6.6 7.2-14.2 7.2-22.4 0-2.8-35.8-116-35.8-116v0c-2.6-8.8 4.2-17.8 15.2-20 1.6-0.4 3.2-0.4 4.8-0.4 2.6 0 5 0.4 7.4 1l3.2 1.2 101.2 44c1.8 0.8 18 7 20 7.8 0 0 1.2 0.4 1.2 0.4 0 0-0.2 0-1.2-0.4 6.8 2.4 14.4 3.6 22.4 3.6 7.2 0 14.2-1 20.6-3 0.2 0 0.4 0 0.4-0.2 1-0.4 2-0.6 3-1 46.2-15.8 96.8-20.6 150.2-20.6 212 0 382 128.2 382 298.6 0.4 170.4-171.6 308.6-383.6 308.6v0z" />
<glyph unicode="&#xe645;" d="M865 736h-65v96h-576v-96h-63c-35.2 0-65-27.6-65-62.6v-316.8c0-35 29.8-64.6 65-64.6h63v252h576v-252h65c35.2 0 63 29.6 63 64.6v316.8c0 35-27.8 62.6-63 62.6zM256 512h512v-448h-512v448z" />
<glyph unicode="&#xe646;" d="M831.8 289c-29.2 30-112.2 86.2-166.6 86.2-12.6 0-23.6-2.8-32.6-8.6-26.6-17-47.8-30.2-58-30.2-5.6 0-11.6 5-24.8 16.4l-2.2 2c-36.6 31.8-44.4 40-58.6 54.8l-3.6 3.8c-2.6 2.6-4.8 5-7 7.2-12.4 12.8-21.4 22-53.2 58l-1.4 1.6c-15.2 17.2-25.2 28.4-25.8 36.6-0.6 8 6.4 21 24.2 45.2 21.6 29.2 22.4 65.2 2.6 107-15.8 33-41.6 64.6-64.4 92.4l-2 2.4c-19.6 24-42.4 36-67.8 36-28.2 0-51.6-15.2-64-23.2-1-0.6-2-1.4-3-2-27.8-17.6-48-41.8-55.6-66.4-11.4-37-19-85 35.6-184.8 47.2-86.4 90-144.4 158-214.2 64-65.6 92.4-86.8 156-132.8 70.8-51.2 138.8-80.6 186.4-80.6 44.2 0 79 0 128.6 59.8 52 62.8 30.4 101.2-0.8 133.4z" />
<glyph unicode="&#xe647;" d="M831.8 289c-29.2 30-112.2 86.2-166.6 86.2-12.6 0-23.6-2.8-32.6-8.6-26.6-17-47.8-30.2-58-30.2-5.6 0-11.6 5-24.8 16.4l-2.2 2c-36.6 31.8-44.4 40-58.6 54.8l-3.6 3.8c-2.6 2.6-4.8 5-7 7.2-12.4 12.8-21.4 22-53.2 58l-1.4 1.6c-15.2 17.2-25.2 28.4-25.8 36.6-0.6 8 6.4 21 24.2 45.2 21.6 29.2 22.4 65.2 2.6 107-15.8 33-41.6 64.6-64.4 92.4l-2 2.4c-19.6 24-42.4 36-67.8 36-28.2 0-51.6-15.2-64-23.2-1-0.6-2-1.4-3-2-27.8-17.6-48-41.8-55.6-66.4-11.4-37-19-85 35.6-184.8 47.2-86.4 90-144.4 158-214.2 64-65.6 92.4-86.8 156-132.8 70.8-51.2 138.8-80.6 186.4-80.6 44.2 0 79 0 128.6 59.8 52 62.8 30.4 101.2-0.8 133.4zM808.8 177.2c-40-48.4-63-48.4-104.6-48.4-40.6 0-103.6 28-168.4 74.6-62 44.8-89.6 65.4-151.8 129.2-65.8 67.4-107.2 123.6-152.8 207-48.2 88.2-42.8 126.8-33 158.6 5.2 17 20.8 35.2 42 48.4 1 0.6 2 1.4 3.2 2 10.6 6.8 28.2 18.2 47.4 18.2 16 0 30.2-8 43.8-24.6l2-2.4c51-62.4 90.8-117.6 60.8-158.4-21.2-28.6-32.4-48-30.6-68 1.6-19.4 14.6-34 34.2-56l1.4-1.6c32.2-36.4 41.4-46 54.2-59 2.2-2.2 4.4-4.6 7-7.2l3.6-3.8c14.8-15.4 23-23.8 60.6-56.8l2.2-2c16-14 27.8-24.2 45-24.2 17.8 0 37.4 11.2 74.6 35 3.8 2.4 9.2 3.8 16 3.8 43.4 0 118.2-49.6 144.4-76.6 24-24.4 36-42.8-1.2-87.8z" />
<glyph unicode="&#xe648;" d="M992 192v576h-960v-576h350v-32h-128v-32h514v32h-128v32h352zM64 736h896v-512h-896v512zM96 704h832v-448h-832v448z" />
<glyph unicode="&#xe649;" d="M992 192v576h-960v-576h350v-32h-128v-32h514v32h-128v32h352zM64 736h896v-512h-896v512z" />
<glyph unicode="&#xe64a;" d="M835 640h-123.4c-64.2 72-84.4 96-109 96h-177c-24.6 0-44.4-24-109-96h-26.6v32h-68v-32h-27c-35.2 0-67-26.4-67-61.4v-352c0-35 31.8-66.6 67-66.6h640c35.2 0 61 31.6 61 66.6v352c0 35-25.8 61.4-61 61.4zM512 239c-94.2 0-171 76.8-171 171s76.8 171 171 171 171-76.8 171-171-76.8-171-171-171zM738 542h-34v34h34v-34zM512 549c-76.8 0-139-62.2-139-139s62.2-139 139-139 139 62.2 139 139-62.2 139-139 139zM512 346c-35.4 0-64 28.6-64 64s28.6 64 64 64 64-28.6 64-64-28.6-64-64-64z" />
<glyph unicode="&#xe64b;" d="M835 640h-123.4c-64.2 72-84.4 96-109 96h-177c-24.6 0-44.4-24-109-96h-26.6v32h-68v-32h-27c-35.2 0-67-26.4-67-61.4v-352c0-35 31.8-66.6 67-66.6h640c35.2 0 61 31.6 61 66.6v352c0 35-25.8 61.4-61 61.4zM864 226.6c0-18.6-12.4-34.6-29-34.6h-640c-17.4 0-35 17.4-35 34.6v352c0 16.4 16.2 29.4 35 29.4h135.6l9.6 6.4c8 9 15.4 20 22.2 27.6 22.6 25.4 39 43.4 50.6 53.8 9.4 8.4 12.4 8.2 12.4 8.2h177c0 0 3.2 0.2 13.4-9 12.2-11 29.4-33 53.2-59.6 5.8-6.6 12-13.6 18.6-21l9.6-6.4h137.8c17.6 0 29-12 29-29.4v-352zM512 581c-94.2 0-171-76.8-171-171s76.8-171 171-171 171 76.8 171 171-76.8 171-171 171zM512 271c-76.8 0-139 62.2-139 139s62.2 139 139 139 139-62.2 139-139-62.2-139-139-139zM704 576h34v-34h-34v34zM576 410c0-35.346-28.654-64-64-64s-64 28.654-64 64c0 35.346 28.654 64 64 64 35.346 0 64-28.654 64-64z" />
<glyph unicode="&#xe64c;" d="M128 832h64v-69.8h-64v69.8zM768 832h-512v-354.6h512v354.6 0zM768 419.2h-512v-355.2h512v355.2 0zM128 692.4h64v-69.8h-64v69.8zM128 552.8h64v-69.8h-64v69.8zM128 413h64v-69.8h-64v69.8zM128 273.4h64v-69.8h-64v69.8zM128 133.8h64v-69.8h-64v69.8zM832 832h64v-69.8h-64v69.8zM832 692.4h64v-69.8h-64v69.8zM832 552.8h64v-69.8h-64v69.8zM832 413h64v-69.8h-64v69.8zM832 273.4h64v-69.8h-64v69.8zM832 133.8h64v-69.8h-64v69.8z" />
<glyph unicode="&#xe64d;" d="M681.6 763.2c101.4 0 183.8-82.6 183.8-184.6 0-52.4-21.8-99.6-56.6-133.2l-296.8-299.6-302 305c-31.6 33.2-51.2 78.2-51.2 127.8 0 102 82.2 184.6 183.8 184.6 76.4 0 141.8-46.8 169.6-113.6 27.4 66.6 93 113.6 169.4 113.6M681.6 794c-67.6 0-129.6-31.6-169.6-83.6-40 52-102 83.6-169.6 83.6-118.2 0-214.4-96.6-214.4-215.4 0-55.8 21.2-108.8 59.8-149.2l324.2-327.4 318.4 321.6c42 40.6 65.6 95.8 65.6 155 0 118.8-96.2 215.4-214.4 215.4v0z" />
<glyph unicode="&#xe64e;" d="M763.4 508.2c0 195.2-105 261.6-203.2 276.4 0 1 0.2 2 0.2 3.2 0 24.6-21.8 44.2-48.4 44.2-26.6 0-47.6-19.6-47.6-44.2 0-1.2 0-2.2 0.2-3.2-98.4-15-204-81.6-204-276.8 0-227.6-56.6-252-132.6-316h768c-75.6 64.2-132.6 88.8-132.6 316.4zM512.4 64c53.6 0 97.6 39.8 103.4 86h-206.8c5.6-46.2 49.8-86 103.4-86z" />
<glyph unicode="&#xe64f;" d="M763.4 508.2c0 195.2-105 261.6-203.2 276.4 0 1 0.2 2 0.2 3.2 0 24.6-21.8 44.2-48.4 44.2-26.6 0-47.6-19.6-47.6-44.2 0-1.2 0-2.2 0.2-3.2-98.4-15-204-81.6-204-276.8 0-227.6-56.6-252-132.6-316h768c-75.6 64.2-132.6 88.8-132.6 316.4zM214.4 224c17.2 18 32.8 36.8 45.4 63.6 24 50.6 34.8 118.4 34.8 220.4 0 92.8 25 160.8 74.2 202.4 45.8 38.6 103.4 46.6 143.6 46.6 40.2 0 97.8-8 143.2-46.6 49-41.4 74-109 74-201.8 0-167.6 29.8-234.6 80.6-284.6h-595.8zM512.4 64c53.6 0 97.6 39.8 103.4 86h-206.8c5.6-46.2 49.8-86 103.4-86z" />
<glyph unicode="&#xe650;" d="M704.2 755.4c0 0.2 0 0.4 0 0.4-0.2 0.6-0.2 1-0.4 1.6 0 0 0 0.2 0 0.2-1.2 3-3.6 6-7 6.8l-4 0.8-180.8 38.8v-545.2c-16 0-44.8-0.8-89-2.6-83.6-3.2-102.8-43.2-102.8-81.8 0-49.2 26.4-86.2 123-82 103.6 4.6 102.8 97 102.8 163.4v385l147.2-27c6-1.2 10.8 4.6 10.8 10.6v128.8c0 0.8 0.2 1.6 0.2 2.2z" />
<glyph unicode="&#xe651;" d="M832 320.2v483.8l-448-69.2v-474.4c-18 0-41.8-0.8-87-2.6-85.2-3.2-105-43.6-105-82.6 0-49.8 27-87 125.2-82.8 105.6 4.6 100.6 98 100.6 165v323l382 64v-321.2c-18 0-39.8-0.8-85.2-2.6-85.2-3.2-105-43.6-105-82.6 0-49.8 26-87 124.4-82.8 106 4.6 98 98 98 165z" />
<glyph unicode="&#xe652;" d="M192 768v-640h158v283.6l482-283.6v640l-482-283.6v283.6h-158z" />
<glyph unicode="&#xe653;" d="M192 768v-640h158v283.6l482-283.6v640l-482-283.6v283.6h-158zM351.2 448l15.2 8.8 433.6 255.2v-528l-448.8 264zM224 736h94v-251.6-56-17-251.4h-94v576z" />
<glyph unicode="&#xe654;" d="M674 768v-283.6l-482 283.6v-640l482 283.6v-283.6h158v640h-158z" />
<glyph unicode="&#xe655;" d="M674 768v-283.6l-482 283.6v-640l482 283.6v-283.6h158v640h-158zM657.8 439.2l-433.8-255.2v528 0l449-264-15.2-8.8zM800 160h-94v251.6 17 56 251.4h94v-576z" />
<glyph unicode="&#xe656;" d="M512 704l-448-256 448-256v246.4l448-246.4v512l-448-246.4v246.4 0z" />
<glyph unicode="&#xe657;" d="M928 650v-403.8l-367 201.8 367 202M480 648v-155.4-54.2-191.2l-352 200.8 352 200.4M512 704l-448-256 448-256v246.4l448-246.4v512l-448-246.4v246.4 0z" />
<glyph unicode="&#xe658;" d="M382 736v-576h-94v576h94M414 768h-158v-640h158v640 0zM736 736v-576h-94v576h94M768 768h-158v-640h158v640 0z" />
<glyph unicode="&#xe659;" d="M256 768h158v-640h-158v640zM610 768h158v-640h-158v640z" />
<glyph unicode="&#xe65a;" d="M128 832h64v-69.8h-64v69.8zM734.6 797v-284.8h-445.2v284.8h445.2M768 832h-512v-354.6h512v354.6 0zM734.6 384.2v-285.4h-445.2v285.4h445.2M768 419.2h-512v-355.2h512v355.2 0zM128 692.4h64v-69.8h-64v69.8zM128 552.8h64v-69.8h-64v69.8zM128 413h64v-69.8h-64v69.8zM128 273.4h64v-69.8h-64v69.8zM128 133.8h64v-69.8h-64v69.8zM832 832h64v-69.8h-64v69.8zM832 692.4h64v-69.8h-64v69.8zM832 552.8h64v-69.8h-64v69.8zM832 413h64v-69.8h-64v69.8zM832 273.4h64v-69.8h-64v69.8zM832 133.8h64v-69.8h-64v69.8z" />
<glyph unicode="&#xe65b;" d="M256 768v-640l512 320-512 320z" />
<glyph unicode="&#xe65c;" d="M748.2 704l-27.2-20.6c48.2-65.8 77-147.2 77-235.4s-28.8-169.6-77.2-235.4l27.2-20.6c52.6 71.4 83.8 160 83.8 256s-31 184.6-83.6 256zM640 256.4c40 53.6 64 119.8 64 191.6s-24 138-64 191.6l-27.2-20.2c35.8-48 57.2-107.2 57.2-171.4s-21.4-123.4-57.2-171.4l27.2-20.2zM546.2 320.2c27.4 35.8 43.8 79.8 43.8 127.8 0 48-16.4 92-43.8 127.8l-27-19.6c23.2-30.2 37-67.6 37-108.2s-13.8-77.8-37-108.2l27-19.6zM307.8 528h-115.8v-160h115.8l140.2-112v384z" />
<glyph unicode="&#xe65d;" d="M499.8 528h-115.8v-160h115.8l140.2-112v384z" />
<glyph unicode="&#xe65e;" d="M272.965 879.782l27.613 16.17 515.204-879.813-27.613-16.17-515.204 879.813zM512.4 253.2c24.6 0 47.6 5.8 68.4 16.4l-226.8 385.6v-235.2c0-92 70.8-166.8 158.4-166.8zM670 420v309c0 92-70.4 167-158 167-50.8 0-95.6-25.2-124.6-64.4l273.8-466.6c5.8 17.2 8.8 35.8 8.8 55zM768 416.6v159.4h-34v-159.4c0-43-12.4-83.2-34.2-117l19.8-34c30.6 42.4 48.4 94.6 48.4 151zM534 161.6c34 2.4 66 11.6 94.6 26l-18.8 32.2c-29-14-61.4-21.8-95.4-21.8-120.6 0-220.2 98-220.2 218.2v159.8h-38v-159.4c0-134.4 106-245.2 240-254.8v-125.8h-146v-36h322v36h-138v125.6z" />
<glyph unicode="&#xe65f;" d="M512 896c-87.4 0-158-75-158-167v-309c0-92 70.6-167 158-167s158 75 158 167v309c0 92-70.6 167-158 167zM638 420c0-74.4-56.6-135-126-135s-126 60.6-126 135v309c0 74.4 56.6 135 126 135s126-60.6 126-135v-309zM734 576v-159.4c0-120.4-99.6-218.4-220-218.4s-220 98-220 218.4v159.4h-38v-159.4c0-134.4 106-245.2 240-255v-125.6h-146v-36h322v36h-138v125.6c132 9.8 234 120.6 234 255v159.4h-34z" />
<glyph unicode="&#xe660;" d="M512 253c87.4 0 158 75 158 167v309c0 92-70.6 167-158 167s-158-75-158-167v-309c0-92 70.6-167 158-167zM734 576v-159.4c0-120.4-99.6-218.4-220-218.4s-220 98-220 218.4v159.4h-38v-159.4c0-134.4 106-245.2 240-255v-125.6h-146v-36h322v36h-138v125.6c132 9.8 234 120.6 234 255v159.4h-34z" />
<glyph unicode="&#xe661;" d="M496 256h32v-192h-32v192zM798.6 592.8c0 2.4 0.4 4.8 0.4 7.2 0 128.6-105.6 232.8-233.6 232.8-92.2 0-171.6-54.2-208.8-132.6-16.2 8.2-34.2 12.8-53.6 12.8-59.2 0-108.2-47.2-117.8-104-70.4-24.2-121.2-93.4-121.2-172.6 0-99.4 80.2-180.4 179.2-180.4h252.8v292.4l-109.4-109-23.2 23.2 149 148.6 149-148.6-23.6-23.2-109.8 109v-292.4h268c90 0 164 74.6 164 165.6s-71 171-161.4 171.2z" />
<glyph unicode="&#xe662;" d="M386.6 439.2l-23.2 23.2 149 148.6 149-148.6-23.4-23.2-109.2 109.2v-483.6h-33v483.6zM798.6 592.8c0 2.4 0.4 4.8 0.4 7.2 0 128.6-105.6 232.8-233.6 232.8-92.2 0-171.6-54.2-208.8-132.6-16.2 8.2-34.2 12.8-53.6 12.8-59.2 0-108.2-47.2-117.8-104-70.4-24.2-121.2-93.4-121.2-172.6 0-99.4 80.2-180.4 179.2-180.4h182.8v32h-181.2c-81.8 0-148.4 67-148.4 149.2 0 63.6 40.4 122.4 100.4 143.2l16.8 5.8 3 17.6c7.2 43.2 44.2 78.6 87.8 78.6 13.8 0 27.4-3.2 39.8-9.6l27-13.6 13 27.4c33.2 69.8 104.2 114.8 180.8 114.8 110.6 0 201.8-86.6 201.8-197.8 0-26.6-0.4-40.6-0.4-40.6l30.4-0.2c73.2-1 131.2-66.8 131.2-140.6 0-73.6-59.6-133.8-133-134.2h-201v-32h202c90 0 164 74.6 164 165.6s-71 171-161.4 171.2z" />
<glyph unicode="&#xe663;" d="M798.6 494.4c0 2.4 0.4 4.8 0.4 7.2 0 128.6-105.6 234.4-233.6 234.4-92.2 0-171.6-55.8-208.8-134-16.2 8.2-34.2 12.8-53.6 12.8-59.2 0-108.2-47.4-117.8-104-70.4-24.4-121.2-88.4-121.2-167.6 0-99.6 80.2-183.2 179.2-183.2h552.8c90 0 164 77.8 164 168.6 0 91.2-70.8 165.6-161.4 165.8zM795 192.8l-6.4-0.8h-543.8c-81.8 0-148.4 69.8-148.4 152.2 0 63.8 40.4 116.8 100.4 137.6l16.8 6 3 17.6c7.2 43.2 44.2 78.6 87.8 78.6 13.8 0 27.4-3.2 39.8-9.6l27-13.6 13 27.4c33.2 69.8 104.2 116.4 180.8 116.4 110.6 0 201.8-88.2 201.8-199.4 0-26.6-0.4-40.6-0.4-40.6l30.4-0.2c73.4-1 131.2-61 131.2-134.8s-59.6-136.4-133-136.8z" />
<glyph unicode="&#xe664;" d="M320 703.2l64.6 64.8 319.4-320-319.4-320-64.6 64.8 254.6 255.2z" />
<glyph unicode="&#xe665;" d="M704 703.2l-64.6 64.8-319.4-320 319.4-320 64.6 64.8-254.6 255.2z" />
<glyph unicode="&#xe666;" d="M512 352c-17.6 0-32-14.4-32-32s14.4-32 32-32 32 14.4 32 32-14.4 32-32 32zM336 512v144c0 97 79 176 176 176s176-79 176-176v-16h32v16c0 114.8-93.2 208-208 208-115 0-208-93.2-208-208v-144h-112v-480h640v480h-496zM528 258v-82c0-8.8-7.2-16-16-16s-16 7.2-16 16v82c-27.6 7.2-48 32.2-48 62 0 35.4 28.6 64 64 64s64-28.6 64-64c0-29.8-20.4-54.8-48-62z" />
<glyph unicode="&#xe667;" d="M512 704v-246.4l-448 246.4v-512l448 246.4v-246.4l448 256-448 256z" />
<glyph unicode="&#xe668;" d="M336 512v144c0 97 79 176 176 176s176-79 176-176v-16h32v16c0 114.8-93.2 208-208 208-115 0-208-93.2-208-208v-144h-112v-480h640v480h-496zM800 64h-576v416h576v-416zM512 384c-35.4 0-64-28.6-64-64 0-29.8 20.4-54.8 48-62v-82c0-8.8 7.2-16 16-16s16 7.2 16 16v82c27.6 7.2 48 32.2 48 62 0 35.4-28.6 64-64 64zM512 288c-17.6 0-32 14.4-32 32s14.4 32 32 32 32-14.4 32-32-14.4-32-32-32z" />
<glyph unicode="&#xe669;" d="M512 352c-17.6 0-32-14.4-32-32s14.4-32 32-32 32 14.4 32 32-14.4 32-32 32zM720 512v144c0 114.8-93.2 208-208 208-115 0-208-93.2-208-208v-144h-112v-480h640v480h-112zM528 258v-82c0-8.8-7.2-16-16-16s-16 7.2-16 16v82c-27.6 7.2-48 32.2-48 62 0 35.4 28.6 64 64 64s64-28.6 64-64c0-29.8-20.4-54.8-48-62zM688 512h-352v144c0 97 79 176 176 176s176-79 176-176v-144z" />
<glyph unicode="&#xe66a;" d="M720 512v144c0 114.8-93.2 208-208 208-115 0-208-93.2-208-208v-144h-112v-480h640v480h-112zM336 656c0 97 79 176 176 176s176-79 176-176v-144h-352v144zM800 64h-576v416h576v-416zM576 320c0 35.4-28.6 64-64 64s-64-28.6-64-64c0-29.8 20.4-54.8 48-62v-82c0-8.8 7.2-16 16-16s16 7.2 16 16v82c27.6 7.2 48 32.2 48 62zM512 288c-17.6 0-32 14.4-32 32s14.4 32 32 32 32-14.4 32-32-14.4-32-32-32z" />
<glyph unicode="&#xe66b;" d="M768 430h-512v34h512v-34z" />
<glyph unicode="&#xe66c;" d="M512 864c-229.8 0-416-186.2-416-416s186.2-416 416-416c229.8 0 416 186.2 416 416s-186.2 416-416 416zM768 430h-512v34h512v-34z" />
<glyph unicode="&#xe66d;" d="M512 864c-229.8 0-416-186.2-416-416s186.2-416 416-416c229.8 0 416 186.2 416 416s-186.2 416-416 416zM512 66.6c-210.2 0-381.4 171-381.4 381.4 0 210.2 171 381.4 381.4 381.4 210.2 0 381.4-171 381.4-381.4 0-210.2-171.2-381.4-381.4-381.4zM256 464h512v-34h-512v34z" />
<glyph unicode="&#xe66e;" d="M781 672c0 0-309.4 0-334 0-9.4 0-21.4 19.8-37 38-14.2 16.6-29.4 26-41 26-15 0-120.6 0-120.6 0-31 0-56.4-17.8-56.4-48.6v-469.2c0-31 25.4-58.2 56.4-58.2h532.6c31 0 51 27.2 51 58.2v404.2c0 31-20 49.6-51 49.6zM248.4 704h87.6c0 0 14.8 0 22.6 0s17.2-3.2 28.6-16.6c24.2-28.6 31-47.4 59.8-47.4h334c13.2 0 19-4.4 19-17.6v-46.4h-576v111.4c0 18 20.6 16.6 24.4 16.6zM781 192h-532.6c-13 0-24.4 12.4-24.4 26.2v325.8h576v-325.8c0-12-5.2-26.2-19-26.2z" />
<glyph unicode="&#xe66f;" d="M128 576h768v-512h-768v512zM896 768h-192v-96h-32v96h-320v-96h-32v96h-192v-160h768zM320 832h32v-64h-32v64zM672 832h32v-64h-32v64z" />
<glyph unicode="&#xe670;" d="M704 768v64h-32v-64h-320v64h-32v-64h-192v-704h768v704h-192zM864 96h-704v480h704v-480zM864 608h-704v128h160v-64h32v64h320v-64h32v64h160v-128z" />
<glyph unicode="&#xe671;" d="M610 471.2c27.8 0 54-9.4 75.6-27 21-17.2 35.8-41 41.6-67.4l6-27 27.2 3.4c4 0.6 7.8 0.8 11.6 0.8 51.8 0 93.8-44.6 93.8-97 0-52.4-42-97-93.8-97h-303c-18.4 0-35.6 9.4-48.8 22.8s-20.4 32.2-20.4 51c0 36 27.8 65.8 63.8 71.8 3.2 0.6 16.8 2.6 27.4 3.6 0 0-1 10.4-1.2 18.8-0.2 8.4-0.2 18.2-0.2 22.2 0.2 66.8 54 121 120.4 121M610 502c-83 0-150.4-68-150.4-151.8 0-5 0.2-10.2 0.8-15-50.8-4.6-90.4-50.8-90.4-103 0-55.4 44.4-104 99.4-104h302.6c68.6 0 124 59.2 124 128.4s-55.6 127-124 127c-5.2 0-10.4 0.4-15.4-0.2-15.2 67.2-75 118.6-146.6 118.6v0zM416 768h32v-110h-32v110zM128 468h112v-34h-112v34zM220.6 648.2l22.4 22.6 63.8-64.2-22.4-22.6zM576.2 584.2l-22.4 22.4 63.6 64.2 22.4-22.6zM243 249l-22.4 22.6 63.8 64.2 22.4-22.6zM389.4 356c-41.2 16.4-70.4 56.8-70.4 104 0 61.6 49.8 111.8 111.2 111.8 31.8 0 60.4-13.4 80.6-35 9.6 7 19.4 12.6 27.8 16.6-26.2 30.6-65 50.2-108.4 50.2-78.8 0-142.8-64.4-142.8-143.6 0-55.6 31.6-104 77.8-127.8 7.4 10.4 16 18.2 24.2 23.8z" />
<glyph unicode="&#xe672;" d="M488 640c-86.6 0-156.6-70.4-156.6-157 0-5.2 0.2-10.4 0.8-15.6-52.8-4.6-94.2-51-94.2-105.2 0-57.2 46.4-106.2 103.4-106.2h315.4c71.4 0 129.2 59.8 129.2 131.4s-57.8 130.6-129.2 130.6c-5.4 0-10.8 0-16-0.6-15.8 70-78.2 122.6-152.8 122.6v0z" />
<glyph unicode="&#xe673;" d="M512 864c-229.8 0-416-186.2-416-416s186.2-416 416-416c229.8 0 416 186.2 416 416s-186.2 416-416 416zM512 191.8c-141.4 0-256 114.6-256 256.2s114.6 256.2 256 256.2v87.8l192-128-192-111.4v111.6c-119.2 0-216.2-97-216.2-216.2s97-216.2 216.2-216.2 216.2 96.2 216.2 216.2h39.8c0-142-114.6-256.2-256-256.2z" />
<glyph unicode="&#xe674;" d="M496 90l-109.4 107.6-23.4-22.8 149-146.8 149 146.8-23.6 22.8-109.6-107.6v214h-32zM798.4 631.2c0 2.4 0.4 4.6 0.4 7 0 127-105.8 229.8-233.6 229.8-92.2 0-171.6-53.6-208.8-130.8-16.2 8-34.2 12.6-53.6 12.6-59.2 0-108.2-46.6-117.8-102.6-70.4-24-121.2-86.8-121.2-164.8 0-98.2 80.2-178.4 179.2-178.4h253v270h32v-270h268c90 0 163.8 74.4 163.8 164.2s-70.8 162.8-161.4 163z" />
<glyph unicode="&#xe675;" d="M512 191.8c-141.4 0-256 114.6-256 256.2s114.6 256.2 256 256.2v87.8l192-128-192-111.4v111.6c-119.2 0-216.2-97-216.2-216.2s97-216.2 216.2-216.2 216.2 96.2 216.2 216.2h39.8c0-142-114.6-256.2-256-256.2z" />
<glyph unicode="&#xe676;" d="M894.2 447.6c-90.6 104.4-215.8 224.4-382.2 224.4-67.2 0-128.8-19-193.8-59.6-54.8-34.4-111-82.8-188.2-162.4l-2-2 13.4-13.8c110.2-112.8 205.4-210.2 370.6-210.2 73 0 143.8 23.8 216.4 72.8 61.8 41.8 114.4 94.8 156.6 137.6l11 11-1.8 2.2zM512 288c-88.2 0-160 71.8-160 160s71.8 160 160 160c88.2 0 160-71.8 160-160 0-88.2-71.8-160-160-160zM500.8 506.4c0 13.8 4 26.8 11 37.6-53 0-95.8-43.2-95.8-96.4 0-53.2 43-96.2 95.8-96.2s96 43 96 96.2v0c-10.8-7-23.8-11-37.6-11-38.2 0.2-69.4 31.4-69.4 69.8z" />
<glyph unicode="&#xe677;" d="M737 704h-450l-127-192v-320h704v320l-127 192zM826.8 512h-90.8v136l90.8-136zM320 672h384v-160h-96c0-53-43-96-96-96s-96 43-96 96h-96v160zM288 648v-136h-90.8l90.8 136zM832 224h-640v256h196c14.2-55.2 64.4-96 124-96s109.8 40.8 124 96h196v-256z" />
<glyph unicode="&#xe678;" d="M416 416.6v-64.6h64.4l360.2 360-64.8 64.6zM888.4 799.4l-25 25c-5.4 4.8-12.4 7.6-20 7.6s-14.6-3-19.8-7.6l-24.2-24.4 0.2-0.2 22.4-22.6 42-42 24.4 24.4c4.8 5.2 7.6 12.2 7.6 19.8 0.2 7.6-2.8 14.6-7.6 20zM511 320h-127v127.2l256 256h-0.6l0.8 0.8h-480.2v-576h608v444.4l0.2 5z" />
<glyph unicode="&#xe679;" d="M796 103.4M672 864h-576v-450h224v226h352zM350 610v-452h324l128-126h30v126h96v452h-578z" />
<glyph unicode="&#xe67b;" d="M607.4 704h-442c-37.6 0-71.4-28.2-71.4-65.4v-375.8c0-37.2 33.8-70.8 71.4-70.8h442c37.6 0 66.6 33.6 66.6 70.8v375.8c0 37.2-29 65.4-66.6 65.4zM734 534v-171.2l196-106.8v384l-196-106z" />
<glyph unicode="&#xe67c;" d="M607.4 704h-442c-37.6 0-71.4-28.2-71.4-65.4v-375.8c0-37.2 33.8-70.8 71.4-70.8h442c37.6 0 66.6 33.6 66.6 70.8v375.8c0 37.2-29 65.4-66.6 65.4zM640 262.8c0-18.6-13.8-36.8-32.6-36.8h-442c-18.8 0-37.4 18.2-37.4 36.8v375.8c0 18.6 18 31 36.8 31l442-0.2c18.8 0 33.2-12.2 33.2-30.8v-375.8zM734 534v-171.2l196-106.8v384l-196-106zM896 580v-264.6l-128 67v131.2l128.2 67.2-0.2-0.8z" />
<glyph unicode="&#xe67d;" d="M96 650l367-202-367-201.8v403.8M544 648.4l352-200.4-352-200.8v191.2 54.2 155.4M512 704v-246.4l-448 246.4v-512l448 246.4v-246.4l448 256-448 256z" />
<glyph unicode="&#xe67e;" d="M288 710.2l419.6-262.2-419.6-262.2v524.4M256 768v-640l512 320-512 320z" />
<glyph unicode="&#xe67f;" d="M386.4 197.6l-23.2-22.8 149-146.8 149 146.8-23.2 22.8-109.4-107.6v484.2h-32.8v-484.2zM798.4 631.2c0 2.4 0.4 4.6 0.4 7 0 127-105.8 229.8-233.6 229.8-92.2 0-171.6-53.6-208.8-130.8-16.2 8-34.2 12.6-53.6 12.6-59.2 0-108.2-46.6-117.8-102.6-70.4-24-121.2-86.8-121.2-164.8 0-98.2 80.2-178.4 179.2-178.4h183v32h-181.4c-81.8 0-148.4 66.4-148.4 147.4 0 62.8 40.4 115 100.4 135.4l16.8 5.6 3 17.4c7.2 42.6 44.2 77.6 87.8 77.6 13.8 0 27.4-3.2 39.8-9.4l27-13.4 13 27.2c33.2 68.8 104.2 113.2 180.8 113.2 110.6 0 201.8-85.6 201.8-195.2 0-26.2-0.4-40.2-0.4-40.2l30.4-0.2c73.4-1 131.2-60 131.2-132.8 0-72.6-59.6-132.2-133-132.6l-6.4-0.2h-194.4v-32h202c90 0 163.8 74.4 163.8 164.2 0 90-70.8 163-161.4 163.2z" />
<glyph unicode="&#xe680;" d="M798.6 494.4c0 2.4 0.4 4.8 0.4 7.2 0 128.6-105.6 234.4-233.6 234.4-92.2 0-171.6-55.8-208.8-134-16.2 8.2-34.2 12.8-53.6 12.8-59.2 0-108.2-47.4-117.8-104-70.4-24.4-121.2-88.4-121.2-167.6 0-99.6 80.2-183.2 179.2-183.2h552.8c90 0 164 77.8 164 168.6 0 91.2-70.8 165.6-161.4 165.8z" />
<glyph unicode="&#xe681;" d="M768 430h-240v-238h-34v238h-238v34h238v240h34v-240h240v-34z" />
<glyph unicode="&#xe682;" d="M512 864c-229.8 0-416-186.2-416-416s186.2-416 416-416c229.8 0 416 186.2 416 416s-186.2 416-416 416zM768 430h-240v-238h-34v238h-238v34h238v240h34v-240h240v-34z" />
<glyph unicode="&#xe683;" d="M512 864c-229.8 0-416-186.2-416-416s186.2-416 416-416c229.8 0 416 186.2 416 416s-186.2 416-416 416zM512 66.6c-210.2 0-381.4 171-381.4 381.4s171.2 381.4 381.4 381.4 381.4-171.2 381.4-381.4-171.2-381.4-381.4-381.4zM528.2 704h-33.6v-239.8h-238.6v-33.6h238.6v-238.6h33.6v238.6h239.8v33.6h-239.8z" />
<glyph unicode="&#xe684;" d="M447.8 300.6c-4.8-4.8-11.6-8.8-17.6-8.8s-12.8 4.2-17.8 9l-112 112 35.6 35.6 94.4-94.4 249.6 251.4 35-36.2-267.2-268.6z" />
<glyph unicode="&#xe685;" d="M512 864c-229.8 0-416-186.2-416-416s186.2-416 416-416c229.8 0 416 186.2 416 416s-186.2 416-416 416zM447.8 300.6c-4.8-4.8-11.6-8.8-17.6-8.8s-12.8 4.2-17.8 9l-112 112 35.6 35.6 94.4-94.4 249.6 251.4 35-36.2-267.2-268.6z" />
<glyph unicode="&#xe686;" d="M680.2 605.4l-249.6-251.4-94.4 94.4-35.6-35.6 112-112c5-5 11.8-9 17.8-9s12.6 4 17.6 8.8l267.4 268.8-35.2 36zM512 864c-229.8 0-416-186.2-416-416s186.2-416 416-416c229.8 0 416 186.2 416 416s-186.2 416-416 416zM512 66.6c-210.2 0-381.4 171-381.4 381.4 0 210.2 171 381.4 381.4 381.4 210.2 0 381.4-171 381.4-381.4 0-210.2-171.2-381.4-381.4-381.4z" />
<glyph unicode="&#xe687;" d="M520.6 228c-18.8 0-34 15-34 33.8 0 18.6 15.2 33.6 34 33.6 18.8 0 34-15 34-33.6 0-18.8-15.2-33.8-34-33.8zM588.2 458.6c-45.6-45-44.4-54.8-46.6-106.6h-38c2.2 57 15 87.4 60.2 129 22 20.6 38.8 45.4 38.8 76.2 0 47.2-38.8 79.8-85.2 79.8-64.8 0-97-32.8-95.8-92.8h-37.6c0.6 84 48.8 124.2 135.2 124.2 66 0 120.8-40.8 120.8-109.2 0-43.8-21.4-72.4-51.8-100.6z" />
<glyph unicode="&#xe688;" d="M512 864c-229.8 0-416-186.2-416-416s186.2-416 416-416c229.8 0 416 186.2 416 416 0 229.8-186.2 416-416 416zM520.6 228c-18.8 0-34 15-34 33.8 0 18.6 15.2 33.6 34 33.6 18.8 0 34-15 34-33.6 0-18.8-15.2-33.8-34-33.8zM588.2 458.6c-45.6-45-44.4-54.8-46.6-106.6h-38c2.2 57 15 87.4 60.2 129 22 20.6 38.8 45.4 38.8 76.2 0 47.2-38.8 79.8-85.2 79.8-64.8 0-97-32.8-95.8-92.8h-37.6c0.6 84 48.8 124.2 135.2 124.2 66 0 120.8-40.8 120.8-109.2 0-43.8-21.4-72.4-51.8-100.6z" />
<glyph unicode="&#xe689;" d="M512 864c-229.8 0-416-186.2-416-416s186.2-416 416-416c229.8 0 416 186.2 416 416 0 229.8-186.2 416-416 416zM512 66.6c-210.2 0-381.4 171-381.4 381.4 0 210.2 171 381.4 381.4 381.4 210.2 0 381.4-171 381.4-381.4 0-210.2-171.2-381.4-381.4-381.4zM519.2 668c-86.4 0-134.6-40.6-135.2-124.4h37.6c-1.2 60.8 31 93 95.8 93 46.4 0 85.2-32.4 85.2-79.6 0-30.6-16.6-55.4-38.8-76.2-45.2-41.6-58-72-60.2-129h38c2.2 51.6 1 61.4 46.6 106.6 30.4 28.4 51.8 56.6 51.8 100.4 0 68.4-54.8 109.2-120.8 109.2zM520.6 295.4c-18.8 0-34-15-34-33.6s15.2-33.8 34-33.8c18.8 0 34 15 34 33.8 0 18.6-15.2 33.6-34 33.6z" />
<glyph unicode="&#xe68a;" d="M543 616c0-22.091-17.909-40-40-40s-40 17.909-40 40c0 22.091 17.909 40 40 40 22.091 0 40-17.909 40-40zM544 272v256h-96v-16h32v-240h-32v-16h128v16z" />
<glyph unicode="&#xe68b;" d="M512 864c-229.8 0-416-186.2-416-416s186.2-416 416-416c229.8 0 416 186.2 416 416 0 229.8-186.2 416-416 416zM503 656c22.2 0 40-18 40-40s-18-40-40-40c-22 0-40 18-40 40s17.8 40 40 40zM576 256h-128v16h32v240h-32v16h96v-256h32v-16z" />
<glyph unicode="&#xe68c;" d="M543 616c0-22.091-17.909-40-40-40s-40 17.909-40 40c0 22.091 17.909 40 40 40 22.091 0 40-17.909 40-40zM544 272v256h-96v-16h32v-240h-32v-16h128v16zM512 864c-229.8 0-416-186.2-416-416s186.2-416 416-416c229.8 0 416 186.2 416 416 0 229.8-186.2 416-416 416zM512 66.6c-210.2 0-381.4 171-381.4 381.4 0 210.2 171 381.4 381.4 381.4 210.2 0 381.4-171 381.4-381.4 0-210.2-171.2-381.4-381.4-381.4z" />
<glyph unicode="&#xe68d;" d="M512 864c-229.8 0-416-186.2-416-416s186.2-416 416-416c229.8 0 416 186.2 416 416s-186.2 416-416 416zM512 66.6c-210.2 0-381.4 171-381.4 381.4 0 210.2 171 381.4 381.4 381.4 210.2 0 381.4-171 381.4-381.4 0-210.2-171.2-381.4-381.4-381.4zM512 768c-176.8 0-320-143.2-320-320s143.2-320 320-320c176.8 0 320 143.2 320 320 0 176.8-143.2 320-320 320z" />
<glyph unicode="&#xe68e;" d="M512 864c-229.8 0-416-186.2-416-416s186.2-416 416-416c229.8 0 416 186.2 416 416s-186.2 416-416 416zM512 66.6c-210.2 0-381.4 171-381.4 381.4 0 210.2 171 381.4 381.4 381.4 210.2 0 381.4-171 381.4-381.4 0-210.2-171.2-381.4-381.4-381.4z" />
<glyph unicode="&#xe68f;" d="M800 733.4h-160v40c0 32.4-26.2 58.6-58.6 58.6h-139c-32.2 0-58.4-26.2-58.4-58.6v-40h-160v-29.4h42.2l47.2-581.4c0-32.4 26.2-58.6 58.6-58.6h282c32.4 0 58.6 26.2 58.6 58.6l46.6 581.4h40.8v29.4zM413.2 773.4c0 16.2 13.2 29.4 29.2 29.4h139c16.2 0 29.2-13.2 29.2-29.4v-40h-197.4v40zM683.2 124.2v-0.8-0.8c0-16.2-13.2-29.4-29.2-29.4h-282c-16.2 0-29.2 13.2-29.2 29.4v0.8 0.8l-47.4 579.8h434.4l-46.6-579.8zM498 640h28v-482h-28v482zM640 640h-29.2l-21.4-482h29.2zM413 640h-29l21.4-482h29.2z" />
<glyph unicode="&#xe690;" d="M512 512c-35.4 0-64-28.6-64-64s28.6-64 64-64c35.4 0 64 28.6 64 64s-28.6 64-64 64v0zM256.8 512c-35.4 0-64-28.6-64-64s28.6-64 64-64c35.4 0 64 28.6 64 64s-28.8 64-64 64v0zM768 512c-35.4 0-64-28.6-64-64s28.6-64 64-64 64 28.6 64 64-28.6 64-64 64v0z" />
<glyph unicode="&#xe691;" d="M512 484c19.8 0 36-16.2 36-36s-16.2-36-36-36-36 16.2-36 36 16.2 36 36 36M512 512c-35.4 0-64-28.6-64-64s28.6-64 64-64c35.4 0 64 28.6 64 64s-28.6 64-64 64v0zM256.8 484c19.8 0 36-16.2 36-36s-16.2-36-36-36c-19.8 0-36 16.2-36 36s16.2 36 36 36M256.8 512c-35.4 0-64-28.6-64-64s28.6-64 64-64c35.4 0 64 28.6 64 64s-28.8 64-64 64v0zM768 484c19.8 0 36-16.2 36-36s-16.2-36-36-36-36 16.2-36 36 16.2 36 36 36M768 512c-35.4 0-64-28.6-64-64s28.6-64 64-64 64 28.6 64 64-28.6 64-64 64v0z" />
<glyph unicode="&#xe692;" d="M528 672v-324h-32v324h-304v-608h640v608zM528 833.2l109.6-109.4 23.2 23.2-148.8 149-149-149 23.4-23.2 109.6 109.4v-161.2h32z" />
<glyph unicode="&#xe693;" d="M576 672v-32h224v-544h-576v544h224v32h-256v-608h640v608zM386.2 723.8l-23.2 23.2 149 149 149-149-23.2-23.2-109.4 109.4v-486h-32.8v486z" />
<glyph unicode="&#xe694;" d="M528 672v-326l109.6 109.4 23.2-23.2-148.8-149-149 149 23.4 23.2 109.6-109.4v326h-304v-608h640v608zM496 832h32v-160h-32v160z" />
<glyph unicode="&#xe695;" d="M576 672v-32h224v-544h-576v544h224v32h-256v-608h640v608zM386.2 455.4l-23.2-23.2 149-149 149 149-23.2 23.2-109.4-109.4v486h-32.8v-486z" />
<glyph unicode="&#xe696;" d="M689 364c30 47.2 47.6 103.2 47.6 163.4 0 168.2-136.2 304.6-304.2 304.6-168.2 0-304.4-136.4-304.4-304.6 0-168.2 136.2-304.6 304.2-304.6 61 0 117.8 18 165.4 48.8l13.8 9.6 217.2-217.2 67.4 68.6-217 217.2 10 14.2zM602.8 697.6c45.4-45.4 70.4-105.8 70.4-170s-25-124.6-70.4-170c-45.4-45.4-105.8-70.4-170-70.4-64.2 0-124.6 25-170 70.4-45.4 45.4-70.4 105.8-70.4 170 0 64.2 25 124.6 70.4 170 45.4 45.4 105.8 70.4 170 70.4 64.2 0 124.6-25 170-70.4z" />
<glyph unicode="&#xe697;" d="M896.6 110.6l-226.6 226.8c41.6 52 66.6 118.2 66.6 190.2 0 168.2-136.2 304.4-304 304.4-168 0-304-136.4-304-304.4s136.2-304.4 304-304.4c72.4 0 138.8 25.4 191 67.6l226.4-226.8 46.6 46.6zM240.2 334.8c-51.4 51.4-79.6 119.8-79.6 192.6s28.4 141.2 79.6 192.6 119.8 80 192.4 80c72.6 0 141-28.4 192.4-79.8s79.6-119.8 79.6-192.6-28.4-141.2-79.6-192.6c-51.4-51.4-119.8-79.8-192.4-79.8-72.6-0.2-141 28.2-192.4 79.6z" />
<glyph unicode="&#xe698;" d="M512 864c-229.8 0-416-186.2-416-416s186.2-416 416-416c229.8 0 416 186.2 416 416 0 229.8-186.2 416-416 416zM512 192v256h-255.4l447.4 192-192-448z" />
<glyph unicode="&#xe699;" d="M512 831c102.2 0 198.4-39.8 270.8-112.2s112.2-168.4 112.2-270.8-39.8-198.4-112.2-270.8-168.4-112.2-270.8-112.2-198.4 39.8-270.8 112.2c-72.2 72.4-112.2 168.6-112.2 270.8s39.8 198.4 112.2 270.8c72.4 72.2 168.6 112.2 270.8 112.2M512 864c-229.8 0-416-186.2-416-416s186.2-416 416-416c229.8 0 416 186.2 416 416 0 229.8-186.2 416-416 416v0zM704 640l-447.4-192h255.4v-256z" />
<glyph unicode="&#xe69a;" d="M288 128v32 576h-64v-672h480v64h-384zM650.6 832h-330.6v-96-576h480v522l-149.4 150zM736 608h-160v160h32v-128h128v-32z" />
<glyph unicode="&#xe69b;" d="M608 768h-32v-160h160v32h-128zM650.6 832h-330.6v-96h-96v-672h480v96h96v522l-149.4 150zM672 96h-416v608h64v-544h352v-64zM768 192h-416v608h285.4l130.6-131.2v-476.8z" />
<glyph unicode="&#xe69c;" d="M192 704v-640h768v640h-768zM832 832h-768v-640h96v544h672z" />
<glyph unicode="&#xe69d;" d="M192 704v-640h768v640h-768zM928 96h-704v576h704v-576zM64 832v-640h96v32h-64v576h704v-64h32v96z" />
<glyph unicode="&#xe69e;" d="M960 704h-896v-640h896v640 0zM144 768h736v-32h-736v32zM208 832h608v-32h-608v32z" />
<glyph unicode="&#xe69f;" d="M928 672v-576h-832v576h832M960 704h-896v-640h896v640 0zM144 768h736v-32h-736v32zM208 832h608v-32h-608v32z" />
<glyph unicode="&#xe6a0;" d="M512 864c-0.2 0-0.2 0-0.4 0 0 0 0 0-0.2 0-0.2 0-0.4 0-0.4 0-229.4-0.6-415-186.6-415-416 0-229.4 185.6-415.4 415-416 0.2 0 0.4 0 0.4 0 0 0 0.2 0 0.2 0 0.2 0 0.2 0 0.4 0 229.8 0 416 186.2 416 416 0 229.8-186.2 416-416 416zM512 65.2c-0.2 0-0.2 0-0.4 0 0 0 0 0-0.2 0-0.2 0-0.4 0-0.4 0-210.8 0.6-381.8 171.8-381.8 382.8 0 211 170.8 382.2 381.8 382.6 0.2 0 0.2 0 0.4 0 0 0 0.2 0 0.2 0 0.2 0 0.2 0 0.4 0 211.4 0 382.8-171.4 382.8-382.8 0-211.2-171.4-382.6-382.8-382.6zM644.6 616.4c-37.4-9-76-14.4-115.8-15.6v-136.2h135.2c-1.2 56.2-8.2 107.2-19.4 151.8zM528.6 795v-163.8c37 1.2 73 6 107.6 14.4-26.2 82.8-67 137.2-107.6 149.4zM386.8 645.8c35-8.4 71.2-13.4 108.4-14.6v164.2c-40.6-11.8-82-66.2-108.4-149.6zM761.2 693.2c-45.2 46-103 79.6-167.8 95 29.6-30.6 54.4-77.4 72.2-134.6 33.4 10.2 65.4 23.4 95.6 39.6zM694.6 464.6h166.6c-3.6 77.6-32.6 148.8-79 205.2-34.2-18.8-70.4-34.2-108.2-45.6 12.2-48 19.4-102.2 20.6-159.6zM359 464.6h136.4v136.2c-40.2 1.2-79.2 6.6-116.8 15.8-11.4-44.6-18.4-95.8-19.6-152zM664 431.4h-135.4v-136c39.8-1.2 78.6-6.4 116-15.6 11.2 44.4 18.2 95.6 19.4 151.6zM378.6 279.6c37.6 9.2 76.6 14.6 116.8 15.8v136h-136.4c1.2-56.2 8.2-107.4 19.6-151.8zM495.4 100.8v164.2c-37.2-1.2-73.6-6.2-108.6-14.6 26.4-83.4 67.8-138 108.6-149.6zM593.4 107.8c64.8 15.6 122.6 49 168 95.2-30.2 16.2-62.2 29.4-95.6 39.6-17.8-57.4-42.8-104-72.4-134.8zM429.4 787.8c-64.2-15.6-121.6-49-166.6-94.8 30-16 61.6-29.2 94.6-39.2 17.8 57 42.6 103.4 72 134zM674 271.8c38-11.4 74.2-26.8 108.4-45.6 46.4 56.4 75.4 127.6 79 205.2h-166.6c-1.4-57.4-8.6-111.4-20.8-159.6zM528.6 265v-164c40.6 12.2 81.4 66.6 107.6 149.6-34.6 8.4-70.6 13.2-107.6 14.4zM349.2 624.4c-37.6 11.4-73.6 26.6-107.4 45.4-46.4-56.4-75.4-127.6-79-205.2h165.8c1 57.6 8.4 111.8 20.6 159.8zM328.4 431.4h-165.8c3.6-77.6 32.6-148.8 79-205.2 33.8 18.6 69.8 34 107.4 45.4-12 48-19.4 102.2-20.6 159.8zM262.6 203c45-45.8 102.4-79.2 166.8-94.8-29.4 30.6-54.2 77.2-72 134.2-33-10.2-64.8-23.4-94.8-39.4z" />
<glyph unicode="&#xe6a1;" d="M512 864c-0.2 0-0.2 0-0.4 0 0 0 0 0-0.2 0-0.2 0-0.4 0-0.4 0-229.4-0.6-415-186.6-415-416 0-229.4 185.6-415.4 415-416 0.2 0 0.4 0 0.4 0 0 0 0.2 0 0.2 0 0.2 0 0.2 0 0.4 0 229.8 0 416 186.2 416 416 0 229.8-186.2 416-416 416zM528.6 615c44.2 1.2 87 7 128.4 17 12.4-49 20.2-105.6 21.4-167.6h-149.8v150.6zM528.6 648.4v179.6c44.8-12.4 90.4-72.2 119.2-164-38.4-9.2-78.2-14.4-119.2-15.6zM495.4 828.4v-180.2c-41.4 1.2-81.6 6.6-120.2 16 29.2 92.4 75 152.6 120.2 164.2zM495.4 615v-150.4h-150.8c1.2 62 9 118.6 21.4 167.6 41.6-10 85-16 129.4-17.2zM311 464.6h-181.2c3.6 85.6 35.6 164 86.6 226 37-20.4 76.4-37.2 117.6-49.6-13.6-53-21.6-112.8-23-176.4zM311 431.4c1.2-63.4 9.2-123.4 22.8-176.4-41.2-12.6-80.4-29.2-117.6-49.6-51 62-82.8 140.4-86.6 226h181.4zM344.6 431.4h150.8v-150.2c-44.4-1.2-87.8-7.2-129.4-17.4-12.4 49-20.2 105.6-21.4 167.6zM495.4 247.8v-180.4c-45.2 11.8-91 71.8-120.2 164.2 38.6 9.6 78.8 15 120.2 16.2zM528.6 68v180c41-1.2 80.8-6.6 119.4-15.8-29-92-74.4-151.8-119.4-164.2zM528.6 281.2v150.2h149.8c-1.2-61.8-9-118.4-21.4-167.4-41.4 10-84.2 16-128.4 17.2zM711.8 431.4h182.4c-3.6-85.6-35.6-163.8-86.6-226-37.4 20.6-77 37.4-118.6 50 13.6 53 21.6 112.6 22.8 176zM711.8 464.6c-1.2 63.4-9.2 123.2-22.6 176.2 41.6 12.6 81.2 29.4 118.4 49.8 51-62 83-140.4 86.6-226.2h-182.4zM784.8 716.2c-33.2-17.6-68-32.2-104.6-43.2-19.4 62.6-46.8 113.6-79 147.2 70.8-17 134-53.8 183.6-104zM421.6 819.8c-32.2-33.4-59.4-84.4-78.6-146.6-36.2 11-70.8 25.4-103.6 43 49 50 111.8 86.6 182.2 103.6zM239.2 180c32.8 17.6 67.6 32 103.6 43 19.4-62.4 46.6-113.2 78.8-146.8-70.4 17-133.2 53.6-182.4 103.8zM601.2 75.8c32.4 33.6 59.6 84.6 79.2 147.4 36.6-11 71.4-25.6 104.6-43.2-49.6-50.4-113-87.2-183.8-104.2z" />
<glyph unicode="&#xe6a2;" d="M772.4 672c-121.2 0-219.6-99.8-219.6-223.6 0-80.8 42-152.4 105-190.4h-291.6c63 38 105 109.6 105 190.4 0 123.8-98.4 223.8-219.6 223.8-121.2 0-219.6-100.4-219.6-224 0-123.8 98.4-224.2 219.6-224.2h520.8c121.2 0 219.6 100.2 219.6 224s-98.4 224-219.6 224zM256 320c-70.6 0-128 57.4-128 128s57.4 128 128 128 128-57.4 128-128c0-70.6-57.4-128-128-128zM768 320c-70.6 0-128 57.4-128 128s57.4 128 128 128 128-57.4 128-128c0-70.6-57.4-128-128-128zM768 544c-53 0-96-43-96-96s43-96 96-96 96 43 96 96c0 53-43 96-96 96zM256 544c-53 0-96-43-96-96s43-96 96-96 96 43 96 96c0 53-43 96-96 96z" />
<glyph unicode="&#xe6a3;" d="M772.4 672c-121.2 0-219.6-100.2-219.6-224 0-80.8 42-151.4 105-190.8h-291.6c63 39.4 105 110 105 190.8 0 123.8-98.4 224-219.6 224-121.2 0-219.6-100.2-219.6-224 0-123.8 98.4-224 219.6-224h520.8c121.2 0 219.6 100.2 219.6 224s-98.4 224-219.6 224zM64.6 448c0 105.2 84 190.8 187 190.8 103.2 0 187-85.6 187-190.8s-84-190.8-187-190.8c-103.2 0-187 85.6-187 190.8zM772.4 257.2c-103.2 0-187 85.6-187 190.8s84 190.8 187 190.8 187-85.6 187-190.8-83.8-190.8-187-190.8zM768 544c53 0 96-43 96-96s-43-96-96-96-96 43-96 96c0 53 43 96 96 96M768 576c-70.6 0-128-57.4-128-128s57.4-128 128-128 128 57.4 128 128c0 70.6-57.4 128-128 128v0zM256 544c53 0 96-43 96-96s-43-96-96-96-96 43-96 96c0 53 43 96 96 96M256 576c-70.6 0-128-57.4-128-128s57.4-128 128-128 128 57.4 128 128c0 70.6-57.4 128-128 128v0z" />
<glyph unicode="&#xe6a4;" d="M789.2 277.6c-59 0-106.8-47.8-106.8-106.8s47.8-106.8 106.8-106.8c59 0 106.8 47.8 106.8 106.8s-47.8 106.8-106.8 106.8zM512 277.6c-59 0-106.8-47.8-106.8-106.8s47.8-106.8 106.8-106.8c59 0 106.8 47.8 106.8 106.8s-47.8 106.8-106.8 106.8zM234.8 277.6c-59 0-106.8-47.8-106.8-106.8s47.8-106.8 106.8-106.8c59 0 106.8 47.8 106.8 106.8s-47.8 106.8-106.8 106.8zM789.2 554.8c-59 0-106.8-47.8-106.8-106.8s47.8-106.8 106.8-106.8c59 0 106.8 47.8 106.8 106.8s-47.8 106.8-106.8 106.8zM512 554.8c-59 0-106.8-47.8-106.8-106.8s47.8-106.8 106.8-106.8c59 0 106.8 47.8 106.8 106.8s-47.8 106.8-106.8 106.8zM234.8 554.8c-59 0-106.8-47.8-106.8-106.8s47.8-106.8 106.8-106.8c59 0 106.8 47.8 106.8 106.8s-47.8 106.8-106.8 106.8zM789.2 618.4c59 0 106.8 47.8 106.8 106.8s-47.8 106.8-106.8 106.8c-59 0-106.8-47.8-106.8-106.8 0-59 47.8-106.8 106.8-106.8zM512 832c-59 0-106.8-47.8-106.8-106.8s47.8-106.8 106.8-106.8c59 0 106.8 47.8 106.8 106.8 0 59-47.8 106.8-106.8 106.8zM234.8 832c-59 0-106.8-47.8-106.8-106.8s47.8-106.8 106.8-106.8c59 0 106.8 47.8 106.8 106.8 0 59-47.8 106.8-106.8 106.8z" />
<glyph unicode="&#xe6a5;" d="M789.2 277.6c-59 0-106.8-47.8-106.8-106.8s47.8-106.8 106.8-106.8c59 0 106.8 47.8 106.8 106.8s-47.8 106.8-106.8 106.8zM789.2 96c-41.2 0-74.8 33.6-74.8 74.8 0 41.2 33.6 74.8 74.8 74.8s74.8-33.6 74.8-74.8c0-41.2-33.6-74.8-74.8-74.8zM512 277.6c-59 0-106.8-47.8-106.8-106.8s47.8-106.8 106.8-106.8c59 0 106.8 47.8 106.8 106.8s-47.8 106.8-106.8 106.8zM512 96c-41.2 0-74.8 33.6-74.8 74.8 0 41.2 33.6 74.8 74.8 74.8s74.8-33.6 74.8-74.8c0-41.2-33.6-74.8-74.8-74.8zM234.8 277.6c-59 0-106.8-47.8-106.8-106.8s47.8-106.8 106.8-106.8c59 0 106.8 47.8 106.8 106.8s-47.8 106.8-106.8 106.8zM234.8 96c-41.2 0-74.8 33.6-74.8 74.8 0 41.2 33.6 74.8 74.8 74.8s74.8-33.6 74.8-74.8c0-41.2-33.4-74.8-74.8-74.8zM789.2 554.8c-59 0-106.8-47.8-106.8-106.8s47.8-106.8 106.8-106.8c59 0 106.8 47.8 106.8 106.8s-47.8 106.8-106.8 106.8zM789.2 373.2c-41.2 0-74.8 33.6-74.8 74.8s33.6 74.8 74.8 74.8 74.8-33.6 74.8-74.8c0-41.2-33.6-74.8-74.8-74.8zM512 554.8c-59 0-106.8-47.8-106.8-106.8s47.8-106.8 106.8-106.8c59 0 106.8 47.8 106.8 106.8s-47.8 106.8-106.8 106.8zM512 373.2c-41.2 0-74.8 33.6-74.8 74.8s33.6 74.8 74.8 74.8 74.8-33.6 74.8-74.8c0-41.2-33.6-74.8-74.8-74.8zM234.8 554.8c-59 0-106.8-47.8-106.8-106.8s47.8-106.8 106.8-106.8c59 0 106.8 47.8 106.8 106.8s-47.8 106.8-106.8 106.8zM234.8 373.2c-41.2 0-74.8 33.6-74.8 74.8s33.6 74.8 74.8 74.8 74.8-33.6 74.8-74.8c0-41.2-33.4-74.8-74.8-74.8zM789.2 618.4c59 0 106.8 47.8 106.8 106.8s-47.8 106.8-106.8 106.8c-59 0-106.8-47.8-106.8-106.8 0-59 47.8-106.8 106.8-106.8zM789.2 800c41.2 0 74.8-33.6 74.8-74.8s-33.6-74.8-74.8-74.8-74.8 33.6-74.8 74.8c0 41.2 33.4 74.8 74.8 74.8zM512 832c-59 0-106.8-47.8-106.8-106.8s47.8-106.8 106.8-106.8c59 0 106.8 47.8 106.8 106.8 0 59-47.8 106.8-106.8 106.8zM512 650.4c-41.2 0-74.8 33.6-74.8 74.8s33.6 74.8 74.8 74.8 74.8-33.6 74.8-74.8c0-41.2-33.6-74.8-74.8-74.8zM234.8 832c-59 0-106.8-47.8-106.8-106.8s47.8-106.8 106.8-106.8c59 0 106.8 47.8 106.8 106.8 0 59-47.8 106.8-106.8 106.8zM234.8 650.4c-41.2 0-74.8 33.6-74.8 74.8 0 41.2 33.6 74.8 74.8 74.8s74.8-33.6 74.8-74.8c0-41.2-33.4-74.8-74.8-74.8z" />
<glyph unicode="&#xe6a6;" d="M512 864c-229.8 0-416-186.2-416-416s186.2-416 416-416c229.8 0 416 186.2 416 416 0 229.8-186.2 416-416 416zM512 66.6c-117.2 0-222.2 53.2-292.2 136.6 35.6 15.4 124.4 47.4 180.6 63.8 4.4 1.4 5.2 1.6 5.2 21.4 0 21.2-2.4 36.2-7.6 47.2-7 15-15.4 40.4-18.4 63.2-8.4 9.8-19.8 29-27.2 65.8-6.4 32.4-3.4 44.2 0.8 55.2 0.4 1.2 1 2.4 1.2 3.6 1.6 7.4-0.6 47-6.2 77.6-3.8 21 1 65.6 30 102.6 18.2 23.4 53.2 52 116 56h35c63.8-4 98.8-32.6 117-56 29-37 33.8-81.6 29.8-102.6-5.6-30.6-7.8-70-6.2-77.6 0.2-1.2 0.8-2.4 1.2-3.4 4.2-11 7.4-22.8 0.8-55.2-7.4-36.8-18.8-56-27.2-65.8-3-22.8-11.4-48-18.4-63.2-6.6-13.8-13.2-30.2-13.2-46.6 0-19.8 0.8-20 5.4-21.4 53.4-15.8 145.4-47.6 186-64.2-70-83.6-175-137-292.4-137z" />
<glyph unicode="&#xe6a7;" d="M512 864c-229.8 0-416-186.2-416-416s186.2-416 416-416c229.8 0 416 186.2 416 416 0 229.8-186.2 416-416 416zM512 829.4c210.2 0 381.4-171 381.4-381.4 0-93-33.4-178.2-88.8-244.4-40 16.4-131.8 48.2-185.8 64.2-4.8 1.4-5.4 1.8-5.4 21.4 0 16.2 6.6 32.6 13.2 46.6 7.2 15 15.4 40.4 18.4 63.2 8.4 9.8 20 29 27.2 65.8 6.4 32.4 3.4 44.2-0.8 55.2-0.4 1.2-1 2.4-1.2 3.4-1.6 7.6 0.6 47 6.2 77.6 3.8 21-1 65.6-29.8 102.6-18.2 23.4-53.2 52-117 56h-35c-62.8-4-97.6-32.6-116-56-29-37-33.8-81.6-30-102.6 5.6-30.6 7.8-70 6.2-77.6-0.4-1.4-0.8-2.4-1.2-3.6-4.2-11-7.4-22.8-0.8-55.2 7.4-36.8 18.8-56 27.2-65.8 3-22.8 11.4-48 18.4-63.2 5.2-11 7.6-26 7.6-47.2 0-19.8-0.8-20-5.2-21.4-56.2-16.6-145.2-48.6-180.8-64-55.8 66.4-89.4 151.8-89.4 245 0 210.2 171.2 381.4 381.4 381.4z" />
<glyph unicode="&#xe6a8;" d="M512 864c-229.8 0-416-186.2-416-416s186.2-416 416-416c229.8 0 416 186.2 416 416s-186.2 416-416 416zM546 414h-226v34h192v256h34v-290z" />
<glyph unicode="&#xe6a9;" d="M512 864c-229.8 0-416-186.2-416-416s186.2-416 416-416c229.8 0 416 186.2 416 416s-186.2 416-416 416zM512 66.6c-210.2 0-381.4 171-381.4 381.4 0 210.2 171 381.4 381.4 381.4 210.2 0 381.4-171 381.4-381.4 0-210.2-171.2-381.4-381.4-381.4zM512 448h-192v-34.6h226.6v290.6h-34.6z" />
<glyph unicode="&#xe6aa;" d="M960 546h-342.8l-105.2 318.2-105.2-318.2h-342.8l280.4-195.8-109.2-318.2 276.8 197.2 276.8-197.2-109.4 318.2 280.6 195.8z" />
<glyph unicode="&#xe6ab;" d="M960 546h-342.8l-105.2 318.2-105.2-318.2h-342.8l280.4-195.8-109.2-318.2 276.8 197.2 276.8-197.2-109.4 318.2 280.6 195.8zM725.2 117.6l-213.2 152-213.2-152 85.2 245-216 149.4h262l82 246.6 82-246.6h262l-216-149.2 85.2-245.2z" />
<glyph unicode="&#xe6ac;" d="M736 160h-544v512h416.2l32 32h-480.2v-576h608v448.2l-32-32zM475.2 391.8l-19.4 19.4 342.6 342.6-22.6 22.8-359.8-360v-64.6h64.4l360.2 360-22.8 22.6zM888.4 799.4l-25 25c-5.4 4.8-12.4 7.6-20 7.6s-14.6-3-19.8-7.6l-24.2-24.4 0.2-0.2 22.4-22.6 42-42 24.4 24.4c4.8 5.2 7.6 12.2 7.6 19.8 0.2 7.6-2.8 14.6-7.6 20z" />
<glyph unicode="&#xe6ad;" d="M547 421.6c20.2 13.4 46.2 30.4 89 61 37.2 26.4 99.8 72.8 99.8 194.8 0 98.6-57.4 186.6-57.4 186.6h-332.6c0 0-57.6-88.8-57.6-187.6 0-122 62.4-168.2 99.4-194.6 42.8-30.4 70-49.2 87.4-60.6 10-6.6 19-27 19-36v-321.2h-144v-32h320v32h-144v321.4c0 10 11.2 29.6 21 36.2zM609.2 510.2c-6.2-4.4-12.2-8.6-17.8-12.6-6.4 8.4-12.8 16.6-19.4 25 6 4.2 12.2 8.6 19 13.4 18.4 13 41.4 27.6 60 60.6 9.4-5 18.6-10.2 27.8-15.6-21.6-37.8-48.4-55.8-69.6-70.8zM692.4 609.4l-33.4 12.6c3.4 7.6 4 18 4 18h37.8c0.4-6.4-3.2-21.8-8.4-30.6zM320.2 672c0 1.4 0 3 0 4.4 0 65.8 29.2 129.6 44.2 155.6h295.6c14.8 0 44-89 44-154.6 0-1.8 0-3.6 0-5.4h-383.8z" />
<glyph unicode="&#xe6ae;" d="M128 416c0-10.8 0.4-21.4 1.2-32 2.6-34.2 9.4-67.4 19.8-98.8 15.8-47.6 39.8-91.4 70.6-129.6 76.2-94.8 193.2-155.6 324.4-155.6 229.8 0 416 186.2 416 416 0 131.2-60.8 248.2-155.6 324.4-38.2 30.8-82 54.8-129.6 70.6-31.4 10.4-64.6 17.2-98.8 19.8-10.6 0.8-21.2 1.2-32 1.2v-416h-416zM64 480c0-10.8 0.4-21.4 1.2-32h446.8v32 414.8c-10.6 0.8-21.2 1.2-32 1.2-229.8 0-416-186.2-416-416z" />
<glyph unicode="&#xe6af;" d="M128 416c0-10.8 0.4-21.4 1.2-32 2.6-34.2 9.4-67.4 19.8-98.8 15.8-47.6 39.8-91.4 70.6-129.6 76.2-94.8 193.2-155.6 324.4-155.6 229.8 0 416 186.2 416 416 0 131.2-60.8 248.2-155.6 324.4-38.2 30.8-82 54.8-129.6 70.6-31.4 10.4-64.6 17.2-98.8 19.8-10.6 0.8-21.2 1.2-32 1.2v-416h-416zM161.4 384h414.6v32 382.6c40.6-3.4 80-13 117.4-28.8 31.8-13.4 61.2-31 88.2-52.2 11.8-9.4 23.2-19.4 33.8-30.2 23.2-23.2 43-48.8 59.4-76.8 8.6-14.6 16.2-29.6 22.8-45.4 20-47.4 30.2-97.6 30.2-149.4s-10.2-102.2-30.2-149.4c-19.4-45.8-47-86.8-82.4-122-35.2-35.2-76.4-63-122-82.4-47.4-20-97.6-30.2-149.4-30.2s-102.2 10.2-149.4 30.2c-15.6 6.6-30.8 14.2-45.4 22.8-27.8 16.4-53.6 36.2-76.8 59.4-10.8 10.8-20.8 22-30.2 33.8-21.2 27-38.8 56.4-52.2 88.2-15.6 37.8-25.2 77.2-28.4 117.8zM64 480c0-10.8 0.4-21.4 1.2-32h446.8v32 414.8c-10.6 0.8-21.2 1.2-32 1.2-229.8 0-416-186.2-416-416zM96 480c0 51.8 10.2 102.2 30.2 149.4 19.4 45.8 47 86.8 82.4 122 35.2 35.2 76.4 63 122 82.4 47.2 20 97.6 30.2 149.4 30.2v-384h-384z" />
<glyph unicode="&#xe6b0;" d="M512 832c211.8 0 383.4-171.4 383.8-383l110 105 18-18.2-140.6-135.8-133.2 135.8 18 18.2 102.2-104.8c-0.6 197-161 357.2-358.2 357.2-197.6 0-358.4-160.8-358.4-358.4 0-197.6 160.8-358.4 358.4-358.4 157.2 0 291 102 339 243.2l24.8-7c-51.2-152.2-194.6-261.8-363.8-261.8-212 0-384 172-384 384s172 384 384 384z" />
<glyph unicode="&#xe6b1;" d="M547 421.6c20.2 13.4 46.2 30.4 89 61 37.2 26.4 99.8 72.8 99.8 194.8 0 98.6-57.4 186.6-57.4 186.6h-332.6c0 0-57.6-88.8-57.6-187.6 0-122 62.4-168.2 99.4-194.6 42.8-30.4 70-49.2 87.4-60.6 10-6.6 19-27 19-36v-321.2h-144v-32h320v32h-144v321.4c0 10 11.2 29.6 21 36.2zM364.2 832h295.8c14.8 0 44-89 44-154.6 0-1.8 0-3.6 0-5.4h-383.8c0 1.4 0 3 0 4.4 0 65.8 29.2 129.6 44 155.6zM512.2 448c-11.4 0-22 3-31.4 8.2-15.8 10.6-39.8 27-74.6 51.8-15.2 10.8-38 27.2-55.6 53.4-14.8 22.2-24.2 48-28.2 78.4h379.2c-10.8-79.8-55.6-111.6-83.8-131.6-30-21.4-51.4-36.6-68.6-48.4-10.4-7.4-23.2-11.8-37-11.8z" />
<glyph unicode="&#xe6b2;" d="M544 416v32 96h-64v-96-32h-128v-64h128v-32-96h64v96 32h128v64h-96zM672 704v64c-1 36.4-27.2 64-64.4 64h-198.2c-37.2 0-57.4-27.4-57.4-64v-64h-256v-640h832v640h-256zM384 763.8c0 20.4 5.8 36.2 27.4 36.2h194.2c20.8 0 34.4-15.4 34.4-36.2v-59.8h-256v59.8zM704 320h-128v-128h-128v128h-128v128h128v128h128v-128h128v-128z" />
<glyph unicode="&#xe6b3;" d="M544 544v-96-32h128v-64h-128v-32-96h-64v96 32h-128v64h128v32 96h64M576 576h-128v-128h-128v-128h128v-128h128v128h128v128h-128v128 0zM672 704v64c-1 36.4-27.2 64-64.4 64h-198.2c-37.2 0-57.4-27.4-57.4-64v-64h-256v-640h832v640h-256zM384 763.8c0 20.4 5.8 36.2 27.4 36.2h194.2c20.8 0 34.4-15.4 34.4-36.2v-59.8h-256v59.8zM896 96h-768v576h768v-576z" />
<glyph unicode="&#xe6b4;" d="M832 704v32h-64v-32h-96v59.8 4.2c-1 36.4-27.2 64-64.4 64h-198.2c-37.2 0-57.4-27.4-57.4-64v-4.2-59.8h-96v32h-64v-32h-96v-640h832v640h-96zM384 705v58.8c0 20.4 5.8 36.2 27.4 36.2h194.2c20.8 0 34.4-15.4 34.4-36.2v-58.8-1h-256v1zM896 96h-768v448h768v-448zM896 576h-768v96h64v-32h64v32h512v-32h64v32h64v-96z" />
<glyph unicode="&#xe6b5;" d="M192 736h64v-32h-64v32zM96 544h832v-480h-832v480zM768 736h64v-32h-64v32zM832 704v-64h-64v64h-96v59.8 4.2c-1 36.4-27.2 64-64.4 64h-198.2c-37.2 0-57.4-27.4-57.4-64v-4.2-59.8h-96v-64h-64v64h-96v-128h832v128h-96zM640 705v-1h-256v1 58.8c0 20.4 5.8 36.2 27.4 36.2h194.2c20.8 0 34.4-15.4 34.4-36.2v-58.8z" />
<glyph unicode="&#xe6b6;" d="M384 640c0-35.346-28.654-64-64-64s-64 28.654-64 64c0 35.346 28.654 64 64 64 35.346 0 64-28.654 64-64zM877.6 381.2l-408 427.6c-15.2 15.2-35.2 23-55 23.2h-223c-35.2 0-63.6-28.4-63.6-63.6v-216.2c0-21.6 8.6-41 22.6-55.4l428-414.4c12.2-12.2 28.6-18.4 45-18.4 16.2 0 32.6 6 45 18.4l209 208.8c12.4 12.4 18.4 28.6 18.4 45s-6.2 32.8-18.4 45zM320 544c-53 0-96 43-96 96s43 96 96 96 96-43 96-96-43-96-96-96z" />
<glyph unicode="&#xe6b7;" d="M414.2 800c12.2-0.2 23.8-5 32.4-13.6l408.2-427.6c5.8-5.8 9-13.8 9-22.4s-3.2-16.4-9-22.2l-208.8-209.2c-5.8-5.8-13.8-9-22.2-9-8.6 0-16.6 3.2-22.4 9l-0.4 0.4-427.8 414.2c-8.6 9-13.2 20.6-13.2 32.8v216c0 17.4 14.2 31.6 31.6 31.6h222.6M414.4 832h-222.8c-35.2 0-63.6-28.4-63.6-63.6v-216.2c0-21.6 8.6-41 22.6-55.4l428-414.4c12.2-12.2 28.6-18.4 45-18.4 16.2 0 32.6 6 45 18.4l209 208.8c12.4 12.4 18.4 28.6 18.4 45s-6.2 32.8-18.4 45l-408 427.6c-15.4 15.2-35.2 23-55.2 23.2v0zM320 704c35.4 0 64-28.6 64-64s-28.6-64-64-64-64 28.6-64 64 28.6 64 64 64M320 736c-53 0-96-43-96-96s43-96 96-96 96 43 96 96-43 96-96 96v0z" />
<glyph unicode="&#xe6b8;" d="M512.2 832c-247.6 0-448.2-197.4-448.2-442 0-128.6 55.8-244 144.2-326h607.6c88.4 82 144.2 197.4 144.2 326 0 244.6-200.2 442-447.8 442zM556.4 375.8c-0.8-0.8-1.6-1.6-2.4-2.4-9.8-12.2-24.8-20-41.8-20-29.8 0-53.8 23.8-53.8 53.2 0 15.6 7 29.4 17.8 39.2 1.4 1.6 2.6 3.2 4.8 4.8l218.4 135.2 20-21.6-163-188.4zM807.2 101l-4.8-5-29.8 30-38.4 38.4 21 20.8 47.2-46.4c29.6 31.8 45.4 60.6 62.8 99 19.4 42.4 30.4 86.2 33 134.2h-58.2v30h58.8c-1.2 46-11.2 94-30.2 138-17.2 40-41 75.6-70.6 107.6l-51.8-51.4-10.2 10.2-10 9.6-1 1 51.8 51.4c-33.4 31-72 55.4-114.2 73-43.2 18-88.4 26.4-136.4 27.8v-69.2h-28v69.4c-48-1.4-93-9.8-136.2-27.8-42.4-17.6-81.2-42.2-114.8-73.4l51.6-51.2-1-1-20-19.6-51.8 51.2c-29.6-32-53.4-68-70.6-107.8-19-44-29.2-92-30.2-138h58.8v-30h-58.4c2.6-48 13.6-91.8 33-134.2 17.6-38.4 33.2-67.4 62.8-99.2l47 46.4 21.2-20.8-38.4-38-29.6-29.8-1.2 1.2c-81.6 74.6-125 193.6-125 293.2 0 0.2 0 0.4 0 0.6 0 0.2 0 0.6 0 0.6 0 168.4 107.6 315.2 251.8 376.2 50.4 21.4 106.6 32 165 32 0 0 0 0 0 0s0 0 0 0 0 0 0 0c58-0.2 115.8-10.4 165.8-32 145.6-62.8 250.6-208.2 250.6-376.6 0-0.2 0-0.4 0-0.6 0-0.2 0-0.4 0-0.6 0-116.2-50.6-218.8-121.4-289.2z" />
<glyph unicode="&#xe6b9;" d="M960 390c0 244.2-199.4 441.4-446.4 442-0.4 0-1 0-1.4 0 0 0 0 0 0 0 0 0 0 0 0 0-247.6 0-448.2-197.4-448.2-442 0-0.2 0-0.4 0-0.4 0-0.2 0-0.4 0-0.6 0-128 55.2-243 143-323.8l1-1 73.2 73.2-22.6 22.6-50.6-50.6c-31.6 34.4-57.2 72-76 113.6-20.8 46-32.8 94.8-35.4 145h63.4v32h-63.8c1.2 52 12.2 102.6 32.6 150.2 18.4 43.2 44 82.6 75.8 117.2l55.4-55.4 11 11 10.6 10.4 1 1-55.6 55.6c36 33.6 77.4 60.4 123 79.4 46.4 19.4 95.4 28.6 146 30.2v-73.6h32v73.8c50.6-1.6 99.8-10.6 146.2-30.2 45.4-19 86.6-45.6 122.6-79.2l-55.8-55.8 1-1 10.6-10.4 11-11 55.8 55.8c32-34.6 57.6-74 76-117.4 20.4-47.8 31.2-98.2 32.4-150.4h-63.8v-32h63.4c-2.8-50.2-14.6-99.2-35.4-145-19-41.6-44.6-79.2-76.2-113.6l-50.8 50.4-22.6-22.6 73.4-73.2 5.2 5c85.4 80.6 139.2 194 139.2 320 0 0.2 0 0.4 0 0.6-0.2-0.2-0.2 0-0.2 0.2zM480.8 450.6c-2.2-1.6-3.4-3.2-4.8-4.8-10.8-9.8-17.8-23.6-17.8-39.2 0-29.4 24.2-53.2 53.8-53.2 17 0 32 7.8 41.8 20 0.8 0.8 1.8 1.6 2.4 2.4l162.8 188.4-20 21.6-218.2-135.2z" />
<glyph unicode="&#xe6ba;" d="M800 614.2c0 155.6-132.2 281.8-288 281.8-155.8 0-288-126.2-288-282 0-62 26.4-118 60.4-166h-0.6c21.8-30 42.8-55.4 63-90 44-75.6 37.2-148.6 37.4-163.2v-2.8h64v256l-64 128h33.2l62.8-128v-256h64v256l62.8 128h33l-64-128v-256h64v2.8c0 17.8-7.2 87.6 36.8 163.2 20.2 34.6 41.2 60 63 90h-0.2c34 48 60.4 104 60.4 166.2zM448 32h128v-32h-128v32zM416 96h192v-32h-192v32zM416 160h192v-32h-192v32z" />
<glyph unicode="&#xe6bb;" d="M800 614.2c0 155.6-132.2 281.8-288 281.8-155.8 0-288-126.2-288-282 0-62 26.4-118 60.4-166h-0.6c21.8-30 42.8-55.4 63-90 44-75.6 37.2-148.6 37.4-163.2v-2.8h256v2.8c0 17.8-7.2 87.6 36.8 163.2 20.2 34.6 41.2 60 63 90h-0.2c33.8 48 60.2 104 60.2 166.2zM702 451.2c-1.2-1.6-2.2-3-3.4-4.6-16.2-21.8-33-44.4-49.4-72.2-34.6-59.4-40.8-115.8-41.6-150.2h-31.6v223.8l64 128h-33.2l-62.8-128v-224h-64v224l-62.8 128h-33.2l64-128v-224h-31.8c-1 34.4-7.8 91.4-41.8 150-9 15.4-18.2 30-27.4 42h0.4l-37.2 51.2c-31.6 43.2-54.2 94.2-54.2 147.2 0 66.8 32 129.6 79.2 176.8s110 73.4 176.8 73.4c66.8 0 129.6-26.2 176.8-73.4 47.2-47.2 79.2-110 79.2-176.8 0-53-22.6-103.8-54.2-147l-11.8-16.2zM448 32h128v-32h-128v32zM416 96h192v-32h-192v32zM416 160h192v-32h-192v32z" />
<glyph unicode="&#xe6bc;" d="M736 832h-448c-35.4 0-64-28.6-64-64v-640c0-35.4 28.6-64 64-64h448c35.4 0 64 28.6 64 64v640c0 35.4-28.6 64-64 64zM720 400v-256h-96v256h96zM720 560v-96h-96v96h96zM560 240v-96h-96v96h96zM560 400v-96h-96v96h96zM560 560v-96h-96v96h96zM400 240v-96h-96v96h96zM400 400v-96h-96v96h96zM400 560v-96h-96v96h96zM304 656v96h416v-96h-416z" />
<glyph unicode="&#xe6bd;" d="M288 640h448v128h-448v-128zM320 736h384v-64h-384v64zM736 832h-448c-35.4 0-64-28.6-64-64v-640c0-35.4 28.6-64 64-64h448c35.4 0 64 28.6 64 64v640c0 35.4-28.6 64-64 64zM768 128c0-17.6-14.4-32-32-32h-448c-17.6 0-32 14.4-32 32v640c0 17.6 14.4 32 32 32h448c17.6 0 32-14.4 32-32v-640zM320 480v64 32h-32v-128h128v32h-32zM320 320v64 32h-32v-128h128v32h-32zM320 160v64 32h-32v-128h128v32h-32zM480 480v64 32h-32v-128h128v32h-32zM640 480v64 32h-32v-128h128v32h-32zM480 320v64 32h-32v-128h128v32h-32zM480 160v64 32h-32v-128h128v32h-32zM640 160v64 192h-32v-288h128v32h-32z" />
<glyph unicode="&#xe6be;" d="M816 464h-569.4l132.6 148.8c5.8 6.8 6.4 16.2 0.2 22.4s-17 6.6-22.8 0.2l-160-176c-0.4-0.4-0.8-0.8-1-1.2-0.2-0.2-0.2-0.4-0.4-0.6-0.2-0.2-0.4-0.4-0.6-0.8-0.2-0.2-0.2-0.4-0.4-0.6-0.2-0.2-0.2-0.4-0.4-0.6-0.2-0.2-0.2-0.4-0.4-0.8-0.2-0.2-0.2-0.4-0.4-0.6 0-0.2-0.2-0.4-0.2-0.8 0-0.2-0.2-0.6-0.2-0.8 0-0.2-0.2-0.4-0.2-0.8 0-0.2-0.2-0.6-0.2-0.8 0-0.2 0-0.6-0.2-0.8 0-0.2 0-0.4 0-0.6-0.2-1-0.2-2.2 0-3.2 0-0.2 0-0.4 0-0.6 0-0.2 0-0.6 0.2-0.8 0-0.2 0.2-0.6 0.2-0.8 0-0.2 0.2-0.4 0.2-0.8 0-0.2 0.2-0.6 0.2-0.8 0-0.2 0.2-0.4 0.2-0.8 0-0.2 0.2-0.4 0.4-0.6 0.2-0.2 0.2-0.4 0.4-0.8 0.2-0.2 0.2-0.4 0.4-0.6 0.2-0.2 0.2-0.4 0.4-0.6 0.2-0.2 0.4-0.4 0.6-0.8 0.2-0.2 0.2-0.4 0.4-0.6 0.4-0.4 0.6-0.8 1-1.2l160-176c3.2-3.4 7.2-4.6 11.4-4.6s8.2 1.6 11.4 4.6c6.2 6.2 6 16 0 22.6l-132.8 148.8h569.4c8.8 0 16 7.2 16 16 0 8.8-7.2 16-16 16z" />
</font>
</defs>
</svg>
