<?xml version="1.0" standalone="no"?>
<!DOCTYPE svg PUBLIC "-//W3C//DTD SVG 1.1//EN" "http://www.w3.org/Graphics/SVG/1.1/DTD/svg11.dtd" >
<svg xmlns="http://www.w3.org/2000/svg">
<metadata></metadata>
<defs>
<font id="roboto_slabthin" horiz-adv-x="1472" >
<font-face units-per-em="2048" ascent="1638" descent="-410" />
<missing-glyph horiz-adv-x="490" />
<glyph unicode="fi" horiz-adv-x="1183" d="M96 54h163v973h-188v55h188v158q0 163 85.5 252t237.5 89q67 0 135 -13.5t133 -43.5l-8 -52q-66 29 -121.5 42t-137.5 13q-126 0 -198 -76t-72 -211v-158h626v-1028h163v-54h-380v54h163v973h-572v-973h163v-54h-380v54z" />
<glyph unicode="&#xfb02;" horiz-adv-x="1303" d="M784 54h163v1419q-68 27 -139 40.5t-165 13.5q-169 0 -249.5 -79t-80.5 -228v-138h304v-55h-304v-973h163v-54h-380v54h163v973h-170v55h170v138q0 172 101.5 266.5t281.5 94.5q88 0 179.5 -17.5t174.5 -56.5h5v-1453h163v-54h-380v54z" />
<glyph horiz-adv-x="0" />
<glyph unicode="&#x9;" horiz-adv-x="0" />
<glyph unicode=" "  horiz-adv-x="490" />
<glyph unicode="&#x09;" horiz-adv-x="490" />
<glyph unicode="&#xa0;" horiz-adv-x="490" />
<glyph unicode="!" horiz-adv-x="437" d="M217 478h-54v978h54v-978zM238 0h-95v134h95v-134z" />
<glyph unicode="&#x22;" horiz-adv-x="665" d="M226 1393l-10 -271h-50l5 268v170h55v-167zM407 1393l-10 -271h-50l6 268v170h54v-167z" />
<glyph unicode="#" horiz-adv-x="1246" d="M754 410h-364l-74 -410h-56l74 410h-271v52h281l95 524h-300v54h310l75 416h56l-76 -416h365l76 416h56l-76 -416h254v-54h-264l-96 -524h285v-52h-294l-75 -410h-56zM400 462h363l96 524h-365z" />
<glyph unicode="$" horiz-adv-x="1086" d="M903 344q0 130 -79 205.5t-292 152.5q-215 71 -311.5 156t-96.5 252q0 160 104.5 259.5t281.5 106.5v187h55v-187q181 -10 281.5 -120.5t97.5 -303.5l-2 -5h-47q0 166 -95 271.5t-265 105.5q-174 0 -265.5 -91.5t-91.5 -220.5q0 -131 73.5 -208t297.5 -150 q210 -73 309 -158t99 -250q0 -161 -104 -258.5t-277 -107.5v-188h-55v187q-189 6 -316 108t-122 316l2 6h46q0 -199 121.5 -288t289.5 -89q163 0 262 92t99 220z" />
<glyph unicode="%" horiz-adv-x="1457" d="M77 1176q0 126 76 213.5t196 87.5q119 0 195 -87.5t76 -213.5v-77q0 -126 -75.5 -212.5t-193.5 -86.5q-122 0 -198 86.5t-76 212.5v77zM132 1099q0 -100 56.5 -172t162.5 -72q102 0 158 72t56 172v77q0 100 -56.5 173t-159.5 73t-160 -73.5t-57 -172.5v-77zM833 357 q0 125 75.5 212.5t195.5 87.5t196 -87t76 -213v-78q0 -126 -75.5 -213t-194.5 -87q-121 0 -197 87t-76 213v78zM888 279q0 -101 56 -173t162 -72q103 0 159 72t56 173v78q0 106 -56 175.5t-161 69.5q-103 0 -159.5 -70t-56.5 -175v-78zM439 131l-45 31l711 1138l45 -31z" />
<glyph unicode="&#x26;" horiz-adv-x="1253" d="M381 803q-82 103 -121 188t-39 176q0 149 81.5 229.5t223.5 80.5q132 0 204 -72t72 -190q0 -84 -38.5 -142.5t-108.5 -114.5l-202 -161l475 -540q54 76 84.5 171t30.5 204h55q0 -125 -35 -227.5t-98 -188.5l185 -211l-2 -5h-60l-157 177l-8 -8t-4 -5q-90 -89 -188.5 -137 t-222.5 -48q-202 0 -318 100.5t-116 272.5q0 114 67.5 211t188.5 199zM508 33q110 0 211 47.5t177 135.5l-449 509q-8 8 -15.5 17t-18.5 22l-52 -41q-137 -118 -185 -205.5t-48 -165.5q0 -134 98 -226.5t282 -92.5zM276 1169q0 -79 35 -163t110 -172l209 166q60 50 88 103.5 t28 111.5q0 94 -56.5 151t-163.5 57q-120 0 -185 -72.5t-65 -181.5z" />
<glyph unicode="'" horiz-adv-x="421" d="M236 1391l-20 -269h-50l15 267v171h55v-169z" />
<glyph unicode="(" horiz-adv-x="615" d="M114 586q0 338 120.5 632.5t290.5 397.5h6l16 -36q-153 -101 -266 -387.5t-113 -602.5v-26q0 -317 113 -603.5t266 -387.5l-16 -36h-6q-172 105 -291.5 390.5t-119.5 638.5v20z" />
<glyph unicode=")" horiz-adv-x="608" d="M444 566q0 -353 -120 -638.5t-291 -390.5h-6l-16 36q152 101 265.5 387.5t113.5 603.5v26q0 316 -113.5 602.5t-265.5 387.5l16 36h6q169 -103 290 -397.5t121 -632.5v-20z" />
<glyph unicode="*" horiz-adv-x="948" d="M429 1017l-363 124l18 54l362 -133l1 394h56l-7 -395l352 143l20 -53l-360 -137l249 -317l-47 -33l-242 322l-228 -325l-45 32z" />
<glyph unicode="+" horiz-adv-x="1145" d="M590 702h481v-53h-481v-503h-55v503h-462v53h462v504h55v-504z" />
<glyph unicode="," horiz-adv-x="383" d="M235 27q0 -88 -28 -158t-78 -124l-37 32q46 61 67.5 117.5t21.5 130.5v134h54v-132z" />
<glyph unicode="-" horiz-adv-x="789" d="M624 599h-470v54h470v-54z" />
<glyph unicode="." horiz-adv-x="444" d="M231 0h-86v130h86v-130z" />
<glyph unicode="/" horiz-adv-x="776" d="M59 -125h-59l608 1581h59z" />
<glyph unicode="0" horiz-adv-x="1150" d="M1008 574q0 -285 -115.5 -440t-326.5 -155t-328 155.5t-117 439.5v308q0 284 116 439.5t327 155.5t327.5 -155.5t116.5 -439.5v-308zM954 882q0 254 -100 397.5t-290 143.5t-289.5 -143.5t-99.5 -397.5v-306q0 -252 100.5 -397.5t290.5 -145.5q189 0 288.5 145t99.5 398 v306z" />
<glyph unicode="1" horiz-adv-x="821" d="M108 54h293v1352l-338 -76v50l392 84v-1410h293v-54h-640v54z" />
<glyph unicode="2" horiz-adv-x="1104" d="M106 0v54l477 550q136 157 198.5 271t62.5 211q0 159 -88 248t-257 89q-179 0 -277 -105t-98 -272h-46l-2 6q-5 177 111.5 301t311.5 124q181 0 290.5 -102.5t109.5 -288.5q0 -121 -78.5 -247t-221.5 -293l-417 -487l2 -5h739v239h54v-293h-871z" />
<glyph unicode="3" horiz-adv-x="1098" d="M383 771h111q183 0 288 91t105 224q0 147 -90.5 242t-266.5 95q-162 0 -269 -95t-107 -253h-46l-2 6q-5 177 118.5 286.5t305.5 109.5q188 0 299.5 -106.5t111.5 -288.5q0 -115 -72.5 -206t-195.5 -131q142 -35 221 -127t79 -232q0 -190 -121 -298.5t-313 -108.5 q-185 0 -327 109.5t-137 310.5l2 6h46q0 -162 118.5 -267t297.5 -105q180 0 280 92.5t100 256.5q0 170 -114.5 251.5t-310.5 81.5h-111v56z" />
<glyph unicode="4" horiz-adv-x="1170" d="M823 451h252v-54h-252v-343h163v-54h-380v54h163v343h-706v30l695 1029h65v-1005zM147 451h622v929l-6 2l-78 -129z" />
<glyph unicode="5" horiz-adv-x="1061" d="M834 1265v138h-597l-61 -618q63 63 137.5 95t219.5 36q174 5 287 -119t113 -333q0 -223 -105 -354t-325 -131q-177 0 -294 100.5t-112 297.5l2 6h47q0 -172 96 -261t261 -89q194 0 284.5 107t90.5 322q0 184 -90.5 290t-253.5 106q-160 0 -251.5 -53.5t-131.5 -158.5 l-41 16l78 794h700v-191h-54z" />
<glyph unicode="6" horiz-adv-x="1107" d="M574 1477q76 0 148.5 -16.5t136.5 -53.5l-21 -51q-66 38 -122.5 52.5t-141.5 14.5q-175 0 -287 -134.5t-112 -407.5v-175q47 109 150.5 180t239.5 71q197 0 309 -136t112 -361q0 -207 -121.5 -344t-309.5 -137q-193 0 -313.5 150t-120.5 423v328q0 292 128 444.5 t325 152.5zM175 556v-3q0 -248 104 -384.5t276 -136.5q167 0 272 126t105 302q0 202 -96 322.5t-278 120.5q-153 0 -267.5 -102.5t-114.5 -244.5h-1z" />
<glyph unicode="7" horiz-adv-x="1104" d="M1006 1402q-215 -250 -365.5 -570.5t-195.5 -740.5l-6 -91h-54l6 91q43 394 183.5 719t366.5 592h-811v-239h-54v293h930v-54z" />
<glyph unicode="8" horiz-adv-x="1123" d="M978 1086q0 -122 -74.5 -213t-195.5 -128q139 -38 225.5 -136t86.5 -230q0 -192 -130.5 -296t-332.5 -104q-206 0 -335.5 104t-129.5 296q0 133 84.5 231t224.5 135q-122 37 -195 127.5t-73 213.5q0 184 118.5 287.5t303.5 103.5q183 0 303 -104t120 -287zM965 374 q0 154 -118 249t-292 95q-177 0 -293 -95t-116 -249q0 -161 115 -251t296 -90q176 0 292 90.5t116 250.5zM924 1091q0 143 -107 237.5t-262 94.5q-161 0 -264.5 -90.5t-103.5 -241.5q0 -146 104 -232.5t266 -86.5q157 0 262 87t105 232z" />
<glyph unicode="9" horiz-adv-x="1125" d="M501 33q188 0 293.5 138t105.5 407v123q-56 -109 -158.5 -171t-229.5 -62q-188 0 -308 143.5t-120 346.5q0 215 123 367t313 152q200 0 321 -136t121 -418v-343q0 -299 -124 -450t-337 -151q-78 0 -156 16t-157 47l16 57q75 -34 143 -50t154 -16zM512 521q148 0 248 85.5 t140 204.5v111q0 256 -102.5 378.5t-273.5 122.5q-168 0 -273 -140t-105 -325q0 -178 100 -307.5t266 -129.5z" />
<glyph unicode=":" horiz-adv-x="364" d="M118 0zM204 0h-86v130h86v-130zM204 949h-86v130h86v-130z" />
<glyph unicode=";" horiz-adv-x="364" d="M76 0zM211 952h-86v130h86v-130zM219 27q0 -88 -28 -158t-78 -124l-37 32q46 61 67.5 117.5t21.5 130.5v134h54v-132z" />
<glyph unicode="&#x3c;" horiz-adv-x="1027" d="M252 577l-119 -37v-6l119 -36l661 -303v-59l-837 379v50l837 378v-58z" />
<glyph unicode="=" horiz-adv-x="1127" d="M981 843h-834v54h834v-54zM981 436h-834v54h834v-54z" />
<glyph unicode="&#x3e;" horiz-adv-x="1052" d="M125 886v58l836 -378v-50l-836 -379v59l660 307l118 36v6l-118 37z" />
<glyph unicode="?" horiz-adv-x="901" d="M362 400q1 117 20.5 165.5t104.5 126.5q121 116 174 197.5t53 222.5q0 146 -78 229t-221 83q-142 0 -220 -84.5t-81 -223.5h-46l-3 6q-2 170 96.5 262.5t253.5 92.5q164 0 258.5 -101t94.5 -266q0 -141 -62.5 -243t-190.5 -217q-69 -53 -84 -101.5t-15 -148.5h-54zM440 0 h-82v106h82v-106z" />
<glyph unicode="@" horiz-adv-x="1799" d="M1724 523q-10 -219 -114 -381.5t-296 -162.5q-83 0 -135 61t-61 169q-55 -114 -139 -172t-193 -58q-136 0 -203 119t-48 318q23 250 144 401t293 151q83 0 135 -27.5t115 -82.5l-49 -565q-11 -152 36.5 -205.5t107.5 -53.5q158 0 248.5 134.5t101.5 354.5 q20 396 -154 613.5t-559 217.5q-336 0 -564.5 -239.5t-248.5 -636.5q-20 -383 174.5 -629.5t551.5 -246.5q87 0 177.5 22t152.5 58l24 -46q-62 -40 -164 -64.5t-194 -24.5q-380 0 -588 249.5t-189 681.5q18 427 255.5 680t616.5 253q402 0 592.5 -234t173.5 -654zM589 416 q-19 -167 31.5 -275t163.5 -108q108 0 194 66.5t144 245.5l42 486q-34 39 -82.5 60.5t-112.5 21.5q-142 0 -248 -126.5t-132 -370.5z" />
<glyph unicode="A" d="M55 54h107l524 1402h66l525 -1402h107v-54h-309v54h143l-143 381h-712l-142 -381h143v-54h-309v54zM383 489h672l-305 820l-28 82h-6l-27 -82z" />
<glyph unicode="B" horiz-adv-x="1303" d="M617 1456q226 0 351 -93t125 -280q0 -130 -67 -219t-189 -111q136 -18 229 -119t93 -233q0 -191 -123.5 -296t-326.5 -105h-638v54h163v1348h-163v54h163h383zM288 719v-665h421q184 0 290 91t106 254q0 134 -101.5 227t-284.5 93h-431zM288 773h349q199 0 300 77.5 t101 236.5q0 156 -106.5 235.5t-314.5 79.5h-329v-629z" />
<glyph unicode="C" horiz-adv-x="1373" d="M1256 992h-55v234q-67 90 -179 143.5t-255 53.5q-259 0 -421 -189t-162 -495v-20q0 -307 161 -496.5t412 -189.5q144 0 261 53.5t183 143.5v234h55v-254q-73 -107 -206 -169t-293 -62q-277 0 -452 205.5t-175 534.5v18q0 330 176 535t461 205q158 0 286.5 -62t202.5 -169 v-254z" />
<glyph unicode="D" horiz-adv-x="1386" d="M637 1456q251 0 426 -180t175 -459v-178q0 -280 -175 -459.5t-426 -179.5h-566v54h163v1348h-163v54h163h403zM288 1402v-1348h349q227 0 387 166t160 419v181q0 250 -160 416t-387 166h-349z" />
<glyph unicode="E" horiz-adv-x="1270" d="M71 0v54h163v1348h-163v54h1049v-293h-54v239h-778v-616h630v-54h-630v-678h778v239h54v-293h-1049z" />
<glyph unicode="F" horiz-adv-x="1246" d="M71 54h163v1348h-163v54h1065v-293h-54v239h-794v-630h646v-56h-646v-662h163v-54h-380v54z" />
<glyph unicode="G" horiz-adv-x="1449" d="M1248 156q-46 -64 -176.5 -120.5t-320.5 -56.5q-277 0 -449 205.5t-172 535.5v38q0 319 173 519t451 200q166 0 294.5 -57.5t204.5 -163.5v-244h-54l1 224q-69 89 -182 138t-264 49q-257 0 -413.5 -185t-156.5 -478v-40q0 -305 155.5 -496t411.5 -191q161 0 281.5 47 t161.5 101v384h-315v55h369v-464z" />
<glyph unicode="H" horiz-adv-x="1506" d="M71 1402v54h380v-54h-163v-653h930v653h-163v54h163h54h163v-54h-163v-1348h163v-54h-380v54h163v641h-930v-641h163v-54h-380v54h163v1348h-163z" />
<glyph unicode="I" horiz-adv-x="598" d="M109 1402v54h380v-54h-163v-1348h163v-54h-380v54h163v1348h-163z" />
<glyph unicode="J" horiz-adv-x="1137" d="M1043 1402h-163v-980q0 -203 -114.5 -323t-294.5 -120q-200 0 -315 106t-110 310l2 6h46q0 -178 97 -273t280 -95q153 0 254 105t101 284v980h-163v54h380v-54z" />
<glyph unicode="K" horiz-adv-x="1388" d="M71 54h163v1348h-163v54h380v-54h-163v-638h238l565 633l-2 5h-168v54h361v-54h-115l-596 -672l639 -676h118v-54h-361v54h163l3 6l-622 651h-223v-657h163v-54h-380v54z" />
<glyph unicode="L" horiz-adv-x="1161" d="M71 0v54h163v1348h-163v54h163h55h163v-54h-163v-1348h693v239h54v-293h-965z" />
<glyph unicode="M" horiz-adv-x="1824" d="M932 0h-43l-595 1356l-6 -2v-1300h163v-54h-380v54h163v1348h-163v54h163h77l596 -1370h6l598 1370h242v-54h-163v-1348h163v-54h-380v54h163v1307l-6 2z" />
<glyph unicode="N" horiz-adv-x="1517" d="M1446 1456v-54h-163v-1402h-54l-934 1356l-6 -2v-1300h163v-54h-381v54h163v1348h-163v54h163h55l934 -1353l6 2v1297h-163v54h217h163z" />
<glyph unicode="O" horiz-adv-x="1488" d="M1348 719q0 -336 -168.5 -538t-439.5 -202q-272 0 -441 202.5t-169 537.5v18q0 335 168 537.5t440 202.5q271 0 440.5 -202.5t169.5 -537.5v-18zM1294 739q0 309 -151.5 496.5t-404.5 187.5q-252 0 -402.5 -187.5t-150.5 -496.5v-20q0 -311 151 -498.5t404 -187.5 t403.5 187.5t150.5 498.5v20z" />
<glyph unicode="P" horiz-adv-x="1255" d="M639 1456q226 0 348 -113.5t122 -301.5q0 -190 -121.5 -303t-348.5 -113h-351v-571h163v-54h-380v54h163v1348h-163v54h163h405zM288 679h351q207 0 311.5 103t104.5 257q0 158 -104 260.5t-312 102.5h-351v-723z" />
<glyph unicode="Q" horiz-adv-x="1478" d="M1348 719q0 -232 -83.5 -404.5t-231.5 -258.5l310 -221l-39 -38l-325 231q-55 -25 -115 -37t-124 -12q-272 0 -441 202.5t-169 537.5v18q0 335 168 537.5t440 202.5q271 0 440.5 -202.5t169.5 -537.5v-18zM1294 739q0 309 -151.5 496.5t-404.5 187.5 q-252 0 -402.5 -187.5t-150.5 -496.5v-20q0 -311 151 -498.5t404 -187.5t403.5 187.5t150.5 498.5v20z" />
<glyph unicode="R" horiz-adv-x="1364" d="M648 1455q230 0 354 -99.5t124 -290.5q0 -123 -78.5 -223.5t-214.5 -130.5q157 -27 225 -115t68 -225v-147q0 -86 29.5 -128t87.5 -42h51v-54h-51q-97 0 -134 65.5t-37 160.5v143q0 148 -101.5 231t-289.5 83h-393v-630h163v-54h-380v54h163v1348h-163v54h163h414z M288 737h350q223 0 328.5 94t105.5 234q0 163 -106.5 249.5t-317.5 86.5h-360v-664z" />
<glyph unicode="S" horiz-adv-x="1198" d="M1077 1022h-54v204q-64 97 -171.5 147t-254.5 50q-198 0 -313.5 -88.5t-115.5 -212.5t95.5 -206t345.5 -146q242 -64 365.5 -156.5t123.5 -262.5q0 -173 -141 -272.5t-353 -99.5q-146 0 -280.5 54.5t-223.5 170.5v240h54v-217q78 -102 199 -148t251 -46q192 0 315.5 88 t123.5 228q0 137 -100.5 219t-348.5 150q-249 67 -364.5 152.5t-115.5 249.5q0 163 136 260t347 97q164 0 286.5 -56.5t193.5 -169.5v-229z" />
<glyph unicode="T" horiz-adv-x="1277" d="M1194 1456v-293h-54v239h-476v-1348h163v-54h-380v54h163v1348h-476v-239h-54v293h1114z" />
<glyph unicode="U" horiz-adv-x="1441" d="M440 1456v-54h-163v-933q0 -205 124 -320.5t320 -115.5q195 0 319 115.5t124 320.5v933h-163v54h217h163v-54h-163v-933q0 -238 -138 -364t-359 -126q-223 0 -360.5 126.5t-137.5 363.5v933h-163v54h163h54h163z" />
<glyph unicode="V" horiz-adv-x="1442" d="M366 1402h-143l469 -1260l26 -79h6l26 79l469 1260h-143v54h309v-54h-107l-524 -1402h-66l-524 1402h-107v54h309v-54z" />
<glyph unicode="W" horiz-adv-x="1960" d="M367 1402h-150l269 -1072l63 -229h6l63 229l364 1126h60l362 -1126l62 -229h6l65 229l266 1072h-149v54h309v-54h-101l-358 -1402h-61l-381 1214l-48 145h-6l-46 -145l-384 -1214h-61l-359 1402h-101v54h310v-54z" />
<glyph unicode="X" horiz-adv-x="1391" d="M63 54h115l486 689l-466 659h-115v54h338v-54h-156l432 -617l433 617h-155v54h337v-54h-115l-465 -659l486 -689h115v-54h-337v54h155l-454 647l-453 -647h155v-54h-336v54z" />
<glyph unicode="Y" horiz-adv-x="1429" d="M371 1402h-131l449 -755l26 -50l27 50l451 755h-131v54h316v-54h-120l-514 -849v-499h163v-54h-381v54h163v499l-515 849h-119v54h316v-54z" />
<glyph unicode="Z" horiz-adv-x="1220" d="M166 54h908v239h54v-293h-1036v44l929 1359h-835v-240h-54v293h964v-38z" />
<glyph unicode="[" horiz-adv-x="527" d="M440 1610h-229v-1868h229v-54h-283v1976h283v-54z" />
<glyph unicode="\" horiz-adv-x="784" d="M36 1456h58l608 -1581h-58z" />
<glyph unicode="]" horiz-adv-x="505" d="M23 1664h283v-1976h-283v54h228v1868h-228v54z" />
<glyph unicode="^" horiz-adv-x="828" d="M130 729h-59l299 727h52l299 -727h-61l-222 543l-40 114h-6l-43 -114z" />
<glyph unicode="_" horiz-adv-x="1134" d="M965 -54h-846v54h846v-54z" />
<glyph unicode="`" horiz-adv-x="546" d="M395 1215l-2 -5h-75l-234 261l2 5h89z" />
<glyph unicode="a" horiz-adv-x="1132" d="M885 0q-13 71 -17.5 106.5t-4.5 76.5v16q-62 -97 -173.5 -158.5t-262.5 -61.5q-150 0 -236.5 81.5t-86.5 213.5q0 146 133 238t357 92h269v158q0 135 -86.5 210.5t-243.5 75.5q-103 0 -192.5 -29t-152.5 -80l-1 -173h-54l1 206q77 57 181.5 93.5t217.5 36.5 q174 0 279 -88t105 -254v-542q0 -42 3.5 -83t11.5 -81h130v-54h-177zM427 32q153 0 266 69t170 191v257h-266q-199 0 -319 -77.5t-120 -201.5q0 -101 74 -169.5t195 -68.5z" />
<glyph unicode="b" horiz-adv-x="1088" d="M984 521q0 -250 -108 -396t-298 -146q-129 0 -223.5 52.5t-147.5 141.5l-7 -173h-45v1506h-163v54h217v-675q54 101 146 159t221 58q191 0 299.5 -151.5t108.5 -408.5v-21zM928 542q0 225 -90 365.5t-261 140.5q-158 0 -244.5 -80.5t-123.5 -197.5v-496 q39 -110 132.5 -175.5t237.5 -65.5q171 0 260 132t89 356v21z" />
<glyph unicode="c" horiz-adv-x="1086" d="M546 33q137 0 242 75t105 225h46l2 -6q4 -159 -116.5 -253.5t-278.5 -94.5q-207 0 -324.5 149t-117.5 392v42q0 242 117 391t323 149q122 0 226 -50.5t167 -136.5v-232h-54v212q-57 70 -143.5 111.5t-195.5 41.5q-190 0 -288 -136t-98 -350v-42q0 -216 98 -351.5 t290 -135.5z" />
<glyph unicode="d" horiz-adv-x="1205" d="M879 173q-53 -89 -147 -141.5t-222 -52.5q-191 0 -298.5 146t-107.5 396v21q0 257 108 408.5t300 151.5q128 0 220 -58.5t147 -160.5v623h-163v54h163h54v-1506h163v-54h-215zM160 521q0 -224 88.5 -356t260.5 -132q141 0 234.5 64t135.5 171v507q-39 116 -126 194.5 t-242 78.5q-172 0 -261.5 -140.5t-89.5 -365.5v-21z" />
<glyph unicode="e" horiz-adv-x="1104" d="M566 -21q-185 0 -319.5 149.5t-134.5 371.5v64q0 233 130 385.5t321 152.5q183 0 298.5 -120t115.5 -322v-83h-811v-13v-64q0 -196 115 -331.5t285 -135.5q121 0 202.5 33t139.5 99l29 -42q-64 -71 -155.5 -107.5t-215.5 -36.5zM563 1048q-161 0 -268 -117.5t-121 -293.5 l3 -6h746v33q0 165 -100 274.5t-260 109.5z" />
<glyph unicode="f" horiz-adv-x="722" d="M114 54h163v973h-188v55h188v178q0 153 74.5 237t208.5 84q33 0 65.5 -4t62.5 -13l-8 -52q-32 8 -56.5 11.5t-62.5 3.5q-108 0 -169 -71t-61 -196v-178h286v-55h-286v-973h163v-54h-380v54z" />
<glyph unicode="g" horiz-adv-x="1140" d="M112 542q0 257 108 408.5t300 151.5q128 0 220.5 -59t146.5 -161l8 200h46v-1068q0 -208 -109.5 -329.5t-299.5 -121.5q-79 0 -164.5 16.5t-149.5 45.5l16 54q73 -32 141 -47.5t155 -15.5q173 0 264.5 106.5t91.5 291.5v157q-54 -88 -147.5 -140t-220.5 -52 q-191 0 -298.5 146t-107.5 396v21zM167 521q0 -224 89 -356t261 -132q144 0 236.5 66t132.5 177v491q-38 119 -123.5 200t-243.5 81q-172 0 -262 -140.5t-90 -365.5v-21z" />
<glyph unicode="h" horiz-adv-x="1278" d="M62 1506v54h217v-706q50 118 147 183t237 65q169 0 256.5 -107t87.5 -337v-604h163v-54h-381v54h163v606q0 213 -78.5 300.5t-209.5 87.5q-175 0 -268 -104.5t-117 -267.5v-622h163v-54h-380v54h163v1452h-163z" />
<glyph unicode="i" horiz-adv-x="609" d="M89 54h163v974h-163v54h217v-1028h163v-54h-380v54zM306 1422h-54v138h54v-138z" />
<glyph unicode="j" horiz-adv-x="555" d="M384 -89q0 -167 -75 -257.5t-210 -90.5q-30 0 -56 5t-56 15l13 52q18 -6 45.5 -12t53.5 -6q110 0 170.5 77t60.5 217v1117h-163v54h217v-1171zM378 1426h-54v134h54v-134z" />
<glyph unicode="k" horiz-adv-x="1152" d="M62 1506v54h217v-953h127l430 415l-2 6h-119v54h321v-54h-122l-447 -439l489 -535h117v-54h-320v54h126l2 5l-454 494h-148v-499h163v-54h-380v54h163v1452h-163z" />
<glyph unicode="l" horiz-adv-x="581" d="M82 1506v54h217v-1506h163v-54h-380v54h163v1452h-163z" />
<glyph unicode="m" horiz-adv-x="1980" d="M89 54h163v974h-163v54h210l7 -223q49 115 141 179t224 64q140 0 227.5 -71.5t120.5 -220.5q43 138 140.5 215.5t243.5 77.5q179 0 272 -117t93 -368v-563h163v-54h-381v54h163v565q0 235 -84 332t-224 97q-172 0 -260 -103.5t-110 -267.5q0 -20 1 -34.5t1 -28.5v-561 h163v-54h-381v54h163v565q0 236 -84 332.5t-225 96.5q-168 0 -255 -98.5t-111 -255.5v-640h163v-54h-381v54z" />
<glyph unicode="n" horiz-adv-x="1320" d="M89 54h163v974h-163v54h209l7 -223q49 116 143 179.5t232 63.5q177 0 265.5 -111.5t88.5 -353.5v-583h163v-54h-380v54h163v585q0 225 -80.5 317t-218.5 92q-175 0 -264 -104.5t-111 -267.5v-622h163v-54h-380v54z" />
<glyph unicode="o" horiz-adv-x="1155" d="M104 562q0 238 131.5 389t341.5 151q211 0 342.5 -151t131.5 -389v-42q0 -239 -131.5 -390t-340.5 -151q-211 0 -343 151t-132 390v42zM158 520q0 -204 114 -345.5t307 -141.5q190 0 304 142t114 345v42q0 199 -115 342.5t-305 143.5q-191 0 -305 -143.5t-114 -342.5v-42 z" />
<glyph unicode="p" horiz-adv-x="1161" d="M65 -362h163v1390h-163v54h205l11 -194q54 100 147 157t221 57q191 0 299.5 -151.5t108.5 -408.5v-21q0 -250 -108 -396t-298 -146q-127 0 -221.5 51t-147.5 138v-530h163v-54h-380v54zM1002 542q0 225 -90.5 365.5t-261.5 140.5q-157 0 -244 -79t-124 -194v-506 q40 -108 134 -172t236 -64q171 0 260.5 132t89.5 356v21z" />
<glyph unicode="q" horiz-adv-x="1136" d="M104 542q0 257 108 408.5t300 151.5q127 0 219.5 -57.5t147.5 -158.5l5 196h49v-1444h163v-54h-380v54h163v532q-54 -88 -148 -139.5t-221 -51.5q-191 0 -298.5 146t-107.5 396v21zM160 521q0 -224 88.5 -356t260.5 -132q143 0 236.5 65.5t133.5 175.5v494 q-38 115 -126 197.5t-242 82.5q-172 0 -261.5 -140.5t-89.5 -365.5v-21z" />
<glyph unicode="r" horiz-adv-x="803" d="M296 1082l10 -188v-37q45 116 134 180.5t219 64.5q23 0 42.5 -3.5t33.5 -7.5l-6 -48l-70 6q-145 0 -235.5 -93.5t-117.5 -246.5v-655h163v-54h-380v54h163v974h-163v54h163h44z" />
<glyph unicode="s" horiz-adv-x="1009" d="M852 753h-54v175q-52 58 -132.5 89t-186.5 31q-152 0 -230 -65.5t-78 -151.5q0 -85 66 -145t262 -105q181 -42 274.5 -114.5t93.5 -202.5q0 -127 -104 -206t-276 -79q-118 0 -217.5 38t-166.5 105v193h54v-163q59 -63 146 -91t184 -28q150 0 238 70t88 162 q0 86 -73.5 156.5t-256.5 110.5q-191 40 -278.5 106.5t-87.5 190.5q0 116 98 194.5t264 78.5q116 0 214.5 -40t158.5 -107v-202z" />
<glyph unicode="t" horiz-adv-x="719" d="M320 1374v-292h266v-55h-266v-748q0 -133 45 -189.5t119 -56.5q32 0 57 2t69 7l10 -49q-30 -8 -61.5 -11t-71.5 -3q-109 0 -165.5 71t-56.5 229v748h-200v55h200v292h55z" />
<glyph unicode="u" horiz-adv-x="1222" d="M918 194q-51 -103 -145.5 -159t-229.5 -56q-167 0 -261.5 118.5t-94.5 367.5v563h-143v54h143h54v-619q0 -220 81 -325t219 -105q169 0 259.5 83t115.5 220v692h-163v54h163h55v-1028h163v-54h-208z" />
<glyph unicode="v" horiz-adv-x="1165" d="M370 1028h-142l313 -799l51 -146h6l52 146l312 799h-142v54h318v-54h-118l-400 -1027l1 -1h-52l-399 1028h-118v54h318v-54z" />
<glyph unicode="w" horiz-adv-x="1687" d="M374 1028h-148l206 -715l56 -222l6 -1l71 223l243 769h55l242 -769l70 -223l6 1l58 222l204 715h-147v54h323v-54h-113l-299 -1028h-54l-267 813l-48 183h-6l-52 -183l-263 -813h-54l-299 1028h-112v54h322v-54z" />
<glyph unicode="x" horiz-adv-x="1192" d="M82 54h126l361 501l-341 473h-126v54h318v-54h-124l307 -426l306 426h-124v54h318v-54h-126l-341 -473l361 -501h126v-54h-317v54h124l-328 454l-327 -454h124v-54h-317v54z" />
<glyph unicode="y" horiz-adv-x="1185" d="M374 1028h-142l335 -832l40 -108h6l6 16l353 924h-142v54h320v-54h-118l-460 -1208q-44 -114 -102.5 -185.5t-186.5 -71.5q-19 0 -42 3.5t-34 7.5l9 51q11 -3 33 -6t34 -3q92 0 143.5 54t91.5 160l65 176l-410 1022h-118v54h319v-54z" />
<glyph unicode="z" horiz-adv-x="1077" d="M120 0v44l711 983h-656v-238h-54v293h783v-48l-711 -980h716v239h54v-293h-843z" />
<glyph unicode="{" horiz-adv-x="693" d="M632 -441q-173 55 -246 173t-73 288v245q0 132 -61 205t-189 73v66q128 0 189 72t61 204v247q0 171 73 290.5t246 174.5l15 -45q-143 -46 -211.5 -155.5t-68.5 -264.5v-247q0 -120 -52 -202t-159 -107q107 -26 159 -109t52 -202v-245q0 -154 70.5 -260t214.5 -155z" />
<glyph unicode="|" horiz-adv-x="405" d="M204 -270h-54v1726h54v-1726z" />
<glyph unicode="}" horiz-adv-x="692" d="M27 -395q143 49 213.5 155t70.5 260v245q0 119 51.5 202t159.5 109q-108 25 -159.5 107t-51.5 202v247q0 155 -68.5 264.5t-210.5 155.5l14 45q172 -55 245.5 -174.5t73.5 -290.5v-247q0 -132 61 -204t189 -72v-66q-128 0 -189 -73.5t-61 -204.5v-245q0 -171 -73 -288.5 t-246 -172.5z" />
<glyph unicode="~" horiz-adv-x="1368" d="M1216 740q0 -121 -75.5 -209t-188.5 -88q-87 0 -158.5 38t-162.5 121q-68 59 -127.5 88.5t-120.5 29.5q-89 0 -146 -68t-57 -190l-59 12q0 128 73.5 214t188.5 86q86 0 158.5 -39.5t164.5 -120.5q67 -62 125 -90t121 -28q86 0 144.5 70.5t58.5 186.5z" />
<glyph unicode="&#xa1;" horiz-adv-x="435" d="M216 -374h-54v978h54v-978zM237 918h-95v164h95v-164z" />
<glyph unicode="&#xa2;" horiz-adv-x="1063" d="M583 33q137 0 242 75t105 225h46l2 -6q4 -146 -99 -238t-248 -107v-227h-55v224q-205 3 -320 151.5t-115 389.5v42q0 240 115.5 388.5t319.5 151.5v216h55v-218q106 -10 196 -59.5t147 -125.5v-232h-54v212q-57 70 -143.5 111.5t-195.5 41.5q-190 0 -288 -136t-98 -350 v-42q0 -216 98 -351.5t290 -135.5z" />
<glyph unicode="&#xa3;" horiz-adv-x="1151" d="M132 0v54h10q89 16 133 145.5t44 266.5l-8 201h-243v54h241l-11 319q0 204 101 320.5t270 116.5q175 0 256 -102t78 -280l-2 -5h-47q0 176 -73.5 254.5t-211.5 78.5q-147 0 -232 -100t-85 -283l11 -319h478v-54h-476l8 -201q0 -125 -36 -235.5t-102 -176.5h755v239h54 v-293h-912z" />
<glyph unicode="&#xa4;" horiz-adv-x="1461" d="M1139 156q-82 -84 -188.5 -130t-225.5 -46q-120 0 -226.5 45.5t-188.5 128.5l-176 -180l-40 39l179 182q-69 84 -106.5 189.5t-37.5 223.5q0 122 40 230.5t114 193.5l-189 193l40 39l188 -192q80 77 183.5 119.5t219.5 42.5q114 0 217.5 -43t185.5 -121l191 195l41 -40 l-193 -196q72 -85 112 -193t40 -228q0 -117 -37 -221.5t-104 -187.5l182 -186l-41 -40zM184 608q0 -238 159 -406.5t382 -168.5q221 0 380.5 168.5t159.5 406.5q0 237 -159.5 405t-380.5 168q-223 0 -382 -168t-159 -405z" />
<glyph unicode="&#xa5;" horiz-adv-x="1381" d="M1320 1402h-121l-455 -726h424v-55h-452v-240h452v-55h-452v-272h163v-54h-380v54h163v272h-450v55h450v240h-450v55h421l-453 726h-121v54h315v-54h-129l418 -664l24 -51h5l24 51l417 664h-129v54h316v-54z" />
<glyph unicode="&#xa6;" horiz-adv-x="432" d="M150 -270v752h54v-752h-54zM204 698h-54v758h54v-758z" />
<glyph unicode="&#xa7;" horiz-adv-x="1197" d="M1063 431q0 -105 -82 -176t-222 -91q131 -50 195.5 -122t64.5 -191q0 -161 -122 -253.5t-328 -92.5q-205 0 -344.5 102.5t-134.5 323.5l2 5l46 2q0 -199 127 -289t304 -90q185 0 290 80.5t105 209.5q0 120 -80.5 188.5t-307.5 128.5q-245 58 -365.5 142.5t-120.5 242.5 q0 108 76 179t211 92q-122 48 -182 120.5t-60 187.5q0 157 123 252t329 95q214 0 333 -111.5t115 -313.5l-2 -6h-46q0 162 -106.5 269.5t-293.5 107.5q-197 0 -297.5 -81.5t-100.5 -208.5q0 -126 79.5 -194t316.5 -135q252 -64 365 -140.5t113 -232.5zM559 766 q-30 6 -57 13.5t-51 16.5q-152 -7 -229.5 -74t-77.5 -169q0 -130 88 -195.5t361 -142.5l69 -19q161 1 254 67t93 165q0 123 -95.5 194.5t-354.5 143.5z" />
<glyph unicode="&#xa8;" horiz-adv-x="956" d="M758 1338h-136v118h136v-118zM289 1338h-137v118h137v-118z" />
<glyph unicode="&#xa9;" horiz-adv-x="1596" d="M1085 596l3 -6q3 -150 -75.5 -229t-217.5 -79q-144 0 -232 107t-88 280v119q0 172 88.5 279.5t231.5 107.5q139 0 218 -79.5t76 -227.5l-3 -6h-44q0 129 -64 194.5t-183 65.5q-123 0 -194 -95t-71 -238v-120q0 -145 70.5 -238.5t194.5 -93.5q120 0 183 63.5t63 195.5h44z M148 729q0 -290 191.5 -492.5t462.5 -202.5q269 0 461.5 202.5t192.5 492.5q0 289 -192 490.5t-462 201.5q-271 0 -462.5 -201.5t-191.5 -490.5zM92 729q0 315 207 531t503 216q295 0 502.5 -216t207.5 -531q0 -316 -207.5 -533t-502.5 -217t-502.5 217t-207.5 533z" />
<glyph unicode="&#xaa;" horiz-adv-x="860" d="M638 706q-10 28 -15.5 58.5t-6.5 61.5q-40 -58 -106.5 -96t-154.5 -38q-119 0 -184 61t-65 167q0 101 74 157t215 56h220v69q0 105 -51 163t-148 58q-114 0 -175.5 -47t-61.5 -138l-46 5l-2 6q-5 98 74.5 163t210.5 65q115 0 184.5 -71.5t69.5 -204.5v-314q0 -48 6 -92.5 t20 -88.5h-58zM356 747q87 0 163 47.5t96 105.5v177h-219q-113 0 -174.5 -44t-61.5 -109q0 -84 48 -130.5t148 -46.5z" />
<glyph unicode="&#xab;" horiz-adv-x="905" d="M105 146zM176 525l294 -379h-70l-295 370v19l295 370h70zM463 525l294 -379h-70l-295 370v19l295 370h70z" />
<glyph unicode="&#xac;" horiz-adv-x="1104" d="M914 396h-54v304h-739v53h793v-357z" />
<glyph unicode="&#xad;" horiz-adv-x="789" d="M154 599zM624 599h-470v54h470v-54z" />
<glyph unicode="&#xae;" horiz-adv-x="1595" d="M92 729q0 315 207 531t503 216q295 0 502.5 -216t207.5 -531q0 -316 -207.5 -533t-502.5 -217q-296 0 -503 217t-207 533zM147 729q0 -290 192 -492.5t463 -202.5q269 0 461.5 202.5t192.5 492.5q0 289 -192 490.5t-462 201.5q-271 0 -463 -201.5t-192 -490.5zM625 688 v-372h-55v850h239q143 0 216 -61t73 -179q0 -73 -40 -125t-113 -81q70 -22 101 -75.5t31 -129.5v-56q0 -38 4 -71.5t13 -55.5v-16h-59q-10 21 -12 61.5t-2 82.5v54q0 94 -42 134t-142 40h-212zM625 744h205q91 0 152 48t61 135q0 96 -52.5 140t-181.5 44h-184v-367z" />
<glyph unicode="&#xaf;" horiz-adv-x="986" d="M781 1403h-627v53h627v-53z" />
<glyph unicode="&#xb0;" horiz-adv-x="739" d="M124 1237q0 98 69 169t167 71q95 0 163.5 -71t68.5 -169q0 -100 -68.5 -168.5t-163.5 -68.5q-98 0 -167 68.5t-69 168.5zM179 1237q0 -79 51.5 -130t129.5 -51q76 0 126 51t50 130q0 80 -50 132.5t-126 52.5q-78 0 -129.5 -53t-51.5 -132z" />
<glyph unicode="&#xb1;" horiz-adv-x="1104" d="M572 805h419v-54h-419v-462h-54v462h-443v54h443v462h54v-462zM1066 88h-835v54h835v-54z" />
<glyph unicode="&#xb2;" horiz-adv-x="807" d="M657 667h-551v55l327 300q83 80 114.5 131t31.5 102q0 78 -48 123.5t-144 45.5q-104 0 -160 -51t-56 -131h-48l-3 6q-5 95 69 163t198 68q115 0 181.5 -57.5t66.5 -167.5q0 -70 -49.5 -136.5t-140.5 -154.5l-265 -235l2 -6h475v-55z" />
<glyph unicode="&#xb3;" horiz-adv-x="831" d="M376 1103q107 0 157.5 40.5t50.5 116.5q0 73 -52.5 118t-156.5 45q-92 0 -153 -45.5t-61 -119.5h-46l-2 6q-6 94 71 154t191 60q122 0 193 -57.5t71 -163.5q0 -61 -36 -109t-101 -72q74 -21 112.5 -69.5t38.5 -123.5q0 -107 -77.5 -167.5t-200.5 -60.5q-115 0 -198 58.5 t-78 168.5l2 6h48q0 -78 62.5 -128t163.5 -50q106 0 164 45.5t58 125.5q0 86 -55.5 126t-165.5 40h-114v56h114z" />
<glyph unicode="&#xb4;" horiz-adv-x="553" d="M320 1478h78l2 -5l-231 -261h-67l-2 5z" />
<glyph unicode="&#xb5;" horiz-adv-x="1282" d="M959 205q-48 -109 -138 -167.5t-225 -58.5q-103 0 -185.5 45t-129.5 147v-587h-52v1444h-163v54h163h52v-642q0 -223 85 -315t221 -92q184 0 268 93t102 263v639h-163v54h217v-577h2q0 -16 -0.5 -30.5t-1.5 -36.5v-384h163v-54h-204z" />
<glyph unicode="&#xb6;" horiz-adv-x="1044" d="M570 520q-234 0 -363 129.5t-129 338.5q0 207 129.5 337.5t362.5 130.5h342v-54h-163v-1348h163v-54h-380v54h163v466h-125z" />
<glyph unicode="&#xb7;" horiz-adv-x="480" d="M277 624h-118v152h118v-152z" />
<glyph unicode="&#xb8;" horiz-adv-x="470" d="M229 0l-11 -76q91 -7 144 -45.5t53 -123.5q0 -87 -79 -138.5t-226 -51.5l-7 49q104 0 180.5 36t76.5 105q0 64 -45.5 89t-163.5 35l25 121h53z" />
<glyph unicode="&#xb9;" horiz-adv-x="471" d="M308 665h-54v747l-166 -14v56l220 23v-812z" />
<glyph unicode="&#xba;" horiz-adv-x="904" d="M121 1142q0 148 82 241.5t222 93.5t222.5 -93.5t82.5 -241.5v-117q0 -149 -82 -241.5t-221 -92.5q-141 0 -223.5 92.5t-82.5 241.5v117zM175 1025q0 -125 63 -202.5t189 -77.5q120 0 185 78.5t65 201.5v117q0 122 -65 201.5t-187 79.5q-121 0 -185.5 -79.5t-64.5 -201.5 v-117z" />
<glyph unicode="&#xbb;" horiz-adv-x="897" d="M105 171zM175 940l294 -380v-19l-294 -370h-70l293 379l-293 390h70zM465 940l294 -380v-19l-294 -370h-70l293 379l-293 390h70z" />
<glyph unicode="&#xbc;" horiz-adv-x="1533" d="M150 0zM370 664h-54v747l-166 -14v56l220 23v-812zM338 139l-45 31l711 1138l45 -31zM1245 241h176v-55h-176v-186h-55v186h-442v36l435 579h62v-560zM831 241h359v481l-6 2l-36 -60z" />
<glyph unicode="&#xbd;" horiz-adv-x="1447" d="M150 0zM350 139l-45 31l711 1138l45 -31zM370 664h-54v747l-166 -14v56l220 23v-812zM1438 0h-551v55l327 300q83 80 114.5 131t31.5 102q0 78 -48 123.5t-144 45.5q-104 0 -160 -51t-56 -131h-48l-3 6q-5 95 69 163t198 68q115 0 181.5 -57.5t66.5 -167.5 q0 -70 -49.5 -136.5t-140.5 -154.5l-265 -235l2 -6h475v-55z" />
<glyph unicode="&#xbe;" horiz-adv-x="1653" d="M126 0zM565 139l-45 31l711 1138l45 -31zM1470 241h176v-55h-176v-186h-55v186h-442v36l435 579h62v-560zM1056 241h359v481l-6 2l-36 -60zM408 1104q107 0 157.5 40.5t50.5 116.5q0 73 -52.5 118t-156.5 45q-92 0 -153 -45.5t-61 -119.5h-46l-2 6q-6 94 71 154t191 60 q122 0 193 -57.5t71 -163.5q0 -61 -36 -109t-101 -72q74 -21 112.5 -69.5t38.5 -123.5q0 -107 -77.5 -167.5t-200.5 -60.5q-115 0 -198 58.5t-78 168.5l2 6h48q0 -78 62.5 -128t163.5 -50q106 0 164 45.5t58 125.5q0 86 -55.5 126t-165.5 40h-114v56h114z" />
<glyph unicode="&#xbf;" horiz-adv-x="839" d="M464 683q-2 -118 -21.5 -166.5t-103.5 -125.5q-122 -117 -174.5 -198.5t-52.5 -221.5q0 -146 77.5 -229t221.5 -83q141 0 219 84.5t82 223.5h46l3 -6q1 -170 -97.5 -262.5t-252.5 -92.5q-165 0 -259 101t-94 266q0 140 62 242t191 218q68 52 83.5 100.5t15.5 149.5h54z M386 1083h82v-106h-82v106z" />
<glyph unicode="&#xc0;" d="M55 0zM55 54h107l524 1402h66l525 -1402h107v-54h-309v54h143l-143 381h-712l-142 -381h143v-54h-309v54zM383 489h672l-305 820l-28 82h-6l-27 -82zM764 1577l-2 -5h-75l-234 261l2 5h89z" />
<glyph unicode="&#xc1;" d="M55 0zM55 54h107l524 1402h66l525 -1402h107v-54h-309v54h143l-143 381h-712l-142 -381h143v-54h-309v54zM383 489h672l-305 820l-28 82h-6l-27 -82zM869 1811h78l2 -5l-231 -261h-67l-2 5z" />
<glyph unicode="&#xc2;" d="M55 0zM55 54h107l524 1402h66l525 -1402h107v-54h-309v54h143l-143 381h-712l-142 -381h143v-54h-309v54zM383 489h672l-305 820l-28 82h-6l-27 -82zM970 1612v-13h-70l-185 186l-183 -186h-66v17l210 206h80z" />
<glyph unicode="&#xc3;" d="M55 0zM55 54h107l524 1402h66l525 -1402h107v-54h-309v54h143l-143 381h-712l-142 -381h143v-54h-309v54zM383 489h672l-305 820l-28 82h-6l-27 -82zM1063 1799q0 -82 -51 -134t-125 -52q-76 0 -154 62.5t-133 62.5q-52 0 -86.5 -37t-34.5 -98l-55 10q0 80 50 129.5 t126 49.5q72 0 153 -62t134 -62q50 0 85.5 39.5t35.5 101.5z" />
<glyph unicode="&#xc4;" d="M55 0zM55 54h107l524 1402h66l525 -1402h107v-54h-309v54h143l-143 381h-712l-142 -381h143v-54h-309v54zM383 489h672l-305 820l-28 82h-6l-27 -82zM1022 1671h-136v118h136v-118zM553 1671h-137v118h137v-118z" />
<glyph unicode="&#xc5;" d="M55 0zM55 54h107l524 1402h66l525 -1402h107v-54h-309v54h143l-143 381h-712l-142 -381h143v-54h-309v54zM383 489h672l-305 820l-28 82h-6l-27 -82zM578 1745q0 56 40 97.5t96 41.5q54 0 93.5 -41t39.5 -98t-39 -96t-94 -39q-56 0 -96 39t-40 96zM635 1745 q0 -34 23 -56.5t56 -22.5q32 0 54 22t22 57t-22 58.5t-54 23.5q-33 0 -56 -23.5t-23 -58.5z" />
<glyph unicode="&#xc6;" horiz-adv-x="2026" d="M51 54h119l849 1402h776v-293h-54v239h-642l26 -616h588v-54h-586l28 -678h647v239h54v-293h-915v54h160l-15 371h-628l-223 -371h131v-54h-315v54zM490 478h594l-39 924l-5 1l-57 -105z" />
<glyph unicode="&#xc7;" horiz-adv-x="1373" d="M130 0zM1256 992h-55v234q-67 90 -179 143.5t-255 53.5q-259 0 -421 -189t-162 -495v-20q0 -307 161 -496.5t412 -189.5q144 0 261 53.5t183 143.5v234h55v-254q-73 -107 -206 -169t-293 -62q-277 0 -452 205.5t-175 534.5v18q0 330 176 535t461 205q158 0 286.5 -62 t202.5 -169v-254zM800 0l-11 -76q91 -7 144 -45.5t53 -123.5q0 -87 -79 -138.5t-226 -51.5l-7 49q104 0 180.5 36t76.5 105q0 64 -45.5 89t-163.5 35l25 121h53z" />
<glyph unicode="&#xc8;" horiz-adv-x="1270" d="M71 0zM71 0v54h163v1348h-163v54h1049v-293h-54v239h-778v-616h630v-54h-630v-678h778v239h54v-293h-1049zM669 1579l-2 -5h-75l-234 261l2 5h89z" />
<glyph unicode="&#xc9;" horiz-adv-x="1270" d="M71 0zM71 0v54h163v1348h-163v54h1049v-293h-54v239h-778v-616h630v-54h-630v-678h778v239h54v-293h-1049zM774 1813h78l2 -5l-231 -261h-67l-2 5z" />
<glyph unicode="&#xca;" horiz-adv-x="1270" d="M71 0zM71 0v54h163v1348h-163v54h1049v-293h-54v239h-778v-616h630v-54h-630v-678h778v239h54v-293h-1049zM875 1614v-13h-70l-185 186l-183 -186h-66v17l210 206h80z" />
<glyph unicode="&#xcb;" horiz-adv-x="1270" d="M71 0zM71 0v54h163v1348h-163v54h1049v-293h-54v239h-778v-616h630v-54h-630v-678h778v239h54v-293h-1049zM927 1673h-136v118h136v-118zM458 1673h-137v118h137v-118z" />
<glyph unicode="&#xcc;" horiz-adv-x="598" d="M47 0zM109 1402v54h380v-54h-163v-1348h163v-54h-380v54h163v1348h-163zM358 1579l-2 -5h-75l-234 261l2 5h89z" />
<glyph unicode="&#xcd;" horiz-adv-x="598" d="M109 0zM109 1402v54h380v-54h-163v-1348h163v-54h-380v54h163v1348h-163zM462 1813h78l2 -5l-231 -261h-67l-2 5z" />
<glyph unicode="&#xce;" horiz-adv-x="598" d="M60 0zM109 1402v54h380v-54h-163v-1348h163v-54h-380v54h163v1348h-163zM564 1614v-13h-70l-185 186l-183 -186h-66v17l210 206h80z" />
<glyph unicode="&#xcf;" horiz-adv-x="598" d="M10 0zM109 1402v54h380v-54h-163v-1348h163v-54h-380v54h163v1348h-163zM616 1673h-136v118h136v-118zM147 1673h-137v118h137v-118z" />
<glyph unicode="&#xd0;" horiz-adv-x="1416" d="M667 1456q251 0 426 -180t175 -459v-178q0 -280 -175 -459.5t-426 -179.5h-566v54h163v659h-128v54h128v635h-163v54h566zM723 713h-405v-659h349q227 0 387 166t160 419v181q0 250 -160 416t-387 166h-349v-635h405v-54z" />
<glyph unicode="&#xd1;" horiz-adv-x="1517" d="M71 0zM1446 1456v-54h-163v-1402h-54l-934 1356l-6 -2v-1300h163v-54h-381v54h163v1348h-163v54h163h55l934 -1353l6 2v1297h-163v54h217h163zM1075 1801q0 -82 -51 -134t-125 -52q-76 0 -154 62.5t-133 62.5q-52 0 -86.5 -37t-34.5 -98l-55 10q0 80 50 129.5t126 49.5 q72 0 153 -62t134 -62q50 0 85.5 39.5t35.5 101.5z" />
<glyph unicode="&#xd2;" horiz-adv-x="1488" d="M130 0zM1348 719q0 -336 -168.5 -538t-439.5 -202q-272 0 -441 202.5t-169 537.5v18q0 335 168 537.5t440 202.5q271 0 440.5 -202.5t169.5 -537.5v-18zM1294 739q0 309 -151.5 496.5t-404.5 187.5q-252 0 -402.5 -187.5t-150.5 -496.5v-20q0 -311 151 -498.5t404 -187.5 t403.5 187.5t150.5 498.5v20zM787 1600l-2 -5h-75l-234 261l2 5h89z" />
<glyph unicode="&#xd3;" horiz-adv-x="1488" d="M130 0zM1348 719q0 -336 -168.5 -538t-439.5 -202q-272 0 -441 202.5t-169 537.5v18q0 335 168 537.5t440 202.5q271 0 440.5 -202.5t169.5 -537.5v-18zM1294 739q0 309 -151.5 496.5t-404.5 187.5q-252 0 -402.5 -187.5t-150.5 -496.5v-20q0 -311 151 -498.5t404 -187.5 t403.5 187.5t150.5 498.5v20zM892 1834h78l2 -5l-231 -261h-67l-2 5z" />
<glyph unicode="&#xd4;" horiz-adv-x="1488" d="M130 0zM1348 719q0 -336 -168.5 -538t-439.5 -202q-272 0 -441 202.5t-169 537.5v18q0 335 168 537.5t440 202.5q271 0 440.5 -202.5t169.5 -537.5v-18zM1294 739q0 309 -151.5 496.5t-404.5 187.5q-252 0 -402.5 -187.5t-150.5 -496.5v-20q0 -311 151 -498.5t404 -187.5 t403.5 187.5t150.5 498.5v20zM993 1635v-13h-70l-185 186l-183 -186h-66v17l210 206h80z" />
<glyph unicode="&#xd5;" horiz-adv-x="1488" d="M130 0zM1348 719q0 -336 -168.5 -538t-439.5 -202q-272 0 -441 202.5t-169 537.5v18q0 335 168 537.5t440 202.5q271 0 440.5 -202.5t169.5 -537.5v-18zM1294 739q0 309 -151.5 496.5t-404.5 187.5q-252 0 -402.5 -187.5t-150.5 -496.5v-20q0 -311 151 -498.5t404 -187.5 t403.5 187.5t150.5 498.5v20zM1086 1822q0 -82 -51 -134t-125 -52q-76 0 -154 62.5t-133 62.5q-52 0 -86.5 -37t-34.5 -98l-55 10q0 80 50 129.5t126 49.5q72 0 153 -62t134 -62q50 0 85.5 39.5t35.5 101.5z" />
<glyph unicode="&#xd6;" horiz-adv-x="1488" d="M130 0zM1348 719q0 -336 -168.5 -538t-439.5 -202q-272 0 -441 202.5t-169 537.5v18q0 335 168 537.5t440 202.5q271 0 440.5 -202.5t169.5 -537.5v-18zM1294 739q0 309 -151.5 496.5t-404.5 187.5q-252 0 -402.5 -187.5t-150.5 -496.5v-20q0 -311 151 -498.5t404 -187.5 t403.5 187.5t150.5 498.5v20zM1045 1694h-136v118h136v-118zM576 1694h-137v118h137v-118z" />
<glyph unicode="&#xd7;" horiz-adv-x="1044" d="M79 289l384 393l-357 364l39 39l356 -364l357 364l39 -39l-357 -364l385 -393l-39 -37l-384 391l-384 -391z" />
<glyph unicode="&#xd8;" horiz-adv-x="1411" d="M1338 719q0 -336 -168.5 -538t-439.5 -202q-105 0 -197 31.5t-166 93.5l-113 -179h-66l137 217q-99 98 -152 245t-53 332v18q0 335 168 537.5t440 202.5q104 0 197 -33t168 -94l92 145h66l-116 -183q96 -99 149.5 -246t53.5 -329v-18zM175 719q0 -169 46 -303.5 t132 -220.5l6 -1l705 1111q-68 57 -153 87.5t-183 30.5q-252 0 -402.5 -187.5t-150.5 -496.5v-20zM1284 739q0 166 -46 300t-130 220l-6 1l-706 -1111q68 -57 152 -86.5t182 -29.5q253 0 403.5 187.5t150.5 498.5v20z" />
<glyph unicode="&#xd9;" horiz-adv-x="1441" d="M60 0zM440 1456v-54h-163v-933q0 -205 124 -320.5t320 -115.5q195 0 319 115.5t124 320.5v933h-163v54h217h163v-54h-163v-933q0 -238 -138 -364t-359 -126q-223 0 -360.5 126.5t-137.5 363.5v933h-163v54h163h54h163zM777 1567l-2 -5h-75l-234 261l2 5h89z" />
<glyph unicode="&#xda;" horiz-adv-x="1441" d="M60 0zM440 1456v-54h-163v-933q0 -205 124 -320.5t320 -115.5q195 0 319 115.5t124 320.5v933h-163v54h217h163v-54h-163v-933q0 -238 -138 -364t-359 -126q-223 0 -360.5 126.5t-137.5 363.5v933h-163v54h163h54h163zM882 1801h78l2 -5l-231 -261h-67l-2 5z" />
<glyph unicode="&#xdb;" horiz-adv-x="1441" d="M60 0zM440 1456v-54h-163v-933q0 -205 124 -320.5t320 -115.5q195 0 319 115.5t124 320.5v933h-163v54h217h163v-54h-163v-933q0 -238 -138 -364t-359 -126q-223 0 -360.5 126.5t-137.5 363.5v933h-163v54h163h54h163zM983 1602v-13h-70l-185 186l-183 -186h-66v17 l210 206h80z" />
<glyph unicode="&#xdc;" horiz-adv-x="1441" d="M60 0zM440 1456v-54h-163v-933q0 -205 124 -320.5t320 -115.5q195 0 319 115.5t124 320.5v933h-163v54h217h163v-54h-163v-933q0 -238 -138 -364t-359 -126q-223 0 -360.5 126.5t-137.5 363.5v933h-163v54h163h54h163zM1035 1661h-136v118h136v-118zM566 1661h-137v118 h137v-118z" />
<glyph unicode="&#xdd;" horiz-adv-x="1429" d="M55 0zM371 1402h-131l449 -755l26 -50l27 50l451 755h-131v54h316v-54h-120l-514 -849v-499h163v-54h-381v54h163v499l-515 849h-119v54h316v-54zM878 1802h78l2 -5l-231 -261h-67l-2 5z" />
<glyph unicode="&#xde;" horiz-adv-x="1240" d="M70 54h163v1348h-163v54h217h163v-54h-163v-259h371q212 0 331 -113t119 -292q0 -180 -119 -292t-331 -112h-371v-280h163v-54h-380v54zM287 1089v-701h371q195 0 295.5 104t100.5 244q0 144 -100 248.5t-296 104.5h-371z" />
<glyph unicode="&#xdf;" horiz-adv-x="1243" d="M272 0h-217v54h163v1028q0 188 89 290t250 102q123 0 207.5 -73t84.5 -195q0 -101 -59.5 -204.5t-59.5 -201.5q0 -90 193 -231.5t193 -291.5q0 -141 -114 -219.5t-253 -78.5q-87 0 -179.5 26t-132.5 63l25 49q42 -34 122.5 -59.5t156.5 -25.5q140 0 230.5 71.5 t90.5 182.5q0 113 -193 252t-193 264q0 105 56.5 212t56.5 194q0 90 -67.5 151t-154.5 61q-134 0 -214.5 -87.5t-80.5 -250.5v-1082z" />
<glyph unicode="&#xe0;" horiz-adv-x="1132" d="M104 0zM885 0q-13 71 -17.5 106.5t-4.5 76.5v16q-62 -97 -173.5 -158.5t-262.5 -61.5q-150 0 -236.5 81.5t-86.5 213.5q0 146 133 238t357 92h269v158q0 135 -86.5 210.5t-243.5 75.5q-103 0 -192.5 -29t-152.5 -80l-1 -173h-54l1 206q77 57 181.5 93.5t217.5 36.5 q174 0 279 -88t105 -254v-542q0 -42 3.5 -83t11.5 -81h130v-54h-177zM427 32q153 0 266 69t170 191v257h-266q-199 0 -319 -77.5t-120 -201.5q0 -101 74 -169.5t195 -68.5zM584 1259l-2 -5h-75l-234 261l2 5h89z" />
<glyph unicode="&#xe1;" horiz-adv-x="1132" d="M104 0zM885 0q-13 71 -17.5 106.5t-4.5 76.5v16q-62 -97 -173.5 -158.5t-262.5 -61.5q-150 0 -236.5 81.5t-86.5 213.5q0 146 133 238t357 92h269v158q0 135 -86.5 210.5t-243.5 75.5q-103 0 -192.5 -29t-152.5 -80l-1 -173h-54l1 206q77 57 181.5 93.5t217.5 36.5 q174 0 279 -88t105 -254v-542q0 -42 3.5 -83t11.5 -81h130v-54h-177zM427 32q153 0 266 69t170 191v257h-266q-199 0 -319 -77.5t-120 -201.5q0 -101 74 -169.5t195 -68.5zM689 1493h78l2 -5l-231 -261h-67l-2 5z" />
<glyph unicode="&#xe2;" horiz-adv-x="1132" d="M104 0zM885 0q-13 71 -17.5 106.5t-4.5 76.5v16q-62 -97 -173.5 -158.5t-262.5 -61.5q-150 0 -236.5 81.5t-86.5 213.5q0 146 133 238t357 92h269v158q0 135 -86.5 210.5t-243.5 75.5q-103 0 -192.5 -29t-152.5 -80l-1 -173h-54l1 206q77 57 181.5 93.5t217.5 36.5 q174 0 279 -88t105 -254v-542q0 -42 3.5 -83t11.5 -81h130v-54h-177zM427 32q153 0 266 69t170 191v257h-266q-199 0 -319 -77.5t-120 -201.5q0 -101 74 -169.5t195 -68.5zM790 1294v-13h-70l-185 186l-183 -186h-66v17l210 206h80z" />
<glyph unicode="&#xe3;" horiz-adv-x="1132" d="M104 0zM885 0q-13 71 -17.5 106.5t-4.5 76.5v16q-62 -97 -173.5 -158.5t-262.5 -61.5q-150 0 -236.5 81.5t-86.5 213.5q0 146 133 238t357 92h269v158q0 135 -86.5 210.5t-243.5 75.5q-103 0 -192.5 -29t-152.5 -80l-1 -173h-54l1 206q77 57 181.5 93.5t217.5 36.5 q174 0 279 -88t105 -254v-542q0 -42 3.5 -83t11.5 -81h130v-54h-177zM427 32q153 0 266 69t170 191v257h-266q-199 0 -319 -77.5t-120 -201.5q0 -101 74 -169.5t195 -68.5zM883 1481q0 -82 -51 -134t-125 -52q-76 0 -154 62.5t-133 62.5q-52 0 -86.5 -37t-34.5 -98l-55 10 q0 80 50 129.5t126 49.5q72 0 153 -62t134 -62q50 0 85.5 39.5t35.5 101.5z" />
<glyph unicode="&#xe4;" horiz-adv-x="1132" d="M104 0zM885 0q-13 71 -17.5 106.5t-4.5 76.5v16q-62 -97 -173.5 -158.5t-262.5 -61.5q-150 0 -236.5 81.5t-86.5 213.5q0 146 133 238t357 92h269v158q0 135 -86.5 210.5t-243.5 75.5q-103 0 -192.5 -29t-152.5 -80l-1 -173h-54l1 206q77 57 181.5 93.5t217.5 36.5 q174 0 279 -88t105 -254v-542q0 -42 3.5 -83t11.5 -81h130v-54h-177zM427 32q153 0 266 69t170 191v257h-266q-199 0 -319 -77.5t-120 -201.5q0 -101 74 -169.5t195 -68.5zM842 1353h-136v118h136v-118zM373 1353h-137v118h137v-118z" />
<glyph unicode="&#xe5;" horiz-adv-x="1132" d="M104 0zM885 0q-13 71 -17.5 106.5t-4.5 76.5v16q-62 -97 -173.5 -158.5t-262.5 -61.5q-150 0 -236.5 81.5t-86.5 213.5q0 146 133 238t357 92h269v158q0 135 -86.5 210.5t-243.5 75.5q-103 0 -192.5 -29t-152.5 -80l-1 -173h-54l1 206q77 57 181.5 93.5t217.5 36.5 q174 0 279 -88t105 -254v-542q0 -42 3.5 -83t11.5 -81h130v-54h-177zM427 32q153 0 266 69t170 191v257h-266q-199 0 -319 -77.5t-120 -201.5q0 -101 74 -169.5t195 -68.5zM398 1427q0 56 40 97.5t96 41.5q54 0 93.5 -41t39.5 -98t-39 -96t-94 -39q-56 0 -96 39t-40 96z M455 1427q0 -34 23 -56.5t56 -22.5q32 0 54 22t22 57t-22 58.5t-54 23.5q-33 0 -56 -23.5t-23 -58.5z" />
<glyph unicode="&#xe6;" horiz-adv-x="1779" d="M1272 -21q-143 0 -245 66t-155 185v-12h1q-44 -95 -153 -167t-268 -72q-169 0 -262 82t-93 223q0 157 111.5 251.5t318.5 94.5h290v90q0 158 -73 243t-219 85q-162 0 -254.5 -78t-92.5 -199l-45 6l-2 6q-5 138 103.5 228.5t290.5 90.5q138 0 227 -73.5t112 -214.5 q53 133 157 210.5t236 77.5q188 0 296 -118.5t108 -323.5v-83h-787v-13v-64q0 -208 99 -337.5t299 -129.5q102 0 186.5 34.5t145.5 96.5l30 -42q-65 -66 -148.5 -104.5t-213.5 -38.5zM451 31q130 0 237 65.5t129 128.5v350h-288q-185 0 -281 -84t-96 -211q0 -117 77.5 -183 t221.5 -66zM1257 1048q-159 0 -260.5 -116.5t-114.5 -294.5l2 -5h723v32q0 168 -91.5 276t-258.5 108z" />
<glyph unicode="&#xe7;" horiz-adv-x="1086" d="M104 0zM546 33q137 0 242 75t105 225h46l2 -6q4 -159 -116.5 -253.5t-278.5 -94.5q-207 0 -324.5 149t-117.5 392v42q0 242 117 391t323 149q122 0 226 -50.5t167 -136.5v-232h-54v212q-57 70 -143.5 111.5t-195.5 41.5q-190 0 -288 -136t-98 -350v-42q0 -216 98 -351.5 t290 -135.5zM597 -9l-11 -76q91 -7 144 -45.5t53 -123.5q0 -87 -79 -138.5t-226 -51.5l-7 49q104 0 180.5 36t76.5 105q0 64 -45.5 89t-163.5 35l25 121h53z" />
<glyph unicode="&#xe8;" horiz-adv-x="1104" d="M112 0zM566 -21q-185 0 -319.5 149.5t-134.5 371.5v64q0 233 130 385.5t321 152.5q183 0 298.5 -120t115.5 -322v-83h-811v-13v-64q0 -196 115 -331.5t285 -135.5q121 0 202.5 33t139.5 99l29 -42q-64 -71 -155.5 -107.5t-215.5 -36.5zM563 1048q-161 0 -268 -117.5 t-121 -293.5l3 -6h746v33q0 165 -100 274.5t-260 109.5zM617 1258l-2 -5h-75l-234 261l2 5h89z" />
<glyph unicode="&#xe9;" horiz-adv-x="1104" d="M112 0zM566 -21q-185 0 -319.5 149.5t-134.5 371.5v64q0 233 130 385.5t321 152.5q183 0 298.5 -120t115.5 -322v-83h-811v-13v-64q0 -196 115 -331.5t285 -135.5q121 0 202.5 33t139.5 99l29 -42q-64 -71 -155.5 -107.5t-215.5 -36.5zM563 1048q-161 0 -268 -117.5 t-121 -293.5l3 -6h746v33q0 165 -100 274.5t-260 109.5zM722 1492h78l2 -5l-231 -261h-67l-2 5z" />
<glyph unicode="&#xea;" horiz-adv-x="1104" d="M112 0zM566 -21q-185 0 -319.5 149.5t-134.5 371.5v64q0 233 130 385.5t321 152.5q183 0 298.5 -120t115.5 -322v-83h-811v-13v-64q0 -196 115 -331.5t285 -135.5q121 0 202.5 33t139.5 99l29 -42q-64 -71 -155.5 -107.5t-215.5 -36.5zM563 1048q-161 0 -268 -117.5 t-121 -293.5l3 -6h746v33q0 165 -100 274.5t-260 109.5zM823 1293v-13h-70l-185 186l-183 -186h-66v17l210 206h80z" />
<glyph unicode="&#xeb;" horiz-adv-x="1104" d="M112 0zM566 -21q-185 0 -319.5 149.5t-134.5 371.5v64q0 233 130 385.5t321 152.5q183 0 298.5 -120t115.5 -322v-83h-811v-13v-64q0 -196 115 -331.5t285 -135.5q121 0 202.5 33t139.5 99l29 -42q-64 -71 -155.5 -107.5t-215.5 -36.5zM563 1048q-161 0 -268 -117.5 t-121 -293.5l3 -6h746v33q0 165 -100 274.5t-260 109.5zM875 1352h-136v118h136v-118zM406 1352h-137v118h137v-118z" />
<glyph unicode="&#xec;" horiz-adv-x="608" d="M24 0zM90 1028v54h217v-1028h163v-54h-380v54h163v974h-163zM335 1236l-2 -5h-75l-234 261l2 5h89z" />
<glyph unicode="&#xed;" horiz-adv-x="608" d="M90 0zM90 1028v54h217v-1028h163v-54h-380v54h163v974h-163zM439 1471h78l2 -5l-231 -261h-67l-2 5z" />
<glyph unicode="&#xee;" horiz-adv-x="608" d="M37 0zM90 1028v54h217v-1028h163v-54h-380v54h163v974h-163zM541 1271v-13h-70l-185 186l-183 -186h-66v17l210 206h80z" />
<glyph unicode="&#xef;" horiz-adv-x="608" d="M0 0zM90 1028v54h217v-1028h163v-54h-380v54h163v974h-163zM593 1331h-136v118h136v-118zM124 1331h-137v118h137v-118z" />
<glyph unicode="&#xf0;" horiz-adv-x="1170" d="M760 1311q120 -122 178 -290.5t58 -405.5v-80q0 -245 -131.5 -400.5t-330.5 -155.5t-327.5 134.5t-128.5 332.5q0 241 123.5 374t344.5 133q125 0 226.5 -46.5t153.5 -127.5l5 4q-16 163 -73 286t-148 213l-338 -193l-28 48l323 185q-50 41 -108 76.5t-126 68.5l20 50 q77 -37 143 -78t121 -88l280 160l29 -48zM942 617q0 10 -0.5 29.5t-0.5 29.5q-40 92 -138.5 155.5t-256.5 63.5q-208 0 -310.5 -124.5t-102.5 -324.5q0 -164 109.5 -286.5t295.5 -122.5q179 0 291.5 139.5t112.5 358.5v82z" />
<glyph unicode="&#xf1;" horiz-adv-x="1320" d="M89 0zM89 54h163v974h-163v54h209l7 -223q49 116 143 179.5t232 63.5q177 0 265.5 -111.5t88.5 -353.5v-583h163v-54h-380v54h163v585q0 225 -80.5 317t-218.5 92q-175 0 -264 -104.5t-111 -267.5v-622h163v-54h-380v54zM986 1479q0 -82 -51 -134t-125 -52 q-76 0 -154 62.5t-133 62.5q-52 0 -86.5 -37t-34.5 -98l-55 10q0 80 50 129.5t126 49.5q72 0 153 -62t134 -62q50 0 85.5 39.5t35.5 101.5z" />
<glyph unicode="&#xf2;" horiz-adv-x="1155" d="M104 0zM104 562q0 238 131.5 389t341.5 151q211 0 342.5 -151t131.5 -389v-42q0 -239 -131.5 -390t-340.5 -151q-211 0 -343 151t-132 390v42zM158 520q0 -204 114 -345.5t307 -141.5q190 0 304 142t114 345v42q0 199 -115 342.5t-305 143.5q-191 0 -305 -143.5 t-114 -342.5v-42zM632 1257l-2 -5h-75l-234 261l2 5h89z" />
<glyph unicode="&#xf3;" horiz-adv-x="1155" d="M104 0zM104 562q0 238 131.5 389t341.5 151q211 0 342.5 -151t131.5 -389v-42q0 -239 -131.5 -390t-340.5 -151q-211 0 -343 151t-132 390v42zM158 520q0 -204 114 -345.5t307 -141.5q190 0 304 142t114 345v42q0 199 -115 342.5t-305 143.5q-191 0 -305 -143.5 t-114 -342.5v-42zM737 1491h78l2 -5l-231 -261h-67l-2 5z" />
<glyph unicode="&#xf4;" horiz-adv-x="1155" d="M104 0zM104 562q0 238 131.5 389t341.5 151q211 0 342.5 -151t131.5 -389v-42q0 -239 -131.5 -390t-340.5 -151q-211 0 -343 151t-132 390v42zM158 520q0 -204 114 -345.5t307 -141.5q190 0 304 142t114 345v42q0 199 -115 342.5t-305 143.5q-191 0 -305 -143.5 t-114 -342.5v-42zM838 1292v-13h-70l-185 186l-183 -186h-66v17l210 206h80z" />
<glyph unicode="&#xf5;" horiz-adv-x="1155" d="M104 0zM104 562q0 238 131.5 389t341.5 151q211 0 342.5 -151t131.5 -389v-42q0 -239 -131.5 -390t-340.5 -151q-211 0 -343 151t-132 390v42zM158 520q0 -204 114 -345.5t307 -141.5q190 0 304 142t114 345v42q0 199 -115 342.5t-305 143.5q-191 0 -305 -143.5 t-114 -342.5v-42zM931 1479q0 -82 -51 -134t-125 -52q-76 0 -154 62.5t-133 62.5q-52 0 -86.5 -37t-34.5 -98l-55 10q0 80 50 129.5t126 49.5q72 0 153 -62t134 -62q50 0 85.5 39.5t35.5 101.5z" />
<glyph unicode="&#xf6;" horiz-adv-x="1155" d="M104 0zM104 562q0 238 131.5 389t341.5 151q211 0 342.5 -151t131.5 -389v-42q0 -239 -131.5 -390t-340.5 -151q-211 0 -343 151t-132 390v42zM158 520q0 -204 114 -345.5t307 -141.5q190 0 304 142t114 345v42q0 199 -115 342.5t-305 143.5q-191 0 -305 -143.5 t-114 -342.5v-42zM890 1351h-136v118h136v-118zM421 1351h-137v118h137v-118z" />
<glyph unicode="&#xf7;" horiz-adv-x="1148" d="M1072 686h-998v52h998v-52zM632 1020h-96v122h96v-122zM632 241h-96v122h96v-122z" />
<glyph unicode="&#xf8;" horiz-adv-x="1155" d="M104 562q0 238 131.5 389t341.5 151q69 0 130.5 -17.5t114.5 -50.5l98 185h63l-116 -218q87 -73 135.5 -186t48.5 -253v-42q0 -239 -131.5 -390t-340.5 -151q-62 0 -118.5 14t-105.5 41l-95 -179h-63l111 209q-97 70 -150.5 188.5t-53.5 267.5v42zM158 520 q0 -126 45 -232.5t128 -167.5h6l458 864q-47 30 -102 47t-116 17q-191 0 -305 -143.5t-114 -342.5v-42zM997 562q0 114 -41 215.5t-113 164.5l-6 1l-456 -860q42 -25 92 -37.5t106 -12.5q190 0 304 142t114 345v42z" />
<glyph unicode="&#xf9;" horiz-adv-x="1222" d="M44 0zM918 194q-51 -103 -145.5 -159t-229.5 -56q-167 0 -261.5 118.5t-94.5 367.5v563h-143v54h143h54v-619q0 -220 81 -325t219 -105q169 0 259.5 83t115.5 220v692h-163v54h163h55v-1028h163v-54h-208zM586 1236l-2 -5h-75l-234 261l2 5h89z" />
<glyph unicode="&#xfa;" horiz-adv-x="1222" d="M44 0zM918 194q-51 -103 -145.5 -159t-229.5 -56q-167 0 -261.5 118.5t-94.5 367.5v563h-143v54h143h54v-619q0 -220 81 -325t219 -105q169 0 259.5 83t115.5 220v692h-163v54h163h55v-1028h163v-54h-208zM691 1471h78l2 -5l-231 -261h-67l-2 5z" />
<glyph unicode="&#xfb;" horiz-adv-x="1222" d="M44 0zM918 194q-51 -103 -145.5 -159t-229.5 -56q-167 0 -261.5 118.5t-94.5 367.5v563h-143v54h143h54v-619q0 -220 81 -325t219 -105q169 0 259.5 83t115.5 220v692h-163v54h163h55v-1028h163v-54h-208zM792 1271v-13h-70l-185 186l-183 -186h-66v17l210 206h80z" />
<glyph unicode="&#xfc;" horiz-adv-x="1222" d="M44 0zM918 194q-51 -103 -145.5 -159t-229.5 -56q-167 0 -261.5 118.5t-94.5 367.5v563h-143v54h143h54v-619q0 -220 81 -325t219 -105q169 0 259.5 83t115.5 220v692h-163v54h163h55v-1028h163v-54h-208zM844 1331h-136v118h136v-118zM375 1331h-137v118h137v-118z" />
<glyph unicode="&#xfd;" horiz-adv-x="1185" d="M55 0zM374 1028h-142l335 -832l40 -108h6l6 16l353 924h-142v54h320v-54h-118l-460 -1208q-44 -114 -102.5 -185.5t-186.5 -71.5q-19 0 -42 3.5t-34 7.5l9 51q11 -3 33 -6t34 -3q92 0 143.5 54t91.5 160l65 176l-410 1022h-118v54h319v-54zM764 1471h78l2 -5l-231 -261 h-67l-2 5z" />
<glyph unicode="&#xfe;" horiz-adv-x="1121" d="M65 -362h163v1868h-163v54h217v-671q54 99 147 156t220 57q191 0 299.5 -151.5t108.5 -408.5v-21q0 -250 -108 -396t-298 -146q-127 0 -221.5 51t-147.5 138v-530h163v-54h-380v54zM1002 542q0 225 -90.5 365.5t-261.5 140.5q-157 0 -244 -79t-124 -194v-506 q40 -108 134 -172t236 -64q171 0 260.5 132t89.5 356v21z" />
<glyph unicode="&#xff;" horiz-adv-x="1185" d="M55 0zM374 1028h-142l335 -832l40 -108h6l6 16l353 924h-142v54h320v-54h-118l-460 -1208q-44 -114 -102.5 -185.5t-186.5 -71.5q-19 0 -42 3.5t-34 7.5l9 51q11 -3 33 -6t34 -3q92 0 143.5 54t91.5 160l65 176l-410 1022h-118v54h319v-54zM917 1331h-136v118h136v-118z M448 1331h-137v118h137v-118z" />
<glyph unicode="&#x100;" d="M55 0zM55 54h107l524 1402h66l525 -1402h107v-54h-309v54h143l-143 381h-712l-142 -381h143v-54h-309v54zM383 489h672l-305 820l-28 82h-6l-27 -82zM1040 1731h-627v53h627v-53z" />
<glyph unicode="&#x101;" horiz-adv-x="1132" d="M104 0zM885 0q-13 71 -17.5 106.5t-4.5 76.5v16q-62 -97 -173.5 -158.5t-262.5 -61.5q-150 0 -236.5 81.5t-86.5 213.5q0 146 133 238t357 92h269v158q0 135 -86.5 210.5t-243.5 75.5q-103 0 -192.5 -29t-152.5 -80l-1 -173h-54l1 206q77 57 181.5 93.5t217.5 36.5 q174 0 279 -88t105 -254v-542q0 -42 3.5 -83t11.5 -81h130v-54h-177zM427 32q153 0 266 69t170 191v257h-266q-199 0 -319 -77.5t-120 -201.5q0 -101 74 -169.5t195 -68.5zM860 1413h-627v53h627v-53z" />
<glyph unicode="&#x102;" d="M55 0zM55 54h107l524 1402h66l525 -1402h107v-54h-309v54h143l-143 381h-712l-142 -381h143v-54h-309v54zM383 489h672l-305 820l-28 82h-6l-27 -82zM984 1802l2 -6q4 -107 -70 -174.5t-202 -67.5q-129 0 -203.5 67.5t-69.5 174.5l2 6h46q0 -86 54 -139t171 -53 q112 0 168 54t56 138h46z" />
<glyph unicode="&#x103;" horiz-adv-x="1132" d="M104 0zM885 0q-13 71 -17.5 106.5t-4.5 76.5v16q-62 -97 -173.5 -158.5t-262.5 -61.5q-150 0 -236.5 81.5t-86.5 213.5q0 146 133 238t357 92h269v158q0 135 -86.5 210.5t-243.5 75.5q-103 0 -192.5 -29t-152.5 -80l-1 -173h-54l1 206q77 57 181.5 93.5t217.5 36.5 q174 0 279 -88t105 -254v-542q0 -42 3.5 -83t11.5 -81h130v-54h-177zM427 32q153 0 266 69t170 191v257h-266q-199 0 -319 -77.5t-120 -201.5q0 -101 74 -169.5t195 -68.5zM804 1484l2 -6q4 -107 -70 -174.5t-202 -67.5q-129 0 -203.5 67.5t-69.5 174.5l2 6h46 q0 -86 54 -139t171 -53q112 0 168 54t56 138h46z" />
<glyph unicode="&#x104;" d="M55 0zM55 54h107l524 1402h66l525 -1402h107v-54h-309v54h143l-143 381h-712l-142 -381h143v-54h-309v54zM383 489h672l-305 820l-28 82h-6l-27 -82zM1384 0q-76 -69 -112 -116.5t-36 -106.5q0 -23 16 -51.5t68 -28.5q35 0 60 10.5t50 27.5l16 -48q-24 -18 -54.5 -31 t-71.5 -13q-61 0 -99.5 35.5t-38.5 98.5q0 61 42 123.5t108 119.5z" />
<glyph unicode="&#x105;" horiz-adv-x="1132" d="M104 0zM885 0q-13 71 -17.5 106.5t-4.5 76.5v16q-62 -97 -173.5 -158.5t-262.5 -61.5q-150 0 -236.5 81.5t-86.5 213.5q0 146 133 238t357 92h269v158q0 135 -86.5 210.5t-243.5 75.5q-103 0 -192.5 -29t-152.5 -80l-1 -173h-54l1 206q77 57 181.5 93.5t217.5 36.5 q174 0 279 -88t105 -254v-542q0 -42 3.5 -83t11.5 -81h130v-54h-177zM427 32q153 0 266 69t170 191v257h-266q-199 0 -319 -77.5t-120 -201.5q0 -101 74 -169.5t195 -68.5zM1062 0q-76 -69 -112 -116.5t-36 -106.5q0 -23 16 -51.5t68 -28.5q35 0 60 10.5t50 27.5l16 -48 q-24 -18 -54.5 -31t-71.5 -13q-61 0 -99.5 35.5t-38.5 98.5q0 61 42 123.5t108 119.5z" />
<glyph unicode="&#x106;" horiz-adv-x="1373" d="M130 0zM1256 992h-55v234q-67 90 -179 143.5t-255 53.5q-259 0 -421 -189t-162 -495v-20q0 -307 161 -496.5t412 -189.5q144 0 261 53.5t183 143.5v234h55v-254q-73 -107 -206 -169t-293 -62q-277 0 -452 205.5t-175 534.5v18q0 330 176 535t461 205q158 0 286.5 -62 t202.5 -169v-254zM911 1834h78l2 -5l-231 -261h-67l-2 5z" />
<glyph unicode="&#x107;" horiz-adv-x="1086" d="M104 0zM546 33q137 0 242 75t105 225h46l2 -6q4 -159 -116.5 -253.5t-278.5 -94.5q-207 0 -324.5 149t-117.5 392v42q0 242 117 391t323 149q122 0 226 -50.5t167 -136.5v-232h-54v212q-57 70 -143.5 111.5t-195.5 41.5q-190 0 -288 -136t-98 -350v-42q0 -216 98 -351.5 t290 -135.5zM702 1491h78l2 -5l-231 -261h-67l-2 5z" />
<glyph unicode="&#x108;" horiz-adv-x="1373" d="M130 0zM1256 992h-55v234q-67 90 -179 143.5t-255 53.5q-259 0 -421 -189t-162 -495v-20q0 -307 161 -496.5t412 -189.5q144 0 261 53.5t183 143.5v234h55v-254q-73 -107 -206 -169t-293 -62q-277 0 -452 205.5t-175 534.5v18q0 330 176 535t461 205q158 0 286.5 -62 t202.5 -169v-254zM1012 1635v-13h-70l-185 186l-183 -186h-66v17l210 206h80z" />
<glyph unicode="&#x109;" horiz-adv-x="1086" d="M104 0zM546 33q137 0 242 75t105 225h46l2 -6q4 -159 -116.5 -253.5t-278.5 -94.5q-207 0 -324.5 149t-117.5 392v42q0 242 117 391t323 149q122 0 226 -50.5t167 -136.5v-232h-54v212q-57 70 -143.5 111.5t-195.5 41.5q-190 0 -288 -136t-98 -350v-42q0 -216 98 -351.5 t290 -135.5zM803 1292v-13h-70l-185 186l-183 -186h-66v17l210 206h80z" />
<glyph unicode="&#x10a;" horiz-adv-x="1373" d="M130 0zM1256 992h-55v234q-67 90 -179 143.5t-255 53.5q-259 0 -421 -189t-162 -495v-20q0 -307 161 -496.5t412 -189.5q144 0 261 53.5t183 143.5v234h55v-254q-73 -107 -206 -169t-293 -62q-277 0 -452 205.5t-175 534.5v18q0 330 176 535t461 205q158 0 286.5 -62 t202.5 -169v-254zM805 1659h-95v138h95v-138z" />
<glyph unicode="&#x10b;" horiz-adv-x="1086" d="M104 0zM546 33q137 0 242 75t105 225h46l2 -6q4 -159 -116.5 -253.5t-278.5 -94.5q-207 0 -324.5 149t-117.5 392v42q0 242 117 391t323 149q122 0 226 -50.5t167 -136.5v-232h-54v212q-57 70 -143.5 111.5t-195.5 41.5q-190 0 -288 -136t-98 -350v-42q0 -216 98 -351.5 t290 -135.5zM596 1317h-95v138h95v-138z" />
<glyph unicode="&#x10c;" horiz-adv-x="1373" d="M130 0zM1256 992h-55v234q-67 90 -179 143.5t-255 53.5q-259 0 -421 -189t-162 -495v-20q0 -307 161 -496.5t412 -189.5q144 0 261 53.5t183 143.5v234h55v-254q-73 -107 -206 -169t-293 -62q-277 0 -452 205.5t-175 534.5v18q0 330 176 535t461 205q158 0 286.5 -62 t202.5 -169v-254zM756 1633l184 187h67v-16l-212 -207h-79l-214 209v14h71z" />
<glyph unicode="&#x10d;" horiz-adv-x="1086" d="M104 0zM546 33q137 0 242 75t105 225h46l2 -6q4 -159 -116.5 -253.5t-278.5 -94.5q-207 0 -324.5 149t-117.5 392v42q0 242 117 391t323 149q122 0 226 -50.5t167 -136.5v-232h-54v212q-57 70 -143.5 111.5t-195.5 41.5q-190 0 -288 -136t-98 -350v-42q0 -216 98 -351.5 t290 -135.5zM547 1290l184 187h67v-16l-212 -207h-79l-214 209v14h71z" />
<glyph unicode="&#x10e;" horiz-adv-x="1386" d="M71 0zM637 1456q251 0 426 -180t175 -459v-178q0 -280 -175 -459.5t-426 -179.5h-566v54h163v1348h-163v54h163h403zM288 1402v-1348h349q227 0 387 166t160 419v181q0 250 -160 416t-387 166h-349zM590 1612l184 187h67v-16l-212 -207h-79l-214 209v14h71z" />
<glyph unicode="&#x10f;" horiz-adv-x="1355" d="M104 0zM879 173q-53 -89 -147 -141.5t-222 -52.5q-191 0 -298.5 146t-107.5 396v21q0 257 108 408.5t300 151.5q128 0 220 -58.5t147 -160.5v623h-163v54h163h54v-1506h163v-54h-215zM160 521q0 -224 88.5 -356t260.5 -132q141 0 234.5 64t135.5 171v507 q-39 116 -126 194.5t-242 78.5q-172 0 -261.5 -140.5t-89.5 -365.5v-21zM1206 1461q0 -75 -23 -135.5t-63 -106.5l-37 32q36 52 52.5 98.5t16.5 109.5v99h54v-97z" />
<glyph unicode="&#x110;" horiz-adv-x="1416" d="M667 1456q251 0 426 -180t175 -459v-178q0 -280 -175 -459.5t-426 -179.5h-566v54h163v659h-128v54h128v635h-163v54h566zM723 713h-405v-659h349q227 0 387 166t160 419v181q0 250 -160 416t-387 166h-349v-635h405v-54z" />
<glyph unicode="&#x111;" horiz-adv-x="1235" d="M879 173q-53 -89 -147 -141.5t-222 -52.5q-191 0 -298.5 146t-107.5 396v21q0 257 108 408.5t300 151.5q128 0 220 -58.5t147 -160.5v368h-309v54h309v201h-163v54h217v-255h224v-54h-224v-1197h163v-54h-215zM160 521q0 -224 88.5 -356t260.5 -132q141 0 234.5 64 t135.5 171v507q-39 116 -126 194.5t-242 78.5q-172 0 -261.5 -140.5t-89.5 -365.5v-21z" />
<glyph unicode="&#x112;" horiz-adv-x="1270" d="M71 0zM71 0v54h163v1348h-163v54h1049v-293h-54v239h-778v-616h630v-54h-630v-678h778v239h54v-293h-1049zM945 1733h-627v53h627v-53z" />
<glyph unicode="&#x113;" horiz-adv-x="1104" d="M112 0zM566 -21q-185 0 -319.5 149.5t-134.5 371.5v64q0 233 130 385.5t321 152.5q183 0 298.5 -120t115.5 -322v-83h-811v-13v-64q0 -196 115 -331.5t285 -135.5q121 0 202.5 33t139.5 99l29 -42q-64 -71 -155.5 -107.5t-215.5 -36.5zM563 1048q-161 0 -268 -117.5 t-121 -293.5l3 -6h746v33q0 165 -100 274.5t-260 109.5zM893 1412h-627v53h627v-53z" />
<glyph unicode="&#x114;" horiz-adv-x="1270" d="M71 0zM71 0v54h163v1348h-163v54h1049v-293h-54v239h-778v-616h630v-54h-630v-678h778v239h54v-293h-1049zM889 1804l2 -6q4 -107 -70 -174.5t-202 -67.5q-129 0 -203.5 67.5t-69.5 174.5l2 6h46q0 -86 54 -139t171 -53q112 0 168 54t56 138h46z" />
<glyph unicode="&#x115;" horiz-adv-x="1104" d="M112 0zM566 -21q-185 0 -319.5 149.5t-134.5 371.5v64q0 233 130 385.5t321 152.5q183 0 298.5 -120t115.5 -322v-83h-811v-13v-64q0 -196 115 -331.5t285 -135.5q121 0 202.5 33t139.5 99l29 -42q-64 -71 -155.5 -107.5t-215.5 -36.5zM563 1048q-161 0 -268 -117.5 t-121 -293.5l3 -6h746v33q0 165 -100 274.5t-260 109.5zM837 1483l2 -6q4 -107 -70 -174.5t-202 -67.5q-129 0 -203.5 67.5t-69.5 174.5l2 6h46q0 -86 54 -139t171 -53q112 0 168 54t56 138h46z" />
<glyph unicode="&#x116;" horiz-adv-x="1270" d="M71 0zM71 0v54h163v1348h-163v54h1049v-293h-54v239h-778v-616h630v-54h-630v-678h778v239h54v-293h-1049zM668 1638h-95v138h95v-138z" />
<glyph unicode="&#x117;" horiz-adv-x="1104" d="M112 0zM566 -21q-185 0 -319.5 149.5t-134.5 371.5v64q0 233 130 385.5t321 152.5q183 0 298.5 -120t115.5 -322v-83h-811v-13v-64q0 -196 115 -331.5t285 -135.5q121 0 202.5 33t139.5 99l29 -42q-64 -71 -155.5 -107.5t-215.5 -36.5zM563 1048q-161 0 -268 -117.5 t-121 -293.5l3 -6h746v33q0 165 -100 274.5t-260 109.5zM616 1318h-95v138h95v-138z" />
<glyph unicode="&#x118;" horiz-adv-x="1270" d="M71 0zM71 0v54h163v1348h-163v54h1049v-293h-54v239h-778v-616h630v-54h-630v-678h778v239h54v-293h-1049zM666 0q-76 -69 -112 -116.5t-36 -106.5q0 -23 16 -51.5t68 -28.5q35 0 60 10.5t50 27.5l16 -48q-24 -18 -54.5 -31t-71.5 -13q-61 0 -99.5 35.5t-38.5 98.5 q0 61 42 123.5t108 119.5z" />
<glyph unicode="&#x119;" horiz-adv-x="1104" d="M112 0zM566 -21q-185 0 -319.5 149.5t-134.5 371.5v64q0 233 130 385.5t321 152.5q183 0 298.5 -120t115.5 -322v-83h-811v-13v-64q0 -196 115 -331.5t285 -135.5q121 0 202.5 33t139.5 99l29 -42q-64 -71 -155.5 -107.5t-215.5 -36.5zM563 1048q-161 0 -268 -117.5 t-121 -293.5l3 -6h746v33q0 165 -100 274.5t-260 109.5zM832 58q-76 -69 -112 -116.5t-36 -106.5q0 -23 16 -51.5t68 -28.5q35 0 60 10.5t50 27.5l16 -48q-24 -18 -54.5 -31t-71.5 -13q-61 0 -99.5 35.5t-38.5 98.5q0 61 42 123.5t108 119.5z" />
<glyph unicode="&#x11a;" horiz-adv-x="1270" d="M71 0zM71 0v54h163v1348h-163v54h1049v-293h-54v239h-778v-616h630v-54h-630v-678h778v239h54v-293h-1049zM619 1612l184 187h67v-16l-212 -207h-79l-214 209v14h71z" />
<glyph unicode="&#x11b;" horiz-adv-x="1104" d="M112 0zM566 -21q-185 0 -319.5 149.5t-134.5 371.5v64q0 233 130 385.5t321 152.5q183 0 298.5 -120t115.5 -322v-83h-811v-13v-64q0 -196 115 -331.5t285 -135.5q121 0 202.5 33t139.5 99l29 -42q-64 -71 -155.5 -107.5t-215.5 -36.5zM563 1048q-161 0 -268 -117.5 t-121 -293.5l3 -6h746v33q0 165 -100 274.5t-260 109.5zM567 1291l184 187h67v-16l-212 -207h-79l-214 209v14h71z" />
<glyph unicode="&#x11c;" horiz-adv-x="1449" d="M130 0zM1248 156q-46 -64 -176.5 -120.5t-320.5 -56.5q-277 0 -449 205.5t-172 535.5v38q0 319 173 519t451 200q166 0 294.5 -57.5t204.5 -163.5v-244h-54l1 224q-69 89 -182 138t-264 49q-257 0 -413.5 -185t-156.5 -478v-40q0 -305 155.5 -496t411.5 -191 q161 0 281.5 47t161.5 101v384h-315v55h369v-464zM936 1635v-13h-70l-185 186l-183 -186h-66v17l210 206h80z" />
<glyph unicode="&#x11d;" horiz-adv-x="1140" d="M112 0zM112 542q0 257 108 408.5t300 151.5q128 0 220.5 -59t146.5 -161l8 200h46v-1068q0 -208 -109.5 -329.5t-299.5 -121.5q-79 0 -164.5 16.5t-149.5 45.5l16 54q73 -32 141 -47.5t155 -15.5q173 0 264.5 106.5t91.5 291.5v157q-54 -88 -147.5 -140t-220.5 -52 q-191 0 -298.5 146t-107.5 396v21zM167 521q0 -224 89 -356t261 -132q144 0 236.5 66t132.5 177v491q-38 119 -123.5 200t-243.5 81q-172 0 -262 -140.5t-90 -365.5v-21zM823 1292v-13h-70l-185 186l-183 -186h-66v17l210 206h80z" />
<glyph unicode="&#x11e;" horiz-adv-x="1449" d="M130 0zM1248 156q-46 -64 -176.5 -120.5t-320.5 -56.5q-277 0 -449 205.5t-172 535.5v38q0 319 173 519t451 200q166 0 294.5 -57.5t204.5 -163.5v-244h-54l1 224q-69 89 -182 138t-264 49q-257 0 -413.5 -185t-156.5 -478v-40q0 -305 155.5 -496t411.5 -191 q161 0 281.5 47t161.5 101v384h-315v55h369v-464zM950 1825l2 -6q4 -107 -70 -174.5t-202 -67.5q-129 0 -203.5 67.5t-69.5 174.5l2 6h46q0 -86 54 -139t171 -53q112 0 168 54t56 138h46z" />
<glyph unicode="&#x11f;" horiz-adv-x="1140" d="M112 0zM112 542q0 257 108 408.5t300 151.5q128 0 220.5 -59t146.5 -161l8 200h46v-1068q0 -208 -109.5 -329.5t-299.5 -121.5q-79 0 -164.5 16.5t-149.5 45.5l16 54q73 -32 141 -47.5t155 -15.5q173 0 264.5 106.5t91.5 291.5v157q-54 -88 -147.5 -140t-220.5 -52 q-191 0 -298.5 146t-107.5 396v21zM167 521q0 -224 89 -356t261 -132q144 0 236.5 66t132.5 177v491q-38 119 -123.5 200t-243.5 81q-172 0 -262 -140.5t-90 -365.5v-21zM837 1482l2 -6q4 -107 -70 -174.5t-202 -67.5q-129 0 -203.5 67.5t-69.5 174.5l2 6h46q0 -86 54 -139 t171 -53q112 0 168 54t56 138h46z" />
<glyph unicode="&#x120;" horiz-adv-x="1449" d="M130 0zM1248 156q-46 -64 -176.5 -120.5t-320.5 -56.5q-277 0 -449 205.5t-172 535.5v38q0 319 173 519t451 200q166 0 294.5 -57.5t204.5 -163.5v-244h-54l1 224q-69 89 -182 138t-264 49q-257 0 -413.5 -185t-156.5 -478v-40q0 -305 155.5 -496t411.5 -191 q161 0 281.5 47t161.5 101v384h-315v55h369v-464zM729 1659h-95v138h95v-138z" />
<glyph unicode="&#x121;" horiz-adv-x="1140" d="M112 0zM112 542q0 257 108 408.5t300 151.5q128 0 220.5 -59t146.5 -161l8 200h46v-1068q0 -208 -109.5 -329.5t-299.5 -121.5q-79 0 -164.5 16.5t-149.5 45.5l16 54q73 -32 141 -47.5t155 -15.5q173 0 264.5 106.5t91.5 291.5v157q-54 -88 -147.5 -140t-220.5 -52 q-191 0 -298.5 146t-107.5 396v21zM167 521q0 -224 89 -356t261 -132q144 0 236.5 66t132.5 177v491q-38 119 -123.5 200t-243.5 81q-172 0 -262 -140.5t-90 -365.5v-21zM616 1317h-95v138h95v-138z" />
<glyph unicode="&#x122;" horiz-adv-x="1449" d="M130 0zM1248 156q-46 -64 -176.5 -120.5t-320.5 -56.5q-277 0 -449 205.5t-172 535.5v38q0 319 173 519t451 200q166 0 294.5 -57.5t204.5 -163.5v-244h-54l1 224q-69 89 -182 138t-264 49q-257 0 -413.5 -185t-156.5 -478v-40q0 -305 155.5 -496t411.5 -191 q161 0 281.5 47t161.5 101v384h-315v55h369v-464zM728 -255q0 -75 -23 -135.5t-63 -106.5l-37 32q36 52 52.5 98.5t16.5 109.5v99h54v-97z" />
<glyph unicode="&#x123;" horiz-adv-x="1140" d="M112 0zM112 542q0 257 108 408.5t300 151.5q128 0 220.5 -59t146.5 -161l8 200h46v-1068q0 -208 -109.5 -329.5t-299.5 -121.5q-79 0 -164.5 16.5t-149.5 45.5l16 54q73 -32 141 -47.5t155 -15.5q173 0 264.5 106.5t91.5 291.5v157q-54 -88 -147.5 -140t-220.5 -52 q-191 0 -298.5 146t-107.5 396v21zM167 521q0 -224 89 -356t261 -132q144 0 236.5 66t132.5 177v491q-38 119 -123.5 200t-243.5 81q-172 0 -262 -140.5t-90 -365.5v-21zM544 1402l59 188h50l-55 -184v-132h-54v128z" />
<glyph unicode="&#x124;" horiz-adv-x="1506" d="M71 0zM71 1402v54h380v-54h-163v-653h930v653h-163v54h163h54h163v-54h-163v-1348h163v-54h-380v54h163v641h-930v-641h163v-54h-380v54h163v1348h-163zM972 1614v-13h-70l-185 186l-183 -186h-66v17l210 206h80z" />
<glyph unicode="&#x125;" horiz-adv-x="1278" d="M62 0zM62 1506v54h217v-706q50 118 147 183t237 65q169 0 256.5 -107t87.5 -337v-604h163v-54h-381v54h163v606q0 213 -78.5 300.5t-209.5 87.5q-175 0 -268 -104.5t-117 -267.5v-622h163v-54h-380v54h163v1452h-163zM652 1613v-13h-70l-185 186l-183 -186h-66v17 l210 206h80z" />
<glyph unicode="&#x126;" horiz-adv-x="1451" d="M1409 1456v-54h-163v-321h135v-53h-135v-974h163v-54h-380v54h163v641h-930v-641h163v-54h-380v54h163v974h-159v53h159v321h-163v54h380v-54h-163v-321h930v321h-163v54h163h54h163zM262 749h930v279h-930v-279z" />
<glyph unicode="&#x127;" horiz-adv-x="1308" d="M92 54h163v1205h-148v54h148v193h-163v54h217v-247h385v-54h-385v-405q50 118 147 183t237 65q169 0 256.5 -107t87.5 -337v-604h163v-54h-381v54h163v606q0 213 -78.5 300.5t-209.5 87.5q-175 0 -268 -104.5t-117 -267.5v-622h163v-54h-380v54z" />
<glyph unicode="&#x128;" horiz-adv-x="598" d="M18 0zM109 1402v54h380v-54h-163v-1348h163v-54h-380v54h163v1348h-163zM657 1801q0 -82 -51 -134t-125 -52q-76 0 -154 62.5t-133 62.5q-52 0 -86.5 -37t-34.5 -98l-55 10q0 80 50 129.5t126 49.5q72 0 153 -62t134 -62q50 0 85.5 39.5t35.5 101.5z" />
<glyph unicode="&#x129;" horiz-adv-x="608" d="M0 0zM90 1028v54h217v-1028h163v-54h-380v54h163v974h-163zM634 1459q0 -82 -51 -134t-125 -52q-76 0 -154 62.5t-133 62.5q-52 0 -86.5 -37t-34.5 -98l-55 10q0 80 50 129.5t126 49.5q72 0 153 -62t134 -62q50 0 85.5 39.5t35.5 101.5z" />
<glyph unicode="&#x12a;" horiz-adv-x="598" d="M7 0zM109 1402v54h380v-54h-163v-1348h163v-54h-380v54h163v1348h-163zM634 1733h-627v53h627v-53z" />
<glyph unicode="&#x12b;" horiz-adv-x="608" d="M0 0zM90 1028v54h217v-1028h163v-54h-380v54h163v974h-163zM611 1391h-627v53h627v-53z" />
<glyph unicode="&#x12c;" horiz-adv-x="598" d="M30 0zM109 1402v54h380v-54h-163v-1348h163v-54h-380v54h163v1348h-163zM578 1804l2 -6q4 -107 -70 -174.5t-202 -67.5q-129 0 -203.5 67.5t-69.5 174.5l2 6h46q0 -86 54 -139t171 -53q112 0 168 54t56 138h46z" />
<glyph unicode="&#x12d;" horiz-adv-x="608" d="M7 0zM90 1028v54h217v-1028h163v-54h-380v54h163v974h-163zM555 1461l2 -6q4 -107 -70 -174.5t-202 -67.5q-129 0 -203.5 67.5t-69.5 174.5l2 6h46q0 -86 54 -139t171 -53q112 0 168 54t56 138h46z" />
<glyph unicode="&#x12e;" horiz-adv-x="598" d="M109 0zM109 1402v54h380v-54h-163v-1348h163v-54h-380v54h163v1348h-163zM489 0q-76 -69 -112 -116.5t-36 -106.5q0 -23 16 -51.5t68 -28.5q35 0 60 10.5t50 27.5l16 -48q-24 -18 -54.5 -31t-71.5 -13q-61 0 -99.5 35.5t-38.5 98.5q0 61 42 123.5t108 119.5z" />
<glyph unicode="&#x12f;" horiz-adv-x="609" d="M89 0zM89 54h163v974h-163v54h217v-1028h163v-54h-380v54zM306 1422h-54v138h54v-138zM469 0q-76 -69 -112 -116.5t-36 -106.5q0 -23 16 -51.5t68 -28.5q35 0 60 10.5t50 27.5l16 -48q-24 -18 -54.5 -31t-71.5 -13q-61 0 -99.5 35.5t-38.5 98.5q0 61 42 123.5t108 119.5z " />
<glyph unicode="&#x130;" horiz-adv-x="598" d="M109 0zM109 1402v54h380v-54h-163v-1348h163v-54h-380v54h163v1348h-163zM356 1638h-95v138h95v-138z" />
<glyph unicode="&#x131;" horiz-adv-x="608" d="M90 1028v54h217v-1028h163v-54h-380v54h163v974h-163z" />
<glyph unicode="&#x132;" horiz-adv-x="1735" d="M109 0zM109 1402v54h380v-54h-163v-1348h163v-54h-380v54h163v1348h-163zM1641 1402h-163v-980q0 -203 -114.5 -323t-294.5 -120q-200 0 -315 106t-110 310l2 6h46q0 -178 97 -273t280 -95q153 0 254 105t101 284v980h-163v54h380v-54z" />
<glyph unicode="&#x133;" horiz-adv-x="1164" d="M89 0zM89 54h163v974h-163v54h217v-1028h163v-54h-380v54zM306 1422h-54v138h54v-138zM993 -89q0 -167 -75 -257.5t-210 -90.5q-30 0 -56 5t-56 15l13 52q18 -6 45.5 -12t53.5 -6q110 0 170.5 77t60.5 217v1117h-163v54h217v-1171zM987 1426h-54v134h54v-134z" />
<glyph unicode="&#x134;" horiz-adv-x="1137" d="M41 0zM1043 1402h-163v-980q0 -203 -114.5 -323t-294.5 -120q-200 0 -315 106t-110 310l2 6h46q0 -178 97 -273t280 -95q153 0 254 105t101 284v980h-163v54h380v-54zM1139 1584v-13h-70l-185 186l-183 -186h-66v17l210 206h80z" />
<glyph unicode="&#x135;" horiz-adv-x="563" d="M0 0zM393 -89q0 -167 -75 -257.5t-210 -90.5q-30 0 -56 5t-56 15l13 52q18 -6 45.5 -12t53.5 -6q110 0 170.5 76.5t60.5 217.5v1117h-163v54h217v-1171zM623 1252v-13h-70l-185 186l-183 -186h-66v17l210 206h80z" />
<glyph unicode="&#x136;" horiz-adv-x="1388" d="M71 0zM71 54h163v1348h-163v54h380v-54h-163v-638h238l565 633l-2 5h-168v54h361v-54h-115l-596 -672l639 -676h118v-54h-361v54h163l3 6l-622 651h-223v-657h163v-54h-380v54zM660 -259q0 -75 -23 -135.5t-63 -106.5l-37 32q36 52 52.5 98.5t16.5 109.5v99h54v-97z" />
<glyph unicode="&#x137;" horiz-adv-x="1152" d="M62 0zM62 1506v54h217v-953h127l430 415l-2 6h-119v54h321v-54h-122l-447 -439l489 -535h117v-54h-320v54h126l2 5l-454 494h-148v-499h163v-54h-380v54h163v1452h-163zM558 -245q0 -75 -23 -135.5t-63 -106.5l-37 32q36 52 52.5 98.5t16.5 109.5v99h54v-97z" />
<glyph unicode="&#x138;" horiz-adv-x="1155" d="M62 54h163v973h-163v54h217v-474h127l430 415l-2 6h-119v54h321v-54h-122l-447 -439l489 -535h117v-54h-137l-509 553h-148v-499h163v-54h-380v54z" />
<glyph unicode="&#x139;" horiz-adv-x="1161" d="M71 0zM71 0v54h163v1348h-163v54h163h55h163v-54h-163v-1348h693v239h54v-293h-965zM412 1750h78l2 -5l-231 -261h-67l-2 5z" />
<glyph unicode="&#x13a;" horiz-adv-x="581" d="M82 0zM82 1506v54h217v-1506h163v-54h-380v54h163v1452h-163zM428 1874h78l2 -5l-231 -261h-67l-2 5z" />
<glyph unicode="&#x13b;" horiz-adv-x="1161" d="M71 0zM71 0v54h163v1348h-163v54h163h55h163v-54h-163v-1348h693v239h54v-293h-965zM647 -245q0 -75 -23 -135.5t-63 -106.5l-37 32q36 52 52.5 98.5t16.5 109.5v99h54v-97z" />
<glyph unicode="&#x13c;" horiz-adv-x="581" d="M82 0zM82 1506v54h217v-1506h163v-54h-380v54h163v1452h-163zM292 -245q0 -75 -23 -135.5t-63 -106.5l-37 32q36 52 52.5 98.5t16.5 109.5v99h54v-97z" />
<glyph unicode="&#x13d;" horiz-adv-x="1161" d="M71 0zM71 0v54h163v1348h-163v54h163h55h163v-54h-163v-1348h693v239h54v-293h-965zM650 1358q0 -75 -23 -135.5t-63 -106.5l-37 32q36 52 52.5 98.5t16.5 109.5v99h54v-97z" />
<glyph unicode="&#x13e;" horiz-adv-x="731" d="M82 0zM82 1506v54h217v-1506h163v-54h-380v54h163v1452h-163zM519 1461q0 -75 -23 -135.5t-63 -106.5l-37 32q36 52 52.5 98.5t16.5 109.5v99h54v-97z" />
<glyph unicode="&#x13f;" horiz-adv-x="1161" d="M71 0zM71 0v54h163v1348h-163v54h163h55h163v-54h-163v-1348h693v239h54v-293h-965zM696 687h-95v138h95v-138z" />
<glyph unicode="&#x140;" horiz-adv-x="801" d="M82 0zM82 1506v54h217v-1506h163v-54h-380v54h163v1452h-163zM512 726h-95v138h95v-138z" />
<glyph unicode="&#x141;" horiz-adv-x="1161" d="M452 1402h-163v-626l364 116v-57l-364 -116v-665h693v239h54v-293h-965v54h163v648l-171 -54v57l171 54v643h-163v54h381v-54z" />
<glyph unicode="&#x142;" horiz-adv-x="524" d="M279 841l218 89v-59l-218 -89v-728h163v-54h-380v54h163v706l-188 -76v59l188 76v687h-163v54h217v-719z" />
<glyph unicode="&#x143;" horiz-adv-x="1517" d="M71 0zM1446 1456v-54h-163v-1402h-54l-934 1356l-6 -2v-1300h163v-54h-381v54h163v1348h-163v54h163h55l934 -1353l6 2v1297h-163v54h217h163zM881 1813h78l2 -5l-231 -261h-67l-2 5z" />
<glyph unicode="&#x144;" horiz-adv-x="1320" d="M89 0zM89 54h163v974h-163v54h209l7 -223q49 116 143 179.5t232 63.5q177 0 265.5 -111.5t88.5 -353.5v-583h163v-54h-380v54h163v585q0 225 -80.5 317t-218.5 92q-175 0 -264 -104.5t-111 -267.5v-622h163v-54h-380v54zM792 1491h78l2 -5l-231 -261h-67l-2 5z" />
<glyph unicode="&#x145;" horiz-adv-x="1517" d="M71 0zM1446 1456v-54h-163v-1402h-54l-934 1356l-6 -2v-1300h163v-54h-381v54h163v1348h-163v54h163h55l934 -1353l6 2v1297h-163v54h217h163zM748 -245q0 -75 -23 -135.5t-63 -106.5l-37 32q36 52 52.5 98.5t16.5 109.5v99h54v-97z" />
<glyph unicode="&#x146;" horiz-adv-x="1320" d="M89 0zM89 54h163v974h-163v54h209l7 -223q49 116 143 179.5t232 63.5q177 0 265.5 -111.5t88.5 -353.5v-583h163v-54h-380v54h163v585q0 225 -80.5 317t-218.5 92q-175 0 -264 -104.5t-111 -267.5v-622h163v-54h-380v54zM661 -245q0 -75 -23 -135.5t-63 -106.5l-37 32 q36 52 52.5 98.5t16.5 109.5v99h54v-97z" />
<glyph unicode="&#x147;" horiz-adv-x="1517" d="M71 0zM1446 1456v-54h-163v-1402h-54l-934 1356l-6 -2v-1300h163v-54h-381v54h163v1348h-163v54h163h55l934 -1353l6 2v1297h-163v54h217h163zM726 1612l184 187h67v-16l-212 -207h-79l-214 209v14h71z" />
<glyph unicode="&#x148;" horiz-adv-x="1320" d="M89 0zM89 54h163v974h-163v54h209l7 -223q49 116 143 179.5t232 63.5q177 0 265.5 -111.5t88.5 -353.5v-583h163v-54h-380v54h163v585q0 225 -80.5 317t-218.5 92q-175 0 -264 -104.5t-111 -267.5v-622h163v-54h-380v54zM637 1290l184 187h67v-16l-212 -207h-79l-214 209 v14h71z" />
<glyph unicode="&#x149;" horiz-adv-x="1320" d="M38 0zM89 54h163v974h-163v54h209l7 -223q49 116 143 179.5t232 63.5q177 0 265.5 -111.5t88.5 -353.5v-583h163v-54h-380v54h163v585q0 225 -80.5 317t-218.5 92q-175 0 -264 -104.5t-111 -267.5v-622h163v-54h-380v54zM161 1458q0 -75 -23 -135.5t-63 -106.5l-37 32 q36 52 52.5 98.5t16.5 109.5v99h54v-97z" />
<glyph unicode="&#x14a;" horiz-adv-x="1537" d="M70 54h163v1348h-163v54h217l936 -1355l6 2v1299h-163v54h380v-54h-163v-1491q0 -167 -75.5 -257.5t-209.5 -90.5q-30 0 -56 5t-56 15l13 52q18 -7 45 -12.5t54 -5.5q110 0 170.5 77t60.5 217v89l-936 1356l-6 -2v-1300h163v-54h-380v54z" />
<glyph unicode="&#x14b;" horiz-adv-x="1225" d="M90 1028v54h211l6 -224q49 116 143 180t233 64q177 0 265.5 -111.5t88.5 -353.5v-726q0 -167 -75.5 -257.5t-209.5 -90.5q-36 0 -67 5t-66 15l13 52q21 -7 55 -13t65 -6q110 0 170.5 77.5t60.5 217.5v728q0 225 -80 317t-219 92q-174 0 -264 -103t-113 -265v-626h163v-54 h-380v54h163v974h-163z" />
<glyph unicode="&#x14c;" horiz-adv-x="1488" d="M130 0zM1348 719q0 -336 -168.5 -538t-439.5 -202q-272 0 -441 202.5t-169 537.5v18q0 335 168 537.5t440 202.5q271 0 440.5 -202.5t169.5 -537.5v-18zM1294 739q0 309 -151.5 496.5t-404.5 187.5q-252 0 -402.5 -187.5t-150.5 -496.5v-20q0 -311 151 -498.5t404 -187.5 t403.5 187.5t150.5 498.5v20zM1063 1754h-627v53h627v-53z" />
<glyph unicode="&#x14d;" horiz-adv-x="1155" d="M104 0zM104 562q0 238 131.5 389t341.5 151q211 0 342.5 -151t131.5 -389v-42q0 -239 -131.5 -390t-340.5 -151q-211 0 -343 151t-132 390v42zM158 520q0 -204 114 -345.5t307 -141.5q190 0 304 142t114 345v42q0 199 -115 342.5t-305 143.5q-191 0 -305 -143.5 t-114 -342.5v-42zM908 1411h-627v53h627v-53z" />
<glyph unicode="&#x14e;" horiz-adv-x="1488" d="M130 0zM1348 719q0 -336 -168.5 -538t-439.5 -202q-272 0 -441 202.5t-169 537.5v18q0 335 168 537.5t440 202.5q271 0 440.5 -202.5t169.5 -537.5v-18zM1294 739q0 309 -151.5 496.5t-404.5 187.5q-252 0 -402.5 -187.5t-150.5 -496.5v-20q0 -311 151 -498.5t404 -187.5 t403.5 187.5t150.5 498.5v20zM1007 1825l2 -6q4 -107 -70 -174.5t-202 -67.5q-129 0 -203.5 67.5t-69.5 174.5l2 6h46q0 -86 54 -139t171 -53q112 0 168 54t56 138h46z" />
<glyph unicode="&#x14f;" horiz-adv-x="1155" d="M104 0zM104 562q0 238 131.5 389t341.5 151q211 0 342.5 -151t131.5 -389v-42q0 -239 -131.5 -390t-340.5 -151q-211 0 -343 151t-132 390v42zM158 520q0 -204 114 -345.5t307 -141.5q190 0 304 142t114 345v42q0 199 -115 342.5t-305 143.5q-191 0 -305 -143.5 t-114 -342.5v-42zM852 1482l2 -6q4 -107 -70 -174.5t-202 -67.5q-129 0 -203.5 67.5t-69.5 174.5l2 6h46q0 -86 54 -139t171 -53q112 0 168 54t56 138h46z" />
<glyph unicode="&#x150;" horiz-adv-x="1488" d="M130 0zM1348 719q0 -336 -168.5 -538t-439.5 -202q-272 0 -441 202.5t-169 537.5v18q0 335 168 537.5t440 202.5q271 0 440.5 -202.5t169.5 -537.5v-18zM1294 739q0 309 -151.5 496.5t-404.5 187.5q-252 0 -402.5 -187.5t-150.5 -496.5v-20q0 -311 151 -498.5t404 -187.5 t403.5 187.5t150.5 498.5v20zM1021 1888h72l2 -6l-292 -260h-65l-2 6zM751 1888h68l3 -6l-248 -260h-62l-2 5z" />
<glyph unicode="&#x151;" horiz-adv-x="1155" d="M104 0zM104 562q0 238 131.5 389t341.5 151q211 0 342.5 -151t131.5 -389v-42q0 -239 -131.5 -390t-340.5 -151q-211 0 -343 151t-132 390v42zM158 520q0 -204 114 -345.5t307 -141.5q190 0 304 142t114 345v42q0 199 -115 342.5t-305 143.5q-191 0 -305 -143.5 t-114 -342.5v-42zM866 1545h72l2 -6l-292 -260h-65l-2 6zM596 1545h68l3 -6l-248 -260h-62l-2 5z" />
<glyph unicode="&#x152;" horiz-adv-x="1973" d="M963 0q-103 -10 -178 -15.5t-152 -5.5q-231 0 -375 166t-144 431v304q0 265 143 431t374 166q80 0 161.5 -6t170.5 -15h872v-293h-54v239h-778v-616h630v-54h-630v-678h778v239h54v-293h-872zM633 33q37 0 76 0.5t77 2.5v18h163v1348h-163v18q-38 1 -77 2t-78 1 q-211 0 -337 -149t-126 -392v-306q0 -240 127.5 -391.5t337.5 -151.5z" />
<glyph unicode="&#x153;" horiz-adv-x="1932" d="M104 562q0 238 131.5 389t341.5 151q165 0 284.5 -96t165.5 -259q45 161 161 258t265 97q183 0 298.5 -120t115.5 -322v-83h-811v-13v-64q0 -196 115 -331.5t285 -135.5q121 0 202.5 33t139.5 99l29 -42q-64 -71 -155.5 -107.5t-215.5 -36.5q-146 0 -265 97t-165 255 q-47 -163 -165.5 -257.5t-281.5 -94.5q-211 0 -343 151t-132 390v42zM158 520q0 -204 114 -345.5t307 -141.5q190 0 304 142t114 345v42q0 199 -115 342.5t-305 143.5q-191 0 -305 -143.5t-114 -342.5v-42zM1453 1048q-161 0 -268 -117.5t-121 -293.5l3 -6h746v33 q0 165 -100 274.5t-260 109.5z" />
<glyph unicode="&#x154;" horiz-adv-x="1364" d="M71 0zM648 1455q230 0 354 -99.5t124 -290.5q0 -123 -78.5 -223.5t-214.5 -130.5q157 -27 225 -115t68 -225v-147q0 -86 29.5 -128t87.5 -42h51v-54h-51q-97 0 -134 65.5t-37 160.5v143q0 148 -101.5 231t-289.5 83h-393v-630h163v-54h-380v54h163v1348h-163v54h163h414z M288 737h350q223 0 328.5 94t105.5 234q0 163 -106.5 249.5t-317.5 86.5h-360v-664zM761 1813h78l2 -5l-231 -261h-67l-2 5z" />
<glyph unicode="&#x155;" horiz-adv-x="803" d="M89 0zM296 1082l10 -188v-37q45 116 134 180.5t219 64.5q23 0 42.5 -3.5t33.5 -7.5l-6 -48l-70 6q-145 0 -235.5 -93.5t-117.5 -246.5v-655h163v-54h-380v54h163v974h-163v54h163h44zM568 1491h78l2 -5l-231 -261h-67l-2 5z" />
<glyph unicode="&#x156;" horiz-adv-x="1364" d="M71 0zM648 1455q230 0 354 -99.5t124 -290.5q0 -123 -78.5 -223.5t-214.5 -130.5q157 -27 225 -115t68 -225v-147q0 -86 29.5 -128t87.5 -42h51v-54h-51q-97 0 -134 65.5t-37 160.5v143q0 148 -101.5 231t-289.5 83h-393v-630h163v-54h-380v54h163v1348h-163v54h163h414z M288 737h350q223 0 328.5 94t105.5 234q0 163 -106.5 249.5t-317.5 86.5h-360v-664zM628 -245q0 -75 -23 -135.5t-63 -106.5l-37 32q36 52 52.5 98.5t16.5 109.5v99h54v-97z" />
<glyph unicode="&#x157;" horiz-adv-x="803" d="M89 0zM296 1082l10 -188v-37q45 116 134 180.5t219 64.5q23 0 42.5 -3.5t33.5 -7.5l-6 -48l-70 6q-145 0 -235.5 -93.5t-117.5 -246.5v-655h163v-54h-380v54h163v974h-163v54h163h44zM297 -236q0 -75 -23 -135.5t-63 -106.5l-37 32q36 52 52.5 98.5t16.5 109.5v99h54v-97 z" />
<glyph unicode="&#x158;" horiz-adv-x="1364" d="M71 0zM648 1455q230 0 354 -99.5t124 -290.5q0 -123 -78.5 -223.5t-214.5 -130.5q157 -27 225 -115t68 -225v-147q0 -86 29.5 -128t87.5 -42h51v-54h-51q-97 0 -134 65.5t-37 160.5v143q0 148 -101.5 231t-289.5 83h-393v-630h163v-54h-380v54h163v1348h-163v54h163h414z M288 737h350q223 0 328.5 94t105.5 234q0 163 -106.5 249.5t-317.5 86.5h-360v-664zM606 1612l184 187h67v-16l-212 -207h-79l-214 209v14h71z" />
<glyph unicode="&#x159;" horiz-adv-x="803" d="M89 0zM296 1082l10 -188v-37q45 116 134 180.5t219 64.5q23 0 42.5 -3.5t33.5 -7.5l-6 -48l-70 6q-145 0 -235.5 -93.5t-117.5 -246.5v-655h163v-54h-380v54h163v974h-163v54h163h44zM413 1290l184 187h67v-16l-212 -207h-79l-214 209v14h71z" />
<glyph unicode="&#x15a;" horiz-adv-x="1198" d="M100 0zM1077 1022h-54v204q-64 97 -171.5 147t-254.5 50q-198 0 -313.5 -88.5t-115.5 -212.5t95.5 -206t345.5 -146q242 -64 365.5 -156.5t123.5 -262.5q0 -173 -141 -272.5t-353 -99.5q-146 0 -280.5 54.5t-223.5 170.5v240h54v-217q78 -102 199 -148t251 -46 q192 0 315.5 88t123.5 228q0 137 -100.5 219t-348.5 150q-249 67 -364.5 152.5t-115.5 249.5q0 163 136 260t347 97q164 0 286.5 -56.5t193.5 -169.5v-229zM777 1834h78l2 -5l-231 -261h-67l-2 5z" />
<glyph unicode="&#x15b;" horiz-adv-x="1009" d="M103 0zM852 753h-54v175q-52 58 -132.5 89t-186.5 31q-152 0 -230 -65.5t-78 -151.5q0 -85 66 -145t262 -105q181 -42 274.5 -114.5t93.5 -202.5q0 -127 -104 -206t-276 -79q-118 0 -217.5 38t-166.5 105v193h54v-163q59 -63 146 -91t184 -28q150 0 238 70t88 162 q0 86 -73.5 156.5t-256.5 110.5q-191 40 -278.5 106.5t-87.5 190.5q0 116 98 194.5t264 78.5q116 0 214.5 -40t158.5 -107v-202zM663 1491h78l2 -5l-231 -261h-67l-2 5z" />
<glyph unicode="&#x15c;" horiz-adv-x="1198" d="M100 0zM1077 1022h-54v204q-64 97 -171.5 147t-254.5 50q-198 0 -313.5 -88.5t-115.5 -212.5t95.5 -206t345.5 -146q242 -64 365.5 -156.5t123.5 -262.5q0 -173 -141 -272.5t-353 -99.5q-146 0 -280.5 54.5t-223.5 170.5v240h54v-217q78 -102 199 -148t251 -46 q192 0 315.5 88t123.5 228q0 137 -100.5 219t-348.5 150q-249 67 -364.5 152.5t-115.5 249.5q0 163 136 260t347 97q164 0 286.5 -56.5t193.5 -169.5v-229zM878 1635v-13h-70l-185 186l-183 -186h-66v17l210 206h80z" />
<glyph unicode="&#x15d;" horiz-adv-x="1009" d="M103 0zM852 753h-54v175q-52 58 -132.5 89t-186.5 31q-152 0 -230 -65.5t-78 -151.5q0 -85 66 -145t262 -105q181 -42 274.5 -114.5t93.5 -202.5q0 -127 -104 -206t-276 -79q-118 0 -217.5 38t-166.5 105v193h54v-163q59 -63 146 -91t184 -28q150 0 238 70t88 162 q0 86 -73.5 156.5t-256.5 110.5q-191 40 -278.5 106.5t-87.5 190.5q0 116 98 194.5t264 78.5q116 0 214.5 -40t158.5 -107v-202zM764 1292v-13h-70l-185 186l-183 -186h-66v17l210 206h80z" />
<glyph unicode="&#x15e;" horiz-adv-x="1198" d="M100 0zM1077 1022h-54v204q-64 97 -171.5 147t-254.5 50q-198 0 -313.5 -88.5t-115.5 -212.5t95.5 -206t345.5 -146q242 -64 365.5 -156.5t123.5 -262.5q0 -173 -141 -272.5t-353 -99.5q-146 0 -280.5 54.5t-223.5 170.5v240h54v-217q78 -102 199 -148t251 -46 q192 0 315.5 88t123.5 228q0 137 -100.5 219t-348.5 150q-249 67 -364.5 152.5t-115.5 249.5q0 163 136 260t347 97q164 0 286.5 -56.5t193.5 -169.5v-229zM672 -9l-11 -76q91 -7 144 -45.5t53 -123.5q0 -87 -79 -138.5t-226 -51.5l-7 49q104 0 180.5 36t76.5 105 q0 64 -45.5 89t-163.5 35l25 121h53z" />
<glyph unicode="&#x15f;" horiz-adv-x="1009" d="M103 0zM852 753h-54v175q-52 58 -132.5 89t-186.5 31q-152 0 -230 -65.5t-78 -151.5q0 -85 66 -145t262 -105q181 -42 274.5 -114.5t93.5 -202.5q0 -127 -104 -206t-276 -79q-118 0 -217.5 38t-166.5 105v193h54v-163q59 -63 146 -91t184 -28q150 0 238 70t88 162 q0 86 -73.5 156.5t-256.5 110.5q-191 40 -278.5 106.5t-87.5 190.5q0 116 98 194.5t264 78.5q116 0 214.5 -40t158.5 -107v-202zM538 -4l-11 -76q91 -7 144 -45.5t53 -123.5q0 -87 -79 -138.5t-226 -51.5l-7 49q104 0 180.5 36t76.5 105q0 64 -45.5 89t-163.5 35l25 121h53z " />
<glyph unicode="&#x160;" horiz-adv-x="1198" d="M100 0zM1077 1022h-54v204q-64 97 -171.5 147t-254.5 50q-198 0 -313.5 -88.5t-115.5 -212.5t95.5 -206t345.5 -146q242 -64 365.5 -156.5t123.5 -262.5q0 -173 -141 -272.5t-353 -99.5q-146 0 -280.5 54.5t-223.5 170.5v240h54v-217q78 -102 199 -148t251 -46 q192 0 315.5 88t123.5 228q0 137 -100.5 219t-348.5 150q-249 67 -364.5 152.5t-115.5 249.5q0 163 136 260t347 97q164 0 286.5 -56.5t193.5 -169.5v-229zM622 1633l184 187h67v-16l-212 -207h-79l-214 209v14h71z" />
<glyph unicode="&#x161;" horiz-adv-x="1009" d="M103 0zM852 753h-54v175q-52 58 -132.5 89t-186.5 31q-152 0 -230 -65.5t-78 -151.5q0 -85 66 -145t262 -105q181 -42 274.5 -114.5t93.5 -202.5q0 -127 -104 -206t-276 -79q-118 0 -217.5 38t-166.5 105v193h54v-163q59 -63 146 -91t184 -28q150 0 238 70t88 162 q0 86 -73.5 156.5t-256.5 110.5q-191 40 -278.5 106.5t-87.5 190.5q0 116 98 194.5t264 78.5q116 0 214.5 -40t158.5 -107v-202zM508 1290l184 187h67v-16l-212 -207h-79l-214 209v14h71z" />
<glyph unicode="&#x162;" horiz-adv-x="1277" d="M80 0zM1194 1456v-293h-54v239h-476v-1348h163v-54h-380v54h163v1348h-476v-239h-54v293h1114zM680 0l-11 -76q91 -7 144 -45.5t53 -123.5q0 -87 -79 -138.5t-226 -51.5l-7 49q104 0 180.5 36t76.5 105q0 64 -45.5 89t-163.5 35l25 121h53z" />
<glyph unicode="&#x163;" horiz-adv-x="719" d="M65 0zM320 1374v-292h266v-55h-266v-748q0 -133 45 -189.5t119 -56.5q32 0 57 2t69 7l10 -49q-30 -8 -61.5 -11t-71.5 -3q-109 0 -165.5 71t-56.5 229v748h-200v55h200v292h55zM507 0l-11 -76q91 -7 144 -45.5t53 -123.5q0 -87 -79 -138.5t-226 -51.5l-7 49 q104 0 180.5 36t76.5 105q0 64 -45.5 89t-163.5 35l25 121h53z" />
<glyph unicode="&#x164;" horiz-adv-x="1277" d="M80 0zM1194 1456v-293h-54v239h-476v-1348h163v-54h-380v54h163v1348h-476v-239h-54v293h1114zM649 1604l184 187h67v-16l-212 -207h-79l-214 209v14h71z" />
<glyph unicode="&#x165;" horiz-adv-x="759" d="M65 0zM320 1374v-292h266v-55h-266v-748q0 -133 45 -189.5t119 -56.5q32 0 57 2t69 7l10 -49q-30 -8 -61.5 -11t-71.5 -3q-109 0 -165.5 71t-56.5 229v748h-200v55h200v292h55zM532 1442q0 -75 -23 -135.5t-63 -106.5l-37 32q36 52 52.5 98.5t16.5 109.5v99h54v-97z" />
<glyph unicode="&#x166;" horiz-adv-x="1277" d="M1194 1456v-293h-54v239h-476v-501h304v-54h-304v-793h163v-54h-380v54h163v793h-229v54h229v501h-476v-239h-54v293h1114z" />
<glyph unicode="&#x167;" horiz-adv-x="719" d="M320 1374v-292h266v-55h-266v-339h354v-54h-354v-355q0 -133 45 -189.5t119 -56.5q32 0 57 2t69 7l10 -49q-30 -8 -61.5 -11t-71.5 -3q-109 0 -165.5 71t-56.5 229v355h-178v54h178v339h-200v55h200v292h55z" />
<glyph unicode="&#x168;" horiz-adv-x="1441" d="M60 0zM440 1456v-54h-163v-933q0 -205 124 -320.5t320 -115.5q195 0 319 115.5t124 320.5v933h-163v54h217h163v-54h-163v-933q0 -238 -138 -364t-359 -126q-223 0 -360.5 126.5t-137.5 363.5v933h-163v54h163h54h163zM1076 1789q0 -82 -51 -134t-125 -52 q-76 0 -154 62.5t-133 62.5q-52 0 -86.5 -37t-34.5 -98l-55 10q0 80 50 129.5t126 49.5q72 0 153 -62t134 -62q50 0 85.5 39.5t35.5 101.5z" />
<glyph unicode="&#x169;" horiz-adv-x="1222" d="M44 0zM918 194q-51 -103 -145.5 -159t-229.5 -56q-167 0 -261.5 118.5t-94.5 367.5v563h-143v54h143h54v-619q0 -220 81 -325t219 -105q169 0 259.5 83t115.5 220v692h-163v54h163h55v-1028h163v-54h-208zM885 1459q0 -82 -51 -134t-125 -52q-76 0 -154 62.5t-133 62.5 q-52 0 -86.5 -37t-34.5 -98l-55 10q0 80 50 129.5t126 49.5q72 0 153 -62t134 -62q50 0 85.5 39.5t35.5 101.5z" />
<glyph unicode="&#x16a;" horiz-adv-x="1441" d="M60 0zM440 1456v-54h-163v-933q0 -205 124 -320.5t320 -115.5q195 0 319 115.5t124 320.5v933h-163v54h217h163v-54h-163v-933q0 -238 -138 -364t-359 -126q-223 0 -360.5 126.5t-137.5 363.5v933h-163v54h163h54h163zM1053 1721h-627v53h627v-53z" />
<glyph unicode="&#x16b;" horiz-adv-x="1222" d="M44 0zM918 194q-51 -103 -145.5 -159t-229.5 -56q-167 0 -261.5 118.5t-94.5 367.5v563h-143v54h143h54v-619q0 -220 81 -325t219 -105q169 0 259.5 83t115.5 220v692h-163v54h163h55v-1028h163v-54h-208zM862 1391h-627v53h627v-53z" />
<glyph unicode="&#x16c;" horiz-adv-x="1441" d="M60 0zM440 1456v-54h-163v-933q0 -205 124 -320.5t320 -115.5q195 0 319 115.5t124 320.5v933h-163v54h217h163v-54h-163v-933q0 -238 -138 -364t-359 -126q-223 0 -360.5 126.5t-137.5 363.5v933h-163v54h163h54h163zM997 1792l2 -6q4 -107 -70 -174.5t-202 -67.5 q-129 0 -203.5 67.5t-69.5 174.5l2 6h46q0 -86 54 -139t171 -53q112 0 168 54t56 138h46z" />
<glyph unicode="&#x16d;" horiz-adv-x="1222" d="M44 0zM918 194q-51 -103 -145.5 -159t-229.5 -56q-167 0 -261.5 118.5t-94.5 367.5v563h-143v54h143h54v-619q0 -220 81 -325t219 -105q169 0 259.5 83t115.5 220v692h-163v54h163h55v-1028h163v-54h-208zM806 1461l2 -6q4 -107 -70 -174.5t-202 -67.5 q-129 0 -203.5 67.5t-69.5 174.5l2 6h46q0 -86 54 -139t171 -53q112 0 168 54t56 138h46z" />
<glyph unicode="&#x16e;" horiz-adv-x="1441" d="M60 0zM440 1456v-54h-163v-933q0 -205 124 -320.5t320 -115.5q195 0 319 115.5t124 320.5v933h-163v54h217h163v-54h-163v-933q0 -238 -138 -364t-359 -126q-223 0 -360.5 126.5t-137.5 363.5v933h-163v54h163h54h163zM591 1735q0 56 40 97.5t96 41.5q54 0 93.5 -41 t39.5 -98t-39 -96t-94 -39q-56 0 -96 39t-40 96zM648 1735q0 -34 23 -56.5t56 -22.5q32 0 54 22t22 57t-22 58.5t-54 23.5q-33 0 -56 -23.5t-23 -58.5z" />
<glyph unicode="&#x16f;" horiz-adv-x="1222" d="M44 0zM918 194q-51 -103 -145.5 -159t-229.5 -56q-167 0 -261.5 118.5t-94.5 367.5v563h-143v54h143h54v-619q0 -220 81 -325t219 -105q169 0 259.5 83t115.5 220v692h-163v54h163h55v-1028h163v-54h-208zM400 1404q0 56 40 97.5t96 41.5q54 0 93.5 -41t39.5 -98t-39 -96 t-94 -39q-56 0 -96 39t-40 96zM457 1404q0 -34 23 -56.5t56 -22.5q32 0 54 22t22 57t-22 58.5t-54 23.5q-33 0 -56 -23.5t-23 -58.5z" />
<glyph unicode="&#x170;" horiz-adv-x="1441" d="M60 0zM440 1456v-54h-163v-933q0 -205 124 -320.5t320 -115.5q195 0 319 115.5t124 320.5v933h-163v54h217h163v-54h-163v-933q0 -238 -138 -364t-359 -126q-223 0 -360.5 126.5t-137.5 363.5v933h-163v54h163h54h163zM1011 1855h72l2 -6l-292 -260h-65l-2 6zM741 1855 h68l3 -6l-248 -260h-62l-2 5z" />
<glyph unicode="&#x171;" horiz-adv-x="1222" d="M44 0zM918 194q-51 -103 -145.5 -159t-229.5 -56q-167 0 -261.5 118.5t-94.5 367.5v563h-143v54h143h54v-619q0 -220 81 -325t219 -105q169 0 259.5 83t115.5 220v692h-163v54h163h55v-1028h163v-54h-208zM820 1524h72l2 -6l-292 -260h-65l-2 6zM550 1524h68l3 -6 l-248 -260h-62l-2 5z" />
<glyph unicode="&#x172;" horiz-adv-x="1441" d="M60 0zM440 1456v-54h-163v-933q0 -205 124 -320.5t320 -115.5q195 0 319 115.5t124 320.5v933h-163v54h217h163v-54h-163v-933q0 -238 -138 -364t-359 -126q-223 0 -360.5 126.5t-137.5 363.5v933h-163v54h163h54h163zM762 0q-76 -69 -112 -116.5t-36 -106.5 q0 -23 16 -51.5t68 -28.5q35 0 60 10.5t50 27.5l16 -48q-24 -18 -54.5 -31t-71.5 -13q-61 0 -99.5 35.5t-38.5 98.5q0 61 42 123.5t108 119.5z" />
<glyph unicode="&#x173;" horiz-adv-x="1222" d="M44 0zM918 194q-51 -103 -145.5 -159t-229.5 -56q-167 0 -261.5 118.5t-94.5 367.5v563h-143v54h143h54v-619q0 -220 81 -325t219 -105q169 0 259.5 83t115.5 220v692h-163v54h163h55v-1028h163v-54h-208zM1134 0q-76 -69 -112 -116.5t-36 -106.5q0 -23 16 -51.5 t68 -28.5q35 0 60 10.5t50 27.5l16 -48q-24 -18 -54.5 -31t-71.5 -13q-61 0 -99.5 35.5t-38.5 98.5q0 61 42 123.5t108 119.5z" />
<glyph unicode="&#x174;" horiz-adv-x="1960" d="M57 0zM367 1402h-150l269 -1072l63 -229h6l63 229l364 1126h60l362 -1126l62 -229h6l65 229l266 1072h-149v54h309v-54h-101l-358 -1402h-61l-381 1214l-48 145h-6l-46 -145l-384 -1214h-61l-359 1402h-101v54h310v-54zM1273 1614v-13h-70l-185 186l-183 -186h-66v17 l210 206h80z" />
<glyph unicode="&#x175;" horiz-adv-x="1687" d="M52 0zM374 1028h-148l206 -715l56 -222l6 -1l71 223l243 769h55l242 -769l70 -223l6 1l58 222l204 715h-147v54h323v-54h-113l-299 -1028h-54l-267 813l-48 183h-6l-52 -183l-263 -813h-54l-299 1028h-112v54h322v-54zM1085 1271v-13h-70l-185 186l-183 -186h-66v17 l210 206h80z" />
<glyph unicode="&#x176;" horiz-adv-x="1429" d="M55 0zM371 1402h-131l449 -755l26 -50l27 50l451 755h-131v54h316v-54h-120l-514 -849v-499h163v-54h-381v54h163v499l-515 849h-119v54h316v-54zM979 1603v-13h-70l-185 186l-183 -186h-66v17l210 206h80z" />
<glyph unicode="&#x177;" horiz-adv-x="1185" d="M55 0zM374 1028h-142l335 -832l40 -108h6l6 16l353 924h-142v54h320v-54h-118l-460 -1208q-44 -114 -102.5 -185.5t-186.5 -71.5q-19 0 -42 3.5t-34 7.5l9 51q11 -3 33 -6t34 -3q92 0 143.5 54t91.5 160l65 176l-410 1022h-118v54h319v-54zM865 1271v-13h-70l-185 186 l-183 -186h-66v17l210 206h80z" />
<glyph unicode="&#x178;" horiz-adv-x="1429" d="M55 0zM371 1402h-131l449 -755l26 -50l27 50l451 755h-131v54h316v-54h-120l-514 -849v-499h163v-54h-381v54h163v499l-515 849h-119v54h316v-54zM1031 1662h-136v118h136v-118zM562 1662h-137v118h137v-118z" />
<glyph unicode="&#x179;" horiz-adv-x="1220" d="M92 0zM166 54h908v239h54v-293h-1036v44l929 1359h-835v-240h-54v293h964v-38zM764 1813h78l2 -5l-231 -261h-67l-2 5z" />
<glyph unicode="&#x17a;" horiz-adv-x="1077" d="M120 0zM120 0v44l711 983h-656v-238h-54v293h783v-48l-711 -980h716v239h54v-293h-843zM679 1471h78l2 -5l-231 -261h-67l-2 5z" />
<glyph unicode="&#x17b;" horiz-adv-x="1220" d="M92 0zM166 54h908v239h54v-293h-1036v44l929 1359h-835v-240h-54v293h964v-38zM658 1638h-95v138h95v-138z" />
<glyph unicode="&#x17c;" horiz-adv-x="1077" d="M120 0zM120 0v44l711 983h-656v-238h-54v293h783v-48l-711 -980h716v239h54v-293h-843zM573 1296h-95v138h95v-138z" />
<glyph unicode="&#x17d;" horiz-adv-x="1220" d="M92 0zM166 54h908v239h54v-293h-1036v44l929 1359h-835v-240h-54v293h964v-38zM609 1612l184 187h67v-16l-212 -207h-79l-214 209v14h71z" />
<glyph unicode="&#x17e;" horiz-adv-x="1077" d="M120 0zM120 0v44l711 983h-656v-238h-54v293h783v-48l-711 -980h716v239h54v-293h-843zM524 1270l184 187h67v-16l-212 -207h-79l-214 209v14h71z" />
<glyph unicode="&#x17f;" horiz-adv-x="699" d="M220 1260q0 154 74 237.5t208 83.5q34 0 66.5 -4t61.5 -13l-8 -52q-30 8 -55.5 11.5t-63.5 3.5q-108 0 -168.5 -70.5t-60.5 -196.5v-1206h163v-54h-380v54h163v1206v0z" />
<glyph unicode="&#x192;" horiz-adv-x="780" d="M680 1027h-286v-1116q0 -167 -75 -257.5t-210 -90.5q-30 0 -56 5t-56 15l13 52q18 -6 45.5 -12t53.5 -6q110 0 170.5 76.5t60.5 217.5v1116h-188v55h188v178q0 153 74.5 237t208.5 84q33 0 65.5 -4t62.5 -13l-8 -52q-32 8 -56.5 11.5t-62.5 3.5q-108 0 -169 -71t-61 -196 v-178h286v-55z" />
<glyph unicode="&#x1a0;" horiz-adv-x="1453" d="M1338 719q0 -336 -168.5 -538t-439.5 -202q-272 0 -441 202.5t-169 537.5v18q0 335 168 537.5t440 202.5q146 0 266.5 -62t202.5 -177q142 2 195 75t53 228h54q0 -169 -62.5 -257t-206.5 -99q52 -91 80 -204.5t28 -243.5v-18zM1284 739q0 309 -151.5 496.5t-404.5 187.5 q-252 0 -402.5 -187.5t-150.5 -496.5v-20q0 -311 151 -498.5t404 -187.5t403.5 187.5t150.5 498.5v20z" />
<glyph unicode="&#x1a1;" horiz-adv-x="1241" d="M104 562q0 238 131.5 389t341.5 151q103 0 190 -39t151 -110q116 4 156.5 62.5t40.5 180.5h55q0 -136 -49 -208.5t-164 -85.5q45 -69 69.5 -155.5t24.5 -184.5v-42q0 -239 -131.5 -390t-340.5 -151q-211 0 -343 151t-132 390v42zM158 520q0 -204 114 -345.5t307 -141.5 q190 0 304 142t114 345v42q0 199 -115 342.5t-305 143.5q-191 0 -305 -143.5t-114 -342.5v-42z" />
<glyph unicode="&#x1af;" horiz-adv-x="1509" d="M1218 1456v-198l6 -2q128 1 177 73t49 222h47l3 -5q3 -170 -63 -257.5t-219 -94.5v-725q0 -238 -138 -364t-359 -126q-223 0 -360.5 126.5t-137.5 363.5v933h-163v54h163h54h163v-54h-163v-933q0 -205 124 -320.5t320 -115.5q195 0 319 115.5t124 320.5v933h-163v54h163 h54z" />
<glyph unicode="&#x1b0;" horiz-adv-x="1319" d="M999 944l6 -2q115 -2 155.5 55.5t40.5 181.5h48l2 -5q3 -144 -54.5 -217t-197.5 -76v-827h163v-54h-208l-8 194q-51 -103 -145.5 -159t-229.5 -56q-167 0 -261.5 118.5t-94.5 367.5v563h-143v54h143h54v-619q0 -220 81 -325t219 -105q169 0 259.5 83t115.5 220v692h-163 v54h218v-138z" />
<glyph unicode="&#x1f0;" horiz-adv-x="563" d="M0 0zM393 -89q0 -167 -75 -257.5t-210 -90.5q-30 0 -56 5t-56 15l13 52q18 -6 45.5 -12t53.5 -6q110 0 170.5 76.5t60.5 217.5v1117h-163v54h217v-1171zM367 1250l184 187h67v-16l-212 -207h-79l-214 209v14h71z" />
<glyph unicode="&#x1fa;" d="M55 0zM55 54h107l524 1402h66l525 -1402h107v-54h-309v54h143l-143 381h-712l-142 -381h143v-54h-309v54zM383 489h672l-305 820l-28 82h-6l-27 -82zM859 1928h72l3 -6l-179 -185h-59l-2 5zM575 1541q0 58 40.5 100t98.5 42q56 0 96.5 -42t40.5 -100t-40.5 -98t-96.5 -40 q-58 0 -98.5 40t-40.5 98zM626 1541q0 -38 25.5 -63t62.5 -25q36 0 61 25t25 63q0 39 -25 65t-61 26q-37 0 -62.5 -26t-25.5 -65z" />
<glyph unicode="&#x1fb;" horiz-adv-x="1132" d="M104 0zM885 0q-13 71 -17.5 106.5t-4.5 76.5v16q-62 -97 -173.5 -158.5t-262.5 -61.5q-150 0 -236.5 81.5t-86.5 213.5q0 146 133 238t357 92h269v158q0 135 -86.5 210.5t-243.5 75.5q-103 0 -192.5 -29t-152.5 -80l-1 -173h-54l1 206q77 57 181.5 93.5t217.5 36.5 q174 0 279 -88t105 -254v-542q0 -42 3.5 -83t11.5 -81h130v-54h-177zM427 32q153 0 266 69t170 191v257h-266q-199 0 -319 -77.5t-120 -201.5q0 -101 74 -169.5t195 -68.5zM679 1611h72l3 -6l-179 -185h-59l-2 5zM395 1224q0 58 40.5 100t98.5 42q56 0 96.5 -42t40.5 -100 t-40.5 -98t-96.5 -40q-58 0 -98.5 40t-40.5 98zM446 1224q0 -38 25.5 -63t62.5 -25q36 0 61 25t25 63q0 39 -25 65t-61 26q-37 0 -62.5 -26t-25.5 -65z" />
<glyph unicode="&#x1fc;" horiz-adv-x="2026" d="M51 0zM51 54h119l849 1402h776v-293h-54v239h-642l26 -616h588v-54h-586l28 -678h647v239h54v-293h-915v54h160l-15 371h-628l-223 -371h131v-54h-315v54zM490 478h594l-39 924l-5 1l-57 -105zM1230 1813h78l2 -5l-231 -261h-67l-2 5z" />
<glyph unicode="&#x1fd;" horiz-adv-x="1779" d="M97 0zM1272 -21q-143 0 -245 66t-155 185v-12h1q-44 -95 -153 -167t-268 -72q-169 0 -262 82t-93 223q0 157 111.5 251.5t318.5 94.5h290v90q0 158 -73 243t-219 85q-162 0 -254.5 -78t-92.5 -199l-45 6l-2 6q-5 138 103.5 228.5t290.5 90.5q138 0 227 -73.5t112 -214.5 q53 133 157 210.5t236 77.5q188 0 296 -118.5t108 -323.5v-83h-787v-13v-64q0 -208 99 -337.5t299 -129.5q102 0 186.5 34.5t145.5 96.5l30 -42q-65 -66 -148.5 -104.5t-213.5 -38.5zM451 31q130 0 237 65.5t129 128.5v350h-288q-185 0 -281 -84t-96 -211q0 -117 77.5 -183 t221.5 -66zM1257 1048q-159 0 -260.5 -116.5t-114.5 -294.5l2 -5h723v32q0 168 -91.5 276t-258.5 108zM1014 1492h78l2 -5l-231 -261h-67l-2 5z" />
<glyph unicode="&#x1fe;" horiz-adv-x="1411" d="M120 0zM1338 719q0 -336 -168.5 -538t-439.5 -202q-105 0 -197 31.5t-166 93.5l-113 -179h-66l137 217q-99 98 -152 245t-53 332v18q0 335 168 537.5t440 202.5q104 0 197 -33t168 -94l92 145h66l-116 -183q96 -99 149.5 -246t53.5 -329v-18zM175 719q0 -169 46 -303.5 t132 -220.5l6 -1l705 1111q-68 57 -153 87.5t-183 30.5q-252 0 -402.5 -187.5t-150.5 -496.5v-20zM1284 739q0 166 -46 300t-130 220l-6 1l-706 -1111q68 -57 152 -86.5t182 -29.5q253 0 403.5 187.5t150.5 498.5v20zM867 1875h78l2 -5l-231 -261h-67l-2 5z" />
<glyph unicode="&#x1ff;" horiz-adv-x="1155" d="M104 0zM104 562q0 238 131.5 389t341.5 151q69 0 130.5 -17.5t114.5 -50.5l98 185h63l-116 -218q87 -73 135.5 -186t48.5 -253v-42q0 -239 -131.5 -390t-340.5 -151q-62 0 -118.5 14t-105.5 41l-95 -179h-63l111 209q-97 70 -150.5 188.5t-53.5 267.5v42zM158 520 q0 -126 45 -232.5t128 -167.5h6l458 864q-47 30 -102 47t-116 17q-191 0 -305 -143.5t-114 -342.5v-42zM997 562q0 114 -41 215.5t-113 164.5l-6 1l-456 -860q42 -25 92 -37.5t106 -12.5q190 0 304 142t114 345v42zM735 1490h78l2 -5l-231 -261h-67l-2 5z" />
<glyph unicode="&#x218;" horiz-adv-x="1198" d="M100 0zM1077 1022h-54v204q-64 97 -171.5 147t-254.5 50q-198 0 -313.5 -88.5t-115.5 -212.5t95.5 -206t345.5 -146q242 -64 365.5 -156.5t123.5 -262.5q0 -173 -141 -272.5t-353 -99.5q-146 0 -280.5 54.5t-223.5 170.5v240h54v-217q78 -102 199 -148t251 -46 q192 0 315.5 88t123.5 228q0 137 -100.5 219t-348.5 150q-249 67 -364.5 152.5t-115.5 249.5q0 163 136 260t347 97q164 0 286.5 -56.5t193.5 -169.5v-229zM644 -265q0 -75 -23 -135.5t-63 -106.5l-37 32q36 52 52.5 98.5t16.5 109.5v99h54v-97z" />
<glyph unicode="&#x219;" horiz-adv-x="1009" d="M103 0zM852 753h-54v175q-52 58 -132.5 89t-186.5 31q-152 0 -230 -65.5t-78 -151.5q0 -85 66 -145t262 -105q181 -42 274.5 -114.5t93.5 -202.5q0 -127 -104 -206t-276 -79q-118 0 -217.5 38t-166.5 105v193h54v-163q59 -63 146 -91t184 -28q150 0 238 70t88 162 q0 86 -73.5 156.5t-256.5 110.5q-191 40 -278.5 106.5t-87.5 190.5q0 116 98 194.5t264 78.5q116 0 214.5 -40t158.5 -107v-202zM510 -260q0 -75 -23 -135.5t-63 -106.5l-37 32q36 52 52.5 98.5t16.5 109.5v99h54v-97z" />
<glyph unicode="&#x21a;" horiz-adv-x="1277" d="M80 0zM1194 1456v-293h-54v239h-476v-1348h163v-54h-380v54h163v1348h-476v-239h-54v293h1114zM652 -255q0 -75 -23 -135.5t-63 -106.5l-37 32q36 52 52.5 98.5t16.5 109.5v99h54v-97z" />
<glyph unicode="&#x21b;" horiz-adv-x="719" d="M65 0zM320 1374v-292h266v-55h-266v-748q0 -133 45 -189.5t119 -56.5q32 0 57 2t69 7l10 -49q-30 -8 -61.5 -11t-71.5 -3q-109 0 -165.5 71t-56.5 229v748h-200v55h200v292h55zM479 -255q0 -75 -23 -135.5t-63 -106.5l-37 32q36 52 52.5 98.5t16.5 109.5v99h54v-97z" />
<glyph unicode="&#x237;" horiz-adv-x="563" d="M393 -89q0 -167 -75 -257.5t-210 -90.5q-30 0 -56 5t-56 15l13 52q18 -6 45.5 -12t53.5 -6q110 0 170.5 76.5t60.5 217.5v1117h-163v54h217v-1171z" />
<glyph unicode="&#x259;" horiz-adv-x="1032" d="M498 1102q184 0 319 -150t135 -371v-64q0 -234 -130.5 -386t-320.5 -152q-184 0 -299 119.5t-115 322.5v83h810q0 1 0.5 5.5t0.5 7.5v64q0 195 -115.5 331t-284.5 136q-122 0 -203.5 -33.5t-138.5 -98.5l-29 42q63 70 154.5 107t216.5 37zM501 33q160 0 266.5 117 t121.5 294l-3 6h-745v-33q0 -166 99.5 -275t260.5 -109z" />
<glyph unicode="&#x2bc;" horiz-adv-x="320" d="M77 1111zM220 1393q0 -89 -28 -159t-78 -123l-37 32q46 60 67.5 116.5t21.5 131.5v169h54v-167z" />
<glyph unicode="&#x2c6;" horiz-adv-x="779" d="M608 1265v-13h-70l-185 186l-183 -186h-66v17l210 206h80z" />
<glyph unicode="&#x2c7;" horiz-adv-x="754" d="M344 1288l184 187h67v-16l-212 -207h-79l-214 209v14h71z" />
<glyph unicode="&#x2d8;" horiz-adv-x="819" d="M668 1456l2 -6q4 -107 -70 -174.5t-202 -67.5q-129 0 -203.5 67.5t-69.5 174.5l2 6h46q0 -86 54 -139t171 -53q112 0 168 54t56 138h46z" />
<glyph unicode="&#x2d9;" horiz-adv-x="474" d="M247 1318h-95v138h95v-138z" />
<glyph unicode="&#x2da;" horiz-adv-x="623" d="M138 1338q0 56 40 97.5t96 41.5q54 0 93.5 -41t39.5 -98t-39 -96t-94 -39q-56 0 -96 39t-40 96zM195 1338q0 -34 23 -56.5t56 -22.5q32 0 54 22t22 57t-22 58.5t-54 23.5q-33 0 -56 -23.5t-23 -58.5z" />
<glyph unicode="&#x2db;" horiz-adv-x="413" d="M256 0q-76 -69 -112 -116.5t-36 -106.5q0 -23 16 -51.5t68 -28.5q35 0 60 10.5t50 27.5l16 -48q-24 -18 -54.5 -31t-71.5 -13q-61 0 -99.5 35.5t-38.5 98.5q0 61 42 123.5t108 119.5z" />
<glyph unicode="&#x2dc;" horiz-adv-x="923" d="M766 1472q0 -82 -51 -134t-125 -52q-76 0 -154 62.5t-133 62.5q-52 0 -86.5 -37t-34.5 -98l-55 10q0 80 50 129.5t126 49.5q72 0 153 -62t134 -62q50 0 85.5 39.5t35.5 101.5z" />
<glyph unicode="&#x2dd;" horiz-adv-x="866" d="M620 1518h72l2 -6l-292 -260h-65l-2 6zM350 1518h68l3 -6l-248 -260h-62l-2 5z" />
<glyph unicode="&#x2f3;" horiz-adv-x="429" d="M72 -239q0 50 41 90t96 40q53 0 93 -40t40 -90q0 -49 -39.5 -87.5t-93.5 -38.5q-55 0 -96 38.5t-41 87.5zM130 -239q0 -26 23.5 -48t55.5 -22q31 0 53.5 21.5t22.5 48.5q0 28 -22.5 50t-53.5 22q-32 0 -55.5 -22t-23.5 -50z" />
<glyph unicode="&#x300;" horiz-adv-x="476" d="M315 1218h-66l-162 291h75z" />
<glyph unicode="&#x301;" horiz-adv-x="466" d="M271 1511h67l-159 -291h-61z" />
<glyph unicode="&#x303;" horiz-adv-x="0" d="M-131 1276zM-131 1472q0 -82 -51 -134t-125 -52q-76 0 -154 62.5t-133 62.5q-52 0 -86.5 -37t-34.5 -98l-55 10q0 80 50 129.5t126 49.5q72 0 153 -62t134 -62q50 0 85.5 39.5t35.5 101.5z" />
<glyph unicode="&#x309;" horiz-adv-x="565" d="M182 1227v99q100 8 144.5 33.5t44.5 80.5q0 57 -70.5 83.5t-165.5 26.5l7 49q126 0 205.5 -43t79.5 -116q0 -76 -54 -114.5t-143 -44.5v-54h-48z" />
<glyph unicode="&#x30f;" horiz-adv-x="866" d="M445 1258l-2 -6h-65l-292 260l2 6h72zM671 1257l-2 -5h-62l-248 260l3 6h68z" />
<glyph unicode="&#x323;" horiz-adv-x="333" d="M212 -295h-95v138h95v-138z" />
<glyph unicode="&#x384;" horiz-adv-x="462" d="M229 1578h106l-146 -273h-53z" />
<glyph unicode="&#x385;" horiz-adv-x="964" d="M757 1348h-126v108h126v-108zM278 1348h-127v108h127v-108zM452 1657h137l-118 -240h-42z" />
<glyph unicode="&#x386;" d="M55 0zM55 54h107l524 1402h66l525 -1402h107v-54h-309v54h143l-143 381h-712l-142 -381h143v-54h-309v54zM383 489h672l-305 820l-28 82h-6l-27 -82zM192 1577h106l-146 -273h-53z" />
<glyph unicode="&#x387;" horiz-adv-x="472" d="M159 624zM277 624h-118v152h118v-152z" />
<glyph unicode="&#x388;" horiz-adv-x="1370" d="M0 0zM171 0v54h163v1348h-163v54h1049v-293h-54v239h-778v-616h630v-54h-630v-678h778v239h54v-293h-1049zM21 1579h106l-146 -273h-53z" />
<glyph unicode="&#x389;" horiz-adv-x="1606" d="M0 0zM171 1402v54h380v-54h-163v-653h930v653h-163v54h163h54h163v-54h-163v-1348h163v-54h-380v54h163v641h-930v-641h163v-54h-380v54h163v1348h-163zM-6 1579h106l-146 -273h-53z" />
<glyph unicode="&#x38a;" horiz-adv-x="698" d="M0 0zM209 1402v54h380v-54h-163v-1348h163v-54h-380v54h163v1348h-163zM22 1578h106l-146 -273h-53z" />
<glyph unicode="&#x38c;" horiz-adv-x="1508" d="M7 0zM1368 719q0 -336 -168.5 -538t-439.5 -202q-272 0 -441 202.5t-169 537.5v18q0 335 168 537.5t440 202.5q271 0 440.5 -202.5t169.5 -537.5v-18zM1314 739q0 309 -151.5 496.5t-404.5 187.5q-252 0 -402.5 -187.5t-150.5 -496.5v-20q0 -311 151 -498.5t404 -187.5 t403.5 187.5t150.5 498.5v20zM100 1577h106l-146 -273h-53z" />
<glyph unicode="&#x38e;" horiz-adv-x="1529" d="M0 0zM471 1402h-131l449 -755l26 -50l27 50l451 755h-131v54h316v-54h-120l-514 -849v-499h163v-54h-381v54h163v499l-515 849h-119v54h316v-54zM-61 1577h106l-146 -273h-53z" />
<glyph unicode="&#x38f;" horiz-adv-x="1356" d="M41 0zM773 78q162 75 290.5 246.5t128.5 447.5v39q0 262 -145 437t-380 175q-236 0 -379.5 -175t-143.5 -437v-39q0 -277 130.5 -448t294.5 -246v-78h-435v54h362q-166 91 -286 272t-120 446v37q0 285 161 476.5t416 191.5q254 0 416.5 -192t162.5 -476v-37 q0 -264 -120 -444.5t-284 -273.5h365v-54h-434v78zM134 1577h106l-146 -273h-53z" />
<glyph unicode="&#x390;" horiz-adv-x="594" d="M0 0zM245 279q0 -135 48 -190.5t137 -55.5q27 0 48 2t59 7l9 -50q-24 -7 -52.5 -10t-60.5 -3q-126 0 -184.5 69.5t-58.5 230.5v749h-163v54h218v-803zM539 1279h-126v108h126v-108zM60 1279h-127v108h127v-108zM234 1588h137l-118 -240h-42z" />
<glyph unicode="&#x391;" d="M55 0zM55 54h107l524 1402h66l525 -1402h107v-54h-309v54h143l-143 381h-712l-142 -381h143v-54h-309v54zM383 489h672l-305 820l-28 82h-6l-27 -82z" />
<glyph unicode="&#x392;" horiz-adv-x="1303" d="M71 0zM617 1456q226 0 351 -93t125 -280q0 -130 -67 -219t-189 -111q136 -18 229 -119t93 -233q0 -191 -123.5 -296t-326.5 -105h-638v54h163v1348h-163v54h163h383zM288 719v-665h421q184 0 290 91t106 254q0 134 -101.5 227t-284.5 93h-431zM288 773h349 q199 0 300 77.5t101 236.5q0 156 -106.5 235.5t-314.5 79.5h-329v-629z" />
<glyph unicode="&#x393;" horiz-adv-x="1203" d="M77 54h163v1348h-163v54h1025v-293h-54v239h-754v-1348h163v-54h-380v54z" />
<glyph unicode="&#x394;" horiz-adv-x="1404" d="M647 1456h65l617 -1456h-1298zM113 54h1133l-537 1271l-27 72h-6l-27 -72z" />
<glyph unicode="&#x395;" horiz-adv-x="1270" d="M71 0zM71 0v54h163v1348h-163v54h1049v-293h-54v239h-778v-616h630v-54h-630v-678h778v239h54v-293h-1049z" />
<glyph unicode="&#x396;" horiz-adv-x="1220" d="M92 0zM166 54h908v239h54v-293h-1036v44l929 1359h-835v-240h-54v293h964v-38z" />
<glyph unicode="&#x397;" horiz-adv-x="1506" d="M71 0zM71 1402v54h380v-54h-163v-653h930v653h-163v54h163h54h163v-54h-163v-1348h163v-54h-380v54h163v641h-930v-641h163v-54h-380v54h163v1348h-163z" />
<glyph unicode="&#x398;" horiz-adv-x="1372" d="M971 691h-591v53h591v-53zM1338 719q0 -336 -168.5 -538t-439.5 -202q-272 0 -441 202.5t-169 537.5v18q0 335 168 537.5t440 202.5q271 0 440.5 -202.5t169.5 -537.5v-18zM1284 739q0 309 -151.5 496.5t-404.5 187.5q-252 0 -402.5 -187.5t-150.5 -496.5v-20 q0 -311 151 -498.5t404 -187.5t403.5 187.5t150.5 498.5v20z" />
<glyph unicode="&#x399;" horiz-adv-x="598" d="M109 0zM109 1402v54h380v-54h-163v-1348h163v-54h-380v54h163v1348h-163z" />
<glyph unicode="&#x39a;" horiz-adv-x="1388" d="M71 0zM71 54h163v1348h-163v54h380v-54h-163v-638h238l565 633l-2 5h-168v54h361v-54h-115l-596 -672l639 -676h118v-54h-361v54h163l3 6l-622 651h-223v-657h163v-54h-380v54z" />
<glyph unicode="&#x39b;" horiz-adv-x="1435" d="M52 54h107l514 1402h65l515 -1402h107v-54h-309v54h143l-459 1250l-27 84h-6l-27 -84l-457 -1250h143v-54h-309v54z" />
<glyph unicode="&#x39c;" horiz-adv-x="1824" d="M71 0zM932 0h-43l-595 1356l-6 -2v-1300h163v-54h-380v54h163v1348h-163v54h163h77l596 -1370h6l598 1370h242v-54h-163v-1348h163v-54h-380v54h163v1307l-6 2z" />
<glyph unicode="&#x39d;" horiz-adv-x="1517" d="M71 0zM1446 1456v-54h-163v-1402h-54l-934 1356l-6 -2v-1300h163v-54h-381v54h163v1348h-163v54h163h55l934 -1353l6 2v1297h-163v54h217h163z" />
<glyph unicode="&#x39e;" horiz-adv-x="1208" d="M93 293h54v-239h917v239h54v-293h-1025v293zM1079 1163h-54v240h-857v-240h-54v293h965v-293zM301 741h601v-54h-601v54z" />
<glyph unicode="&#x39f;" horiz-adv-x="1488" d="M130 0zM1348 719q0 -336 -168.5 -538t-439.5 -202q-272 0 -441 202.5t-169 537.5v18q0 335 168 537.5t440 202.5q271 0 440.5 -202.5t169.5 -537.5v-18zM1294 739q0 309 -151.5 496.5t-404.5 187.5q-252 0 -402.5 -187.5t-150.5 -496.5v-20q0 -311 151 -498.5t404 -187.5 t403.5 187.5t150.5 498.5v20z" />
<glyph unicode="&#x3a0;" horiz-adv-x="1548" d="M77 54h163v1348h-163v54h1364v-54h-163v-1348h163v-54h-380v54h163v1348h-930v-1348h163v-54h-380v54z" />
<glyph unicode="&#x3a1;" horiz-adv-x="1255" d="M71 0zM639 1456q226 0 348 -113.5t122 -301.5q0 -190 -121.5 -303t-348.5 -113h-351v-571h163v-54h-380v54h163v1348h-163v54h163h405zM288 679h351q207 0 311.5 103t104.5 257q0 158 -104 260.5t-312 102.5h-351v-723z" />
<glyph unicode="&#x3a3;" horiz-adv-x="1167" d="M79 0v44l547 743l-547 625v44h37l2 -3v3h893v-293h-54v240h-788l-2 -5l511 -583v-47l-523 -714h862v239h54v-293h-992z" />
<glyph unicode="&#x3a4;" horiz-adv-x="1277" d="M80 0zM1194 1456v-293h-54v239h-476v-1348h163v-54h-380v54h163v1348h-476v-239h-54v293h1114z" />
<glyph unicode="&#x3a5;" horiz-adv-x="1429" d="M55 0zM371 1402h-131l449 -755l26 -50l27 50l451 755h-131v54h316v-54h-120l-514 -849v-499h163v-54h-381v54h163v499l-515 849h-119v54h316v-54z" />
<glyph unicode="&#x3a6;" horiz-adv-x="1448" d="M681 209q-275 1 -438.5 152t-163.5 376q0 223 164 375t438 154v136h-163v54h381v-54h-163v-136q274 -1 439.5 -152t165.5 -375q0 -226 -165.5 -378t-439.5 -152v-155h163v-54h-381v54h163v155zM1286 739q0 205 -149 338t-396 130l-5 -2v-935l5 -2q247 -4 396 129.5 t149 341.5zM134 737q0 -207 147 -339.5t395 -129.5l5 2v935l-5 2q-246 2 -394 -132.5t-148 -337.5z" />
<glyph unicode="&#x3a7;" horiz-adv-x="1391" d="M63 0zM63 54h115l486 689l-466 659h-115v54h338v-54h-156l432 -617l433 617h-155v54h337v-54h-115l-465 -659l486 -689h115v-54h-337v54h155l-454 647l-453 -647h155v-54h-336v54z" />
<glyph unicode="&#x3a8;" horiz-adv-x="1620" d="M966 1456v-54h-163v-923l6 -3q207 0 340 128.5t133 341.5v510h54h163v-54h-163v-456q0 -245 -147.5 -385.5t-385.5 -144.5v-362h163v-54h-381v54h163v362q-238 6 -384 146t-146 384v456h-163v54h163h55v-510q0 -211 131 -339t338 -130l6 2v923h-163v54h163h55h163z" />
<glyph unicode="&#x3a9;" horiz-adv-x="1336" d="M753 78q162 75 290.5 246.5t128.5 447.5v39q0 262 -145 437t-380 175q-236 0 -379.5 -175t-143.5 -437v-39q0 -277 130.5 -448t294.5 -246v-78h-435v54h362q-166 91 -286 272t-120 446v37q0 285 161 476.5t416 191.5q254 0 416.5 -192t162.5 -476v-37q0 -264 -120 -444.5 t-284 -273.5h365v-54h-434v78z" />
<glyph unicode="&#x3aa;" horiz-adv-x="598" d="M10 0zM109 1402v54h380v-54h-163v-1348h163v-54h-380v54h163v1348h-163zM616 1673h-136v118h136v-118zM147 1673h-137v118h137v-118z" />
<glyph unicode="&#x3ab;" horiz-adv-x="1429" d="M55 0zM371 1402h-131l449 -755l26 -50l27 50l451 755h-131v54h316v-54h-120l-514 -849v-499h163v-54h-381v54h163v499l-515 849h-119v54h316v-54zM1031 1662h-136v118h136v-118zM562 1662h-137v118h137v-118z" />
<glyph unicode="&#x3ac;" horiz-adv-x="1201" d="M104 0zM932 1082v-827q0 -122 32 -172.5t91 -50.5q16 0 27.5 2t37.5 8l11 -49q-17 -8 -34.5 -11t-38.5 -3q-87 0 -130.5 55.5t-48.5 182.5q-52 -109 -145.5 -173.5t-223.5 -64.5q-191 0 -298.5 146t-107.5 396v21q0 257 108 408.5t300 151.5q130 0 221.5 -70.5 t144.5 -194.5v17l6 228h48zM160 521q0 -224 88.5 -356t260.5 -132q148 0 240 84.5t129 225.5v351q-36 142 -126.5 248t-240.5 106q-172 0 -261.5 -140.5t-89.5 -365.5v-21zM603 1522h106l-146 -273h-53z" />
<glyph unicode="&#x3ad;" horiz-adv-x="1089" d="M105 0zM105 290q0 103 62.5 170t186.5 94q-111 31 -170.5 97t-59.5 151q0 142 111 219t304 77q180 0 303 -81.5t118 -211.5l-2 -6h-44q0 110 -107.5 177.5t-267.5 67.5q-181 0 -270 -65.5t-89 -173.5t87.5 -166.5t274.5 -58.5h165v-55h-165q-190 0 -286.5 -57.5 t-96.5 -180.5q0 -118 99 -183.5t281 -65.5q174 0 283 73.5t109 189.5h45l2 -6q5 -150 -127 -231t-312 -81q-194 0 -314 82t-120 225zM600 1521h106l-146 -273h-53z" />
<glyph unicode="&#x3ae;" horiz-adv-x="1199" d="M0 0zM225 0l1 955q0 45 -19.5 64t-58.5 19q-35 0 -67 -8.5t-65 -24.5l-20 46q27 15 68.5 28t83.5 13q72 0 102 -31t30 -105v-97q49 116 143.5 179.5t232.5 63.5q177 0 265.5 -111.5t88.5 -353.5v-1053h-54v1055q0 225 -80 317t-219 92q-174 0 -264 -103t-113 -265v-680 h-55zM676 1522h106l-146 -273h-53z" />
<glyph unicode="&#x3af;" horiz-adv-x="594" d="M27 0zM245 279q0 -135 48 -190.5t137 -55.5q27 0 48 2t59 7l9 -50q-24 -7 -52.5 -10t-60.5 -3q-126 0 -184.5 69.5t-58.5 230.5v749h-163v54h218v-803zM285 1501h106l-146 -273h-53z" />
<glyph unicode="&#x3b0;" horiz-adv-x="1168" d="M0 0zM283 385q0 -182 75 -267t205 -85q186 0 280 141t94 346q0 154 -30.5 293.5t-81.5 268.5h66q48 -138 73.5 -258.5t25.5 -300.5q0 -244 -111.5 -394t-313.5 -150q-158 0 -247 99.5t-89 308.5v573q0 45 -19.5 64t-58.5 19q-35 0 -67 -8.5t-65 -24.5l-20 46 q30 18 69.5 29.5t82.5 11.5q72 0 102 -31t30 -105v-576zM818 1279h-126v108h126v-108zM339 1279h-127v108h127v-108zM513 1588h137l-118 -240h-42z" />
<glyph unicode="&#x3b1;" horiz-adv-x="1201" d="M932 1082v-827q0 -122 32 -172.5t91 -50.5q16 0 27.5 2t37.5 8l11 -49q-17 -8 -34.5 -11t-38.5 -3q-87 0 -130.5 55.5t-48.5 182.5q-52 -109 -145.5 -173.5t-223.5 -64.5q-191 0 -298.5 146t-107.5 396v21q0 257 108 408.5t300 151.5q130 0 221.5 -70.5t144.5 -194.5v17 l6 228h48zM160 521q0 -224 88.5 -356t260.5 -132q148 0 240 84.5t129 225.5v351q-36 142 -126.5 248t-240.5 106q-172 0 -261.5 -140.5t-89.5 -365.5v-21z" />
<glyph unicode="&#x3b2;" horiz-adv-x="1146" d="M533 1477q176 0 283.5 -104.5t107.5 -269.5q0 -113 -56 -202t-158 -131q156 -33 237.5 -136.5t81.5 -248.5q0 -191 -122 -298.5t-323 -107.5q-109 0 -217 43.5t-168 125.5v-561h-54v697q-1 11 -1.5 18.5t-0.5 15.5l2 1v735q0 182 113 302.5t275 120.5zM529 791 q175 0 258 82t83 235q0 129 -86.5 222t-250.5 93q-142 0 -238 -105t-96 -264v-810q39 -95 146 -153t239 -58q189 0 289.5 91.5t100.5 256.5q0 166 -105 260t-300 94h-143v56h103z" />
<glyph unicode="&#x3b3;" horiz-adv-x="1084" d="M1092 1028h-108l-398 -1023v-420h-54v415l-305 879q-37 105 -71 135t-83 30q-26 0 -48.5 -7t-35.5 -15l-19 41q21 11 45 19.5t54 8.5q75 0 121 -42t81 -145l237 -675l48 -146h6l52 146l312 799h-142v54h308v-54z" />
<glyph unicode="&#x3b4;" horiz-adv-x="1121" d="M215 1309q0 107 100 180.5t253 73.5q85 0 162 -18t145 -59l-18 -49q-82 39 -139 55.5t-149 16.5q-128 0 -214 -53t-86 -147q0 -93 73 -153t250 -96q209 -47 325.5 -194t116.5 -324v-42q0 -230 -131.5 -375.5t-340.5 -145.5q-211 0 -343 145.5t-132 375.5v42 q0 205 113.5 336t257.5 151v11q-131 49 -187 119t-56 150zM141 500q0 -195 114 -331t307 -136q190 0 304 136t114 331v42q0 178 -120 303t-277 152q-201 0 -321.5 -135.5t-120.5 -319.5v-42z" />
<glyph unicode="&#x3b5;" horiz-adv-x="1089" d="M105 290q0 103 62.5 170t186.5 94q-111 31 -170.5 97t-59.5 151q0 142 111 219t304 77q180 0 303 -81.5t118 -211.5l-2 -6h-44q0 110 -107.5 177.5t-267.5 67.5q-181 0 -270 -65.5t-89 -173.5t87.5 -166.5t274.5 -58.5h165v-55h-165q-190 0 -286.5 -57.5t-96.5 -180.5 q0 -118 99 -183.5t281 -65.5q174 0 283 73.5t109 189.5h45l2 -6q5 -150 -127 -231t-312 -81q-194 0 -314 82t-120 225z" />
<glyph unicode="&#x3b6;" horiz-adv-x="954" d="M887 1456v-37l-442 -579q-124 -158 -171.5 -277t-47.5 -222t81 -163.5t265 -106.5l89 -24q111 -28 160.5 -69t49.5 -114q0 -87 -51 -160t-104 -96l-37 31q47 23 93 88t46 138q0 54 -38.5 80.5t-125.5 48.5l-90 24q-209 52 -300 125.5t-91 197.5q0 113 51.5 240.5 t183.5 297.5l398 524h-768v53h849z" />
<glyph unicode="&#x3b7;" horiz-adv-x="1199" d="M225 0l1 955q0 45 -19.5 64t-58.5 19q-35 0 -67 -8.5t-65 -24.5l-20 46q27 15 68.5 28t83.5 13q72 0 102 -31t30 -105v-97q49 116 143.5 179.5t232.5 63.5q177 0 265.5 -111.5t88.5 -353.5v-1053h-54v1055q0 225 -80 317t-219 92q-174 0 -264 -103t-113 -265v-680h-55z " />
<glyph unicode="&#x3b8;" horiz-adv-x="1143" d="M1015 574q0 -285 -115.5 -440t-326.5 -155t-328 155.5t-117 439.5v308q0 284 116 439.5t327 155.5t327.5 -155.5t116.5 -439.5v-308zM182 749h779v133q0 254 -100 397.5t-290 143.5t-289.5 -143.5t-99.5 -397.5v-133zM961 695h-779v-119q0 -252 100.5 -397.5 t290.5 -145.5q189 0 288.5 145t99.5 398v119z" />
<glyph unicode="&#x3b9;" horiz-adv-x="594" d="M245 279q0 -135 48 -190.5t137 -55.5q27 0 48 2t59 7l9 -50q-24 -7 -52.5 -10t-60.5 -3q-126 0 -184.5 69.5t-58.5 230.5v749h-163v54h218v-803z" />
<glyph unicode="&#x3ba;" horiz-adv-x="1155" d="M62 0zM62 54h163v973h-163v54h217v-474h127l430 415l-2 6h-119v54h321v-54h-122l-447 -439l489 -535h117v-54h-137l-509 553h-148v-499h163v-54h-380v54z" />
<glyph unicode="&#x3bb;" horiz-adv-x="1135" d="M94 0h-59l441 1075l-65 177q-32 105 -74 158.5t-119 53.5q-8 0 -24.5 -2t-23.5 -4l-9 50q8 4 25.5 7t30.5 3q110 0 160.5 -72t87.5 -186l361 -982q42 -111 81.5 -170.5t95.5 -59.5q8 0 24 2t24 5l9 -51q-9 -4 -26.5 -7t-30.5 -3q-93 0 -137.5 68.5t-89.5 189.5l-264 726 l-6 15h-6l-41 -106z" />
<glyph unicode="&#x3bc;" horiz-adv-x="1282" d="M66 0zM959 205q-48 -109 -138 -167.5t-225 -58.5q-103 0 -185.5 45t-129.5 147v-587h-52v1444h-163v54h163h52v-642q0 -223 85 -315t221 -92q184 0 268 93t102 263v639h-163v54h217v-577h2q0 -16 -0.5 -30.5t-1.5 -36.5v-384h163v-54h-204z" />
<glyph unicode="&#x3bd;" horiz-adv-x="1165" d="M52 0zM370 1028h-142l313 -799l51 -146h6l52 146l312 799h-142v54h318v-54h-118l-400 -1027l1 -1h-52l-399 1028h-118v54h318v-54z" />
<glyph unicode="&#x3be;" horiz-adv-x="1006" d="M923 1376q-55 22 -113.5 34t-117.5 12q-210 0 -314 -75t-104 -199t97.5 -190.5t305.5 -66.5h122v-56h-122q-212 0 -348.5 -96.5t-136.5 -293.5q0 -169 115 -259t338 -148l42 -10q114 -27 168.5 -69t54.5 -109q0 -76 -51 -135t-101 -85l-33 33q46 28 89 76t43 112 q0 48 -41.5 75t-135.5 49l-42 10q-236 60 -368.5 164t-132.5 300q0 160 91.5 265.5t251.5 146.5q-126 34 -193.5 109.5t-67.5 173.5q0 161 126.5 246t348.5 85q61 0 121.5 -13t113.5 -36z" />
<glyph unicode="&#x3bf;" horiz-adv-x="1155" d="M104 0zM104 562q0 238 131.5 389t341.5 151q211 0 342.5 -151t131.5 -389v-42q0 -239 -131.5 -390t-340.5 -151q-211 0 -343 151t-132 390v42zM158 520q0 -204 114 -345.5t307 -141.5q190 0 304 142t114 345v42q0 199 -115 342.5t-305 143.5q-191 0 -305 -143.5 t-114 -342.5v-42z" />
<glyph unicode="&#x3c0;" horiz-adv-x="1266" d="M1103 1027h-198v-748q0 -135 48 -190.5t137 -55.5q27 0 48 2t59 7l9 -50q-24 -7 -52.5 -10t-60.5 -3q-126 0 -184.5 69.5t-58.5 230.5v748h-556v-1027h-54v1027h-165v55h1028v-55z" />
<glyph unicode="&#x3c1;" horiz-adv-x="1116" d="M962 521q0 -250 -108 -396t-298 -146q-126 0 -220 50.5t-147 136.5v-582h-54v716q-1 1 -1 2v3l1 315v16q0 221 117.5 343.5t302.5 122.5q190 0 298.5 -151.5t108.5 -408.5v-21zM907 542q0 225 -90.5 365.5t-261.5 140.5q-188 0 -277 -128t-89 -305v-351 q41 -106 134 -168.5t234 -62.5q171 0 260.5 132t89.5 356v21z" />
<glyph unicode="&#x3c2;" horiz-adv-x="1089" d="M573 1102q166 0 278.5 -98.5t108.5 -277.5l-2 -6h-46q0 159 -98 243.5t-241 84.5q-191 0 -293 -137t-102 -349v-42q0 -197 115 -317.5t322 -166.5q126 -28 172 -71t46 -128q0 -61 -48 -129t-91 -87l-35 32q40 20 80 72.5t40 111.5q0 67 -35.5 95.5t-140.5 51.5 q-226 49 -353.5 179t-127.5 357v42q0 240 122 390t329 150z" />
<glyph unicode="&#x3c3;" horiz-adv-x="1237" d="M1135 1027h-345q123 -63 192.5 -183.5t69.5 -279.5v-43q0 -240 -131 -391t-341 -151q-211 0 -343 151t-132 390v42q0 227 131 373t341 147h1h11h546v-55zM159 520q0 -204 114 -345.5t307 -141.5q190 0 304 142t114 345v42q0 191 -114.5 328t-305.5 137h-1 q-191 -1 -304.5 -138t-113.5 -327v-42z" />
<glyph unicode="&#x3c4;" horiz-adv-x="1035" d="M969 1082v-55h-443v-748q0 -135 48 -190.5t137 -55.5q25 0 84.5 8.5t33.5 5.5l9 -50q-26 -8 -61 -13t-63 -5q-126 0 -184.5 69.5t-58.5 230.5v748h-409v55h907z" />
<glyph unicode="&#x3c5;" horiz-adv-x="1168" d="M283 385q0 -182 75 -267t205 -85q186 0 280 141t94 346q0 154 -30.5 293.5t-81.5 268.5h66q48 -138 73.5 -258.5t25.5 -300.5q0 -244 -111.5 -394t-313.5 -150q-158 0 -247 99.5t-89 308.5v573q0 45 -19.5 64t-58.5 19q-35 0 -67 -8.5t-65 -24.5l-20 46q30 18 69.5 29.5 t82.5 11.5q72 0 102 -31t30 -105v-576z" />
<glyph unicode="&#x3c6;" horiz-adv-x="1414" d="M626 -20q-262 10 -387.5 161t-125.5 405q0 183 74 322.5t189 214.5l25 -44q-106 -65 -170.5 -201.5t-64.5 -293.5q0 -216 104 -357t350 -147l6 2v851q0 90 53.5 139.5t120.5 49.5q176 0 291 -150.5t115 -385.5q0 -234 -138.5 -396t-387.5 -170v-459h-54v459zM680 41l6 -2 q221 2 344 150.5t123 354.5q0 197 -100 340.5t-253 143.5q-50 0 -85 -37.5t-35 -97.5v-852z" />
<glyph unicode="&#x3c7;" horiz-adv-x="1192" d="M82 54h126l361 501l-341 473h-126v54l158 -1l343 -479l306 426h-124v54h318v-54h-126l-341 -473l361 -501h126v-54l-157 1l-364 507l-327 -454h124v-54h-317v54z" />
<glyph unicode="&#x3c8;" horiz-adv-x="1524" d="M292 588q-1 -274 115 -409t320 -138l6 2v1038h54v-1039l6 -2q252 2 359.5 156t107.5 392q0 134 -41.5 258t-110.5 236h67q67 -126 103 -230.5t36 -261.5q0 -277 -129.5 -440t-397.5 -170v-395h-54v395q-236 10 -366 159t-129 451v372q0 45 -19.5 64t-58.5 19 q-35 0 -67 -8.5t-65 -24.5l-20 46q30 18 69.5 29.5t82.5 11.5q72 0 102 -31t30 -105v-375z" />
<glyph unicode="&#x3c9;" horiz-adv-x="1655" d="M321 1082q-71 -135 -111.5 -279t-40.5 -303q0 -195 79.5 -331t234.5 -136q137 0 218.5 110t81.5 342v285h55v-285q0 -232 81 -342t219 -110q154 0 234 136t80 331q0 158 -41 302t-111 280h66q68 -150 103.5 -272t35.5 -307q0 -234 -97 -379t-269 -145q-122 0 -207 66.5 t-122 205.5q-38 -139 -123 -205.5t-206 -66.5q-173 0 -269 145t-96 379q0 186 35.5 309t103.5 270h66z" />
<glyph unicode="&#x3ca;" horiz-adv-x="594" d="M0 0zM245 279q0 -135 48 -190.5t137 -55.5q27 0 48 2t59 7l9 -50q-24 -7 -52.5 -10t-60.5 -3q-126 0 -184.5 69.5t-58.5 230.5v749h-163v54h218v-803zM545 1331h-136v118h136v-118zM76 1331h-137v118h137v-118z" />
<glyph unicode="&#x3cb;" horiz-adv-x="1168" d="M0 0zM283 385q0 -182 75 -267t205 -85q186 0 280 141t94 346q0 154 -30.5 293.5t-81.5 268.5h66q48 -138 73.5 -258.5t25.5 -300.5q0 -244 -111.5 -394t-313.5 -150q-158 0 -247 99.5t-89 308.5v573q0 45 -19.5 64t-58.5 19q-35 0 -67 -8.5t-65 -24.5l-20 46 q30 18 69.5 29.5t82.5 11.5q72 0 102 -31t30 -105v-576zM824 1331h-136v118h136v-118zM355 1331h-137v118h137v-118z" />
<glyph unicode="&#x3cc;" horiz-adv-x="1155" d="M104 0zM104 562q0 238 131.5 389t341.5 151q211 0 342.5 -151t131.5 -389v-42q0 -239 -131.5 -390t-340.5 -151q-211 0 -343 151t-132 390v42zM158 520q0 -204 114 -345.5t307 -141.5q190 0 304 142t114 345v42q0 199 -115 342.5t-305 143.5q-191 0 -305 -143.5 t-114 -342.5v-42zM631 1522h106l-146 -273h-53z" />
<glyph unicode="&#x3cd;" horiz-adv-x="1168" d="M0 0zM283 385q0 -182 75 -267t205 -85q186 0 280 141t94 346q0 154 -30.5 293.5t-81.5 268.5h66q48 -138 73.5 -258.5t25.5 -300.5q0 -244 -111.5 -394t-313.5 -150q-158 0 -247 99.5t-89 308.5v573q0 45 -19.5 64t-58.5 19q-35 0 -67 -8.5t-65 -24.5l-20 46 q30 18 69.5 29.5t82.5 11.5q72 0 102 -31t30 -105v-576zM565 1501h106l-146 -273h-53z" />
<glyph unicode="&#x3ce;" horiz-adv-x="1655" d="M116 0zM321 1082q-71 -135 -111.5 -279t-40.5 -303q0 -195 79.5 -331t234.5 -136q137 0 218.5 110t81.5 342v285h55v-285q0 -232 81 -342t219 -110q154 0 234 136t80 331q0 158 -41 302t-111 280h66q68 -150 103.5 -272t35.5 -307q0 -234 -97 -379t-269 -145 q-122 0 -207 66.5t-122 205.5q-38 -139 -123 -205.5t-206 -66.5q-173 0 -269 145t-96 379q0 186 35.5 309t103.5 270h66zM858 1501h106l-146 -273h-53z" />
<glyph unicode="&#x3d1;" horiz-adv-x="1288" d="M592 33q211 0 325 121t114 357v74q-226 8 -364 133.5t-138 317.5v62q0 172 77.5 275.5t199.5 103.5q130 0 204.5 -101t74.5 -278v-587q0 -256 -133.5 -394t-359.5 -138q-213 0 -342 144t-129 388v741l54 2v-743q0 -222 112 -350t305 -128zM583 1034q0 -165 118 -275 t325 -114l5 2v451q0 159 -57.5 242t-167.5 83q-102 0 -162.5 -82t-60.5 -243v-64z" />
<glyph unicode="&#x3d2;" horiz-adv-x="1279" d="M921 1239q52 124 112 176t151 52q29 0 56 -8.5t46 -19.5l-23 -41q-14 8 -35.5 15t-47.5 7q-60 0 -110.5 -39.5t-104.5 -165.5l-266 -598v-617h-55v623l-271 592q-57 126 -106 165.5t-108 39.5q-27 0 -49 -7t-35 -15l-23 41q19 11 46 19.5t57 8.5q90 0 150 -52t112 -176 l199 -443l50 -124h6l51 124z" />
<glyph unicode="&#x3d6;" horiz-adv-x="1700" d="M1650 1028h-198q53 -120 83.5 -239.5t30.5 -285.5q0 -235 -96 -379.5t-269 -144.5q-122 0 -207 66t-122 204q-38 -138 -123 -204t-206 -66q-173 0 -269 145t-96 379q0 165 30 284t84 241h-187v55h1545v-55zM1513 500q0 142 -33.5 272.5t-91.5 255.5h-1032 q-59 -125 -92 -255.5t-33 -272.5q0 -195 79.5 -331t234.5 -136q138 0 218.5 110t80.5 342v287h56v-285q0 -12 -0.5 -19.5t-0.5 -14.5q5 -215 86 -317.5t214 -102.5q154 0 234 136t80 331z" />
<glyph unicode="&#x400;" horiz-adv-x="1270" d="M71 0zM71 0v54h163v1348h-163v54h1049v-293h-54v239h-778v-616h630v-54h-630v-678h778v239h54v-293h-1049zM669 1579l-2 -5h-75l-234 261l2 5h89z" />
<glyph unicode="&#x401;" horiz-adv-x="1270" d="M71 0zM71 0v54h163v1348h-163v54h1049v-293h-54v239h-778v-616h630v-54h-630v-678h778v239h54v-293h-1049zM927 1673h-136v118h136v-118zM458 1673h-137v118h137v-118z" />
<glyph unicode="&#x402;" horiz-adv-x="1545" d="M1198 1163h-54v239h-556v-615q100 41 195.5 67t175.5 26q220 0 350 -111t130 -354q0 -158 -116.5 -291t-338.5 -130l-5 2v44q190 0 298 112t108 263q0 210 -117 311t-309 101q-87 0 -169.5 -24t-201.5 -69v-680h163v-54h-380v54h163v1348h-396v-239h-54v293h1114v-293z " />
<glyph unicode="&#x403;" horiz-adv-x="1203" d="M77 0zM77 54h163v1348h-163v54h1025v-293h-54v239h-754v-1348h163v-54h-380v54zM765 1813h78l2 -5l-231 -261h-67l-2 5z" />
<glyph unicode="&#x404;" horiz-adv-x="1266" d="M1244 993h-55v234q-67 90 -179 143.5t-255 53.5q-253 0 -414 -180.5t-164 -472.5l2 -5h633v-54h-633l-2 -5q-2 -301 158 -487t410 -186q144 0 261 53.5t183 143.5v234h55v-254q-73 -107 -206 -169t-293 -62q-277 0 -452 205.5t-175 534.5v18q0 330 176 535t461 205 q158 0 286.5 -62t202.5 -169v-254z" />
<glyph unicode="&#x405;" horiz-adv-x="1198" d="M1077 1022h-54v204q-64 97 -171.5 147t-254.5 50q-198 0 -313.5 -88.5t-115.5 -212.5t95.5 -206t345.5 -146q242 -64 365.5 -156.5t123.5 -262.5q0 -173 -141 -272.5t-353 -99.5q-146 0 -280.5 54.5t-223.5 170.5v240h54v-217q78 -102 199 -148t251 -46q192 0 315.5 88 t123.5 228q0 137 -100.5 219t-348.5 150q-249 67 -364.5 152.5t-115.5 249.5q0 163 136 260t347 97q164 0 286.5 -56.5t193.5 -169.5v-229z" />
<glyph unicode="&#x406;" horiz-adv-x="598" d="M109 0zM109 1402v54h380v-54h-163v-1348h163v-54h-380v54h163v1348h-163z" />
<glyph unicode="&#x407;" horiz-adv-x="598" d="M10 0zM109 1402v54h380v-54h-163v-1348h163v-54h-380v54h163v1348h-163zM616 1673h-136v118h136v-118zM147 1673h-137v118h137v-118z" />
<glyph unicode="&#x408;" horiz-adv-x="1137" d="M41 0zM1043 1402h-163v-980q0 -203 -114.5 -323t-294.5 -120q-200 0 -315 106t-110 310l2 6h46q0 -178 97 -273t280 -95q153 0 254 105t101 284v980h-163v54h380v-54z" />
<glyph unicode="&#x409;" horiz-adv-x="2187" d="M1402 1402h-163v-594h369q227 0 349.5 -112t122.5 -292q0 -181 -123 -292.5t-349 -111.5h-423v1402h-609l-38 -580q-31 -472 -117 -647t-329 -175h-32v54h35q198 0 278.5 153t110.5 615l38 580h-159v54h1039v-54zM1239 754v-700h369q208 0 313 100.5t105 251.5 q0 145 -105.5 246.5t-312.5 101.5h-369z" />
<glyph unicode="&#x40a;" horiz-adv-x="2233" d="M77 54h163v1348h-163v54h380v-54h-163v-654h930v654h-163v54h163h54h163v-54h-163v-592h369q227 0 349.5 -112t122.5 -293t-123 -293t-349 -112h-586v54h163v640h-930v-640h163v-54h-380v54zM1278 756v-703h369q208 0 313 101t105 253q0 145 -105.5 247t-312.5 102h-369z " />
<glyph unicode="&#x40b;" horiz-adv-x="1722" d="M1195 1163h-54v239h-536v-647q105 29 207.5 46t201.5 17q238 0 358.5 -105t120.5 -342v-317h163v-54h-380v54h163v317q0 205 -107 299t-318 94q-101 0 -202.5 -16.5t-206.5 -46.5v-647h163v-54h-380v54h163v1348h-416v-239h-54v293h1114v-293z" />
<glyph unicode="&#x40c;" horiz-adv-x="1388" d="M71 0zM71 54h163v1348h-163v54h380v-54h-163v-638h238l565 633l-2 5h-168v54h361v-54h-115l-596 -672l639 -676h118v-54h-361v54h163l3 6l-622 651h-223v-657h163v-54h-380v54zM793 1760h78l2 -5l-231 -261h-67l-2 5z" />
<glyph unicode="&#x40d;" horiz-adv-x="1552" d="M77 0zM457 1456v-54h-163v-1122l6 -2l935 987v137h-163v54h163h54h163v-54h-163v-1348h163v-54h-380v54h163v1126l-6 2l-935 -988v-140h163v-54h-380v54h163v1348h-163v54h163h54h163zM786 1579l-2 -5h-75l-234 261l2 5h89z" />
<glyph unicode="&#x40e;" horiz-adv-x="1431" d="M33 0zM350 1402h-132l483 -845l55 -100l20 39l449 906h-136v54h316v-54h-114l-572 -1145q-62 -120 -137 -199t-216 -79q-21 0 -48 4t-39 9l15 51q13 -5 34.5 -7.5t42.5 -2.5q100 0 167 61.5t122 171.5l64 128l-573 1008h-118v54h317v-54zM1009 1804l2 -6 q4 -107 -70 -174.5t-202 -67.5q-129 0 -203.5 67.5t-69.5 174.5l2 6h46q0 -86 54 -139t171 -53q112 0 168 54t56 138h46z" />
<glyph unicode="&#x40f;" horiz-adv-x="1547" d="M1441 1402h-163v-1348h163v-54h-651v-349h-54v349h-659v54h163v1348h-163v54h217h163v-54h-163v-1348h930v1348h-163v54h380v-54z" />
<glyph unicode="&#x410;" d="M55 0zM55 54h107l524 1402h66l525 -1402h107v-54h-309v54h143l-143 381h-712l-142 -381h143v-54h-309v54zM383 489h672l-305 820l-28 82h-6l-27 -82z" />
<glyph unicode="&#x411;" horiz-adv-x="1280" d="M1095 1163h-54v239h-754v-614h369q227 0 349 -107.5t122 -286.5q0 -180 -122 -287t-349 -107h-586v54h163v1348h-163v54h1025v-293zM656 54q209 0 312.5 96t103.5 246q0 144 -104 241t-312 97h-369v-680h369z" />
<glyph unicode="&#x412;" horiz-adv-x="1303" d="M71 0zM617 1456q226 0 351 -93t125 -280q0 -130 -67 -219t-189 -111q136 -18 229 -119t93 -233q0 -191 -123.5 -296t-326.5 -105h-638v54h163v1348h-163v54h163h383zM288 719v-665h421q184 0 290 91t106 254q0 134 -101.5 227t-284.5 93h-431zM288 773h349 q199 0 300 77.5t101 236.5q0 156 -106.5 235.5t-314.5 79.5h-329v-629z" />
<glyph unicode="&#x413;" horiz-adv-x="1203" d="M77 0zM77 54h163v1348h-163v54h1025v-293h-54v239h-754v-1348h163v-54h-380v54z" />
<glyph unicode="&#x414;" horiz-adv-x="1523" d="M1315 -349h-55v349h-1151v-349h-54v403h76q85 80 182 306.5t121 630.5l18 411h-160v54h1066v-54h-163v-1348h120v-403zM488 991q-20 -333 -105 -581t-183 -356h941v1348h-635z" />
<glyph unicode="&#x415;" horiz-adv-x="1270" d="M71 0zM71 0v54h163v1348h-163v54h1049v-293h-54v239h-778v-616h630v-54h-630v-678h778v239h54v-293h-1049z" />
<glyph unicode="&#x416;" horiz-adv-x="2020" d="M809 54h163v666h-173l-530 -661l3 -5h113v-54h-322v54h130l553 689l-417 545q-61 79 -98.5 102t-89.5 23q-19 0 -34.5 -5t-27.5 -13l-24 46q18 12 41.5 19t44.5 7q60 0 109.5 -27.5t118.5 -116.5l422 -550h181v629h-163v54h163h54h163v-54h-163v-629h184l422 550 q68 89 117.5 116.5t110.5 27.5q20 0 43.5 -7t42.5 -19l-24 -46q-13 8 -28.5 13t-33.5 5q-53 0 -90.5 -23t-97.5 -102l-420 -548l551 -686h131v-54h-322v54h112l3 5l-530 661h-171v-666h163v-54h-380v54z" />
<glyph unicode="&#x417;" horiz-adv-x="1211" d="M1065 1083q0 -118 -75.5 -208.5t-215.5 -129.5q158 -34 236 -124.5t78 -234.5q0 -190 -143.5 -298.5t-372.5 -108.5q-201 0 -351 109t-145 310l2 6h46q0 -163 125 -267t323 -104q219 0 340.5 92.5t121.5 256.5q0 174 -117 253.5t-350 79.5h-184v56h184q228 0 336 82 t108 234q0 153 -110 244.5t-329 91.5q-144 0 -256 -53.5t-178 -143.5v-214h-55v234q73 107 201.5 169t287.5 62q229 0 361 -102t132 -292z" />
<glyph unicode="&#x418;" horiz-adv-x="1552" d="M457 1456v-54h-163v-1122l6 -2l935 987v137h-163v54h163h54h163v-54h-163v-1348h163v-54h-380v54h163v1126l-6 2l-935 -988v-140h163v-54h-380v54h163v1348h-163v54h163h54h163z" />
<glyph unicode="&#x419;" horiz-adv-x="1552" d="M77 0zM457 1456v-54h-163v-1122l6 -2l935 987v137h-163v54h163h54h163v-54h-163v-1348h163v-54h-380v54h163v1126l-6 2l-935 -988v-140h163v-54h-380v54h163v1348h-163v54h163h54h163zM1006 1804l2 -6q4 -107 -70 -174.5t-202 -67.5q-129 0 -203.5 67.5t-69.5 174.5l2 6 h46q0 -86 54 -139t171 -53q112 0 168 54t56 138h46z" />
<glyph unicode="&#x41a;" horiz-adv-x="1378" d="M71 54h163v1348h-163v54h380v-54h-163v-639h234l432 560q68 89 117.5 116.5t110.5 27.5q20 0 43.5 -7t42.5 -19l-24 -46q-13 8 -28.5 13t-33.5 5q-53 0 -90.5 -23t-97.5 -102l-427 -554l643 -680h118v-54h-361v54h163l3 6l-621 650h-224v-656h163v-54h-380v54z" />
<glyph unicode="&#x41b;" horiz-adv-x="1503" d="M493 1402l-38 -580q-24 -472 -95 -647t-271 -175h-32v54h35q157 0 221 152.5t88 615.5l38 580h-159v54h1139v-54h-163v-1348h163v-54h-380v54h163v1348h-709z" />
<glyph unicode="&#x41c;" horiz-adv-x="1824" d="M71 0zM932 0h-43l-595 1356l-6 -2v-1300h163v-54h-380v54h163v1348h-163v54h163h77l596 -1370h6l598 1370h242v-54h-163v-1348h163v-54h-380v54h163v1307l-6 2z" />
<glyph unicode="&#x41d;" horiz-adv-x="1506" d="M71 0zM71 1402v54h380v-54h-163v-653h930v653h-163v54h163h54h163v-54h-163v-1348h163v-54h-380v54h163v641h-930v-641h163v-54h-380v54h163v1348h-163z" />
<glyph unicode="&#x41e;" horiz-adv-x="1488" d="M130 0zM1348 719q0 -336 -168.5 -538t-439.5 -202q-272 0 -441 202.5t-169 537.5v18q0 335 168 537.5t440 202.5q271 0 440.5 -202.5t169.5 -537.5v-18zM1294 739q0 309 -151.5 496.5t-404.5 187.5q-252 0 -402.5 -187.5t-150.5 -496.5v-20q0 -311 151 -498.5t404 -187.5 t403.5 187.5t150.5 498.5v20z" />
<glyph unicode="&#x41f;" horiz-adv-x="1548" d="M77 0zM77 54h163v1348h-163v54h1364v-54h-163v-1348h163v-54h-380v54h163v1348h-930v-1348h163v-54h-380v54z" />
<glyph unicode="&#x420;" horiz-adv-x="1255" d="M71 0zM639 1456q226 0 348 -113.5t122 -301.5q0 -190 -121.5 -303t-348.5 -113h-351v-571h163v-54h-380v54h163v1348h-163v54h163h405zM288 679h351q207 0 311.5 103t104.5 257q0 158 -104 260.5t-312 102.5h-351v-723z" />
<glyph unicode="&#x421;" horiz-adv-x="1373" d="M130 0zM1256 992h-55v234q-67 90 -179 143.5t-255 53.5q-259 0 -421 -189t-162 -495v-20q0 -307 161 -496.5t412 -189.5q144 0 261 53.5t183 143.5v234h55v-254q-73 -107 -206 -169t-293 -62q-277 0 -452 205.5t-175 534.5v18q0 330 176 535t461 205q158 0 286.5 -62 t202.5 -169v-254z" />
<glyph unicode="&#x422;" horiz-adv-x="1277" d="M80 0zM1194 1456v-293h-54v239h-476v-1348h163v-54h-380v54h163v1348h-476v-239h-54v293h1114z" />
<glyph unicode="&#x423;" horiz-adv-x="1431" d="M350 1402h-132l483 -845l55 -100l20 39l449 906h-136v54h316v-54h-114l-572 -1145q-62 -120 -137 -199t-216 -79q-21 0 -48 4t-39 9l15 51q13 -5 34.5 -7.5t42.5 -2.5q100 0 167 61.5t122 171.5l64 128l-573 1008h-118v54h317v-54z" />
<glyph unicode="&#x424;" horiz-adv-x="1462" d="M677 169q-277 0 -442 162.5t-165 405.5q0 242 165.5 405.5t441.5 163.5h25v156h-163v54h218h163v-54h-163v-156h28q275 0 441 -163t166 -404q0 -243 -166 -406.5t-441 -163.5h-28v-175h163v-54h-381v54h163v175h-25zM757 1252v-1029h30q251 0 400.5 145.5t149.5 370.5 q0 222 -150 367.5t-400 145.5h-30zM677 1252q-252 0 -402 -147t-150 -368q0 -225 149.5 -369.5t402.5 -144.5h25v1029h-25z" />
<glyph unicode="&#x425;" horiz-adv-x="1391" d="M63 0zM63 54h115l486 689l-466 659h-115v54h338v-54h-156l432 -617l433 617h-155v54h337v-54h-115l-465 -659l486 -689h115v-54h-337v54h155l-454 647l-453 -647h155v-54h-336v54z" />
<glyph unicode="&#x426;" horiz-adv-x="1566" d="M1441 1456v-54h-163v-1348h133v-405h-54v351h-1280v54h163v1348h-163v54h217h163v-54h-163v-1348h930v1348h-163v54h163h54h163z" />
<glyph unicode="&#x427;" horiz-adv-x="1461" d="M940 54h163v665q-104 -29 -205 -45t-197 -16q-239 0 -359 104.5t-120 342.5v297h-163v54h217h163v-54h-163v-297q0 -206 106.5 -299.5t318.5 -93.5q99 0 199 15t203 45v630h-163v54h217h163v-54h-163v-1348h163v-54h-380v54z" />
<glyph unicode="&#x428;" horiz-adv-x="2000" d="M77 54h163v1348h-163v54h218h163v-54h-163v-1348h663v1348h-163v54h381v-54h-163v-1348h663v1348h-163v54h163h54h163v-54h-163v-1348h163v-54h-1816v54z" />
<glyph unicode="&#x429;" horiz-adv-x="2007" d="M1893 1456v-54h-163v-1348h166v-405h-54v351h-1765v54h163v1348h-163v54h163h55h163v-54h-163v-1348h663v1348h-163v54h218h163v-54h-163v-1348h663v1348h-163v54h163h217z" />
<glyph unicode="&#x42a;" horiz-adv-x="1594" d="M828 1402h-163v-614h369q227 0 349 -107.5t122 -286.5q0 -180 -122 -287t-349 -107h-586v54h163v1348h-480v-239h-54v293h751v-54zM665 734v-680h369q209 0 312.5 96t103.5 246q0 144 -104 241t-312 97h-369z" />
<glyph unicode="&#x42b;" horiz-adv-x="1648" d="M287 1456v-668h369q227 0 349 -107.5t122 -286.5q0 -180 -122 -287t-349 -107h-586v54h163v1348h-163v54h163h54zM287 734v-680h369q209 0 312.5 96t103.5 246q0 144 -104 241t-312 97h-369zM1223 54h163v1348h-163v54h380v-54h-163v-1348h163v-54h-380v54zM450 1456v-54 h-163v54h163z" />
<glyph unicode="&#x42c;" horiz-adv-x="1289" d="M287 1456v-668h369q227 0 349 -107.5t122 -286.5q0 -180 -122 -287t-349 -107h-586v54h163v1348h-163v54h163h54zM287 734v-680h369q209 0 312.5 96t103.5 246q0 144 -104 241t-312 97h-369zM450 1456v-54h-163v54h163z" />
<glyph unicode="&#x42d;" horiz-adv-x="1277" d="M95 1246q73 107 201.5 169t287.5 62q282 0 449.5 -204t167.5 -536v-18q0 -332 -166.5 -536t-440.5 -204q-161 0 -294 62t-205 169v254h55v-234q65 -90 182 -143.5t262 -53.5q248 0 400.5 188t152.5 498v11h-636v54h628l2 5q-9 286 -160 460t-397 174q-144 0 -256 -53.5 t-178 -143.5v-234h-55v254z" />
<glyph unicode="&#x42e;" horiz-adv-x="1896" d="M1822 719q0 -336 -168.5 -538t-439.5 -202q-272 0 -441 202.5t-169 537.5v18q0 335 168 537.5t440 202.5q271 0 440.5 -202.5t169.5 -537.5v-18zM1768 739q0 309 -151.5 496.5t-404.5 187.5q-252 0 -402.5 -187.5t-150.5 -496.5v-20q0 -311 151 -498.5t404 -187.5 t403.5 187.5t150.5 498.5v20zM66 1402v54h380v-54h-163v-655h295v-54h-295v-639h163v-54h-380v54h163v1348h-163z" />
<glyph unicode="&#x42f;" horiz-adv-x="1363" d="M1258 1456v-54h-163v-1348h163v-54h-218v639h-506l-189 -463q-42 -104 -95.5 -144t-114.5 -40q-21 0 -44.5 6.5t-41.5 19.5l24 46q12 -9 27.5 -13.5t34.5 -4.5q51 0 91 35.5t79 129.5l186 443l-7 10q-142 42 -215.5 134t-73.5 230q0 207 125 317.5t349 110.5h426h163z M249 1030q0 -151 91 -241.5t250 -94.5h450v708h-371q-207 0 -313.5 -96t-106.5 -276zM877 0v54h163v-54h-163z" />
<glyph unicode="&#x430;" horiz-adv-x="1132" d="M104 0zM885 0q-13 71 -17.5 106.5t-4.5 76.5v16q-62 -97 -173.5 -158.5t-262.5 -61.5q-150 0 -236.5 81.5t-86.5 213.5q0 146 133 238t357 92h269v158q0 135 -86.5 210.5t-243.5 75.5q-103 0 -192.5 -29t-152.5 -80l-1 -173h-54l1 206q77 57 181.5 93.5t217.5 36.5 q174 0 279 -88t105 -254v-542q0 -42 3.5 -83t11.5 -81h130v-54h-177zM427 32q153 0 266 69t170 191v257h-266q-199 0 -319 -77.5t-120 -201.5q0 -101 74 -169.5t195 -68.5z" />
<glyph unicode="&#x431;" horiz-adv-x="1158" d="M579 1002q211 0 343 -134.5t132 -345.5v-42q0 -221 -132 -361t-341 -140q-211 0 -343 140t-132 361v172q0 308 127.5 499.5t350.5 218.5q176 25 242 68t66 115h44l2 -6q5 -100 -81.5 -156.5t-257.5 -74.5q-178 -17 -291.5 -161t-131.5 -370l3 -5q49 102 155 162t245 60z M579 948q-191 0 -305 -125.5t-114 -300.5v-42q0 -187 114 -317t307 -130q190 0 304 130.5t114 316.5v42q0 176 -114.5 301t-305.5 125z" />
<glyph unicode="&#x432;" horiz-adv-x="1231" d="M632 1082q193 0 299.5 -70t106.5 -210q0 -91 -56.5 -158t-157.5 -89h1q111 -12 185.5 -87.5t74.5 -174.5q0 -142 -104.5 -217.5t-279.5 -75.5h-604v54h163v974h-163v54h163h372zM314 521v-467h387q155 0 243 61.5t88 176.5q0 102 -90 165.5t-241 63.5h-387zM314 575h338 q162 0 247 58t85 172t-88.5 168t-263.5 54h-318v-452z" />
<glyph unicode="&#x433;" horiz-adv-x="1030" d="M235 1028h-163v54h813v-192h-54v137h-542v-973h163v-54h-380v54h163v974z" />
<glyph unicode="&#x434;" horiz-adv-x="1255" d="M138 54q92 124 147.5 251.5t62.5 400.5l17 322h-160v54h744h163v-54h-163v-974h86v-372h-54v318h-871v-318h-44v372h72zM402 706q-7 -241 -61.5 -397.5t-135.5 -254.5h690v974h-476z" />
<glyph unicode="&#x435;" horiz-adv-x="1104" d="M112 0zM566 -21q-185 0 -319.5 149.5t-134.5 371.5v64q0 233 130 385.5t321 152.5q183 0 298.5 -120t115.5 -322v-83h-811v-13v-64q0 -196 115 -331.5t285 -135.5q121 0 202.5 33t139.5 99l29 -42q-64 -71 -155.5 -107.5t-215.5 -36.5zM563 1048q-161 0 -268 -117.5 t-121 -293.5l3 -6h746v33q0 165 -100 274.5t-260 109.5z" />
<glyph unicode="&#x436;" horiz-adv-x="1801" d="M723 54h163v475h-154l-499 -529h-158v54h137l469 506l-285 354q-63 78 -100 101.5t-88 23.5q-19 0 -34.5 -5t-27.5 -13l-24 46q18 12 41.5 19t44.5 7q58 0 107 -28t121 -116l297 -367h153v446h-163v54h217h163v-54h-163v-446h160l297 367q71 88 120 116t108 28 q20 0 43.5 -7t42.5 -19l-24 -46q-13 8 -28.5 13t-33.5 5q-51 0 -88 -23.5t-100 -101.5l-287 -357l467 -503h137v-54h-158l-500 529h-156v-475h163v-54h-380v54z" />
<glyph unicode="&#x437;" horiz-adv-x="1030" d="M486 580q175 0 254 58t79 167t-80.5 174t-249.5 65q-137 0 -235.5 -68t-98.5 -177h-46l-2 6q-6 129 108.5 211t273.5 82q182 0 283.5 -76.5t101.5 -219.5q0 -85 -54.5 -151t-155.5 -97q115 -27 172 -93.5t57 -170.5q0 -144 -111 -225.5t-293 -81.5q-160 0 -282.5 81.5 t-117.5 230.5l2 6h46q0 -114 100.5 -188.5t251.5 -74.5q170 0 259.5 65.5t89.5 183.5q0 124 -87 181t-265 57h-145v55h145z" />
<glyph unicode="&#x438;" horiz-adv-x="1352" d="M477 1082v-54h-163v-922l6 -2l663 978h55h163v-54h-163v-974h163v-54h-381v54h163v922l-6 2l-663 -978h-217v54h163v974h-163v54h217h163z" />
<glyph unicode="&#x439;" horiz-adv-x="1352" d="M97 0zM477 1082v-54h-163v-922l6 -2l663 978h55h163v-54h-163v-974h163v-54h-381v54h163v922l-6 2l-663 -978h-217v54h163v974h-163v54h217h163zM938 1461l2 -6q4 -107 -70 -174.5t-202 -67.5q-129 0 -203.5 67.5t-69.5 174.5l2 6h46q0 -86 54 -139t171 -53q112 0 168 54 t56 138h46z" />
<glyph unicode="&#x43a;" horiz-adv-x="1230" d="M97 1028v54h381v-54h-163v-446h208l297 367q71 88 120 116t108 28q20 0 43.5 -7t42.5 -19l-24 -46q-13 8 -28.5 13t-33.5 5q-51 0 -88 -23.5t-100 -101.5l-290 -361l472 -499h138v-54h-168l-499 529h-198v-475h163v-54h-381v54h163v974h-163z" />
<glyph unicode="&#x43b;" horiz-adv-x="1277" d="M757 54h163v973h-536v-437q0 -318 -65 -454t-218 -136h-32v53h35q114 0 170 117t56 420v438h-163v54h808h163v-54h-163v-974h163v-54h-381v54z" />
<glyph unicode="&#x43c;" horiz-adv-x="1684" d="M826 82l492 1000h65h163v-54h-163v-974h163v-54h-381v54h163v911l-6 1l-475 -966h-42l-485 990l-6 -1v-935h163v-54h-380v54h163v974h-163v54h163h74z" />
<glyph unicode="&#x43d;" horiz-adv-x="1351" d="M97 1028v54h380v-54h-163v-445h669v445h-163v54h163h55h163v-54h-163v-974h163v-54h-381v54h163v475h-669v-475h163v-54h-380v54h163v974h-163z" />
<glyph unicode="&#x43e;" horiz-adv-x="1155" d="M104 0zM104 562q0 238 131.5 389t341.5 151q211 0 342.5 -151t131.5 -389v-42q0 -239 -131.5 -390t-340.5 -151q-211 0 -343 151t-132 390v42zM158 520q0 -204 114 -345.5t307 -141.5q190 0 304 142t114 345v42q0 199 -115 342.5t-305 143.5q-191 0 -305 -143.5 t-114 -342.5v-42z" />
<glyph unicode="&#x43f;" horiz-adv-x="1352" d="M97 54h163v974h-163v54h1104v-54h-163v-974h163v-54h-381v54h163v973h-669v-973h163v-54h-380v54z" />
<glyph unicode="&#x440;" horiz-adv-x="1161" d="M65 0zM65 -362h163v1390h-163v54h205l11 -194q54 100 147 157t221 57q191 0 299.5 -151.5t108.5 -408.5v-21q0 -250 -108 -396t-298 -146q-127 0 -221.5 51t-147.5 138v-530h163v-54h-380v54zM1002 542q0 225 -90.5 365.5t-261.5 140.5q-157 0 -244 -79t-124 -194v-506 q40 -108 134 -172t236 -64q171 0 260.5 132t89.5 356v21z" />
<glyph unicode="&#x441;" horiz-adv-x="1086" d="M546 33q137 0 242 75t105 225h46l2 -6q4 -159 -116.5 -253.5t-278.5 -94.5q-207 0 -324.5 149t-117.5 392v42q0 242 117 391t323 149q122 0 226 -50.5t167 -136.5v-232h-54v212q-57 70 -143.5 111.5t-195.5 41.5q-190 0 -288 -136t-98 -350v-42q0 -216 98 -351.5 t290 -135.5z" />
<glyph unicode="&#x442;" horiz-adv-x="1083" d="M972 1082v-293h-54v238h-371v-973h163v-54h-380v54h163v973h-349v-238h-54v293h882z" />
<glyph unicode="&#x443;" horiz-adv-x="1185" d="M55 0zM374 1028h-142l335 -832l40 -108h6l6 16l353 924h-142v54h320v-54h-118l-460 -1208q-44 -114 -102.5 -185.5t-186.5 -71.5q-19 0 -42 3.5t-34 7.5l9 51q11 -3 33 -6t34 -3q92 0 143.5 54t91.5 160l65 176l-410 1022h-118v54h319v-54z" />
<glyph unicode="&#x444;" horiz-adv-x="1450" d="M739 1036q34 29 84.5 47.5t119.5 18.5q181 0 284.5 -151.5t103.5 -408.5v-21q0 -250 -103 -396t-283 -146q-67 0 -118.5 17.5t-87.5 44.5v-403h163v-54h-380v54h163v403q-38 -27 -90 -44.5t-118 -17.5q-181 0 -283.5 146t-102.5 396v21q0 257 103 408.5t285 151.5 q68 0 119 -19t87 -48v471h-163v54h217v-524zM147 521q0 -224 83.5 -356t245.5 -132q75 0 124.5 20.5t84.5 48.5v861q-24 34 -71 59.5t-136 25.5q-162 0 -246.5 -140.5t-84.5 -365.5v-21zM1277 542q0 225 -85.5 365.5t-247.5 140.5q-88 0 -135 -25t-70 -58v-864 q31 -26 81.5 -47t125.5 -21q162 0 246.5 132t84.5 356v21z" />
<glyph unicode="&#x445;" horiz-adv-x="1192" d="M82 0zM82 54h126l361 501l-341 473h-126v54h318v-54h-124l307 -426l306 426h-124v54h318v-54h-126l-341 -473l361 -501h126v-54h-317v54h124l-328 454l-327 -454h124v-54h-317v54z" />
<glyph unicode="&#x446;" horiz-adv-x="1318" d="M1132 -321h-54v321h-1008v54h163v974h-163v54h163h54h163v-54h-163v-974h669v974h-163v54h163h218v-54h-163v-974h121v-375z" />
<glyph unicode="&#x447;" horiz-adv-x="1319" d="M445 1082v-54h-163v-180q0 -205 80 -278.5t275 -73.5q79 3 169.5 25.5t145.5 51.5v455h-163v54h380v-54h-163v-974h163v-54h-380v54h163v468q-66 -33 -156 -56.5t-159 -23.5q-221 0 -315 84.5t-94 321.5v180h-163v54h217h163z" />
<glyph unicode="&#x448;" horiz-adv-x="1843" d="M97 1028v54h217h163v-54h-163v-974h567v1028h55v-1028h558v974h-163v54h217h163v-54h-163v-974h163v-54h-1614v54h163v974h-163z" />
<glyph unicode="&#x449;" horiz-adv-x="1844" d="M1711 1082v-54h-163v-974h163v-375h-54v321h-1560v54h163v974h-163v54h163h54h163v-54h-163v-974h567v1028h55v-1028h558v974h-163v54h163h54h163z" />
<glyph unicode="&#x44a;" horiz-adv-x="1407" d="M705 1082v-54h-163v-358h345q182 0 284.5 -93.5t102.5 -241.5q0 -150 -102.5 -242.5t-284.5 -92.5h-562v54h163v974h-344v-239h-54v293h615zM542 616v-562h345q166 0 249.5 80.5t83.5 202.5q0 117 -84 198t-249 81h-345z" />
<glyph unicode="&#x44b;" horiz-adv-x="1535" d="M314 1082v-412h345q182 0 284.5 -93.5t102.5 -241.5q0 -150 -102.5 -242.5t-284.5 -92.5h-562v54h163v974h-163v54h163h54zM314 616v-562h345q166 0 249.5 80.5t83.5 202.5q0 117 -84 198t-249 81h-345zM1126 54h163v974h-163v54h217v-1028h163v-54h-380v54zM477 1082 v-54h-163v54h163z" />
<glyph unicode="&#x44c;" horiz-adv-x="1174" d="M314 1082v-412h345q182 0 284.5 -93.5t102.5 -241.5q0 -150 -102.5 -242.5t-284.5 -92.5h-562v54h163v974h-163v54h163h54zM314 616v-562h345q166 0 249.5 80.5t83.5 202.5q0 117 -84 198t-249 81h-345zM477 1082v-54h-163v54h163z" />
<glyph unicode="&#x44d;" horiz-adv-x="1067" d="M535 33q190 0 288 134t96 344l-3 5h-571v54h571l3 5q0 206 -97.5 339.5t-284.5 133.5q-110 0 -196.5 -41.5t-142.5 -111.5v-212h-54v232q62 86 166 136.5t227 50.5q205 0 322.5 -149t117.5 -391v-42q0 -243 -118 -392t-324 -149q-159 0 -279.5 94.5t-115.5 253.5l2 6h46 q0 -150 104.5 -225t242.5 -75z" />
<glyph unicode="&#x44e;" horiz-adv-x="1708" d="M90 54h163v974h-163v54h217v-525h303v5q0 238 131.5 389t341.5 151q211 0 342.5 -151t131.5 -389v-42q0 -239 -131.5 -390t-340.5 -151q-207 0 -338.5 146t-136.5 378h-303v-449h163v-54h-380v54zM664 520q0 -204 114 -345.5t307 -141.5q190 0 304 142t114 345v42 q0 199 -115 342.5t-305 143.5q-191 0 -305 -143.5t-114 -342.5v-42z" />
<glyph unicode="&#x44f;" horiz-adv-x="1252" d="M720 54h163v396h-388h-8l-271 -450h-151v54h119l241 401q-121 19 -187 103t-66 208q0 140 96 228t269 88h563v-54h-163v-974h163v-54h-380v54zM226 764q0 -110 67 -184.5t202 -74.5h388v522h-346q-157 0 -234 -74.5t-77 -188.5z" />
<glyph unicode="&#x450;" horiz-adv-x="1104" d="M112 0zM566 -21q-185 0 -319.5 149.5t-134.5 371.5v64q0 233 130 385.5t321 152.5q183 0 298.5 -120t115.5 -322v-83h-811v-13v-64q0 -196 115 -331.5t285 -135.5q121 0 202.5 33t139.5 99l29 -42q-64 -71 -155.5 -107.5t-215.5 -36.5zM563 1048q-161 0 -268 -117.5 t-121 -293.5l3 -6h746v33q0 165 -100 274.5t-260 109.5zM617 1258l-2 -5h-75l-234 261l2 5h89z" />
<glyph unicode="&#x451;" horiz-adv-x="1104" d="M112 0zM566 -21q-185 0 -319.5 149.5t-134.5 371.5v64q0 233 130 385.5t321 152.5q183 0 298.5 -120t115.5 -322v-83h-811v-13v-64q0 -196 115 -331.5t285 -135.5q121 0 202.5 33t139.5 99l29 -42q-64 -71 -155.5 -107.5t-215.5 -36.5zM563 1048q-161 0 -268 -117.5 t-121 -293.5l3 -6h746v33q0 165 -100 274.5t-260 109.5zM875 1352h-136v118h136v-118zM406 1352h-137v118h137v-118z" />
<glyph unicode="&#x452;" horiz-adv-x="1200" d="M554 1251h-275v-397q50 118 147 183t237 65q169 0 256.5 -107t87.5 -337v-747q0 -167 -75.5 -257.5t-210.5 -90.5q-35 0 -66 5t-66 15l13 52q20 -6 54 -12t65 -6q110 0 170.5 76.5t60.5 217.5v749q0 213 -78.5 300.5t-209.5 87.5q-175 0 -268 -104.5t-117 -267.5v-622 h163v-54h-380v54h163v1197h-218v54h218v201h-163v54h163h54v-255h275v-54z" />
<glyph unicode="&#x453;" horiz-adv-x="1030" d="M72 0zM235 1028h-163v54h813v-192h-54v137h-542v-973h163v-54h-380v54h163v974zM665 1471h78l2 -5l-231 -261h-67l-2 5z" />
<glyph unicode="&#x454;" horiz-adv-x="1086" d="M561 33q137 0 242 75t105 225h46l2 -6q4 -159 -116.5 -253.5t-278.5 -94.5q-207 0 -324.5 149t-117.5 392v42q0 242 117 391t323 149q122 0 226 -50.5t167 -136.5v-232h-54v212q-57 70 -143.5 111.5t-195.5 41.5q-189 0 -286.5 -133.5t-95.5 -339.5l3 -5h553v-54h-553 l-3 -5q-3 -210 95 -344t289 -134z" />
<glyph unicode="&#x455;" horiz-adv-x="1009" d="M103 0zM852 753h-54v175q-52 58 -132.5 89t-186.5 31q-152 0 -230 -65.5t-78 -151.5q0 -85 66 -145t262 -105q181 -42 274.5 -114.5t93.5 -202.5q0 -127 -104 -206t-276 -79q-118 0 -217.5 38t-166.5 105v193h54v-163q59 -63 146 -91t184 -28q150 0 238 70t88 162 q0 86 -73.5 156.5t-256.5 110.5q-191 40 -278.5 106.5t-87.5 190.5q0 116 98 194.5t264 78.5q116 0 214.5 -40t158.5 -107v-202z" />
<glyph unicode="&#x456;" horiz-adv-x="609" d="M89 0zM89 54h163v974h-163v54h217v-1028h163v-54h-380v54zM306 1422h-54v138h54v-138z" />
<glyph unicode="&#x457;" horiz-adv-x="608" d="M0 0zM90 1028v54h217v-1028h163v-54h-380v54h163v974h-163zM593 1331h-136v118h136v-118zM124 1331h-137v118h137v-118z" />
<glyph unicode="&#x458;" horiz-adv-x="555" d="M0 0zM384 -89q0 -167 -75 -257.5t-210 -90.5q-30 0 -56 5t-56 15l13 52q18 -6 45.5 -12t53.5 -6q110 0 170.5 77t60.5 217v1117h-163v54h217v-1171zM378 1426h-54v134h54v-134z" />
<glyph unicode="&#x459;" horiz-adv-x="1794" d="M1144 1082v-54h-163v-398h345q182 0 284.5 -88t102.5 -227q0 -141 -102.5 -228t-284.5 -87h-563v54h163v973h-546v-437q0 -318 -65 -454t-218 -136h-32v54h35q114 0 170 116.5t56 419.5v438h-163v54h818h163zM981 576v-522h345q166 0 249.5 75t83.5 188q0 108 -84 183.5 t-249 75.5h-345z" />
<glyph unicode="&#x45a;" horiz-adv-x="1877" d="M97 1028v54h380v-54h-163v-396h669v396h-163v54h163h55h163v-54h-163v-398h345q182 0 284.5 -88t102.5 -227q0 -141 -102.5 -228t-284.5 -87h-563v54h163v524h-669v-524h163v-54h-380v54h163v974h-163zM1038 576v-522h345q166 0 249.5 75t83.5 188q0 108 -84 183.5 t-249 75.5h-345z" />
<glyph unicode="&#x45b;" horiz-adv-x="1278" d="M17 1280v54h208v172h-163v54h217v-226h325v-54h-325v-426q50 118 147 183t237 65q169 0 256.5 -107t87.5 -337v-604h163v-54h-381v54h163v606q0 213 -78.5 300.5t-209.5 87.5q-175 0 -268 -104.5t-117 -267.5v-622h163v-54h-380v54h163v1226h-208z" />
<glyph unicode="&#x45c;" horiz-adv-x="1230" d="M97 0zM97 1028v54h381v-54h-163v-446h208l297 367q71 88 120 116t108 28q20 0 43.5 -7t42.5 -19l-24 -46q-13 8 -28.5 13t-33.5 5q-51 0 -88 -23.5t-100 -101.5l-290 -361l472 -499h138v-54h-168l-499 529h-198v-475h163v-54h-381v54h163v974h-163zM746 1470h78l2 -5 l-231 -261h-67l-2 5z" />
<glyph unicode="&#x45d;" horiz-adv-x="1352" d="M97 0zM477 1082v-54h-163v-922l6 -2l663 978h55h163v-54h-163v-974h163v-54h-381v54h163v922l-6 2l-663 -978h-217v54h163v974h-163v54h217h163zM718 1236l-2 -5h-75l-234 261l2 5h89z" />
<glyph unicode="&#x45e;" horiz-adv-x="1185" d="M55 0zM374 1028h-142l335 -832l40 -108h6l6 16l353 924h-142v54h320v-54h-118l-460 -1208q-44 -114 -102.5 -185.5t-186.5 -71.5q-19 0 -42 3.5t-34 7.5l9 51q11 -3 33 -6t34 -3q92 0 143.5 54t91.5 160l65 176l-410 1022h-118v54h319v-54zM879 1461l2 -6 q4 -107 -70 -174.5t-202 -67.5q-129 0 -203.5 67.5t-69.5 174.5l2 6h46q0 -86 54 -139t171 -53q112 0 168 54t56 138h46z" />
<glyph unicode="&#x45f;" horiz-adv-x="1353" d="M681 -350h-54v350h-529v54h163v974h-163v54h217h163v-54h-163v-974h669v974h-163v54h381v-54h-163v-974h163v-54h-521v-350z" />
<glyph unicode="&#x460;" horiz-adv-x="1751" d="M1600 1456v-1027q0 -219 -104 -334.5t-273 -115.5q-127 0 -219.5 65t-131.5 192q-40 -127 -132 -192t-218 -65q-170 0 -274 115.5t-104 334.5v1027h54v-1027q0 -187 90 -291.5t234 -104.5q142 0 232.5 104.5t90.5 291.5v1027h54v-1027q0 -187 89.5 -291.5t234.5 -104.5 q142 0 232.5 104.5t90.5 291.5v1027h54z" />
<glyph unicode="&#x461;" horiz-adv-x="1631" d="M1526 1082v-673q0 -209 -98.5 -319.5t-258.5 -110.5q-119 0 -206 61t-125 180q-39 -119 -126 -180t-204 -61q-161 0 -259.5 110.5t-98.5 319.5v673h54v-673q0 -178 84 -277t220 -99q134 0 218.5 99t84.5 277v673h54v-673q0 -177 84.5 -276.5t219.5 -99.5q134 0 218.5 99 t84.5 277v673h54z" />
<glyph unicode="&#x462;" horiz-adv-x="1289" d="M287 1174h303v-54h-303v-332h369q227 0 349 -107.5t122 -286.5q0 -180 -122 -287t-349 -107h-586v54h163v1066h-230v54h230v228h-163v54h217v-282zM287 734v-680h369q209 0 312.5 96t103.5 246q0 144 -104 241t-312 97h-369zM450 1456v-54h-163v54h163z" />
<glyph unicode="&#x463;" horiz-adv-x="1080" d="M235 1136h329v-54h-329v-412h345q182 0 284.5 -93.5t102.5 -241.5q0 -150 -102.5 -242.5t-284.5 -92.5h-562v54h163v1028h-204v54h204v372h-163v54h217v-426zM235 616v-562h345q166 0 249.5 80.5t83.5 202.5q0 117 -84 198t-249 81h-345z" />
<glyph unicode="&#x464;" horiz-adv-x="1748" d="M1711 993h-55v234q-67 90 -179 143.5t-255 53.5q-247 0 -406.5 -172.5t-170.5 -452.5l2 -5h546v-54h-554v-20q0 -307 161 -496.5t412 -189.5q144 0 261 53.5t183 143.5v234h55v-254q-73 -107 -206 -169t-293 -62q-277 0 -452 205.5t-175 534.5v18v2h-301v-686h163v-54 h-380v54h163v1348h-163v54h163h54h163v-54h-163v-608h302q15 307 189 495.5t447 188.5q158 0 286.5 -62t202.5 -169v-254z" />
<glyph unicode="&#x465;" horiz-adv-x="1540" d="M305 588h241q6 232 122.5 373t317.5 141q122 0 226 -50.5t167 -136.5v-232h-54v212q-57 70 -143.5 111.5t-195.5 41.5q-185 0 -282 -127.5t-99 -327.5l2 -5h565v-54h-572v-14q0 -216 98 -351.5t290 -135.5q137 0 242 75t105 225h46l2 -6q4 -159 -116.5 -253.5 t-278.5 -94.5q-207 0 -324.5 149t-117.5 392v14h-241v-480h163v-54h-380v54h163v974h-163v54h163h54v-494z" />
<glyph unicode="&#x466;" horiz-adv-x="1434" d="M52 54h107l524 1402h66l525 -1402h107v-54h-309v54h142l-170 454h-307v-508h-54v508h-295l-170 -454h143v-54h-309v54zM408 562h616l-277 742l-28 85h-6l-27 -85z" />
<glyph unicode="&#x467;" horiz-adv-x="1268" d="M891 395h-224v-395h-54v395h-233l-172 -395h-146v54h110l438 1026v2h52l438 -1028h110v-54h-145zM404 449h463l-177 404l-51 146h-6l-52 -146z" />
<glyph unicode="&#x468;" horiz-adv-x="1992" d="M465 1456v-54h-163v-840h575l335 894h66l525 -1402h107v-54h-309v54h142l-170 454h-307v-508h-54v508h-295l-170 -454h143v-54h-309v54h107l169 454h-555v-454h163v-54h-380v54h163v1348h-163v54h163h54h163zM937 562h616l-277 742l-28 85h-6l-27 -85z" />
<glyph unicode="&#x469;" horiz-adv-x="1716" d="M312 449h475l270 631v2h52l438 -1028h110v-54h-145l-174 395h-224v-395h-54v395h-233l-172 -395h-146v54h110l145 341h-452v-341h163v-54h-380v54h163v974h-163v54h163h54v-633zM851 449h463l-177 404l-51 146h-6l-52 -146z" />
<glyph unicode="&#x46a;" horiz-adv-x="1804" d="M656 54h163v641h-194q-184 0 -268 -70t-84 -236v-335h163v-54h-381v54h163v335q0 188 104.5 274t302.5 86h161l-437 653h-123v54h1240v-54h-123l-438 -653h165q198 0 302 -86t104 -274v-335h163v-54h-380v54h163v335q0 166 -84 236t-268 70h-197v-641h163v-54h-380v54z M1277 1402h-864l406 -619l21 -34h11l21 34z" />
<glyph unicode="&#x46b;" horiz-adv-x="1588" d="M718 530h-88q-185 0 -269 -70t-84 -235v-225h-218v54h163v171q0 189 104.5 274.5t303.5 85.5h47l-330 443h-127v54h1063v-54h-127l-330 -443h44q198 0 302.5 -86t104.5 -274v-171h163v-54h-217v225q0 165 -84.5 235t-268.5 70h-85l-7 -10v-466h163v-54h-380v54h163v467z M1090 1027h-677l322 -431l5 -11h22l6 12z" />
<glyph unicode="&#x46c;" horiz-adv-x="2372" d="M446 1456v-54h-163v-653h857h10h161l-437 653h-123v54h1240v-54h-123l-438 -653h165q198 0 302 -86t104 -274v-335h163v-54h-380v54h163v335q0 166 -84 236t-268 70h-197v-641h163v-54h-380v54h163v641h-194q-184 0 -268 -70t-84 -236v-335h163v-54h-381v54h163v335 q0 113 38 188.5t113 117.5h-611v-641h163v-54h-380v54h163v1348h-163v54h163h54h163zM1802 1402h-864l406 -619l21 -34h11l21 34z" />
<glyph unicode="&#x46d;" horiz-adv-x="2050" d="M307 585h665v-2q18 0 33.5 1t30.5 1h47l-330 443h-127v54h1063v-54h-127l-330 -443h44q198 0 302.5 -86t104.5 -274v-171h163v-54h-217v225q0 165 -84.5 235t-268.5 70h-85l-7 -10v-466h163v-54h-380v54h163v467l-6 9h-88q-185 0 -269 -70t-84 -235v-225h-593v54h163v974 h-163v54h163h54v-497zM628 225q0 112 37.5 187t110.5 118h-469v-476h321v171zM1496 1027h-677l322 -431l5 -11h22l6 12z" />
<glyph unicode="&#x46e;" horiz-adv-x="1029" d="M402 771q227 0 334.5 82t107.5 234q0 145 -94.5 235t-283.5 90q-110 0 -196.5 -41.5t-142.5 -111.5v-212h-54v232q62 86 166 136.5t227 50.5q200 0 316.5 -101t116.5 -282q0 -117 -75.5 -208t-213.5 -130q156 -34 234 -125t78 -234q0 -178 -152 -282t-376 -103h-82 q-104 0 -149 -35.5t-45 -106.5q0 -61 59 -114t121 -71l-15 -52q-75 21 -146.5 88.5t-71.5 147.5q0 89 59.5 142.5t187.5 53.5h82q214 0 343.5 88t129.5 240q0 174 -117 253.5t-348 79.5h-123v56h123zM480 1679l184 187h67v-16l-212 -207h-79l-214 209v14h71z" />
<glyph unicode="&#x46f;" horiz-adv-x="940" d="M395 585q196 0 288.5 60t92.5 172q0 95 -84 152.5t-253 58.5q-97 0 -173 -36t-126 -97v-142h-54v162q56 77 149 122t204 45q182 0 287.5 -69.5t105.5 -199.5q0 -85 -59.5 -153t-168.5 -101q124 -28 187 -92.5t63 -162.5q0 -139 -134.5 -221.5t-331.5 -81.5h-41 q-104 0 -149 -35.5t-45 -106.5q0 -61 59 -114t122 -71l-16 -52q-74 21 -146 88.5t-72 147.5q0 89 60 142.5t187 53.5h41q186 0 298.5 66t112.5 180q0 120 -101 174.5t-303 54.5h-122v56h122zM445 1362l184 187h67v-16l-212 -207h-79l-214 209v14h71z" />
<glyph unicode="&#x470;" horiz-adv-x="1620" d="M55 0zM966 1456v-54h-163v-923l6 -3q207 0 340 128.5t133 341.5v510h54h163v-54h-163v-456q0 -245 -147.5 -385.5t-385.5 -144.5v-362h163v-54h-381v54h163v362q-238 6 -384 146t-146 384v456h-163v54h163h55v-510q0 -211 131 -339t338 -130l6 2v923h-163v54h163h55h163z " />
<glyph unicode="&#x471;" horiz-adv-x="1524" d="M8 0zM292 588q-1 -274 115 -409t320 -138l6 2v1038h54v-1039l6 -2q252 2 359.5 156t107.5 392q0 134 -41.5 258t-110.5 236h67q67 -126 103 -230.5t36 -261.5q0 -277 -129.5 -440t-397.5 -170v-395h-54v395q-236 10 -366 159t-129 451v372q0 45 -19.5 64t-58.5 19 q-35 0 -67 -8.5t-65 -24.5l-20 46q30 18 69.5 29.5t82.5 11.5q72 0 102 -31t30 -105v-375z" />
<glyph unicode="&#x472;" horiz-adv-x="1372" d="M1338 719q0 -336 -168.5 -538t-439.5 -202q-272 0 -441 202.5t-169 537.5v18q0 335 168 537.5t440 202.5q271 0 440.5 -202.5t169.5 -537.5v-18zM728 1423q-249 0 -398.5 -182t-150.5 -481l3 -5h1094l2 5q0 298 -150.5 480.5t-399.5 182.5zM730 33q249 0 398 181.5 t151 481.5l-3 5h-1094l-2 -5q1 -300 151 -481.5t399 -181.5z" />
<glyph unicode="&#x473;" horiz-adv-x="1176" d="M104 562q0 238 131.5 389t341.5 151q211 0 342.5 -151t131.5 -389v-42q0 -239 -131.5 -390t-340.5 -151q-211 0 -343 151t-132 390v42zM577 1048q-190 0 -303.5 -141t-110.5 -335l2 -5h825l2 5q2 193 -112 334.5t-303 141.5zM579 33q188 0 301 139t112 336l-2 5h-825 l-2 -5q-2 -197 111.5 -336t304.5 -139z" />
<glyph unicode="&#x474;" horiz-adv-x="1387" d="M366 1402h-146l400 -1260l25 -77h6l26 77l352 1086q41 135 111.5 191.5t179.5 56.5h9l-1 -47h-10q-80 0 -141 -41.5t-104 -183.5l-392 -1204h-65l-455 1402h-104v54h309v-54z" />
<glyph unicode="&#x475;" horiz-adv-x="1199" d="M373 1028h-145l274 -799l51 -147l6 -1l53 148l217 645q42 124 101 175.5t151 51.5q29 0 56 -8.5t47 -19.5l-23 -41q-14 8 -36 15t-48 7q-64 0 -112.5 -38t-91.5 -167l-291 -849h-52v1l-359 1027h-106v54h308v-54z" />
<glyph unicode="&#x476;" horiz-adv-x="1387" d="M57 0zM366 1402h-146l400 -1260l25 -77h6l26 77l352 1086q41 135 111.5 191.5t179.5 56.5h9l-1 -47h-10q-80 0 -141 -41.5t-104 -183.5l-392 -1204h-65l-455 1402h-104v54h309v-54zM584 1536l-2 -6h-65l-292 260l2 6h72zM810 1535l-2 -5h-62l-248 260l3 6h68z" />
<glyph unicode="&#x477;" horiz-adv-x="1199" d="M65 0zM373 1028h-145l274 -799l51 -147l6 -1l53 148l217 645q42 124 101 175.5t151 51.5q29 0 56 -8.5t47 -19.5l-23 -41q-14 8 -36 15t-48 7q-64 0 -112.5 -38t-91.5 -167l-291 -849h-52v1l-359 1027h-106v54h308v-54zM489 1241l-2 -6h-65l-292 260l2 6h72zM715 1240 l-2 -5h-62l-248 260l3 6h68z" />
<glyph unicode="&#x478;" horiz-adv-x="2673" d="M130 0zM1348 719q0 -336 -168.5 -538t-439.5 -202q-272 0 -441 202.5t-169 537.5v18q0 335 168 537.5t440 202.5q271 0 440.5 -202.5t169.5 -537.5v-18zM1294 739q0 309 -151.5 496.5t-404.5 187.5q-252 0 -402.5 -187.5t-150.5 -496.5v-20q0 -311 151 -498.5t404 -187.5 t403.5 187.5t150.5 498.5v20zM1862 1028h-142l335 -832l40 -108h6l6 16l353 924h-142v54h320v-54h-118l-460 -1208q-44 -114 -102.5 -185.5t-186.5 -71.5q-19 0 -42 3.5t-34 7.5l9 51q11 -3 33 -6t34 -3q92 0 143.5 54t91.5 160l65 176l-410 1022h-118v54h319v-54z" />
<glyph unicode="&#x479;" horiz-adv-x="2340" d="M104 0zM104 562q0 238 131.5 389t341.5 151q211 0 342.5 -151t131.5 -389v-42q0 -239 -131.5 -390t-340.5 -151q-211 0 -343 151t-132 390v42zM158 520q0 -204 114 -345.5t307 -141.5q190 0 304 142t114 345v42q0 199 -115 342.5t-305 143.5q-191 0 -305 -143.5 t-114 -342.5v-42zM1529 1028h-142l335 -832l40 -108h6l6 16l353 924h-142v54h320v-54h-118l-460 -1208q-44 -114 -102.5 -185.5t-186.5 -71.5q-19 0 -42 3.5t-34 7.5l9 51q11 -3 33 -6t34 -3q92 0 143.5 54t91.5 160l65 176l-410 1022h-118v54h319v-54z" />
<glyph unicode="&#x47a;" horiz-adv-x="1453" d="M763 1291h-54v307h54v-307zM763 -144h-54v307h54v-307zM1338 719q0 -336 -168.5 -538t-439.5 -202q-272 0 -441 202.5t-169 537.5v18q0 335 168 537.5t440 202.5q271 0 440.5 -202.5t169.5 -537.5v-18zM1284 739q0 309 -151.5 496.5t-404.5 187.5q-252 0 -402.5 -187.5 t-150.5 -496.5v-20q0 -311 151 -498.5t404 -187.5t403.5 187.5t150.5 498.5v20z" />
<glyph unicode="&#x47b;" horiz-adv-x="1156" d="M570 910h-54v307h54v-307zM570 -146h-54v307h54v-307zM104 562q0 238 131.5 389t341.5 151q211 0 342.5 -151t131.5 -389v-42q0 -239 -131.5 -390t-340.5 -151q-211 0 -343 151t-132 390v42zM158 520q0 -204 114 -345.5t307 -141.5q190 0 304 142t114 345v42 q0 199 -115 342.5t-305 143.5q-191 0 -305 -143.5t-114 -342.5v-42z" />
<glyph unicode="&#x47c;" horiz-adv-x="1733" d="M1214 1445l6 2q164 5 268 -110t104 -333v-575q0 -219 -104.5 -334.5t-273.5 -115.5q-127 0 -219 65t-131 192q-40 -127 -132 -192t-218 -65q-170 0 -274 115.5t-104 334.5v575q0 218 103.5 333t268.5 110l6 -2v-45q-144 0 -234 -105t-90 -291v-575q0 -187 90 -291.5 t234 -104.5q142 0 232.5 104.5t90.5 291.5v510h54v-510q0 -187 90 -291.5t233 -104.5t233.5 104.5t90.5 291.5v575q0 186 -90.5 291t-233.5 105v45zM1335 1617v-44h-17q-126 0 -247.5 93.5t-193.5 93.5q-91 0 -138 -53.5t-47 -129.5v-18h-55v26q0 96 64 162t172 66 q87 0 213.5 -98t234.5 -98h14zM812 1342l-36 28l64 126v139h97v-142z" />
<glyph unicode="&#x47d;" horiz-adv-x="1558" d="M1132 1088l6 2q156 5 254 -105t98 -318v-258q0 -209 -99 -319.5t-259 -110.5q-119 0 -205.5 61t-124.5 180q-39 -119 -126 -180t-204 -61q-161 0 -259.5 110.5t-98.5 319.5v258q0 208 97.5 318t254.5 105l6 -2v-45q-136 0 -220 -99.5t-84 -276.5v-258q0 -178 84 -277 t220 -99q134 0 218.5 99t84.5 277v254h54v-254q0 -178 84 -277t219 -99t219.5 99t84.5 277v258q0 177 -84.5 276.5t-219.5 99.5v45zM1263 1317v-44h-17q-126 0 -247.5 93.5t-193.5 93.5q-91 0 -138 -53.5t-47 -129.5v-18h-55v26q0 96 64 162t172 66q87 0 213.5 -98 t234.5 -98h14zM865 1193l-125 -151l-36 28l64 126v139h97v-142z" />
<glyph unicode="&#x47e;" horiz-adv-x="1750" d="M563 1705v56h699l2 -56h-332v-103h-54v103h-315zM1546 1456v-1027q0 -187 -90.5 -291.5t-232.5 -104.5q-145 0 -234.5 104.5t-89.5 291.5v1027h-54v-1027q0 -187 -90.5 -291.5t-232.5 -104.5q-144 0 -234 104.5t-90 291.5v1027h-54v-1027q0 -219 104 -334.5t274 -115.5 q126 0 218 65t132 192q39 -127 131.5 -192t219.5 -65q169 0 273 115.5t104 334.5v1027h-54z" />
<glyph unicode="&#x47f;" horiz-adv-x="1589" d="M478 1400l3 56h699l2 -56h-333v-133h-54v133h-317zM1472 1082v-673q0 -178 -84.5 -277t-218.5 -99q-135 0 -219.5 99.5t-84.5 276.5v673h-54v-673q0 -178 -84.5 -277t-218.5 -99q-136 0 -220 99t-84 277v673h-54v-673q0 -209 98.5 -319.5t259.5 -110.5q117 0 204 61 t126 180q38 -119 125 -180t206 -61q160 0 258.5 110.5t98.5 319.5v673h-54z" />
<glyph unicode="&#x480;" horiz-adv-x="1241" d="M687 -351h-55v330q-236 4 -377 179.5t-141 460.5v218q0 286 144 463t383 177q228 0 367.5 -119t135.5 -340l-2 -6h-46q0 197 -122.5 304t-332.5 107q-213 0 -343 -161t-130 -423v-220q0 -265 130 -425.5t343 -160.5h46v-384z" />
<glyph unicode="&#x481;" horiz-adv-x="1037" d="M603 -351h-54v330q-205 3 -325 152.5t-120 388.5v42q0 240 122 390t329 150q166 0 278.5 -98.5t108.5 -277.5l-2 -6h-46q0 159 -97.5 243.5t-241.5 84.5q-191 0 -293 -137t-102 -349v-42q0 -212 100 -348.5t289 -138.5h54v-384z" />
<glyph unicode="&#x482;" horiz-adv-x="1096" d="M437 419l289 -172l-39 -68l-291 170l-191 -349h-102l225 398l-289 171l38 68l293 -171l235 420l-290 171l40 70l291 -171l218 386h99l-251 -435l293 -171l-43 -67l-288 170z" />
<glyph unicode="&#x483;" horiz-adv-x="925" d="M214 1362v-121h-58v173h481v108h55v-160h-478z" />
<glyph unicode="&#x484;" horiz-adv-x="1014" d="M151 1361q107 0 233.5 98t214.5 98q107 0 171.5 -66t64.5 -162v-26h-55v18q0 76 -47.5 129.5t-137.5 53.5q-73 0 -194.5 -93.5t-246.5 -93.5h-17v44h14z" />
<glyph unicode="&#x485;" horiz-adv-x="458" d="M126 1500v142h97v-139l64 -126l-36 -28z" />
<glyph unicode="&#x486;" horiz-adv-x="453" d="M162 1349l-36 28l64 126v139h97v-142z" />
<glyph unicode="&#x488;" horiz-adv-x="2033" d="M800 1267l-2 6q-5 79 51 130.5t153 51.5q96 0 152.5 -51.5t52.5 -130.5l-2 -6h-104q0 43 -24.5 72t-74.5 29t-73.5 -29t-23.5 -72h-105zM1391 990l-2 6q-5 78 51.5 130t152.5 52t153 -51.5t53 -130.5l-2 -6h-105q0 44 -24 72.5t-75 28.5q-50 0 -73 -29t-23 -72h-106z M1578 487l-2 6q-5 78 51.5 130t152.5 52t152.5 -51.5t52.5 -130.5l-2 -6h-104q0 44 -24 72.5t-75 28.5q-50 0 -73.5 -29t-23.5 -72h-105zM1381 -32l-2 6q-5 78 51.5 130t152.5 52t152.5 -51.5t52.5 -130.5l-2 -6h-104q0 44 -24 72.5t-75 28.5q-50 0 -73.5 -29t-23.5 -72 h-105zM805 -316l-2 6q-5 80 51 131t153 51q96 0 152.5 -51t52.5 -131l-2 -6h-104q0 44 -24.5 72.5t-74.5 28.5t-73.5 -28.5t-23.5 -72.5h-105zM227 990l-2 6q-5 79 51.5 130.5t153.5 51.5q96 0 152.5 -51.5t52.5 -130.5l-2 -6h-104q0 43 -24.5 72t-74.5 29t-73.5 -29 t-23.5 -72h-106zM51 487l-2 6q-5 78 51.5 130t152.5 52t152.5 -51.5t52.5 -130.5l-2 -6h-104q0 44 -24 72.5t-75 28.5q-50 0 -73.5 -29t-23.5 -72h-105zM217 -32l-2 6q-5 78 51.5 130t152.5 52t153 -51.5t53 -130.5l-2 -6h-105q0 44 -24 72.5t-75 28.5q-50 0 -73 -29 t-23 -72h-106z" />
<glyph unicode="&#x489;" horiz-adv-x="1965" d="M1076 -60l11 -14l-122 -339h-96l70 353h137zM881 1126l-12 14l122 338h96l-70 -352h-136zM1559 631l13 12l333 -124v-98l-346 71v139zM395 433l-13 -12l-333 124v98l346 -71v-139zM1319 1002l2 16l321 153l68 -68q-37 -23 -294 -200zM635 21l-2 -17l-320 -153l-69 69 l294 200zM495 860l-17 2l-148 326l65 69l198 -299zM1457 161l17 -2l149 -325l-66 -71l-197 299z" />
<glyph unicode="&#x48a;" horiz-adv-x="1552" d="M77 0zM457 1456v-54h-163v-1122l6 -2l935 987v137h-163v54h163h54h163v-54h-163v-1348h163v-54h-380v54h163v1126l-6 2l-935 -988v-140h163v-54h-380v54h163v1348h-163v54h163h54h163zM1006 1804l2 -6q4 -107 -70 -174.5t-202 -67.5q-129 0 -203.5 67.5t-69.5 174.5l2 6 h46q0 -86 54 -139t171 -53q112 0 168 54t56 138h46zM1505 3q0 -88 -28 -158t-78 -124l-37 32q46 61 67.5 117.5t21.5 130.5v134h54v-132z" />
<glyph unicode="&#x48b;" horiz-adv-x="1352" d="M97 0zM477 1082v-54h-163v-922l6 -2l663 978h55h163v-54h-163v-974h163v-54h-381v54h163v922l-6 2l-663 -978h-217v54h163v974h-163v54h217h163zM938 1461l2 -6q4 -107 -70 -174.5t-202 -67.5q-129 0 -203.5 67.5t-69.5 174.5l2 6h46q0 -86 54 -139t171 -53q112 0 168 54 t56 138h46zM1254 3q0 -88 -28 -158t-78 -124l-37 32q46 61 67.5 117.5t21.5 130.5v134h54v-132z" />
<glyph unicode="&#x48c;" horiz-adv-x="1289" d="M287 1174h303v-54h-303v-332h369q227 0 349 -107.5t122 -286.5q0 -180 -122 -287t-349 -107h-586v54h163v1066h-230v54h230v228h-163v54h217v-282zM287 734v-680h369q209 0 312.5 96t103.5 246q0 144 -104 241t-312 97h-369zM450 1456v-54h-163v54h163z" />
<glyph unicode="&#x48d;" horiz-adv-x="1080" d="M235 1456h329v-54h-329v-732h345q182 0 284.5 -93.5t102.5 -241.5q0 -150 -102.5 -242.5t-284.5 -92.5h-562v54h163v1348h-204v54h204v112h-163v54h217v-166zM235 616v-562h345q166 0 249.5 80.5t83.5 202.5q0 117 -84 198t-249 81h-345z" />
<glyph unicode="&#x48e;" horiz-adv-x="1271" d="M1097 541l-41 -35l-301 353l41 35zM632 1456q226 0 348 -113.5t122 -301.5q0 -190 -121.5 -303t-348.5 -113h-351v-571h163v-54h-380v54h163v1348h-163v54h163h405zM281 679h351q207 0 311.5 103t104.5 257q0 158 -104 260.5t-312 102.5h-351v-723z" />
<glyph unicode="&#x48f;" horiz-adv-x="1234" d="M970 -63l-44 -33l-250 346l45 32zM65 -362h163v1390h-163v54h205l11 -194q54 100 147 157t221 57q191 0 299.5 -151.5t108.5 -408.5v-21q0 -250 -108 -396t-298 -146q-127 0 -221.5 51t-147.5 138v-530h163v-54h-380v54zM1002 542q0 225 -90.5 365.5t-261.5 140.5 q-157 0 -244 -79t-124 -194v-506q40 -108 134 -172t236 -64q171 0 260.5 132t89.5 356v21z" />
<glyph unicode="&#x490;" horiz-adv-x="1192" d="M1057 1828h54v-427h-54v1h-763v-1348h163v-54h-380v54h163v1348h-163v54h980v372z" />
<glyph unicode="&#x491;" horiz-adv-x="1028" d="M831 1082v372h54v-427h-596v-973h163v-54h-380v54h163v974h-163v54h163h596z" />
<glyph unicode="&#x492;" horiz-adv-x="1203" d="M716 731h-422v-677h163v-54h-380v54h163v677h-111v54h111v617h-163v54h1025v-293h-54v239h-754v-617h422v-54z" />
<glyph unicode="&#x493;" horiz-adv-x="1030" d="M235 558h-200v54h200v416h-163v54h823v-192h-54v137h-552v-415h333v-54h-333v-504h163v-54h-380v54h163v504z" />
<glyph unicode="&#x494;" horiz-adv-x="1203" d="M77 54h163v1348h-163v54h1025v-293h-54v239h-754v-579h227q256 0 408 -134.5t152 -430.5q0 -196 -111.5 -364.5t-322.5 -164.5l-6 2v42q180 0 283 147t103 338q0 260 -139 386t-367 126h-227v-716h163v-54h-380v54z" />
<glyph unicode="&#x495;" horiz-adv-x="1083" d="M885 890h-54v137h-542v-421h178q238 0 379 -106.5t141 -338.5q3 -127 -83.5 -252.5t-280.5 -163.5l-16 42q173 35 247.5 142t78.5 232q6 199 -124 295.5t-342 96.5h-178v-499h163v-54h-380v54h163v974h-163v54h163h650v-192z" />
<glyph unicode="&#x496;" horiz-adv-x="2020" d="M55 0zM809 54h163v666h-173l-530 -661l3 -5h113v-54h-322v54h130l553 689l-417 545q-61 79 -98.5 102t-89.5 23q-19 0 -34.5 -5t-27.5 -13l-24 46q18 12 41.5 19t44.5 7q60 0 109.5 -27.5t118.5 -116.5l422 -550h181v629h-163v54h163h54h163v-54h-163v-629h184l422 550 q68 89 117.5 116.5t110.5 27.5q20 0 43.5 -7t42.5 -19l-24 -46q-13 8 -28.5 13t-33.5 5q-53 0 -90.5 -23t-97.5 -102l-420 -548l551 -686h131v-54h-322v54h112l3 5l-530 661h-171v-666h163v-54h-380v54zM1934 -352h-54v406h54v-406z" />
<glyph unicode="&#x497;" horiz-adv-x="1801" d="M75 0zM723 54h163v475h-154l-499 -529h-158v54h137l469 506l-285 354q-63 78 -100 101.5t-88 23.5q-19 0 -34.5 -5t-27.5 -13l-24 46q18 12 41.5 19t44.5 7q58 0 107 -28t121 -116l297 -367h153v446h-163v54h217h163v-54h-163v-446h160l297 367q71 88 120 116t108 28 q20 0 43.5 -7t42.5 -19l-24 -46q-13 8 -28.5 13t-33.5 5q-51 0 -88 -23.5t-100 -101.5l-287 -357l467 -503h137v-54h-158l-500 529h-156v-475h163v-54h-380v54zM1755 -352h-54v406h54v-406z" />
<glyph unicode="&#x498;" horiz-adv-x="1211" d="M71 0zM1065 1083q0 -118 -75.5 -208.5t-215.5 -129.5q158 -34 236 -124.5t78 -234.5q0 -190 -143.5 -298.5t-372.5 -108.5q-201 0 -351 109t-145 310l2 6h46q0 -163 125 -267t323 -104q219 0 340.5 92.5t121.5 256.5q0 174 -117 253.5t-350 79.5h-184v56h184 q228 0 336 82t108 234q0 153 -110 244.5t-329 91.5q-144 0 -256 -53.5t-178 -143.5v-214h-55v234q73 107 201.5 169t287.5 62q229 0 361 -102t132 -292zM593 -352h-54v406h54v-406z" />
<glyph unicode="&#x499;" horiz-adv-x="1030" d="M84 0zM486 580q175 0 254 58t79 167t-80.5 174t-249.5 65q-137 0 -235.5 -68t-98.5 -177h-46l-2 6q-6 129 108.5 211t273.5 82q182 0 283.5 -76.5t101.5 -219.5q0 -85 -54.5 -151t-155.5 -97q115 -27 172 -93.5t57 -170.5q0 -144 -111 -225.5t-293 -81.5 q-160 0 -282.5 81.5t-117.5 230.5l2 6h46q0 -114 100.5 -188.5t251.5 -74.5q170 0 259.5 65.5t89.5 183.5q0 124 -87 181t-265 57h-145v55h145zM532 -361h-54v406h54v-406z" />
<glyph unicode="&#x49a;" horiz-adv-x="1388" d="M71 0zM71 54h163v1348h-163v54h380v-54h-163v-638h238l565 633l-2 5h-168v54h361v-54h-115l-596 -672l639 -676h118v-54h-361v54h163l3 6l-622 651h-223v-657h163v-54h-380v54zM1328 -352h-54v406h54v-406z" />
<glyph unicode="&#x49b;" horiz-adv-x="1230" d="M97 0zM97 1028v54h381v-54h-163v-446h208l297 367q71 88 120 116t108 28q20 0 43.5 -7t42.5 -19l-24 -46q-13 8 -28.5 13t-33.5 5q-51 0 -88 -23.5t-100 -101.5l-290 -361l472 -499h138v-54h-168l-499 529h-198v-475h163v-54h-381v54h163v974h-163zM1180 -352h-54v406h54 v-406z" />
<glyph unicode="&#x49c;" horiz-adv-x="1432" d="M70 54h163v1348h-163v54h217h163v-54h-163v-629h185v308h55v-308h100l382 550q68 89 117.5 116.5t110.5 27.5q20 0 43.5 -7t42.5 -19l-24 -46q-13 8 -28.5 13t-33.5 5q-53 0 -90.5 -23t-97.5 -102l-374 -537l515 -697h127v-54h-158l-529 720h-103v-323h-55v323h-185v-666 h163v-54h-380v54z" />
<glyph unicode="&#x49d;" horiz-adv-x="1296" d="M90 54h163v974h-163v54h218h163v-54h-163v-446h172v268h55v-268h86l257 367q63 90 113.5 117t114.5 27q20 0 43.5 -7t42.5 -19l-24 -46q-13 8 -28.5 13t-33.5 5q-55 0 -93.5 -23t-94.5 -102l-242 -345l389 -515h118v-54h-159l-388 529h-101v-279h-55v279h-172v-475h163 v-54h-381v54z" />
<glyph unicode="&#x49e;" horiz-adv-x="1408" d="M91 54h163v1104h-231v54h231v190h-163v54h380v-54h-163v-190h302v-54h-302v-394h238l565 633l-2 5h-168v54h361v-54h-115l-596 -672l639 -676h118v-54h-361v54h163l3 6l-622 651h-223v-657h163v-54h-380v54z" />
<glyph unicode="&#x49f;" horiz-adv-x="1172" d="M109 1264v54h136v188h-163v54h217v-242h397v-54h-397v-657h127l430 415l-2 6h-119v54h321v-54h-122l-447 -439l489 -535h117v-54h-320v54h126l2 5l-454 494h-148v-499h163v-54h-380v54h163v1210h-136z" />
<glyph unicode="&#x4a0;" horiz-adv-x="1786" d="M466 54h163v1348h-518v-239h-54v293h572h54h163v-54h-163v-639h234l432 560q68 89 117.5 116.5t110.5 27.5q20 0 43.5 -7t42.5 -19l-24 -46q-13 8 -28.5 13t-33.5 5q-53 0 -90.5 -23t-97.5 -102l-427 -554l643 -680h118v-54h-361v54h163l3 6l-621 650h-224v-656h163v-54 h-380v54z" />
<glyph unicode="&#x4a1;" horiz-adv-x="1566" d="M355 54h163v974h-382v-239h-54v293h436h55h163v-54h-163v-446h208l297 367q71 88 120 116t108 28q20 0 43.5 -7t42.5 -19l-24 -46q-13 8 -28.5 13t-33.5 5q-51 0 -88 -23.5t-100 -101.5l-290 -361l472 -499h138v-54h-168l-499 529h-198v-475h163v-54h-381v54z" />
<glyph unicode="&#x4a2;" horiz-adv-x="1506" d="M71 0zM71 1402v54h380v-54h-163v-653h930v653h-163v54h163h54h163v-54h-163v-1348h163v-54h-380v54h163v641h-930v-641h163v-54h-380v54h163v1348h-163zM1435 -352h-54v406h54v-406z" />
<glyph unicode="&#x4a3;" horiz-adv-x="1351" d="M97 0zM97 1028v54h380v-54h-163v-445h669v445h-163v54h163h55h163v-54h-163v-974h163v-54h-381v54h163v475h-669v-475h163v-54h-380v54h163v974h-163zM1201 -352h-54v406h54v-406z" />
<glyph unicode="&#x4a4;" horiz-adv-x="2067" d="M446 1456v-54h-163v-653h930v653h-163v54h1001v-293h-54v239h-730v-1348h163v-54h-380v54h163v641h-930v-641h163v-54h-380v54h163v1348h-163v54h163h54h163z" />
<glyph unicode="&#x4a5;" horiz-adv-x="1505" d="M477 1082v-54h-163v-445h669v444h-7l-1 1h-155v54h661v-293h-54v238h-389v-973h163v-54h-381v54h163v475h-669v-475h163v-54h-380v54h163v974h-163v54h163h54h163z" />
<glyph unicode="&#x4a6;" horiz-adv-x="2079" d="M56 1402v54h1364v-54h-163v-564h217q256 0 408 -134.5t152 -430.5q0 -196 -111.5 -364.5t-322.5 -164.5l-6 2v42q180 0 283 147t103 338q0 260 -139 386t-367 126h-217v-731h163v-54h-380v54h163v1348h-930v-1348h163v-54h-380v54h163v1348h-163z" />
<glyph unicode="&#x4a7;" horiz-adv-x="1742" d="M1201 1028h-163v-422h111q238 0 379 -106.5t141 -338.5q3 -127 -83.5 -252.5t-280.5 -163.5l-16 42q173 35 247.5 142t78.5 232q6 199 -124 295.5t-342 96.5h-111v-499h163v-54h-381v54h163v973h-669v-973h163v-54h-380v54h163v974h-163v54h163h941v-54z" />
<glyph unicode="&#x4a8;" horiz-adv-x="1529" d="M1398 -22q-100 0 -191 18t-171 53q-69 -35 -148.5 -52.5t-167.5 -17.5q-288 0 -451 207.5t-163 530.5v142q0 272 124.5 444t324.5 167l6 -2l3 -45q-181 0 -292 -163.5t-111 -398.5v-144q0 -295 153 -489.5t406 -194.5q69 0 132 12t120 36q-169 93 -263 255t-94 361v182 q0 266 102.5 425t277.5 159t282 -160t107 -424v-184q0 -207 -77 -365.5t-216 -248.5q68 -25 144.5 -37.5t162.5 -12.5v-53zM670 695q0 -194 92 -349.5t265 -238.5q145 81 224 236t79 352v185q0 237 -89.5 383t-245.5 146q-154 0 -239.5 -147t-85.5 -382v-185z" />
<glyph unicode="&#x4a9;" horiz-adv-x="1243" d="M1110 -12q-79 0 -150 13.5t-133 40.5q-53 -32 -114.5 -47.5t-128.5 -15.5q-210 0 -341 157.5t-131 396.5v94q0 205 91 338.5t235 128.5l6 -2v-44q-112 0 -195 -121.5t-83 -297.5v-96q0 -217 112.5 -358.5t305.5 -141.5q51 0 96.5 9t87.5 28q-128 71 -197.5 194.5 t-69.5 282.5v108q0 197 79 321.5t209 124.5q128 0 209 -133.5t81 -333.5v-102q0 -143 -52.5 -261.5t-145.5 -192.5q52 -18 109 -27t120 -9v-54zM1025 532v105q0 172 -66.5 291t-169.5 119q-111 0 -172.5 -110t-61.5 -280v-112q0 -152 70.5 -267.5t198.5 -176.5 q96 63 148.5 176.5t52.5 254.5v0z" />
<glyph unicode="&#x4aa;" horiz-adv-x="1373" d="M130 0zM1256 992h-55v234q-67 90 -179 143.5t-255 53.5q-259 0 -421 -189t-162 -495v-20q0 -307 161 -496.5t412 -189.5q144 0 261 53.5t183 143.5v234h55v-254q-73 -107 -206 -169t-293 -62q-277 0 -452 205.5t-175 534.5v18q0 330 176 535t461 205q158 0 286.5 -62 t202.5 -169v-254zM778 -352h-54v406h54v-406z" />
<glyph unicode="&#x4ab;" horiz-adv-x="1086" d="M104 0zM546 33q137 0 242 75t105 225h46l2 -6q4 -159 -116.5 -253.5t-278.5 -94.5q-207 0 -324.5 149t-117.5 392v42q0 242 117 391t323 149q122 0 226 -50.5t167 -136.5v-232h-54v212q-57 70 -143.5 111.5t-195.5 41.5q-190 0 -288 -136t-98 -350v-42q0 -216 98 -351.5 t290 -135.5zM575 -362h-54v406h54v-406z" />
<glyph unicode="&#x4ac;" horiz-adv-x="1277" d="M80 0zM1194 1456v-293h-54v239h-476v-1348h163v-54h-380v54h163v1348h-476v-239h-54v293h1114zM827 -352h-54v406h54v-406z" />
<glyph unicode="&#x4ad;" horiz-adv-x="1083" d="M90 0zM972 1082v-293h-54v238h-371v-973h163v-54h-380v54h163v973h-349v-238h-54v293h882zM710 -352h-54v406h54v-406z" />
<glyph unicode="&#x4ae;" horiz-adv-x="1429" d="M55 0zM371 1402h-131l449 -755l26 -50l27 50l451 755h-131v54h316v-54h-120l-514 -849v-499h163v-54h-381v54h163v499l-515 849h-119v54h316v-54z" />
<glyph unicode="&#x4af;" horiz-adv-x="1084" d="M0 0zM1092 1028h-108l-398 -1023v-420h-54v415l-305 879q-37 105 -71 135t-83 30q-26 0 -48.5 -7t-35.5 -15l-19 41q21 11 45 19.5t54 8.5q75 0 121 -42t81 -145l237 -675l48 -146h6l52 146l312 799h-142v54h308v-54z" />
<glyph unicode="&#x4b0;" horiz-adv-x="1429" d="M371 1402h-131l449 -755l19 -35h15l19 35l451 755h-131v54h316v-54h-120l-479 -790h274v-54h-307l-2 -5v-499h163v-54h-381v54h163v499l-3 5h-220v54h187l-479 790h-119v54h316v-54z" />
<glyph unicode="&#x4b1;" horiz-adv-x="1084" d="M893 6h-307v-1v-420h-54v415l-2 6h-224v54h205l-284 819q-37 105 -71 135t-83 30q-26 0 -48.5 -7t-35.5 -15l-19 41q21 11 45 19.5t54 8.5q75 0 121 -42t81 -145l237 -675l48 -145h6l52 145l312 799h-142v54h308v-54h-108l-377 -968h286v-54z" />
<glyph unicode="&#x4b2;" horiz-adv-x="1391" d="M63 0zM63 54h115l486 689l-466 659h-115v54h338v-54h-156l432 -617l433 617h-155v54h337v-54h-115l-465 -659l486 -689h115v-54h-337v54h155l-454 647l-453 -647h155v-54h-336v54zM1333 -352h-54v406h54v-406z" />
<glyph unicode="&#x4b3;" horiz-adv-x="1192" d="M82 0zM82 54h126l361 501l-341 473h-126v54h318v-54h-124l307 -426l306 426h-124v54h318v-54h-126l-341 -473l361 -501h126v-54h-317v54h124l-328 454l-327 -454h124v-54h-317v54zM1123 -352h-54v406h54v-406z" />
<glyph unicode="&#x4b4;" horiz-adv-x="1806" d="M1021 1162h-54v239h-417v-1347h930v1348h-163v54h380v-54h-163v-1348h133v-405h-54v351h-1280v54h163v1347h-365v-239h-54v293h256v1h380v-1h308v-293z" />
<glyph unicode="&#x4b5;" horiz-adv-x="1457" d="M838 1082v-293h-54v239h-316v-974h659v1028h218v-54h-163v-974h121v-375h-54v321h-998v54h163v974h-310v-239h-54v293h788z" />
<glyph unicode="&#x4b6;" horiz-adv-x="1461" d="M59 0zM940 54h163v665q-104 -29 -205 -45t-197 -16q-239 0 -359 104.5t-120 342.5v297h-163v54h217h163v-54h-163v-297q0 -206 106.5 -299.5t318.5 -93.5q99 0 199 15t203 45v630h-163v54h217h163v-54h-163v-1348h163v-54h-380v54zM1320 -352h-54v406h54v-406z" />
<glyph unicode="&#x4b7;" horiz-adv-x="1319" d="M65 0zM445 1082v-54h-163v-180q0 -205 80 -278.5t275 -73.5q79 3 169.5 25.5t145.5 51.5v455h-163v54h380v-54h-163v-974h163v-54h-380v54h163v468q-66 -33 -156 -56.5t-159 -23.5q-221 0 -315 84.5t-94 321.5v180h-163v54h217h163zM1169 -352h-54v406h54v-406z" />
<glyph unicode="&#x4b8;" horiz-adv-x="1461" d="M710 401h-55v682h55v-682zM940 54h163v665q-104 -29 -205 -45t-197 -16q-239 0 -359 104.5t-120 342.5v297h-163v54h217h163v-54h-163v-297q0 -206 106.5 -299.5t318.5 -93.5q99 0 199 15t203 45v630h-163v54h217h163v-54h-163v-1348h163v-54h-380v54z" />
<glyph unicode="&#x4b9;" horiz-adv-x="1316" d="M665 193h-56v556h56v-556zM500 1082v-54h-163v-180q0 -205 80 -278.5t275 -73.5q79 3 169.5 25.5t145.5 51.5v455h-163v54h380v-54h-163v-974h163v-54h-380v54h163v468q-66 -33 -156 -56.5t-159 -23.5q-221 0 -315 84.5t-94 321.5v180h-163v54h217h163z" />
<glyph unicode="&#x4ba;" horiz-adv-x="1328" d="M407 1456v-54h-163v-665q103 28 204 44.5t198 16.5q238 0 358.5 -105t120.5 -342v-297h163v-54h-380v54h163v297q0 205 -107 299t-318 94q-100 0 -200 -15.5t-202 -44.5v-630h163v-54h-380v54h163v1348h-163v54h163h54h163z" />
<glyph unicode="&#x4bb;" horiz-adv-x="1278" d="M62 0zM62 1506v54h217v-706q50 118 147 183t237 65q169 0 256.5 -107t87.5 -337v-604h163v-54h-381v54h163v606q0 213 -78.5 300.5t-209.5 87.5q-175 0 -268 -104.5t-117 -267.5v-622h163v-54h-380v54h163v1452h-163z" />
<glyph unicode="&#x4bc;" horiz-adv-x="1525" d="M936 -23q-274 0 -425.5 160t-151.5 422v204q-143 10 -220.5 89t-73.5 216l3 6h47q0 -115 61 -180t177 -70l6 2v45q0 264 150.5 434t381.5 170q245 0 391.5 -165t146.5 -444v-103h-1016v-204q0 -234 131 -381t392 -147q135 0 244.5 40.5t191.5 113.5l30 -43 q-84 -76 -191 -120.5t-275 -44.5zM413 818h962v51q0 239 -129.5 395t-354.5 156q-219 0 -348.5 -157t-129.5 -392v-53z" />
<glyph unicode="&#x4bd;" horiz-adv-x="1260" d="M706 -21q-185 0 -319.5 149.5t-134.5 371.5v64v18q-93 9 -143 78.5t-50 191.5h55q0 -98 35.5 -153t106.5 -63q20 206 146 336t301 130q183 0 298.5 -120t115.5 -322v-83h-811v-13v-64q0 -196 115 -331.5t285 -135.5q121 0 202.5 33t139.5 99l29 -42 q-64 -71 -155.5 -107.5t-215.5 -36.5zM703 1048q-161 0 -268 -117.5t-121 -293.5l3 -6h746v33q0 165 -100 274.5t-260 109.5z" />
<glyph unicode="&#x4be;" horiz-adv-x="1525" d="M61 0zM936 -23q-274 0 -425.5 160t-151.5 422v204q-143 10 -220.5 89t-73.5 216l3 6h47q0 -115 61 -180t177 -70l6 2v45q0 264 150.5 434t381.5 170q245 0 391.5 -165t146.5 -444v-103h-1016v-204q0 -234 131 -381t392 -147q135 0 244.5 40.5t191.5 113.5l30 -43 q-84 -76 -191 -120.5t-275 -44.5zM413 818h962v51q0 239 -129.5 395t-354.5 156q-219 0 -348.5 -157t-129.5 -392v-53zM914 -396h-54v406h54v-406z" />
<glyph unicode="&#x4bf;" horiz-adv-x="1260" d="M59 0zM706 -21q-185 0 -319.5 149.5t-134.5 371.5v64v18q-93 9 -143 78.5t-50 191.5h55q0 -98 35.5 -153t106.5 -63q20 206 146 336t301 130q183 0 298.5 -120t115.5 -322v-83h-811v-13v-64q0 -196 115 -331.5t285 -135.5q121 0 202.5 33t139.5 99l29 -42 q-64 -71 -155.5 -107.5t-215.5 -36.5zM703 1048q-161 0 -268 -117.5t-121 -293.5l3 -6h746v33q0 165 -100 274.5t-260 109.5zM718 -352h-54v406h54v-406z" />
<glyph unicode="&#x4c0;" horiz-adv-x="598" d="M109 0zM109 1402v54h380v-54h-163v-1348h163v-54h-380v54h163v1348h-163z" />
<glyph unicode="&#x4c1;" horiz-adv-x="2020" d="M55 0zM809 54h163v666h-173l-530 -661l3 -5h113v-54h-322v54h130l553 689l-417 545q-61 79 -98.5 102t-89.5 23q-19 0 -34.5 -5t-27.5 -13l-24 46q18 12 41.5 19t44.5 7q60 0 109.5 -27.5t118.5 -116.5l422 -550h181v629h-163v54h163h54h163v-54h-163v-629h184l422 550 q68 89 117.5 116.5t110.5 27.5q20 0 43.5 -7t42.5 -19l-24 -46q-13 8 -28.5 13t-33.5 5q-53 0 -90.5 -23t-97.5 -102l-420 -548l551 -686h131v-54h-322v54h112l3 5l-530 661h-171v-666h163v-54h-380v54zM1268 1804l2 -6q4 -107 -70 -174.5t-202 -67.5q-129 0 -203.5 67.5 t-69.5 174.5l2 6h46q0 -86 54 -139t171 -53q112 0 168 54t56 138h46z" />
<glyph unicode="&#x4c2;" horiz-adv-x="1801" d="M75 0zM723 54h163v475h-154l-499 -529h-158v54h137l469 506l-285 354q-63 78 -100 101.5t-88 23.5q-19 0 -34.5 -5t-27.5 -13l-24 46q18 12 41.5 19t44.5 7q58 0 107 -28t121 -116l297 -367h153v446h-163v54h217h163v-54h-163v-446h160l297 367q71 88 120 116t108 28 q20 0 43.5 -7t42.5 -19l-24 -46q-13 8 -28.5 13t-33.5 5q-51 0 -88 -23.5t-100 -101.5l-287 -357l467 -503h137v-54h-158l-500 529h-156v-475h163v-54h-380v54zM1180 1461l2 -6q4 -107 -70 -174.5t-202 -67.5q-129 0 -203.5 67.5t-69.5 174.5l2 6h46q0 -86 54 -139t171 -53 q112 0 168 54t56 138h46z" />
<glyph unicode="&#x4c3;" horiz-adv-x="1373" d="M70 1402v54h380v-54h-163v-628h218l578 682h158v-54h-133l-525 -623l2 -5h57q256 0 408 -134.5t152 -430.5q0 -196 -111.5 -364.5t-322.5 -164.5l-6 2v42q180 0 283 147t103 338q0 260 -139 386t-367 126h-355v-667h163v-54h-380v54h163v1348h-163z" />
<glyph unicode="&#x4c4;" horiz-adv-x="1250" d="M90 1028v54h381v-54h-163v-444h180l457 498h165v-54h-137l-410 -445q218 -10 346.5 -118t128.5 -329q3 -126 -83.5 -252t-280.5 -164l-17 42q173 35 248 142t79 232q6 200 -124 297t-342 97h-4l-1 -1h-205v-475h163v-54h-381v54h163v974h-163z" />
<glyph unicode="&#x4c5;" horiz-adv-x="1503" d="M57 0zM493 1402l-38 -580q-24 -472 -95 -647t-271 -175h-32v54h35q157 0 221 152.5t88 615.5l38 580h-159v54h1139v-54h-163v-1348h163v-54h-380v54h163v1348h-709zM1472 3q0 -88 -28 -158t-78 -124l-37 32q46 61 67.5 117.5t21.5 130.5v134h54v-132z" />
<glyph unicode="&#x4c6;" horiz-adv-x="1277" d="M69 0zM757 54h163v973h-536v-437q0 -318 -65 -454t-218 -136h-32v53h35q114 0 170 117t56 420v438h-163v54h808h163v-54h-163v-974h163v-54h-381v54zM1191 3q0 -88 -28 -158t-78 -124l-37 32q46 61 67.5 117.5t21.5 130.5v134h54v-132z" />
<glyph unicode="&#x4c7;" horiz-adv-x="1535" d="M77 54h163v1348h-163v54h217h163v-54h-163v-653h930v653h-163v54h163h217v-54h-163v-1491q0 -167 -75 -257.5t-209 -90.5q-30 0 -56.5 5t-56.5 15l14 52q17 -6 45 -12t54 -6q109 0 169.5 77t60.5 217v784h-930v-641h163v-54h-380v54z" />
<glyph unicode="&#x4c8;" horiz-adv-x="1325" d="M90 54h163v974h-163v54h217h163v-54h-163v-445h669v445h-163v54h381v-54h-163v-1117q0 -167 -75.5 -257.5t-210.5 -90.5q-30 0 -56 5t-56 15l13 52q17 -6 45 -12t54 -6q110 0 170.5 76.5t60.5 217.5v618h-669v-475h163v-54h-380v54z" />
<glyph unicode="&#x4c9;" horiz-adv-x="1506" d="M71 0zM71 1402v54h380v-54h-163v-653h930v653h-163v54h163h54h163v-54h-163v-1348h163v-54h-380v54h163v641h-930v-641h163v-54h-380v54h163v1348h-163zM1488 3q0 -88 -28 -158t-78 -124l-37 32q46 61 67.5 117.5t21.5 130.5v134h54v-132z" />
<glyph unicode="&#x4ca;" horiz-adv-x="1351" d="M97 0zM97 1028v54h380v-54h-163v-445h669v445h-163v54h163h55h163v-54h-163v-974h163v-54h-381v54h163v475h-669v-475h163v-54h-380v54h163v974h-163zM1254 3q0 -88 -28 -158t-78 -124l-37 32q46 61 67.5 117.5t21.5 130.5v134h54v-132z" />
<glyph unicode="&#x4cb;" horiz-adv-x="1461" d="M59 0zM940 54h163v665q-104 -29 -205 -45t-197 -16q-239 0 -359 104.5t-120 342.5v297h-163v54h217h163v-54h-163v-297q0 -206 106.5 -299.5t318.5 -93.5q99 0 199 15t203 45v630h-163v54h217h163v-54h-163v-1348h163v-54h-380v54zM994 -352h-54v406h54v-406z" />
<glyph unicode="&#x4cc;" horiz-adv-x="1319" d="M65 0zM445 1082v-54h-163v-180q0 -205 80 -278.5t275 -73.5q79 3 169.5 25.5t145.5 51.5v455h-163v54h380v-54h-163v-974h163v-54h-380v54h163v468q-66 -33 -156 -56.5t-159 -23.5q-221 0 -315 84.5t-94 321.5v180h-163v54h217h163zM843 -352h-54v406h54v-406z" />
<glyph unicode="&#x4cd;" horiz-adv-x="1824" d="M71 0zM932 0h-43l-595 1356l-6 -2v-1300h163v-54h-380v54h163v1348h-163v54h163h77l596 -1370h6l598 1370h242v-54h-163v-1348h163v-54h-380v54h163v1307l-6 2zM1806 3q0 -88 -28 -158t-78 -124l-37 32q46 61 67.5 117.5t21.5 130.5v134h54v-132z" />
<glyph unicode="&#x4ce;" horiz-adv-x="1684" d="M97 0zM826 82l492 1000h65h163v-54h-163v-974h163v-54h-381v54h163v911l-6 1l-475 -966h-42l-485 990l-6 -1v-935h163v-54h-380v54h163v974h-163v54h163h74zM1599 3q0 -88 -28 -158t-78 -124l-37 32q46 61 67.5 117.5t21.5 130.5v134h54v-132z" />
<glyph unicode="&#x4cf;" horiz-adv-x="598" d="M109 0zM109 1402v54h380v-54h-163v-1348h163v-54h-380v54h163v1348h-163z" />
<glyph unicode="&#x4d0;" d="M55 0zM55 54h107l524 1402h66l525 -1402h107v-54h-309v54h143l-143 381h-712l-142 -381h143v-54h-309v54zM383 489h672l-305 820l-28 82h-6l-27 -82zM984 1802l2 -6q4 -107 -70 -174.5t-202 -67.5q-129 0 -203.5 67.5t-69.5 174.5l2 6h46q0 -86 54 -139t171 -53 q112 0 168 54t56 138h46z" />
<glyph unicode="&#x4d1;" horiz-adv-x="1132" d="M104 0zM885 0q-13 71 -17.5 106.5t-4.5 76.5v16q-62 -97 -173.5 -158.5t-262.5 -61.5q-150 0 -236.5 81.5t-86.5 213.5q0 146 133 238t357 92h269v158q0 135 -86.5 210.5t-243.5 75.5q-103 0 -192.5 -29t-152.5 -80l-1 -173h-54l1 206q77 57 181.5 93.5t217.5 36.5 q174 0 279 -88t105 -254v-542q0 -42 3.5 -83t11.5 -81h130v-54h-177zM427 32q153 0 266 69t170 191v257h-266q-199 0 -319 -77.5t-120 -201.5q0 -101 74 -169.5t195 -68.5zM804 1484l2 -6q4 -107 -70 -174.5t-202 -67.5q-129 0 -203.5 67.5t-69.5 174.5l2 6h46 q0 -86 54 -139t171 -53q112 0 168 54t56 138h46z" />
<glyph unicode="&#x4d2;" d="M55 0zM55 54h107l524 1402h66l525 -1402h107v-54h-309v54h143l-143 381h-712l-142 -381h143v-54h-309v54zM383 489h672l-305 820l-28 82h-6l-27 -82zM1022 1671h-136v118h136v-118zM553 1671h-137v118h137v-118z" />
<glyph unicode="&#x4d3;" horiz-adv-x="1132" d="M104 0zM885 0q-13 71 -17.5 106.5t-4.5 76.5v16q-62 -97 -173.5 -158.5t-262.5 -61.5q-150 0 -236.5 81.5t-86.5 213.5q0 146 133 238t357 92h269v158q0 135 -86.5 210.5t-243.5 75.5q-103 0 -192.5 -29t-152.5 -80l-1 -173h-54l1 206q77 57 181.5 93.5t217.5 36.5 q174 0 279 -88t105 -254v-542q0 -42 3.5 -83t11.5 -81h130v-54h-177zM427 32q153 0 266 69t170 191v257h-266q-199 0 -319 -77.5t-120 -201.5q0 -101 74 -169.5t195 -68.5zM842 1353h-136v118h136v-118zM373 1353h-137v118h137v-118z" />
<glyph unicode="&#x4d4;" horiz-adv-x="2026" d="M51 0zM51 54h119l849 1402h776v-293h-54v239h-642l26 -616h588v-54h-586l28 -678h647v239h54v-293h-915v54h160l-15 371h-628l-223 -371h131v-54h-315v54zM490 478h594l-39 924l-5 1l-57 -105z" />
<glyph unicode="&#x4d5;" horiz-adv-x="1779" d="M97 0zM1272 -21q-143 0 -245 66t-155 185v-12h1q-44 -95 -153 -167t-268 -72q-169 0 -262 82t-93 223q0 157 111.5 251.5t318.5 94.5h290v90q0 158 -73 243t-219 85q-162 0 -254.5 -78t-92.5 -199l-45 6l-2 6q-5 138 103.5 228.5t290.5 90.5q138 0 227 -73.5t112 -214.5 q53 133 157 210.5t236 77.5q188 0 296 -118.5t108 -323.5v-83h-787v-13v-64q0 -208 99 -337.5t299 -129.5q102 0 186.5 34.5t145.5 96.5l30 -42q-65 -66 -148.5 -104.5t-213.5 -38.5zM451 31q130 0 237 65.5t129 128.5v350h-288q-185 0 -281 -84t-96 -211q0 -117 77.5 -183 t221.5 -66zM1257 1048q-159 0 -260.5 -116.5t-114.5 -294.5l2 -5h723v32q0 168 -91.5 276t-258.5 108z" />
<glyph unicode="&#x4d6;" horiz-adv-x="1270" d="M71 0zM71 0v54h163v1348h-163v54h1049v-293h-54v239h-778v-616h630v-54h-630v-678h778v239h54v-293h-1049zM889 1804l2 -6q4 -107 -70 -174.5t-202 -67.5q-129 0 -203.5 67.5t-69.5 174.5l2 6h46q0 -86 54 -139t171 -53q112 0 168 54t56 138h46z" />
<glyph unicode="&#x4d7;" horiz-adv-x="1104" d="M112 0zM566 -21q-185 0 -319.5 149.5t-134.5 371.5v64q0 233 130 385.5t321 152.5q183 0 298.5 -120t115.5 -322v-83h-811v-13v-64q0 -196 115 -331.5t285 -135.5q121 0 202.5 33t139.5 99l29 -42q-64 -71 -155.5 -107.5t-215.5 -36.5zM563 1048q-161 0 -268 -117.5 t-121 -293.5l3 -6h746v33q0 165 -100 274.5t-260 109.5zM837 1483l2 -6q4 -107 -70 -174.5t-202 -67.5q-129 0 -203.5 67.5t-69.5 174.5l2 6h46q0 -86 54 -139t171 -53q112 0 168 54t56 138h46z" />
<glyph unicode="&#x4d8;" horiz-adv-x="1388" d="M650 1477q284 0 441.5 -176.5t157.5 -465.5v-172q0 -301 -162.5 -492.5t-410.5 -191.5q-273 0 -435.5 164.5t-162.5 444.5v123h1117v124q0 260 -136.5 424t-408.5 164q-141 0 -255.5 -41t-199.5 -113l-30 43q88 75 198.5 120t286.5 45zM676 33q235 0 375 177t139 441 l-2 5h-1056v-72q0 -239 145 -395t399 -156z" />
<glyph unicode="&#x4d9;" horiz-adv-x="1032" d="M87 0zM498 1102q184 0 319 -150t135 -371v-64q0 -234 -130.5 -386t-320.5 -152q-184 0 -299 119.5t-115 322.5v83h810q0 1 0.5 5.5t0.5 7.5v64q0 195 -115.5 331t-284.5 136q-122 0 -203.5 -33.5t-138.5 -98.5l-29 42q63 70 154.5 107t216.5 37zM501 33q160 0 266.5 117 t121.5 294l-3 6h-745v-33q0 -166 99.5 -275t260.5 -109z" />
<glyph unicode="&#x4da;" horiz-adv-x="1388" d="M78 0zM650 1477q284 0 441.5 -176.5t157.5 -465.5v-172q0 -301 -162.5 -492.5t-410.5 -191.5q-273 0 -435.5 164.5t-162.5 444.5v123h1117v124q0 260 -136.5 424t-408.5 164q-141 0 -255.5 -41t-199.5 -113l-30 43q88 75 198.5 120t286.5 45zM676 33q235 0 375 177 t139 441l-2 5h-1056v-72q0 -239 145 -395t399 -156zM1001 1627h-136v118h136v-118zM532 1627h-137v118h137v-118z" />
<glyph unicode="&#x4db;" horiz-adv-x="1032" d="M87 0zM498 1102q184 0 319 -150t135 -371v-64q0 -234 -130.5 -386t-320.5 -152q-184 0 -299 119.5t-115 322.5v83h810q0 1 0.5 5.5t0.5 7.5v64q0 195 -115.5 331t-284.5 136q-122 0 -203.5 -33.5t-138.5 -98.5l-29 42q63 70 154.5 107t216.5 37zM501 33q160 0 266.5 117 t121.5 294l-3 6h-745v-33q0 -166 99.5 -275t260.5 -109zM822 1352h-136v118h136v-118zM353 1352h-137v118h137v-118z" />
<glyph unicode="&#x4dc;" horiz-adv-x="2020" d="M55 0zM809 54h163v666h-173l-530 -661l3 -5h113v-54h-322v54h130l553 689l-417 545q-61 79 -98.5 102t-89.5 23q-19 0 -34.5 -5t-27.5 -13l-24 46q18 12 41.5 19t44.5 7q60 0 109.5 -27.5t118.5 -116.5l422 -550h181v629h-163v54h163h54h163v-54h-163v-629h184l422 550 q68 89 117.5 116.5t110.5 27.5q20 0 43.5 -7t42.5 -19l-24 -46q-13 8 -28.5 13t-33.5 5q-53 0 -90.5 -23t-97.5 -102l-420 -548l551 -686h131v-54h-322v54h112l3 5l-530 661h-171v-666h163v-54h-380v54zM1306 1673h-136v118h136v-118zM837 1673h-137v118h137v-118z" />
<glyph unicode="&#x4dd;" horiz-adv-x="1801" d="M75 0zM723 54h163v475h-154l-499 -529h-158v54h137l469 506l-285 354q-63 78 -100 101.5t-88 23.5q-19 0 -34.5 -5t-27.5 -13l-24 46q18 12 41.5 19t44.5 7q58 0 107 -28t121 -116l297 -367h153v446h-163v54h217h163v-54h-163v-446h160l297 367q71 88 120 116t108 28 q20 0 43.5 -7t42.5 -19l-24 -46q-13 8 -28.5 13t-33.5 5q-51 0 -88 -23.5t-100 -101.5l-287 -357l467 -503h137v-54h-158l-500 529h-156v-475h163v-54h-380v54zM1218 1331h-136v118h136v-118zM749 1331h-137v118h137v-118z" />
<glyph unicode="&#x4de;" horiz-adv-x="1211" d="M71 0zM1065 1083q0 -118 -75.5 -208.5t-215.5 -129.5q158 -34 236 -124.5t78 -234.5q0 -190 -143.5 -298.5t-372.5 -108.5q-201 0 -351 109t-145 310l2 6h46q0 -163 125 -267t323 -104q219 0 340.5 92.5t121.5 256.5q0 174 -117 253.5t-350 79.5h-184v56h184 q228 0 336 82t108 234q0 153 -110 244.5t-329 91.5q-144 0 -256 -53.5t-178 -143.5v-214h-55v234q73 107 201.5 169t287.5 62q229 0 361 -102t132 -292zM906 1694h-136v118h136v-118zM437 1694h-137v118h137v-118z" />
<glyph unicode="&#x4df;" horiz-adv-x="1030" d="M84 0zM486 580q175 0 254 58t79 167t-80.5 174t-249.5 65q-137 0 -235.5 -68t-98.5 -177h-46l-2 6q-6 129 108.5 211t273.5 82q182 0 283.5 -76.5t101.5 -219.5q0 -85 -54.5 -151t-155.5 -97q115 -27 172 -93.5t57 -170.5q0 -144 -111 -225.5t-293 -81.5 q-160 0 -282.5 81.5t-117.5 230.5l2 6h46q0 -114 100.5 -188.5t251.5 -74.5q170 0 259.5 65.5t89.5 183.5q0 124 -87 181t-265 57h-145v55h145zM812 1350h-136v118h136v-118zM343 1350h-137v118h137v-118z" />
<glyph unicode="&#x4e0;" horiz-adv-x="1097" d="M904 1397l-2 5h-750v-239h-54v293h869l3 -68l-476 -556l2 -5h32q217 0 325.5 -113t108.5 -328q0 -190 -121 -298.5t-313 -108.5q-183 0 -316.5 109t-128.5 310l2 6h48q0 -164 109 -267.5t286 -103.5q180 0 280 92.5t100 256.5q0 206 -96.5 301.5t-287.5 95.5h-101v55z " />
<glyph unicode="&#x4e1;" horiz-adv-x="1102" d="M903 1022l-2 5h-751v-238h-54v293h869l3 -68l-482 -562h10q220 0 342 -115t122 -326q0 -188 -121 -297t-313 -109q-182 0 -316 109t-129 309l2 6h48q0 -162 109 -266t286 -104q180 0 280 92.5t100 255.5q0 203 -110 300t-304 97h-71v56z" />
<glyph unicode="&#x4e2;" horiz-adv-x="1552" d="M77 0zM457 1456v-54h-163v-1122l6 -2l935 987v137h-163v54h163h54h163v-54h-163v-1348h163v-54h-380v54h163v1126l-6 2l-935 -988v-140h163v-54h-380v54h163v1348h-163v54h163h54h163zM1062 1733h-627v53h627v-53z" />
<glyph unicode="&#x4e3;" horiz-adv-x="1352" d="M97 0zM477 1082v-54h-163v-922l6 -2l663 978h55h163v-54h-163v-974h163v-54h-381v54h163v922l-6 2l-663 -978h-217v54h163v974h-163v54h217h163zM994 1391h-627v53h627v-53z" />
<glyph unicode="&#x4e4;" horiz-adv-x="1552" d="M77 0zM457 1456v-54h-163v-1122l6 -2l935 987v137h-163v54h163h54h163v-54h-163v-1348h163v-54h-380v54h163v1126l-6 2l-935 -988v-140h163v-54h-380v54h163v1348h-163v54h163h54h163zM1044 1673h-136v118h136v-118zM575 1673h-137v118h137v-118z" />
<glyph unicode="&#x4e5;" horiz-adv-x="1352" d="M97 0zM477 1082v-54h-163v-922l6 -2l663 978h55h163v-54h-163v-974h163v-54h-381v54h163v922l-6 2l-663 -978h-217v54h163v974h-163v54h217h163zM976 1331h-136v118h136v-118zM507 1331h-137v118h137v-118z" />
<glyph unicode="&#x4e6;" horiz-adv-x="1488" d="M130 0zM1348 719q0 -336 -168.5 -538t-439.5 -202q-272 0 -441 202.5t-169 537.5v18q0 335 168 537.5t440 202.5q271 0 440.5 -202.5t169.5 -537.5v-18zM1294 739q0 309 -151.5 496.5t-404.5 187.5q-252 0 -402.5 -187.5t-150.5 -496.5v-20q0 -311 151 -498.5t404 -187.5 t403.5 187.5t150.5 498.5v20zM1045 1694h-136v118h136v-118zM576 1694h-137v118h137v-118z" />
<glyph unicode="&#x4e7;" horiz-adv-x="1155" d="M104 0zM104 562q0 238 131.5 389t341.5 151q211 0 342.5 -151t131.5 -389v-42q0 -239 -131.5 -390t-340.5 -151q-211 0 -343 151t-132 390v42zM158 520q0 -204 114 -345.5t307 -141.5q190 0 304 142t114 345v42q0 199 -115 342.5t-305 143.5q-191 0 -305 -143.5 t-114 -342.5v-42zM890 1351h-136v118h136v-118zM421 1351h-137v118h137v-118z" />
<glyph unicode="&#x4e8;" horiz-adv-x="1372" d="M120 0zM1338 719q0 -336 -168.5 -538t-439.5 -202q-272 0 -441 202.5t-169 537.5v18q0 335 168 537.5t440 202.5q271 0 440.5 -202.5t169.5 -537.5v-18zM728 1423q-249 0 -398.5 -182t-150.5 -481l3 -5h1094l2 5q0 298 -150.5 480.5t-399.5 182.5zM730 33 q249 0 398 181.5t151 481.5l-3 5h-1094l-2 -5q1 -300 151 -481.5t399 -181.5z" />
<glyph unicode="&#x4e9;" horiz-adv-x="1176" d="M104 0zM104 562q0 238 131.5 389t341.5 151q211 0 342.5 -151t131.5 -389v-42q0 -239 -131.5 -390t-340.5 -151q-211 0 -343 151t-132 390v42zM577 1048q-190 0 -303.5 -141t-110.5 -335l2 -5h825l2 5q2 193 -112 334.5t-303 141.5zM579 33q188 0 301 139t112 336l-2 5 h-825l-2 -5q-2 -197 111.5 -336t304.5 -139z" />
<glyph unicode="&#x4ea;" horiz-adv-x="1372" d="M120 0zM1338 719q0 -336 -168.5 -538t-439.5 -202q-272 0 -441 202.5t-169 537.5v18q0 335 168 537.5t440 202.5q271 0 440.5 -202.5t169.5 -537.5v-18zM728 1423q-249 0 -398.5 -182t-150.5 -481l3 -5h1094l2 5q0 298 -150.5 480.5t-399.5 182.5zM730 33 q249 0 398 181.5t151 481.5l-3 5h-1094l-2 -5q1 -300 151 -481.5t399 -181.5zM1046 1668h-136v118h136v-118zM577 1668h-137v118h137v-118z" />
<glyph unicode="&#x4eb;" horiz-adv-x="1176" d="M104 0zM104 562q0 238 131.5 389t341.5 151q211 0 342.5 -151t131.5 -389v-42q0 -239 -131.5 -390t-340.5 -151q-211 0 -343 151t-132 390v42zM577 1048q-190 0 -303.5 -141t-110.5 -335l2 -5h825l2 5q2 193 -112 334.5t-303 141.5zM579 33q188 0 301 139t112 336l-2 5 h-825l-2 -5q-2 -197 111.5 -336t304.5 -139zM888 1379h-136v118h136v-118zM419 1379h-137v118h137v-118z" />
<glyph unicode="&#x4ec;" horiz-adv-x="1277" d="M95 0zM95 1246q73 107 201.5 169t287.5 62q282 0 449.5 -204t167.5 -536v-18q0 -332 -166.5 -536t-440.5 -204q-161 0 -294 62t-205 169v254h55v-234q65 -90 182 -143.5t262 -53.5q248 0 400.5 188t152.5 498v11h-636v54h628l2 5q-9 286 -160 460t-397 174 q-144 0 -256 -53.5t-178 -143.5v-234h-55v254zM917 1695h-136v118h136v-118zM448 1695h-137v118h137v-118z" />
<glyph unicode="&#x4ed;" horiz-adv-x="1067" d="M135 0zM535 33q190 0 288 134t96 344l-3 5h-571v54h571l3 5q0 206 -97.5 339.5t-284.5 133.5q-110 0 -196.5 -41.5t-142.5 -111.5v-212h-54v232q62 86 166 136.5t227 50.5q205 0 322.5 -149t117.5 -391v-42q0 -243 -118 -392t-324 -149q-159 0 -279.5 94.5t-115.5 253.5 l2 6h46q0 -150 104.5 -225t242.5 -75zM855 1351h-136v118h136v-118zM386 1351h-137v118h137v-118z" />
<glyph unicode="&#x4ee;" horiz-adv-x="1431" d="M33 0zM350 1402h-132l483 -845l55 -100l20 39l449 906h-136v54h316v-54h-114l-572 -1145q-62 -120 -137 -199t-216 -79q-21 0 -48 4t-39 9l15 51q13 -5 34.5 -7.5t42.5 -2.5q100 0 167 61.5t122 171.5l64 128l-573 1008h-118v54h317v-54zM1065 1733h-627v53h627v-53z" />
<glyph unicode="&#x4ef;" horiz-adv-x="1185" d="M55 0zM374 1028h-142l335 -832l40 -108h6l6 16l353 924h-142v54h320v-54h-118l-460 -1208q-44 -114 -102.5 -185.5t-186.5 -71.5q-19 0 -42 3.5t-34 7.5l9 51q11 -3 33 -6t34 -3q92 0 143.5 54t91.5 160l65 176l-410 1022h-118v54h319v-54zM935 1391h-627v53h627v-53z " />
<glyph unicode="&#x4f0;" horiz-adv-x="1431" d="M33 0zM350 1402h-132l483 -845l55 -100l20 39l449 906h-136v54h316v-54h-114l-572 -1145q-62 -120 -137 -199t-216 -79q-21 0 -48 4t-39 9l15 51q13 -5 34.5 -7.5t42.5 -2.5q100 0 167 61.5t122 171.5l64 128l-573 1008h-118v54h317v-54zM1047 1673h-136v118h136v-118z M578 1673h-137v118h137v-118z" />
<glyph unicode="&#x4f1;" horiz-adv-x="1185" d="M55 0zM374 1028h-142l335 -832l40 -108h6l6 16l353 924h-142v54h320v-54h-118l-460 -1208q-44 -114 -102.5 -185.5t-186.5 -71.5q-19 0 -42 3.5t-34 7.5l9 51q11 -3 33 -6t34 -3q92 0 143.5 54t91.5 160l65 176l-410 1022h-118v54h319v-54zM917 1331h-136v118h136v-118z M448 1331h-137v118h137v-118z" />
<glyph unicode="&#x4f2;" horiz-adv-x="1431" d="M33 0zM350 1402h-132l483 -845l55 -100l20 39l449 906h-136v54h316v-54h-114l-572 -1145q-62 -120 -137 -199t-216 -79q-21 0 -48 4t-39 9l15 51q13 -5 34.5 -7.5t42.5 -2.5q100 0 167 61.5t122 171.5l64 128l-573 1008h-118v54h317v-54zM1023 1867h72l2 -6l-292 -260 h-65l-2 6zM753 1867h68l3 -6l-248 -260h-62l-2 5z" />
<glyph unicode="&#x4f3;" horiz-adv-x="1185" d="M55 0zM374 1028h-142l335 -832l40 -108h6l6 16l353 924h-142v54h320v-54h-118l-460 -1208q-44 -114 -102.5 -185.5t-186.5 -71.5q-19 0 -42 3.5t-34 7.5l9 51q11 -3 33 -6t34 -3q92 0 143.5 54t91.5 160l65 176l-410 1022h-118v54h319v-54zM893 1524h72l2 -6l-292 -260 h-65l-2 6zM623 1524h68l3 -6l-248 -260h-62l-2 5z" />
<glyph unicode="&#x4f4;" horiz-adv-x="1461" d="M59 0zM940 54h163v665q-104 -29 -205 -45t-197 -16q-239 0 -359 104.5t-120 342.5v297h-163v54h217h163v-54h-163v-297q0 -206 106.5 -299.5t318.5 -93.5q99 0 199 15t203 45v630h-163v54h217h163v-54h-163v-1348h163v-54h-380v54zM996 1673h-136v118h136v-118zM527 1673 h-137v118h137v-118z" />
<glyph unicode="&#x4f5;" horiz-adv-x="1319" d="M65 0zM445 1082v-54h-163v-180q0 -205 80 -278.5t275 -73.5q79 3 169.5 25.5t145.5 51.5v455h-163v54h380v-54h-163v-974h163v-54h-380v54h163v468q-66 -33 -156 -56.5t-159 -23.5q-221 0 -315 84.5t-94 321.5v180h-163v54h217h163zM911 1331h-136v118h136v-118z M442 1331h-137v118h137v-118z" />
<glyph unicode="&#x4f6;" horiz-adv-x="1203" d="M77 0zM77 54h163v1348h-163v54h1025v-293h-54v239h-754v-1348h163v-54h-380v54zM457 -352h-54v406h54v-406z" />
</font>
</defs>
</svg>
