<?xml version="1.0" standalone="no"?>
<!DOCTYPE svg PUBLIC "-//W3C//DTD SVG 1.1//EN" "http://www.w3.org/Graphics/SVG/1.1/DTD/svg11.dtd" >
<svg xmlns="http://www.w3.org/2000/svg">
<metadata></metadata>
<defs>
<font id="roboto_slablight" horiz-adv-x="1130" >
<font-face units-per-em="2048" ascent="1638" descent="-410" />
<missing-glyph horiz-adv-x="498" />
<glyph unicode="fi" horiz-adv-x="1209" d="M75 88l163 13v883h-179v98h179v138q0 173 95.5 267t264.5 94q66 0 135 -15t140 -44l-19 -103q-60 25 -118 39t-131 14q-122 0 -184.5 -65t-62.5 -187v-138h621v-981l163 -13v-88h-445v88l163 13v883h-502v-883l163 -13v-88h-446v88z" />
<glyph unicode="&#xfb02;" horiz-adv-x="1324" d="M932 1429q-63 20 -130 31.5t-146 11.5q-155 0 -226.5 -71t-71.5 -210v-109h279v-98h-279v-883l163 -13v-88h-446v88l163 13v883h-158v98h158v109q0 186 109 288t302 102q86 0 176.5 -17.5t181.5 -51.5h44v-1411l163 -13v-88h-445v88l163 13v1328v0z" />
<glyph horiz-adv-x="0" />
<glyph unicode="&#x9;" horiz-adv-x="0" />
<glyph unicode=" "  horiz-adv-x="498" />
<glyph unicode="&#x09;" horiz-adv-x="498" />
<glyph unicode="&#xa0;" horiz-adv-x="498" />
<glyph unicode="!" horiz-adv-x="458" d="M273 478h-119v978h119v-978zM285 0h-142v167h142v-167z" />
<glyph unicode="&#x22;" horiz-adv-x="711" d="M270 1344l-33 -261h-71l2 255v222h102v-216zM510 1344l-33 -261h-72l3 258v219h102v-216z" />
<glyph unicode="#" horiz-adv-x="1246" d="M731 410h-314l-77 -410h-99l77 410h-255v93h272l83 441h-279v96h297l79 416h99l-79 -416h315l79 416h99l-79 -416h230v-96h-248l-83 -441h256v-93h-274l-77 -410h-99zM434 503h315l83 441h-315z" />
<glyph unicode="$" horiz-adv-x="1097" d="M862 359q0 111 -72 181t-254 134q-208 66 -308 159t-100 262q0 162 100 264t272 116v202h102v-202q175 -16 271.5 -131t94.5 -311l-3 -5h-112q0 152 -80.5 247t-223.5 95q-148 0 -224.5 -77.5t-76.5 -195.5q0 -114 68 -183.5t261 -133.5q206 -69 305.5 -160.5 t99.5 -258.5q0 -166 -103.5 -265.5t-279.5 -113.5v-190h-102v189q-181 12 -300 116t-115 315l3 6h111q0 -177 101.5 -255t244.5 -78q147 0 233.5 77.5t86.5 196.5z" />
<glyph unicode="%" horiz-adv-x="1458" d="M77 1176q0 127 78.5 214t206.5 87t206.5 -87t78.5 -214v-77q0 -126 -78.5 -212.5t-204.5 -86.5q-129 0 -208 86.5t-79 212.5v77zM174 1099q0 -88 49 -150t141 -62q89 0 137.5 62t48.5 150v77q0 88 -49 151t-139 63t-139 -63t-49 -151v-77zM810 357q0 126 78.5 213 t205.5 87q128 0 207 -87t79 -213v-78q0 -127 -79 -213.5t-205 -86.5q-129 0 -207.5 86.5t-78.5 213.5v78zM906 279q0 -88 49 -150.5t141 -62.5q89 0 138 62t49 151v78q0 91 -49 152t-140 61q-90 0 -139 -61.5t-49 -151.5v-78zM440 121l-74 48l711 1138l74 -48z" />
<glyph unicode="&#x26;" horiz-adv-x="1269" d="M370 794q-81 101 -119.5 183.5t-38.5 169.5q0 158 88.5 244t243.5 86q144 0 228.5 -81t84.5 -204q0 -91 -45 -155.5t-130 -129.5l-158 -122l411 -480q49 71 76 159t27 187h111q0 -128 -37 -235t-105 -194l185 -217l-2 -5h-138l-122 141q-85 -78 -186 -120t-218 -42 q-209 0 -330.5 107t-121.5 285q0 120 72.5 216.5t209.5 196.5zM526 80q92 0 179.5 36t157.5 103l-414 482l-8.5 8.5t-5.5 7.5l-47 -36q-115 -94 -155 -170t-40 -140q0 -124 85.5 -207.5t247.5 -83.5zM332 1149q0 -66 31.5 -138t95.5 -150l177 132q59 45 83.5 94t24.5 105 q0 79 -53 131t-147 52q-102 0 -157 -65t-55 -161z" />
<glyph unicode="'" horiz-adv-x="438" d="M276 1365l-39 -275h-71l8 266v204h102v-195z" />
<glyph unicode="(" horiz-adv-x="636" d="M114 588q0 363 138.5 651t309.5 385h6l26 -73q-145 -103 -253 -366t-108 -594v-20q0 -331 108 -594t253 -370l-26 -70h-6q-173 100 -310.5 382t-137.5 654v15z" />
<glyph unicode=")" horiz-adv-x="629" d="M491 573q0 -372 -138.5 -654t-310.5 -382l-6 1l-25 69q144 102 252.5 367t108.5 597v20q0 329 -110.5 595.5t-250.5 368.5l25 69l6 1q170 -98 309.5 -386t139.5 -651v-15z" />
<glyph unicode="*" horiz-adv-x="952" d="M398 1000l-332 108l32 101l332 -123l-4 370h104l-8 -373l324 127l33 -101l-333 -115l223 -294l-86 -63l-213 305l-204 -303l-85 61z" />
<glyph unicode="+" horiz-adv-x="1145" d="M627 740h444v-112h-444v-482h-120v482h-434v112h434v466h120v-466z" />
<glyph unicode="," horiz-adv-x="392" d="M271 48q0 -92 -37.5 -180t-102.5 -149l-71 52q47 66 69.5 131t22.5 144v142h119v-140z" />
<glyph unicode="-" horiz-adv-x="793" d="M632 570h-478v101h478v-101z" />
<glyph unicode="." horiz-adv-x="466" d="M282 0h-137v164h137v-164z" />
<glyph unicode="/" horiz-adv-x="798" d="M108 -125h-108l608 1581h108z" />
<glyph unicode="0" horiz-adv-x="1158" d="M1026 565q0 -282 -119.5 -434t-332.5 -152q-212 0 -332.5 152.5t-120.5 433.5v325q0 281 119.5 434t331.5 153q213 0 333.5 -153t120.5 -434v-325zM906 910q0 224 -85.5 344.5t-248.5 120.5q-162 0 -247 -121t-85 -344v-363q0 -222 86.5 -344.5t247.5 -122.5 q162 0 247 122t85 345v363z" />
<glyph unicode="1" horiz-adv-x="831" d="M114 88l261 13v1228l-287 -41v84l407 88v-1359l261 -13v-88h-642v88z" />
<glyph unicode="2" horiz-adv-x="1116" d="M101 0v92l477 541q133 150 187.5 250t54.5 192q0 135 -77 217.5t-216 82.5q-166 0 -252 -92t-86 -246h-111l-2 6q-5 182 117.5 308t333.5 126q188 0 300.5 -108t112.5 -290q0 -120 -75.5 -243.5t-209.5 -275.5l-402 -454l2 -5h635l10 205h106v-306h-905z" />
<glyph unicode="3" horiz-adv-x="1102" d="M374 793h138q159 0 241 79.5t82 204.5q0 136 -77 217t-228 81q-141 0 -230.5 -82.5t-89.5 -217.5h-112l-2 6q-5 170 119.5 283t314.5 113q194 0 309.5 -107t115.5 -297q0 -103 -64 -193.5t-180 -134.5q136 -39 203.5 -131.5t67.5 -218.5q0 -194 -125.5 -305t-322.5 -111 q-191 0 -327.5 108.5t-131.5 301.5l2 6h111q0 -139 96.5 -227t249.5 -88q155 0 242 80.5t87 230.5q0 153 -91 226.5t-260 73.5h-138v102z" />
<glyph unicode="4" horiz-adv-x="1178" d="M864 469h228v-101h-228v-267l163 -13v-88h-445v88l163 13v267h-682v68l670 1020h131v-987zM205 469h540v830l-6 2l-51 -109z" />
<glyph unicode="5" horiz-adv-x="1070" d="M827 1219l-12 126h-520l-54 -519q55 50 121 77t179 30q186 3 300 -125t114 -344q0 -221 -111 -353t-333 -132q-180 0 -299.5 100.5t-114.5 297.5l2 6h107q0 -147 83 -225t222 -78q163 0 243.5 98t80.5 284q0 163 -80.5 261.5t-225.5 98.5q-140 0 -213.5 -44.5 t-106.5 -134.5l-97 16l80 797h732v-237h-97z" />
<glyph unicode="6" horiz-adv-x="1124" d="M615 1477q75 0 148 -17t130 -49l-29 -96q-57 31 -114 45.5t-135 14.5q-169 0 -272 -133t-103 -404v-49q60 78 153 125t206 47q196 0 310 -135t114 -352q0 -215 -122.5 -355t-318.5 -140q-203 0 -332 152.5t-129 430.5v265q0 318 138.5 484t355.5 166zM575 863 q-121 0 -211.5 -63t-123.5 -162v-85q0 -227 95 -350t247 -123q146 0 233.5 114.5t87.5 279.5q0 175 -85 282t-243 107z" />
<glyph unicode="7" horiz-adv-x="1115" d="M1031 1354q-236 -279 -361.5 -568t-167.5 -664l-10 -122h-120l10 122q43 371 174.5 670.5t350.5 561.5h-717l-8 -205h-106v307h955v-102z" />
<glyph unicode="8" horiz-adv-x="1127" d="M987 1081q0 -118 -68.5 -206.5t-183.5 -128.5q132 -41 212.5 -137t80.5 -223q0 -196 -131 -301.5t-336 -105.5q-210 0 -339.5 105t-129.5 302q0 129 79 224.5t212 136.5q-115 40 -182.5 128t-67.5 206q0 188 118.5 292t307.5 104q187 0 307.5 -104.5t120.5 -291.5z M909 385q0 138 -100.5 224.5t-249.5 86.5q-152 0 -250 -86.5t-98 -224.5q0 -143 97 -224t253 -81q151 0 249.5 81.5t98.5 223.5zM868 1082q0 126 -89 209.5t-220 83.5q-135 0 -221 -80t-86 -213q0 -129 86 -206.5t223 -77.5q133 0 220 77.5t87 206.5z" />
<glyph unicode="9" horiz-adv-x="1138" d="M505 80q170 0 266 130t96 401v42q-54 -91 -143 -140.5t-198 -49.5q-199 0 -320.5 137.5t-121.5 357.5q0 221 127 370t316 149q213 0 338.5 -139t125.5 -420v-305q0 -319 -131.5 -476.5t-354.5 -157.5q-77 0 -156 15t-150 46l22 100q68 -32 134.5 -46t149.5 -14zM526 564 q130 0 217 66.5t124 164.5v132q0 226 -89.5 337t-245.5 111q-141 0 -232.5 -122t-91.5 -295q0 -169 85.5 -281.5t232.5 -112.5z" />
<glyph unicode=":" horiz-adv-x="389" d="M131 0zM268 0h-137v164h137v-164zM268 916h-137v164h137v-164z" />
<glyph unicode=";" horiz-adv-x="391" d="M65 0zM272 918h-137v164h137v-164zM276 48q0 -92 -37.5 -180t-102.5 -149l-71 52q47 66 69.5 131t22.5 144v142h119v-140z" />
<glyph unicode="&#x3c;" horiz-adv-x="1022" d="M289 578l-108 -28v-6l108 -28l614 -268v-126l-827 379v97l827 378v-126z" />
<glyph unicode="=" horiz-adv-x="1127" d="M981 833h-834v106h834v-106zM981 422h-834v106h834v-106z" />
<glyph unicode="&#x3e;" horiz-adv-x="1056" d="M125 844v123l844 -378v-97l-844 -379v124l631 274l108 27v6l-108 29z" />
<glyph unicode="?" horiz-adv-x="925" d="M361 404q1 131 22 182.5t114 136.5q107 110 157 186.5t50 192.5q0 128 -68 198t-194 70q-118 0 -190 -68.5t-73 -185.5h-111l-2 6q-3 165 103.5 260t272.5 95q179 0 280.5 -101t101.5 -273q0 -135 -66.5 -239.5t-188.5 -218.5q-62 -53 -75.5 -99t-13.5 -142h-119zM496 0 h-138v154h138v-154z" />
<glyph unicode="@" horiz-adv-x="1809" d="M1715 513q-10 -216 -117 -375t-313 -159q-78 0 -131 51t-69 141q-53 -96 -130.5 -144t-180.5 -48q-131 0 -199 119.5t-49 317.5q23 254 141 407.5t286 153.5q93 0 150.5 -27t126.5 -81l-2 -2h3l-50 -574q-10 -132 30 -180t95 -48q142 0 224.5 124.5t92.5 323.5 q19 389 -149 604.5t-530 215.5q-324 0 -533.5 -235.5t-226.5 -619.5q-19 -379 163.5 -612.5t519.5 -233.5q88 0 178 22t152 57l31 -75q-64 -41 -167 -65t-198 -24q-380 0 -588 249.5t-189 681.5q18 424 252.5 683t609.5 259q391 0 587.5 -241.5t179.5 -665.5zM636 416 q-16 -155 26 -247t138 -92q86 0 156 43t123 157v8.5t1 7.5l47 543q-32 23 -71.5 36.5t-86.5 13.5q-134 0 -222 -119t-111 -351z" />
<glyph unicode="A" horiz-adv-x="1485" d="M55 88l107 8l517 1360h113l512 -1360l109 -8v-88h-359v88l127 10l-120 326h-654l-121 -326l127 -10v-88h-358v88zM447 531h575l-283 770h-6z" />
<glyph unicode="B" horiz-adv-x="1322" d="M659 1456q227 0 353.5 -95.5t126.5 -287.5q0 -112 -63.5 -195t-172.5 -115q133 -24 216 -125t83 -233q0 -195 -126.5 -300t-338.5 -105h-666v88l163 13v1253l-163 13v89h163h425zM353 702v-601h384q161 0 253 79.5t92 222.5q0 131 -83.5 215t-242.5 84h-403zM353 803h335 q158 0 244.5 69.5t86.5 204.5q0 138 -92 207.5t-268 69.5h-306v-551z" />
<glyph unicode="C" horiz-adv-x="1349" d="M1230 1000h-93l-17 221q-58 69 -151 111.5t-215 42.5q-244 0 -388 -177.5t-144 -458.5v-21q0 -281 142.5 -459.5t374.5 -178.5q123 0 223.5 43t157.5 111l17 221h93v-256q-68 -94 -198.5 -157t-292.5 -63q-280 0 -458 207.5t-178 531.5v19q0 325 177.5 532.5t464.5 207.5 q162 0 289.5 -63.5t195.5 -157.5v-256z" />
<glyph unicode="D" horiz-adv-x="1401" d="M657 1456q267 0 441 -178t174 -457v-187q0 -280 -174 -457t-441 -177h-586v88l163 13v1253l-163 13v89h163h423zM353 1354v-1253h304q216 0 355.5 151t139.5 382v190q0 228 -140 379t-355 151h-304z" />
<glyph unicode="E" horiz-adv-x="1286" d="M950 705h-597v-604h688l9 218h106v-319h-1085v88l163 13v1253l-163 13v89h163h917v-320h-106l-9 218h-683v-547h597v-102z" />
<glyph unicode="F" horiz-adv-x="1258" d="M71 88l163 13v1253l-163 13v89h1092v-320h-106l-9 218h-695v-569h608v-103h-608v-581l163 -13v-88h-445v88z" />
<glyph unicode="G" horiz-adv-x="1420" d="M1239 160q-52 -64 -181 -122.5t-323 -58.5q-284 0 -462 205t-178 534v31q0 324 178 526t467 202q164 0 290 -54.5t205 -149.5v-253h-93l-21 213q-59 65 -153 103.5t-219 38.5q-248 0 -391 -174t-143 -450v-33q0 -284 140.5 -461t379.5 -177q142 0 243 37t142 79v353 l-280 5v97h399v-491z" />
<glyph unicode="H" horiz-adv-x="1537" d="M71 1367v89h445v-89l-163 -13v-582h828v582l-163 13v89h163h119h163v-89l-163 -13v-1253l163 -13v-88h-445v88l163 13v569h-828v-569l163 -13v-88h-445v88l163 13v1253z" />
<glyph unicode="I" horiz-adv-x="627" d="M91 1367v89h446v-89l-163 -13v-1253l163 -13v-88h-446v88l163 13v1253z" />
<glyph unicode="J" horiz-adv-x="1158" d="M1080 1456v-89l-163 -13v-941q0 -199 -118.5 -316.5t-306.5 -117.5q-205 0 -324 106t-114 310l2 6h112q0 -158 84 -239.5t240 -81.5q133 0 219 90.5t86 242.5v941l-163 13v89h283h163z" />
<glyph unicode="K" horiz-adv-x="1417" d="M71 88l163 13v1253l-163 13v89h445v-89l-163 -13v-568h199l490 573l-140 8v89h407v-89l-128 -12l-521 -615l562 -640l131 -12v-88h-415v88l138 8l-523 589h-200v-584l163 -13v-88h-445v88z" />
<glyph unicode="L" horiz-adv-x="1178" d="M71 0v88l163 13v1253l-163 13v89h163h120h163v-89l-163 -13v-1253h605l9 205h106v-306h-1003z" />
<glyph unicode="M" horiz-adv-x="1861" d="M1518 1280l-6 2l-541 -1282h-83l-540 1276l-6 -1l11 -632v-542l163 -13v-88h-445v88l163 13v1253l-163 13v89h163h157l535 -1282h6l537 1282h321v-89l-163 -13v-1253l163 -13v-88h-445v88l163 13v542z" />
<glyph unicode="N" horiz-adv-x="1536" d="M1469 1456v-89l-163 -13v-1354h-119l-827 1252l-6 -1v-1150l163 -13v-88h-446v88l163 13v1253l-163 13v89h163h120l827 -1250l6 1v1147l-163 13v89h282h163z" />
<glyph unicode="O" horiz-adv-x="1468" d="M1357 718q0 -328 -175 -533.5t-455 -205.5q-276 0 -448.5 206t-172.5 533v19q0 327 172 533.5t448 206.5q280 0 455.5 -206.5t175.5 -533.5v-19zM1237 739q0 283 -138 458t-373 175q-231 0 -365.5 -175t-134.5 -458v-21q0 -285 135 -460t366 -175q237 0 373.5 174.5 t136.5 460.5v21z" />
<glyph unicode="P" horiz-adv-x="1276" d="M685 1456q229 0 354.5 -116.5t125.5 -308.5q0 -194 -125.5 -310t-354.5 -116h-332v-504l163 -13v-88h-445v88l163 13v1253l-163 13v89h163h451zM353 707h332q180 0 270.5 91.5t90.5 230.5q0 140 -90 232.5t-271 92.5h-332v-647z" />
<glyph unicode="Q" horiz-adv-x="1463" d="M1357 718q0 -213 -77.5 -379.5t-215.5 -259.5l301 -215l-83 -76l-328 233q-53 -21 -110 -31.5t-117 -10.5q-276 0 -448.5 206t-172.5 533v19q0 327 172 533.5t448 206.5q280 0 455.5 -206.5t175.5 -533.5v-19zM1237 739q0 283 -138 458t-373 175q-231 0 -365.5 -175 t-134.5 -458v-21q0 -285 135 -460t366 -175q237 0 373.5 174.5t136.5 460.5v21z" />
<glyph unicode="R" horiz-adv-x="1374" d="M676 1455q234 0 359.5 -102t125.5 -295q0 -114 -67 -205t-189 -132q135 -34 194.5 -121.5t59.5 -220.5v-133q0 -77 24 -114t73 -40l49 -3v-89h-76q-106 0 -148 72t-42 176v129q0 132 -84.5 209.5t-235.5 80.5h-366v-566l163 -14v-87h-445v87l163 14v1252l-163 14v88h605z M353 769h309q197 0 288 79t91 211q0 140 -91 217t-274 77h-323v-584z" />
<glyph unicode="S" horiz-adv-x="1220" d="M1099 1024h-98l-17 206q-54 68 -147 106.5t-218 38.5q-180 0 -280.5 -78t-100.5 -194q0 -110 90.5 -183.5t313.5 -129.5q235 -60 357.5 -162t122.5 -269q0 -174 -142 -277t-363 -103q-156 0 -289.5 55t-218.5 157v255h98l17 -213q66 -75 169 -114t224 -39q172 0 278.5 76 t106.5 201q0 119 -89 194.5t-310 133.5q-239 60 -362 156t-123 259q0 167 140 272t361 105q159 0 283.5 -55t196.5 -149v-249z" />
<glyph unicode="T" horiz-adv-x="1280" d="M1218 1456v-307h-106l-9 205h-404v-1253l163 -13v-88h-446v88l163 13v1253h-404l-8 -205h-107v307h1158z" />
<glyph unicode="U" horiz-adv-x="1487" d="M505 1456v-89l-163 -13v-885q0 -186 110 -287.5t287 -101.5q180 0 293 101t113 288v885l-163 13v89h445v-89l-163 -13v-885q0 -238 -145.5 -364t-379.5 -126q-230 0 -373 126.5t-143 363.5v885l-163 13v89h163h119h163z" />
<glyph unicode="V" horiz-adv-x="1455" d="M430 1367l-136 -11l402 -1110l29 -97h6l29 97l401 1110l-136 11v89h378v-89l-113 -9l-506 -1358h-113l-507 1358l-112 9v89h378v-89z" />
<glyph unicode="W" horiz-adv-x="1937" d="M423 1367l-148 -11l230 -944l44 -222h6l54 222l320 1044h113l319 -1044l53 -225l6 1l47 224l227 944l-148 11v89h380v-89l-109 -8l-339 -1359h-113l-339 1117l-38 153h-6l-36 -153l-342 -1117h-113l-339 1359l-109 8v89h380v-89z" />
<glyph unicode="X" horiz-adv-x="1397" d="M54 88l122 10l453 640l-438 619l-122 10v89h400v-89l-139 -6l368 -532l369 532l-137 6v89h399v-89l-122 -10l-437 -619l453 -640l123 -10v-88h-399v88l137 6l-384 553l-385 -553l138 -6v-88h-399v88z" />
<glyph unicode="Y" horiz-adv-x="1423" d="M455 1367l-140 -10l394 -710l396 710l-140 10v89h401v-89l-124 -10l-474 -825v-431l163 -13v-88h-446v88l163 13v438l-470 818l-123 10v89h400v-89z" />
<glyph unicode="Z" horiz-adv-x="1220" d="M92 0v92l857 1262h-716l-8 -205h-107v307h977v-87l-861 -1268h778l9 205h107v-306h-1036z" />
<glyph unicode="[" horiz-adv-x="548" d="M486 1562h-210v-1772h210v-102h-329v1976h329v-102z" />
<glyph unicode="\" horiz-adv-x="810" d="M36 1456h116l608 -1581h-116z" />
<glyph unicode="]" horiz-adv-x="526" d="M23 1664h330v-1976h-330v102h210v1772h-210v102z" />
<glyph unicode="^" horiz-adv-x="844" d="M186 729h-115l299 727h89l299 -727h-116l-197 484l-29 105h-6l-30 -105z" />
<glyph unicode="_" horiz-adv-x="1149" d="M1000 -101h-881v101h881v-101z" />
<glyph unicode="`" horiz-adv-x="562" d="M442 1210h-117l-241 261l2 5h154z" />
<glyph unicode="a" d="M844 0q-12 55 -17 95t-5 81q-60 -85 -160 -141t-225 -56q-159 0 -246 82t-87 222q0 150 129 238t350 88h239v143q0 116 -74.5 182t-208.5 66q-90 0 -164.5 -24.5t-124.5 -66.5l-10 -145h-99l1 208q75 58 179.5 94t222.5 36q179 0 288 -91t109 -261v-532q0 -33 1.5 -63.5 t6.5 -59.5l108 -7v-88h-213zM450 85q130 0 229 60t143 155v217h-241q-163 0 -260.5 -67.5t-97.5 -170.5q0 -87 60.5 -140.5t166.5 -53.5z" />
<glyph unicode="b" horiz-adv-x="1133" d="M1027 511q0 -243 -110 -387.5t-303 -144.5q-119 0 -205 47.5t-139 136.5l-13 -163h-102v1458l-163 13v89h282v-648q54 91 138 140.5t200 49.5q195 0 305 -155.5t110 -414.5v-21zM906 532q0 207 -80 336.5t-236 129.5q-126 0 -202.5 -62t-113.5 -159v-489 q40 -94 119.5 -149.5t198.5 -55.5q156 0 235 116t79 312v21z" />
<glyph unicode="c" horiz-adv-x="1094" d="M559 80q119 0 210 68t91 189h106l2 -6q5 -150 -119.5 -251t-289.5 -101q-220 0 -341 151.5t-121 389.5v42q0 236 121 388t340 152q125 0 229 -47t169 -128l5 -236h-102l-19 192q-48 54 -119.5 85.5t-162.5 31.5q-174 0 -257.5 -124.5t-83.5 -313.5v-42q0 -192 83 -316 t259 -124z" />
<glyph unicode="d" horiz-adv-x="1216" d="M849 156q-54 -85 -139 -131t-200 -46q-194 0 -303.5 145t-109.5 387v21q0 259 109.5 414.5t305.5 155.5q113 0 196 -47.5t138 -135.5v539l-163 13v89h163h120v-1459l163 -13v-88h-270zM218 511q0 -196 78.5 -312t236.5 -116q115 0 192.5 52t120.5 143v512 q-40 92 -115.5 150t-195.5 58q-158 0 -237.5 -129.5t-79.5 -336.5v-21z" />
<glyph unicode="e" horiz-adv-x="1102" d="M574 -21q-204 0 -338 149.5t-134 380.5v55q0 232 133.5 385t322.5 153q199 0 313 -126t114 -336v-102h-764v-29q0 -182 97.5 -305.5t255.5 -123.5q111 0 190 31t135 89l51 -82q-61 -64 -154 -101.5t-222 -37.5zM558 1000q-132 0 -222.5 -101.5t-105.5 -254.5l2 -5h634v30 q0 141 -83 236t-225 95z" />
<glyph unicode="f" horiz-adv-x="725" d="M80 984v98h179v158q0 163 82 252t229 89q32 0 66 -5t69 -14l-15 -99q-24 6 -49 9.5t-59 3.5q-98 0 -150.5 -62t-52.5 -174v-158h258v-98h-258v-883l163 -13v-88h-446v88l163 13v883h-179z" />
<glyph unicode="g" horiz-adv-x="1148" d="M102 532q0 259 110.5 414.5t306.5 155.5q115 0 199.5 -50.5t139.5 -142.5l14 173h101v-1068q0 -209 -113 -330t-315 -121q-78 0 -166.5 19t-154.5 52l32 101q65 -31 136.5 -48t150.5 -17q154 0 232 91t78 253v137q-55 -83 -139 -127.5t-197 -44.5q-195 0 -305 145 t-110 387v21zM222 511q0 -195 79.5 -311.5t237.5 -116.5q117 0 194.5 53t119.5 146v502q-40 95 -115 154.5t-197 59.5q-158 0 -238.5 -130t-80.5 -336v-21z" />
<glyph unicode="h" horiz-adv-x="1298" d="M62 1471v89h282v-663q54 97 144 151t210 54q171 0 262.5 -106t91.5 -329v-566l163 -13v-88h-446v88l163 13v568q0 176 -69.5 252.5t-191.5 76.5q-123 0 -205.5 -64.5t-121.5 -171.5v-661l163 -13v-88h-445v88l163 13v1357z" />
<glyph unicode="i" horiz-adv-x="638" d="M89 88l163 13v879l-163 13v89h282v-981l163 -13v-88h-445v88zM371 1392h-119v168h119v-168z" />
<glyph unicode="j" horiz-adv-x="562" d="M402 -89q0 -167 -80 -257.5t-223 -90.5q-31 0 -57.5 5t-54.5 14l13 101q15 -5 42.5 -10t49.5 -5q90 0 140 61.5t50 181.5v1069l-163 13v89h283v-1171zM396 1396h-120v164h120v-164z" />
<glyph unicode="k" horiz-adv-x="1194" d="M62 1471v89h282v-930h127l329 351l-2 5l-99 7v89h381v-89l-126 -12l-370 -393l421 -489l120 -11v-88h-380v88l114 7l-376 432h-139v-426l163 -13v-88h-445v88l163 13v1357z" />
<glyph unicode="l" horiz-adv-x="610" d="M73 1471v89h282v-1459l163 -13v-88h-445v88l163 13v1357z" />
<glyph unicode="m" horiz-adv-x="1959" d="M71 993v89h269l11 -179q52 95 139 147t207 52q124 0 207 -60.5t119 -184.5q49 114 139.5 179.5t220.5 65.5q173 0 267.5 -115t94.5 -356v-529l163 -14v-88h-447v88l163 14v531q0 200 -70.5 282.5t-196.5 82.5q-140 0 -215.5 -89t-93.5 -227q0 -8 0.5 -15t0.5 -18v-548 l163 -13v-88h-446v88l163 13v532q0 196 -71.5 280.5t-196.5 84.5q-128 0 -202.5 -64.5t-104.5 -173.5v-659l163 -13v-88h-446v88l163 13v879z" />
<glyph unicode="n" horiz-adv-x="1319" d="M75 88l163 13v879l-163 13v89h269l11 -189q52 100 140.5 154.5t209.5 54.5q176 0 268 -107.5t92 -335.5v-558l163 -13v-88h-446v88l163 13v557q0 186 -69.5 263t-197.5 77q-126 0 -205.5 -66.5t-114.5 -176.5v-654l163 -13v-88h-446v88z" />
<glyph unicode="o" horiz-adv-x="1152" d="M97 557q0 239 131 392t347 153q217 0 348 -153t131 -392v-33q0 -240 -130.5 -392.5t-346.5 -152.5q-218 0 -349 152.5t-131 392.5v33zM217 524q0 -188 95 -316t265 -128q167 0 262 128t95 316v33q0 185 -95.5 314t-263.5 129t-263 -129t-95 -314v-33z" />
<glyph unicode="p" horiz-adv-x="1197" d="M65 993v89h263l15 -168q55 90 140.5 139t200.5 49q195 0 305 -155.5t110 -414.5v-21q0 -243 -110 -387.5t-303 -144.5q-114 0 -199.5 43.5t-139.5 123.5v-460l163 -13v-89h-445v89l163 13v1294zM979 532q0 206 -82 336t-240 130q-121 0 -196.5 -57.5t-113.5 -149.5v-520 q41 -89 118.5 -140t193.5 -51q157 0 238.5 118t81.5 313v21z" />
<glyph unicode="q" horiz-adv-x="1144" d="M97 532q0 259 109.5 414.5t305.5 155.5q112 0 194.5 -46.5t137.5 -133.5l12 160h105v-1396l163 -13v-89h-446v89l163 13v456q-55 -79 -138 -121t-193 -42q-194 0 -303.5 145t-109.5 387v21zM218 511q0 -196 78.5 -313.5t236.5 -117.5q112 0 188.5 50.5t119.5 138.5v528 q-42 89 -116.5 146t-189.5 57q-158 0 -237.5 -130.5t-79.5 -337.5v-21z" />
<glyph unicode="r" horiz-adv-x="823" d="M356 1082l15 -180v-13q46 100 125.5 156.5t188.5 56.5q23 0 44.5 -3.5t35.5 -7.5l-16 -112l-89 6q-113 0 -185.5 -63.5t-103.5 -174.5v-646l163 -13v-88h-445v88l163 13v879l-163 13v89h163h104z" />
<glyph unicode="s" horiz-adv-x="1025" d="M882 748h-98l-14 153q-45 47 -113.5 73t-157.5 26q-131 0 -196.5 -56.5t-65.5 -132.5q0 -75 56.5 -124t225.5 -86q193 -43 289 -117.5t96 -202.5q0 -135 -109.5 -218.5t-289.5 -83.5q-120 0 -218.5 33.5t-170.5 94.5v218h97l17 -154q48 -48 121.5 -69.5t153.5 -21.5 q130 0 205 57t75 138q0 76 -62.5 133t-225.5 93q-193 42 -286.5 111.5t-93.5 194.5q0 124 105 209.5t277 85.5q119 0 217.5 -36.5t160.5 -98.5z" />
<glyph unicode="t" horiz-adv-x="733" d="M372 1359v-277h238v-98h-238v-705q0 -106 38.5 -150.5t102.5 -44.5q29 0 56.5 2.5t63.5 8.5l18 -89q-30 -13 -73 -20t-86 -7q-114 0 -177.5 72t-63.5 228v705h-186v98h186v277h121z" />
<glyph unicode="u" horiz-adv-x="1232" d="M892 178q-51 -95 -139.5 -147t-208.5 -52q-171 0 -267.5 116t-96.5 360v525l-134 13v89h134h119v-629q0 -198 67.5 -284t191.5 -86q136 0 216.5 60t113.5 166v671l-154 13v89h154h120v-981l145 -13v-88h-250z" />
<glyph unicode="v" horiz-adv-x="1155" d="M411 993l-135 -10l270 -712l35 -127h6l38 127l266 712l-135 10v89h364v-89l-106 -9l-382 -984h-96l-383 984l-106 9v89h364v-89z" />
<glyph unicode="w" horiz-adv-x="1690" d="M419 993l-136 -11l175 -631l41 -193h6l51 193l231 731h102l231 -731l52 -198h6l45 198l170 631l-136 11v89h364v-89l-105 -8l-287 -985h-102l-241 740l-47 187h-6l-47 -187l-237 -740h-102l-286 985l-105 8v89h363v-89z" />
<glyph unicode="x" horiz-adv-x="1192" d="M73 88l121 11l342 452l-326 431l-122 11v89h367v-89l-112 -6l258 -347l259 348l-111 5v89h367v-89l-121 -11l-326 -431l341 -452l122 -11v-88h-366v88l111 5l-275 368l-274 -368l111 -5v-88h-366v88z" />
<glyph unicode="y" horiz-adv-x="1174" d="M1135 993l-110 -9l-437 -1157q-42 -110 -109 -187t-196 -77q-21 0 -51 4.5t-44 9.5l14 100q12 -2 38.5 -4.5t37.5 -2.5q79 0 125 55t81 143l56 145l-384 971l-110 9v89h372v-89l-129 -10l264 -690l38 -130h6l296 820l-132 10v89h374v-89z" />
<glyph unicode="z" horiz-adv-x="1080" d="M263 101h588l9 205h107v-306h-851v88l652 891h-534l-8 -204h-107v307h800v-89z" />
<glyph unicode="{" horiz-adv-x="697" d="M631 -404q-183 55 -260 173.5t-77 288.5v226q0 122 -56.5 190.5t-174.5 68.5v104q118 0 174.5 67.5t56.5 189.5v228q0 171 77 290.5t260 174.5l27 -79q-128 -41 -186.5 -141.5t-58.5 -244.5v-228q0 -110 -45.5 -191t-137.5 -118q92 -39 137.5 -120.5t45.5 -190.5v-226 q0 -143 59.5 -241.5t187.5 -140.5z" />
<glyph unicode="|" horiz-adv-x="426" d="M251 -270h-101v1726h101v-1726z" />
<glyph unicode="}" horiz-adv-x="696" d="M27 -324q127 42 186.5 141t59.5 241v226q0 112 47.5 193t146.5 117q-99 35 -146.5 116t-47.5 194v228q0 144 -58.5 244.5t-185.5 141.5l26 79q182 -55 260 -174.5t78 -290.5v-228q0 -122 56 -189.5t175 -67.5v-104q-119 0 -175 -68.5t-56 -190.5v-226 q0 -170 -77.5 -288.5t-260.5 -173.5z" />
<glyph unicode="~" horiz-adv-x="1376" d="M1234 740q0 -129 -81 -223t-201 -94q-88 0 -160.5 35.5t-160.5 114.5q-64 53 -119 80t-111 27q-79 0 -131.5 -60.5t-52.5 -160.5l-96 15q0 131 79 222t201 91q87 0 161 -37.5t162 -112.5q64 -57 117 -82.5t111 -25.5q76 0 130.5 64.5t54.5 161.5z" />
<glyph unicode="&#xa1;" horiz-adv-x="456" d="M272 -374h-119v978h119v-978zM284 898h-142v184h142v-184z" />
<glyph unicode="&#xa2;" horiz-adv-x="1088" d="M586 80q119 0 210 68t91 189h107l2 -6q4 -135 -99.5 -232.5t-250.5 -115.5v-228h-120v228q-193 21 -297.5 169t-104.5 368v42q0 219 104.5 366.5t297.5 169.5v220h120v-219q106 -12 193 -57t144 -115l5 -236h-102l-19 192q-48 54 -119.5 85.5t-162.5 31.5 q-174 0 -257.5 -124.5t-83.5 -313.5v-42q0 -192 83 -316t259 -124z" />
<glyph unicode="&#xa3;" horiz-adv-x="1164" d="M132 0v101h10q70 15 104.5 129.5t34.5 235.5l-7 176h-206v102h203l-11 296q0 204 106 320.5t284 116.5q186 0 280 -103.5t91 -277.5l-3 -6h-111q0 148 -69 216.5t-188 68.5q-125 0 -198 -88t-73 -247l11 -296h451v-102h-448l7 -176q0 -107 -25.5 -204t-71.5 -161h654 l10 205h106v-306h-941z" />
<glyph unicode="&#xa4;" horiz-adv-x="1461" d="M1116 133q-81 -74 -181.5 -113.5t-210.5 -39.5q-111 0 -211 39.5t-179 112.5l-155 -158l-85 86l159 161q-60 81 -92 179t-32 208q0 112 34.5 214t98.5 184l-168 171l85 87l166 -170q78 67 175 103.5t204 36.5q106 0 203.5 -37t176.5 -104l169 172l87 -88l-171 -175 q62 -82 96 -182.5t34 -211.5q0 -108 -32 -206.5t-90 -177.5l163 -164l-87 -87zM242 608q0 -215 141 -366t341 -151q198 0 339.5 151t141.5 366q0 213 -141.5 363.5t-339.5 150.5q-200 0 -341 -150.5t-141 -363.5z" />
<glyph unicode="&#xa5;" horiz-adv-x="1383" d="M1327 1367l-132 -10l-395 -652h371v-87h-420v-206h420v-86h-420v-225l163 -13v-88h-446v88l163 13v225h-415v86h415v206h-415v87h369l-395 652l-131 10v89h373v-89l-106 -9l367 -626l366 626l-106 9v89h374v-89z" />
<glyph unicode="&#xa6;" horiz-adv-x="461" d="M150 -270v771h119v-771h-119zM269 698h-119v758h119v-758z" />
<glyph unicode="&#xa7;" horiz-adv-x="1213" d="M1100 431q0 -98 -61 -168.5t-171 -103.5q94 -50 141 -120.5t47 -177.5q0 -166 -127 -261t-342 -95q-212 0 -357 102.5t-140 322.5l2 6l111 2q0 -173 113 -252t271 -79q163 0 256 70.5t93 181.5q0 106 -77.5 166t-292.5 121q-242 61 -359 149t-117 256q0 98 58.5 169 t164.5 105q-90 49 -134 119.5t-44 175.5q0 161 128 259t342 98q222 0 346.5 -111.5t120.5 -313.5l-2 -6h-112q0 141 -94 235t-259 94q-173 0 -262 -71t-89 -181q0 -114 74 -173t299 -122q247 -65 360 -148.5t113 -248.5zM577 729q-40 9 -75.5 19.5t-66.5 22.5 q-113 -14 -169.5 -73t-56.5 -145q0 -116 79 -175t323 -127q34 -10 65 -19t60 -18q115 13 180 71.5t65 142.5q0 107 -85.5 170t-318.5 131z" />
<glyph unicode="&#xa8;" horiz-adv-x="972" d="M795 1299h-173v157h173v-157zM326 1299h-174v157h174v-157z" />
<glyph unicode="&#xa9;" horiz-adv-x="1595" d="M1098 596l2 -6q4 -150 -78.5 -229t-230.5 -79q-151 0 -242 106.5t-91 280.5v119q0 172 91 279.5t242 107.5q148 0 231 -79t79 -228l-2 -6h-91q0 113 -55.5 168t-161.5 55q-110 0 -171.5 -83.5t-61.5 -212.5v-120q0 -132 61.5 -214.5t171.5 -82.5q107 0 161.5 54t54.5 170 h91zM177 729q0 -279 182.5 -471.5t442.5 -192.5q257 0 440 192.5t183 471.5q0 277 -182.5 468.5t-440.5 191.5q-260 0 -442.5 -191.5t-182.5 -468.5zM92 729q0 315 207 531t503 216q295 0 502 -216t207 -531q0 -316 -207.5 -533t-501.5 -217q-296 0 -503 217t-207 533z" />
<glyph unicode="&#xaa;" horiz-adv-x="875" d="M620 706q-9 25 -14.5 52.5t-7.5 55.5q-37 -53 -98.5 -87.5t-144.5 -34.5q-119 0 -184 61t-65 167q0 105 78.5 163t228.5 58h183v61q0 85 -41.5 131.5t-120.5 46.5q-92 0 -142 -37.5t-50 -108.5l-100 9l-2 6q-5 98 77.5 163t216.5 65q124 0 197.5 -71.5t73.5 -204.5v-314 q0 -50 6 -94t20 -87h-111zM374 787q70 0 136 38.5t86 85.5v146h-182q-95 0 -147.5 -38.5t-52.5 -94.5q0 -66 39 -101.5t121 -35.5z" />
<glyph unicode="&#xab;" horiz-adv-x="919" d="M83 132zM207 520l276 -388h-105l-295 379v19l295 379h105zM516 520l276 -388h-105l-295 379v19l295 379h105z" />
<glyph unicode="&#xac;" horiz-adv-x="1112" d="M932 386h-119v284h-692v106h811v-390z" />
<glyph unicode="&#xad;" horiz-adv-x="793" d="M154 570zM632 570h-478v101h478v-101z" />
<glyph unicode="&#xae;" horiz-adv-x="1595" d="M92 729q0 315 207 531t503 216q295 0 502 -216t207 -531q0 -316 -207.5 -533t-501.5 -217q-296 0 -503 217t-207 533zM177 729q0 -279 182.5 -471.5t442.5 -192.5q257 0 440 192.5t183 471.5q0 277 -182.5 468.5t-440.5 191.5q-260 0 -442.5 -191.5t-182.5 -468.5z M639 672v-356h-98v850h258q147 0 226 -63t79 -185q0 -68 -36.5 -117t-104.5 -80q68 -25 98 -78t30 -128v-56q0 -40 4 -73t13 -54v-16h-102q-9 21 -11 61.5t-2 82.5v54q0 84 -38.5 121t-127.5 37h-188zM639 763h181q79 0 133 40.5t54 112.5q0 85 -46.5 122t-161.5 37h-160 v-312z" />
<glyph unicode="&#xaf;" horiz-adv-x="1005" d="M824 1359h-670v97h670v-97z" />
<glyph unicode="&#xb0;" horiz-adv-x="747" d="M124 1227q0 102 72 176t173 74q98 0 169.5 -74t71.5 -176q0 -104 -71 -175.5t-170 -71.5q-102 0 -173.5 71.5t-71.5 175.5zM213 1227q0 -67 45 -111.5t111 -44.5q65 0 108.5 44t43.5 112t-43.5 113.5t-108.5 45.5q-66 0 -111 -46t-45 -113z" />
<glyph unicode="&#xb1;" horiz-adv-x="1082" d="M600 829h391v-101h-391v-439h-111v439h-414v101h414v438h111v-438zM1017 48h-835v102h835v-102z" />
<glyph unicode="&#xb2;" horiz-adv-x="816" d="M683 667h-570v90l315 282q77 70 104 115t27 92q0 65 -38.5 103.5t-117.5 38.5q-87 0 -134 -42t-47 -108h-100l-2 6q-6 97 72.5 166t210.5 69q124 0 195 -60.5t71 -173.5q0 -75 -47 -136t-150 -158l-215 -188l3 -6h423v-90z" />
<glyph unicode="&#xb3;" horiz-adv-x="837" d="M398 1119q88 0 130 35t42 99q0 59 -45 96.5t-133 37.5q-75 0 -124 -35.5t-49 -93.5h-100l-2 6q-6 94 75 154t200 60q133 0 210 -58.5t77 -166.5q0 -59 -35.5 -105.5t-99.5 -71.5q73 -22 111 -70.5t38 -119.5q0 -109 -83.5 -170t-217.5 -61q-120 0 -206.5 58.5 t-81.5 168.5l2 6h101q0 -63 51 -103t134 -40q90 0 141 38t51 103q0 75 -46.5 109.5t-139.5 34.5h-123v89h123z" />
<glyph unicode="&#xb4;" horiz-adv-x="574" d="M301 1478h147l3 -6l-249 -260h-107z" />
<glyph unicode="&#xb5;" horiz-adv-x="1297" d="M347 1082v-633q0 -207 71 -288t192 -81q137 0 212 59.5t103 170.5v670l-163 13v89h283v-981l163 -13v-88h-266l-11 155q-48 -85 -126 -130.5t-187 -45.5q-88 0 -157 30t-114 96v-521h-118v1396l-163 13v89h163h118z" />
<glyph unicode="&#xb6;" horiz-adv-x="1065" d="M513 88l163 13v419h-106q-234 0 -363 129.5t-129 338.5q0 207 129.5 337.5t362.5 130.5h225v-1355l163 -13v-88h-445v88zM958 1456v-89l-163 -13v102h163z" />
<glyph unicode="&#xb7;" horiz-adv-x="496" d="M313 624h-154v180h154v-180z" />
<glyph unicode="&#xb8;" horiz-adv-x="470" d="M250 0l-11 -64q79 -9 127.5 -48.5t48.5 -122.5q0 -91 -79 -145.5t-226 -54.5l-7 78q89 0 150.5 30.5t61.5 89.5q0 57 -41 79.5t-145 30.5l28 127h93z" />
<glyph unicode="&#xb9;" horiz-adv-x="506" d="M348 665h-109v703l-148 -7v93l257 23v-812z" />
<glyph unicode="&#xba;" horiz-adv-x="921" d="M121 1142q0 148 87.5 241.5t234.5 93.5q149 0 236.5 -93.5t87.5 -241.5v-117q0 -149 -87.5 -241.5t-234.5 -92.5q-149 0 -236.5 92.5t-87.5 241.5v117zM229 1025q0 -107 54.5 -173t161.5 -66q103 0 158.5 66.5t55.5 172.5v117q0 104 -56 171t-160 67t-159 -67t-55 -171 v-117z" />
<glyph unicode="&#xbb;" horiz-adv-x="916" d="M105 162zM210 944l295 -384v-19l-295 -379h-105l276 388l-276 394h105zM525 944l295 -384v-19l-295 -379h-105l276 388l-276 394h105z" />
<glyph unicode="&#xbc;" horiz-adv-x="1492" d="M165 0zM422 664h-109v703l-148 -7v93l257 23v-812zM380 129l-74 48l711 1138l74 -48zM1307 260h153v-90h-153v-170h-108v170h-431l-3 67l428 564h114v-541zM893 260h306v403l-6 1l-26 -44z" />
<glyph unicode="&#xbd;" horiz-adv-x="1462" d="M165 0zM392 129l-74 48l711 1138l74 -48zM422 664h-109v703l-148 -7v93l257 23v-812zM1477 0h-570v90l315 282q77 70 104 115t27 92q0 65 -38.5 103.5t-117.5 38.5q-87 0 -134 -42t-47 -108h-100l-2 6q-6 97 72.5 166t210.5 69q124 0 195 -60.5t71 -173.5q0 -75 -47 -136 t-150 -158l-215 -188l3 -6h423v-90z" />
<glyph unicode="&#xbe;" horiz-adv-x="1670" d="M124 0zM587 129l-74 48l711 1138l74 -48zM1516 260h153v-90h-153v-170h-108v170h-431l-3 67l428 564h114v-541zM1102 260h306v403l-6 1l-26 -44zM423 1120q88 0 130 35t42 99q0 59 -45 96.5t-133 37.5q-75 0 -124 -35.5t-49 -93.5h-100l-2 6q-6 94 75 154t200 60 q133 0 210 -58.5t77 -166.5q0 -59 -35.5 -105.5t-99.5 -71.5q73 -22 111 -70.5t38 -119.5q0 -109 -83.5 -170t-217.5 -61q-120 0 -206.5 58.5t-81.5 168.5l2 6h101q0 -63 51 -103t134 -40q90 0 141 38t51 103q0 75 -46.5 109.5t-139.5 34.5h-123v89h123z" />
<glyph unicode="&#xbf;" horiz-adv-x="862" d="M521 678q-2 -131 -23.5 -183t-113.5 -136q-109 -113 -158 -188.5t-49 -189.5q0 -128 67.5 -198t194.5 -70q117 0 189 68.5t74 185.5h112l2 -6q2 -165 -105 -260t-272 -95q-180 0 -280.5 101t-100.5 273q0 134 65.5 238t188.5 219q61 52 75 98.5t14 142.5h120zM385 1083 h139v-155h-139v155z" />
<glyph unicode="&#xc0;" horiz-adv-x="1485" d="M55 0zM55 88l107 8l517 1360h113l512 -1360l109 -8v-88h-359v88l127 10l-120 326h-654l-121 -326l127 -10v-88h-358v88zM447 531h575l-283 770h-6zM802 1565h-117l-241 261l2 5h154z" />
<glyph unicode="&#xc1;" horiz-adv-x="1485" d="M55 0zM55 88l107 8l517 1360h113l512 -1360l109 -8v-88h-359v88l127 10l-120 326h-654l-121 -326l127 -10v-88h-358v88zM447 531h575l-283 770h-6zM843 1816h147l3 -6l-249 -260h-107z" />
<glyph unicode="&#xc2;" horiz-adv-x="1485" d="M55 0zM55 88l107 8l517 1360h113l512 -1360l109 -8v-88h-359v88l127 10l-120 326h-654l-121 -326l127 -10v-88h-358v88zM447 531h575l-283 770h-6zM1013 1611v-18h-112l-167 168l-166 -168h-109v21l226 221h98z" />
<glyph unicode="&#xc3;" horiz-adv-x="1485" d="M55 0zM55 88l107 8l517 1360h113l512 -1360l109 -8v-88h-359v88l127 10l-120 326h-654l-121 -326l127 -10v-88h-358v88zM447 531h575l-283 770h-6zM1077 1820q0 -88 -55 -146t-137 -58q-74 0 -151 55t-131 55q-47 0 -79 -35t-32 -89l-79 18q0 86 53.5 144.5t136.5 58.5 q65 0 147.5 -55t134.5 -55q46 0 79 36t33 91z" />
<glyph unicode="&#xc4;" horiz-adv-x="1485" d="M55 0zM55 88l107 8l517 1360h113l512 -1360l109 -8v-88h-359v88l127 10l-120 326h-654l-121 -326l127 -10v-88h-358v88zM447 531h575l-283 770h-6zM1049 1639h-173v157h173v-157zM580 1639h-174v157h174v-157z" />
<glyph unicode="&#xc5;" horiz-adv-x="1485" d="M55 0zM55 88l107 8l517 1360h113l512 -1360l109 -8v-88h-359v88l127 10l-120 326h-654l-121 -326l127 -10v-88h-358v88zM447 531h575l-283 770h-6zM567 1740q0 69 49.5 117.5t119.5 48.5q68 0 117 -48.5t49 -117.5q0 -71 -48.5 -117t-117.5 -46q-71 0 -120 46t-49 117z M645 1740q0 -39 26.5 -65t64.5 -26q37 0 62 25.5t25 65.5t-25 66.5t-62 26.5q-38 0 -64.5 -26.5t-26.5 -66.5z" />
<glyph unicode="&#xc6;" horiz-adv-x="2058" d="M51 88l130 10l822 1358h864v-307h-107l-9 205h-578l23 -545h589v-102h-585l26 -606h587l9 205h106v-306h-980v88l158 12l-12 289h-597l-172 -293l106 -8v-88h-380v88zM564 502h526l-35 839l-6 1l-15 -44z" />
<glyph unicode="&#xc7;" horiz-adv-x="1349" d="M103 0zM1230 1000h-93l-17 221q-58 69 -151 111.5t-215 42.5q-244 0 -388 -177.5t-144 -458.5v-21q0 -281 142.5 -459.5t374.5 -178.5q123 0 223.5 43t157.5 111l17 221h93v-256q-68 -94 -198.5 -157t-292.5 -63q-280 0 -458 207.5t-178 531.5v19q0 325 177.5 532.5 t464.5 207.5q162 0 289.5 -63.5t195.5 -157.5v-256zM787 -3l-11 -64q79 -9 127.5 -48.5t48.5 -122.5q0 -91 -79 -145.5t-226 -54.5l-7 78q89 0 150.5 30.5t61.5 89.5q0 57 -41 79.5t-145 30.5l28 127h93z" />
<glyph unicode="&#xc8;" horiz-adv-x="1286" d="M71 0zM950 705h-597v-604h688l9 218h106v-319h-1085v88l163 13v1253l-163 13v89h163h917v-320h-106l-9 218h-683v-547h597v-102zM702 1567h-117l-241 261l2 5h154z" />
<glyph unicode="&#xc9;" horiz-adv-x="1286" d="M71 0zM950 705h-597v-604h688l9 218h106v-319h-1085v88l163 13v1253l-163 13v89h163h917v-320h-106l-9 218h-683v-547h597v-102zM743 1818h147l3 -6l-249 -260h-107z" />
<glyph unicode="&#xca;" horiz-adv-x="1286" d="M71 0zM950 705h-597v-604h688l9 218h106v-319h-1085v88l163 13v1253l-163 13v89h163h917v-320h-106l-9 218h-683v-547h597v-102zM913 1613v-18h-112l-167 168l-166 -168h-109v21l226 221h98z" />
<glyph unicode="&#xcb;" horiz-adv-x="1286" d="M71 0zM950 705h-597v-604h688l9 218h106v-319h-1085v88l163 13v1253l-163 13v89h163h917v-320h-106l-9 218h-683v-547h597v-102zM949 1641h-173v157h173v-157zM480 1641h-174v157h174v-157z" />
<glyph unicode="&#xcc;" horiz-adv-x="627" d="M32 0zM91 1367v89h446v-89l-163 -13v-1253l163 -13v-88h-446v88l163 13v1253zM390 1566h-117l-241 261l2 5h154z" />
<glyph unicode="&#xcd;" horiz-adv-x="627" d="M91 0zM91 1367v89h446v-89l-163 -13v-1253l163 -13v-88h-446v88l163 13v1253zM430 1817h147l3 -6l-249 -260h-107z" />
<glyph unicode="&#xce;" horiz-adv-x="627" d="M47 0zM91 1367v89h446v-89l-163 -13v-1253l163 -13v-88h-446v88l163 13v1253zM601 1612v-18h-112l-167 168l-166 -168h-109v21l226 221h98z" />
<glyph unicode="&#xcf;" horiz-adv-x="627" d="M0 0zM91 1367v89h446v-89l-163 -13v-1253l163 -13v-88h-446v88l163 13v1253zM637 1640h-173v157h173v-157zM168 1640h-174v157h174v-157z" />
<glyph unicode="&#xd0;" horiz-adv-x="1431" d="M687 1456q267 0 441 -178t174 -457v-187q0 -280 -174 -457t-441 -177h-586v88l163 13v588h-161v102h161v563l-163 13v89h586zM715 689h-332v-588h304q216 0 355.5 151t139.5 382v190q0 228 -140 379t-355 151h-304v-563h332v-102z" />
<glyph unicode="&#xd1;" horiz-adv-x="1536" d="M71 0zM1469 1456v-89l-163 -13v-1354h-119l-827 1252l-6 -1v-1150l163 -13v-88h-446v88l163 13v1253l-163 13v89h163h120l827 -1250l6 1v1147l-163 13v89h282h163zM1081 1822q0 -88 -55 -146t-137 -58q-74 0 -151 55t-131 55q-47 0 -79 -35t-32 -89l-79 18 q0 86 53.5 144.5t136.5 58.5q65 0 147.5 -55t134.5 -55q46 0 79 36t33 91z" />
<glyph unicode="&#xd2;" horiz-adv-x="1468" d="M106 0zM1357 718q0 -328 -175 -533.5t-455 -205.5q-276 0 -448.5 206t-172.5 533v19q0 327 172 533.5t448 206.5q280 0 455.5 -206.5t175.5 -533.5v-19zM1237 739q0 283 -138 458t-373 175q-231 0 -365.5 -175t-134.5 -458v-21q0 -285 135 -460t366 -175 q237 0 373.5 174.5t136.5 460.5v21zM797 1577h-117l-241 261l2 5h154z" />
<glyph unicode="&#xd3;" horiz-adv-x="1468" d="M106 0zM1357 718q0 -328 -175 -533.5t-455 -205.5q-276 0 -448.5 206t-172.5 533v19q0 327 172 533.5t448 206.5q280 0 455.5 -206.5t175.5 -533.5v-19zM1237 739q0 283 -138 458t-373 175q-231 0 -365.5 -175t-134.5 -458v-21q0 -285 135 -460t366 -175 q237 0 373.5 174.5t136.5 460.5v21zM838 1828h147l3 -6l-249 -260h-107z" />
<glyph unicode="&#xd4;" horiz-adv-x="1468" d="M106 0zM1357 718q0 -328 -175 -533.5t-455 -205.5q-276 0 -448.5 206t-172.5 533v19q0 327 172 533.5t448 206.5q280 0 455.5 -206.5t175.5 -533.5v-19zM1237 739q0 283 -138 458t-373 175q-231 0 -365.5 -175t-134.5 -458v-21q0 -285 135 -460t366 -175 q237 0 373.5 174.5t136.5 460.5v21zM1008 1623v-18h-112l-167 168l-166 -168h-109v21l226 221h98z" />
<glyph unicode="&#xd5;" horiz-adv-x="1468" d="M106 0zM1357 718q0 -328 -175 -533.5t-455 -205.5q-276 0 -448.5 206t-172.5 533v19q0 327 172 533.5t448 206.5q280 0 455.5 -206.5t175.5 -533.5v-19zM1237 739q0 283 -138 458t-373 175q-231 0 -365.5 -175t-134.5 -458v-21q0 -285 135 -460t366 -175 q237 0 373.5 174.5t136.5 460.5v21zM1072 1832q0 -88 -55 -146t-137 -58q-74 0 -151 55t-131 55q-47 0 -79 -35t-32 -89l-79 18q0 86 53.5 144.5t136.5 58.5q65 0 147.5 -55t134.5 -55q46 0 79 36t33 91z" />
<glyph unicode="&#xd6;" horiz-adv-x="1468" d="M106 0zM1357 718q0 -328 -175 -533.5t-455 -205.5q-276 0 -448.5 206t-172.5 533v19q0 327 172 533.5t448 206.5q280 0 455.5 -206.5t175.5 -533.5v-19zM1237 739q0 283 -138 458t-373 175q-231 0 -365.5 -175t-134.5 -458v-21q0 -285 135 -460t366 -175 q237 0 373.5 174.5t136.5 460.5v21zM1044 1651h-173v157h173v-157zM575 1651h-174v157h174v-157z" />
<glyph unicode="&#xd7;" horiz-adv-x="1056" d="M79 318l357 365l-343 350l79 80l343 -350l343 350l79 -80l-344 -350l359 -365l-79 -79l-358 364l-357 -364z" />
<glyph unicode="&#xd8;" horiz-adv-x="1408" d="M1351 718q0 -328 -175 -533.5t-455 -205.5q-98 0 -185 27.5t-158 80.5l-105 -171h-104l141 229q-101 99 -155.5 246.5t-54.5 326.5v19q0 327 172 533.5t448 206.5q96 0 183.5 -27t161.5 -78l82 133h104l-117 -191q103 -100 160 -249t57 -328v-19zM1231 739 q0 148 -40.5 270.5t-113.5 202.5l-6 1l-637 -1035q59 -47 131 -71t156 -24q237 0 373.5 174.5t136.5 460.5v21zM220 718q0 -148 38 -269.5t109 -200.5l6 -1l635 1033q-60 44 -132.5 68t-155.5 24q-231 0 -365.5 -175t-134.5 -458v-21z" />
<glyph unicode="&#xd9;" horiz-adv-x="1487" d="M60 0zM505 1456v-89l-163 -13v-885q0 -186 110 -287.5t287 -101.5q180 0 293 101t113 288v885l-163 13v89h445v-89l-163 -13v-885q0 -238 -145.5 -364t-379.5 -126q-230 0 -373 126.5t-143 363.5v885l-163 13v89h163h119h163zM807 1560h-117l-241 261l2 5h154z" />
<glyph unicode="&#xda;" horiz-adv-x="1487" d="M60 0zM505 1456v-89l-163 -13v-885q0 -186 110 -287.5t287 -101.5q180 0 293 101t113 288v885l-163 13v89h445v-89l-163 -13v-885q0 -238 -145.5 -364t-379.5 -126q-230 0 -373 126.5t-143 363.5v885l-163 13v89h163h119h163zM848 1811h147l3 -6l-249 -260h-107z" />
<glyph unicode="&#xdb;" horiz-adv-x="1487" d="M60 0zM505 1456v-89l-163 -13v-885q0 -186 110 -287.5t287 -101.5q180 0 293 101t113 288v885l-163 13v89h445v-89l-163 -13v-885q0 -238 -145.5 -364t-379.5 -126q-230 0 -373 126.5t-143 363.5v885l-163 13v89h163h119h163zM1018 1606v-18h-112l-167 168l-166 -168 h-109v21l226 221h98z" />
<glyph unicode="&#xdc;" horiz-adv-x="1487" d="M60 0zM505 1456v-89l-163 -13v-885q0 -186 110 -287.5t287 -101.5q180 0 293 101t113 288v885l-163 13v89h445v-89l-163 -13v-885q0 -238 -145.5 -364t-379.5 -126q-230 0 -373 126.5t-143 363.5v885l-163 13v89h163h119h163zM1054 1634h-173v157h173v-157zM585 1634 h-174v157h174v-157z" />
<glyph unicode="&#xdd;" horiz-adv-x="1423" d="M55 0zM455 1367l-140 -10l394 -710l396 710l-140 10v89h401v-89l-124 -10l-474 -825v-431l163 -13v-88h-446v88l163 13v438l-470 818l-123 10v89h400v-89zM822 1811h147l3 -6l-249 -260h-107z" />
<glyph unicode="&#xde;" horiz-adv-x="1257" d="M70 1367v89h282h163v-89l-163 -13v-202h324q221 0 345 -115t124 -299q0 -185 -123.5 -299.5t-345.5 -114.5h-324v-223l163 -13v-88h-445v88l163 13v1253zM352 1051v-626h324q173 0 261.5 92t88.5 219q0 130 -88 222.5t-262 92.5h-324z" />
<glyph unicode="&#xdf;" horiz-adv-x="1263" d="M337 0h-282v88l163 13v981q0 204 102 317t273 113q140 0 232 -79.5t92 -222.5q0 -109 -61.5 -215.5t-61.5 -184.5q0 -86 184 -228t184 -287q0 -153 -109.5 -234.5t-266.5 -81.5q-86 0 -176.5 23.5t-129.5 56.5l34 101q40 -31 114.5 -55.5t143.5 -24.5q125 0 197.5 60 t72.5 155q0 99 -184 240.5t-184 276.5q0 93 63 201.5t63 190.5q0 92 -59.5 149.5t-137.5 57.5q-121 0 -193.5 -85.5t-72.5 -243.5v-1082z" />
<glyph unicode="&#xe0;" d="M104 0zM844 0q-12 55 -17 95t-5 81q-60 -85 -160 -141t-225 -56q-159 0 -246 82t-87 222q0 150 129 238t350 88h239v143q0 116 -74.5 182t-208.5 66q-90 0 -164.5 -24.5t-124.5 -66.5l-10 -145h-99l1 208q75 58 179.5 94t222.5 36q179 0 288 -91t109 -261v-532 q0 -33 1.5 -63.5t6.5 -59.5l108 -7v-88h-213zM450 85q130 0 229 60t143 155v217h-241q-163 0 -260.5 -67.5t-97.5 -170.5q0 -87 60.5 -140.5t166.5 -53.5zM612 1244h-117l-241 261l2 5h154z" />
<glyph unicode="&#xe1;" d="M104 0zM844 0q-12 55 -17 95t-5 81q-60 -85 -160 -141t-225 -56q-159 0 -246 82t-87 222q0 150 129 238t350 88h239v143q0 116 -74.5 182t-208.5 66q-90 0 -164.5 -24.5t-124.5 -66.5l-10 -145h-99l1 208q75 58 179.5 94t222.5 36q179 0 288 -91t109 -261v-532 q0 -33 1.5 -63.5t6.5 -59.5l108 -7v-88h-213zM450 85q130 0 229 60t143 155v217h-241q-163 0 -260.5 -67.5t-97.5 -170.5q0 -87 60.5 -140.5t166.5 -53.5zM653 1495h147l3 -6l-249 -260h-107z" />
<glyph unicode="&#xe2;" d="M104 0zM844 0q-12 55 -17 95t-5 81q-60 -85 -160 -141t-225 -56q-159 0 -246 82t-87 222q0 150 129 238t350 88h239v143q0 116 -74.5 182t-208.5 66q-90 0 -164.5 -24.5t-124.5 -66.5l-10 -145h-99l1 208q75 58 179.5 94t222.5 36q179 0 288 -91t109 -261v-532 q0 -33 1.5 -63.5t6.5 -59.5l108 -7v-88h-213zM450 85q130 0 229 60t143 155v217h-241q-163 0 -260.5 -67.5t-97.5 -170.5q0 -87 60.5 -140.5t166.5 -53.5zM823 1290v-18h-112l-167 168l-166 -168h-109v21l226 221h98z" />
<glyph unicode="&#xe3;" d="M104 0zM844 0q-12 55 -17 95t-5 81q-60 -85 -160 -141t-225 -56q-159 0 -246 82t-87 222q0 150 129 238t350 88h239v143q0 116 -74.5 182t-208.5 66q-90 0 -164.5 -24.5t-124.5 -66.5l-10 -145h-99l1 208q75 58 179.5 94t222.5 36q179 0 288 -91t109 -261v-532 q0 -33 1.5 -63.5t6.5 -59.5l108 -7v-88h-213zM450 85q130 0 229 60t143 155v217h-241q-163 0 -260.5 -67.5t-97.5 -170.5q0 -87 60.5 -140.5t166.5 -53.5zM887 1499q0 -88 -55 -146t-137 -58q-74 0 -151 55t-131 55q-47 0 -79 -35t-32 -89l-79 18q0 86 53.5 144.5 t136.5 58.5q65 0 147.5 -55t134.5 -55q46 0 79 36t33 91z" />
<glyph unicode="&#xe4;" d="M104 0zM844 0q-12 55 -17 95t-5 81q-60 -85 -160 -141t-225 -56q-159 0 -246 82t-87 222q0 150 129 238t350 88h239v143q0 116 -74.5 182t-208.5 66q-90 0 -164.5 -24.5t-124.5 -66.5l-10 -145h-99l1 208q75 58 179.5 94t222.5 36q179 0 288 -91t109 -261v-532 q0 -33 1.5 -63.5t6.5 -59.5l108 -7v-88h-213zM450 85q130 0 229 60t143 155v217h-241q-163 0 -260.5 -67.5t-97.5 -170.5q0 -87 60.5 -140.5t166.5 -53.5zM859 1318h-173v157h173v-157zM390 1318h-174v157h174v-157z" />
<glyph unicode="&#xe5;" d="M104 0zM844 0q-12 55 -17 95t-5 81q-60 -85 -160 -141t-225 -56q-159 0 -246 82t-87 222q0 150 129 238t350 88h239v143q0 116 -74.5 182t-208.5 66q-90 0 -164.5 -24.5t-124.5 -66.5l-10 -145h-99l1 208q75 58 179.5 94t222.5 36q179 0 288 -91t109 -261v-532 q0 -33 1.5 -63.5t6.5 -59.5l108 -7v-88h-213zM450 85q130 0 229 60t143 155v217h-241q-163 0 -260.5 -67.5t-97.5 -170.5q0 -87 60.5 -140.5t166.5 -53.5zM377 1419q0 69 49.5 117.5t119.5 48.5q68 0 117 -48.5t49 -117.5q0 -71 -48.5 -117t-117.5 -46q-71 0 -120 46 t-49 117zM455 1419q0 -39 26.5 -65t64.5 -26q37 0 62 25.5t25 65.5t-25 66.5t-62 26.5q-38 0 -64.5 -26.5t-26.5 -66.5z" />
<glyph unicode="&#xe6;" horiz-adv-x="1786" d="M1285 -21q-138 0 -241 55.5t-163 157.5q-49 -87 -159.5 -150t-269.5 -63q-170 0 -262.5 84.5t-92.5 229.5q0 158 113 248.5t325 90.5h263v88q0 134 -63.5 207t-187.5 73q-135 0 -213 -67t-78 -168l-110 12l-2 6q-5 138 106 228.5t297 90.5q125 0 213 -54t129 -157 q61 99 156 155t210 56q200 0 311.5 -124t111.5 -340v-100h-755v-29q0 -191 90 -310t272 -119q103 0 181 32.5t142 86.5l48 -87q-60 -55 -148.5 -94t-222.5 -39zM469 79q102 0 197.5 53.5t131.5 115.5v288h-261q-155 0 -237.5 -71t-82.5 -176q0 -97 64.5 -153.5t187.5 -56.5z M1255 1000q-138 0 -224.5 -101.5t-99.5 -257.5l2 -5h625v31q0 146 -77 239.5t-226 93.5z" />
<glyph unicode="&#xe7;" horiz-adv-x="1094" d="M97 0zM559 80q119 0 210 68t91 189h106l2 -6q5 -150 -119.5 -251t-289.5 -101q-220 0 -341 151.5t-121 389.5v42q0 236 121 388t340 152q125 0 229 -47t169 -128l5 -236h-102l-19 192q-48 54 -119.5 85.5t-162.5 31.5q-174 0 -257.5 -124.5t-83.5 -313.5v-42 q0 -192 83 -316t259 -124zM590 -9l-11 -64q79 -9 127.5 -48.5t48.5 -122.5q0 -91 -79 -145.5t-226 -54.5l-7 78q89 0 150.5 30.5t61.5 89.5q0 57 -41 79.5t-145 30.5l28 127h93z" />
<glyph unicode="&#xe8;" horiz-adv-x="1102" d="M102 0zM574 -21q-204 0 -338 149.5t-134 380.5v55q0 232 133.5 385t322.5 153q199 0 313 -126t114 -336v-102h-764v-29q0 -182 97.5 -305.5t255.5 -123.5q111 0 190 31t135 89l51 -82q-61 -64 -154 -101.5t-222 -37.5zM558 1000q-132 0 -222.5 -101.5t-105.5 -254.5l2 -5 h634v30q0 141 -83 236t-225 95zM630 1244h-117l-241 261l2 5h154z" />
<glyph unicode="&#xe9;" horiz-adv-x="1102" d="M102 0zM574 -21q-204 0 -338 149.5t-134 380.5v55q0 232 133.5 385t322.5 153q199 0 313 -126t114 -336v-102h-764v-29q0 -182 97.5 -305.5t255.5 -123.5q111 0 190 31t135 89l51 -82q-61 -64 -154 -101.5t-222 -37.5zM558 1000q-132 0 -222.5 -101.5t-105.5 -254.5l2 -5 h634v30q0 141 -83 236t-225 95zM671 1495h147l3 -6l-249 -260h-107z" />
<glyph unicode="&#xea;" horiz-adv-x="1102" d="M102 0zM574 -21q-204 0 -338 149.5t-134 380.5v55q0 232 133.5 385t322.5 153q199 0 313 -126t114 -336v-102h-764v-29q0 -182 97.5 -305.5t255.5 -123.5q111 0 190 31t135 89l51 -82q-61 -64 -154 -101.5t-222 -37.5zM558 1000q-132 0 -222.5 -101.5t-105.5 -254.5l2 -5 h634v30q0 141 -83 236t-225 95zM841 1290v-18h-112l-167 168l-166 -168h-109v21l226 221h98z" />
<glyph unicode="&#xeb;" horiz-adv-x="1102" d="M102 0zM574 -21q-204 0 -338 149.5t-134 380.5v55q0 232 133.5 385t322.5 153q199 0 313 -126t114 -336v-102h-764v-29q0 -182 97.5 -305.5t255.5 -123.5q111 0 190 31t135 89l51 -82q-61 -64 -154 -101.5t-222 -37.5zM558 1000q-132 0 -222.5 -101.5t-105.5 -254.5l2 -5 h634v30q0 141 -83 236t-225 95zM877 1318h-173v157h173v-157zM408 1318h-174v157h174v-157z" />
<glyph unicode="&#xec;" horiz-adv-x="637" d="M24 0zM90 993v89h282v-981l163 -13v-88h-445v88l163 13v879zM382 1232h-117l-241 261l2 5h154z" />
<glyph unicode="&#xed;" horiz-adv-x="637" d="M90 0zM90 993v89h282v-981l163 -13v-88h-445v88l163 13v879zM422 1483h147l3 -6l-249 -260h-107z" />
<glyph unicode="&#xee;" horiz-adv-x="637" d="M39 0zM90 993v89h282v-981l163 -13v-88h-445v88l163 13v879zM593 1278v-18h-112l-167 168l-166 -168h-109v21l226 221h98z" />
<glyph unicode="&#xef;" horiz-adv-x="637" d="M0 0zM90 993v89h282v-981l163 -13v-88h-445v88l163 13v879zM629 1306h-173v157h173v-157zM160 1306h-174v157h174v-157z" />
<glyph unicode="&#xf0;" horiz-adv-x="1179" d="M807 1299q111 -121 168.5 -289.5t57.5 -386.5v-88q0 -245 -137 -400.5t-344 -155.5t-340.5 137t-133.5 339q0 235 130 372.5t347 137.5q104 0 193.5 -40t143.5 -107l4 5q-18 131 -68 234t-126 182l-308 -176l-51 74l288 164q-45 33 -94.5 61t-103.5 51l38 104 q77 -30 144 -68.5t124 -85.5l258 148l51 -74zM914 625q0 9 -0.5 27t-0.5 27q-37 77 -127.5 129.5t-230.5 52.5q-172 0 -264.5 -115t-92.5 -291q0 -149 97 -261t261 -112q159 0 258.5 127.5t99.5 325.5v90z" />
<glyph unicode="&#xf1;" horiz-adv-x="1319" d="M75 0zM75 88l163 13v879l-163 13v89h269l11 -189q52 100 140.5 154.5t209.5 54.5q176 0 268 -107.5t92 -335.5v-558l163 -13v-88h-446v88l163 13v557q0 186 -69.5 263t-197.5 77q-126 0 -205.5 -66.5t-114.5 -176.5v-654l163 -13v-88h-446v88zM995 1498q0 -88 -55 -146 t-137 -58q-74 0 -151 55t-131 55q-47 0 -79 -35t-32 -89l-79 18q0 86 53.5 144.5t136.5 58.5q65 0 147.5 -55t134.5 -55q46 0 79 36t33 91z" />
<glyph unicode="&#xf2;" horiz-adv-x="1152" d="M97 0zM97 557q0 239 131 392t347 153q217 0 348 -153t131 -392v-33q0 -240 -130.5 -392.5t-346.5 -152.5q-218 0 -349 152.5t-131 392.5v33zM217 524q0 -188 95 -316t265 -128q167 0 262 128t95 316v33q0 185 -95.5 314t-263.5 129t-263 -129t-95 -314v-33zM646 1243 h-117l-241 261l2 5h154z" />
<glyph unicode="&#xf3;" horiz-adv-x="1152" d="M97 0zM97 557q0 239 131 392t347 153q217 0 348 -153t131 -392v-33q0 -240 -130.5 -392.5t-346.5 -152.5q-218 0 -349 152.5t-131 392.5v33zM217 524q0 -188 95 -316t265 -128q167 0 262 128t95 316v33q0 185 -95.5 314t-263.5 129t-263 -129t-95 -314v-33zM687 1494h147 l3 -6l-249 -260h-107z" />
<glyph unicode="&#xf4;" horiz-adv-x="1152" d="M97 0zM97 557q0 239 131 392t347 153q217 0 348 -153t131 -392v-33q0 -240 -130.5 -392.5t-346.5 -152.5q-218 0 -349 152.5t-131 392.5v33zM217 524q0 -188 95 -316t265 -128q167 0 262 128t95 316v33q0 185 -95.5 314t-263.5 129t-263 -129t-95 -314v-33zM857 1289v-18 h-112l-167 168l-166 -168h-109v21l226 221h98z" />
<glyph unicode="&#xf5;" horiz-adv-x="1152" d="M97 0zM97 557q0 239 131 392t347 153q217 0 348 -153t131 -392v-33q0 -240 -130.5 -392.5t-346.5 -152.5q-218 0 -349 152.5t-131 392.5v33zM217 524q0 -188 95 -316t265 -128q167 0 262 128t95 316v33q0 185 -95.5 314t-263.5 129t-263 -129t-95 -314v-33zM921 1498 q0 -88 -55 -146t-137 -58q-74 0 -151 55t-131 55q-47 0 -79 -35t-32 -89l-79 18q0 86 53.5 144.5t136.5 58.5q65 0 147.5 -55t134.5 -55q46 0 79 36t33 91z" />
<glyph unicode="&#xf6;" horiz-adv-x="1152" d="M97 0zM97 557q0 239 131 392t347 153q217 0 348 -153t131 -392v-33q0 -240 -130.5 -392.5t-346.5 -152.5q-218 0 -349 152.5t-131 392.5v33zM217 524q0 -188 95 -316t265 -128q167 0 262 128t95 316v33q0 185 -95.5 314t-263.5 129t-263 -129t-95 -314v-33zM893 1317 h-173v157h173v-157zM424 1317h-174v157h174v-157z" />
<glyph unicode="&#xf7;" horiz-adv-x="1148" d="M1072 644h-998v116h998v-116zM650 1010h-142v160h142v-160zM650 212h-142v160h142v-160z" />
<glyph unicode="&#xf8;" horiz-adv-x="1152" d="M97 557q0 239 131 392t347 153q62 0 119 -14.5t108 -40.5l86 167h93l-110 -214q87 -73 135 -188t48 -255v-33q0 -240 -130.5 -392.5t-346.5 -152.5q-58 0 -110 11t-98 34l-84 -164h-93l106 207q-96 71 -148.5 190t-52.5 267v33zM217 524q0 -110 33.5 -202.5t96.5 -147.5 h6l399 776q-38 24 -82.5 37t-94.5 13q-168 0 -263 -129t-95 -314v-33zM934 557q0 100 -30 187.5t-85 144.5h-5l-397 -771q34 -19 74 -28.5t86 -9.5q167 0 262 128t95 316v33z" />
<glyph unicode="&#xf9;" horiz-adv-x="1232" d="M46 0zM892 178q-51 -95 -139.5 -147t-208.5 -52q-171 0 -267.5 116t-96.5 360v525l-134 13v89h134h119v-629q0 -198 67.5 -284t191.5 -86q136 0 216.5 60t113.5 166v671l-154 13v89h154h120v-981l145 -13v-88h-250zM627 1232h-117l-241 261l2 5h154z" />
<glyph unicode="&#xfa;" horiz-adv-x="1232" d="M46 0zM892 178q-51 -95 -139.5 -147t-208.5 -52q-171 0 -267.5 116t-96.5 360v525l-134 13v89h134h119v-629q0 -198 67.5 -284t191.5 -86q136 0 216.5 60t113.5 166v671l-154 13v89h154h120v-981l145 -13v-88h-250zM668 1483h147l3 -6l-249 -260h-107z" />
<glyph unicode="&#xfb;" horiz-adv-x="1232" d="M46 0zM892 178q-51 -95 -139.5 -147t-208.5 -52q-171 0 -267.5 116t-96.5 360v525l-134 13v89h134h119v-629q0 -198 67.5 -284t191.5 -86q136 0 216.5 60t113.5 166v671l-154 13v89h154h120v-981l145 -13v-88h-250zM838 1278v-18h-112l-167 168l-166 -168h-109v21 l226 221h98z" />
<glyph unicode="&#xfc;" horiz-adv-x="1232" d="M46 0zM892 178q-51 -95 -139.5 -147t-208.5 -52q-171 0 -267.5 116t-96.5 360v525l-134 13v89h134h119v-629q0 -198 67.5 -284t191.5 -86q136 0 216.5 60t113.5 166v671l-154 13v89h154h120v-981l145 -13v-88h-250zM874 1306h-173v157h173v-157zM405 1306h-174v157h174 v-157z" />
<glyph unicode="&#xfd;" horiz-adv-x="1174" d="M46 0zM1135 993l-110 -9l-437 -1157q-42 -110 -109 -187t-196 -77q-21 0 -51 4.5t-44 9.5l14 100q12 -2 38.5 -4.5t37.5 -2.5q79 0 125 55t81 143l56 145l-384 971l-110 9v89h372v-89l-129 -10l264 -690l38 -130h6l296 820l-132 10v89h374v-89zM704 1483h147l3 -6 l-249 -260h-107z" />
<glyph unicode="&#xfe;" horiz-adv-x="1191" d="M47 -327l163 13v1772l-163 13v89h282v-640q54 87 138.5 134.5t198.5 47.5q195 0 305 -155.5t110 -414.5v-21q0 -243 -110 -387.5t-303 -144.5q-114 0 -199.5 43.5t-139.5 123.5v-460l163 -13v-89h-445v89zM961 532q0 206 -82 336t-240 130q-121 0 -196.5 -57.5 t-113.5 -149.5v-520q41 -89 118.5 -140t193.5 -51q157 0 238.5 118t81.5 313v21z" />
<glyph unicode="&#xff;" horiz-adv-x="1174" d="M46 0zM1135 993l-110 -9l-437 -1157q-42 -110 -109 -187t-196 -77q-21 0 -51 4.5t-44 9.5l14 100q12 -2 38.5 -4.5t37.5 -2.5q79 0 125 55t81 143l56 145l-384 971l-110 9v89h372v-89l-129 -10l264 -690l38 -130h6l296 820l-132 10v89h374v-89zM910 1306h-173v157h173 v-157zM441 1306h-174v157h174v-157z" />
<glyph unicode="&#x100;" horiz-adv-x="1485" d="M55 0zM55 88l107 8l517 1360h113l512 -1360l109 -8v-88h-359v88l127 10l-120 326h-654l-121 -326l127 -10v-88h-358v88zM447 531h575l-283 770h-6zM1074 1692h-670v97h670v-97z" />
<glyph unicode="&#x101;" d="M104 0zM844 0q-12 55 -17 95t-5 81q-60 -85 -160 -141t-225 -56q-159 0 -246 82t-87 222q0 150 129 238t350 88h239v143q0 116 -74.5 182t-208.5 66q-90 0 -164.5 -24.5t-124.5 -66.5l-10 -145h-99l1 208q75 58 179.5 94t222.5 36q179 0 288 -91t109 -261v-532 q0 -33 1.5 -63.5t6.5 -59.5l108 -7v-88h-213zM450 85q130 0 229 60t143 155v217h-241q-163 0 -260.5 -67.5t-97.5 -170.5q0 -87 60.5 -140.5t166.5 -53.5zM884 1371h-670v97h670v-97z" />
<glyph unicode="&#x102;" horiz-adv-x="1485" d="M55 0zM55 88l107 8l517 1360h113l512 -1360l109 -8v-88h-359v88l127 10l-120 326h-654l-121 -326l127 -10v-88h-358v88zM447 531h575l-283 770h-6zM1010 1833l2 -6q4 -111 -73 -181.5t-209 -70.5q-134 0 -211 70t-72 182l2 6h94q0 -77 45 -124t142 -47q94 0 140 48 t46 123h94z" />
<glyph unicode="&#x103;" d="M104 0zM844 0q-12 55 -17 95t-5 81q-60 -85 -160 -141t-225 -56q-159 0 -246 82t-87 222q0 150 129 238t350 88h239v143q0 116 -74.5 182t-208.5 66q-90 0 -164.5 -24.5t-124.5 -66.5l-10 -145h-99l1 208q75 58 179.5 94t222.5 36q179 0 288 -91t109 -261v-532 q0 -33 1.5 -63.5t6.5 -59.5l108 -7v-88h-213zM450 85q130 0 229 60t143 155v217h-241q-163 0 -260.5 -67.5t-97.5 -170.5q0 -87 60.5 -140.5t166.5 -53.5zM820 1512l2 -6q4 -111 -73 -181.5t-209 -70.5q-134 0 -211 70t-72 182l2 6h94q0 -77 45 -124t142 -47q94 0 140 48 t46 123h94z" />
<glyph unicode="&#x104;" horiz-adv-x="1485" d="M55 0zM55 88l107 8l517 1360h113l512 -1360l109 -8v-88h-359v88l127 10l-120 326h-654l-121 -326l127 -10v-88h-358v88zM447 531h575l-283 770h-6zM1413 0q-72 -60 -110 -108t-38 -104q0 -31 19 -58t70 -27q32 0 56.5 9t48.5 23l24 -83q-29 -19 -65.5 -31.5t-86.5 -12.5 q-76 0 -124.5 44.5t-48.5 124.5q0 70 51 138.5t143 121.5z" />
<glyph unicode="&#x105;" d="M104 0zM844 0q-12 55 -17 95t-5 81q-60 -85 -160 -141t-225 -56q-159 0 -246 82t-87 222q0 150 129 238t350 88h239v143q0 116 -74.5 182t-208.5 66q-90 0 -164.5 -24.5t-124.5 -66.5l-10 -145h-99l1 208q75 58 179.5 94t222.5 36q179 0 288 -91t109 -261v-532 q0 -33 1.5 -63.5t6.5 -59.5l108 -7v-88h-213zM450 85q130 0 229 60t143 155v217h-241q-163 0 -260.5 -67.5t-97.5 -170.5q0 -87 60.5 -140.5t166.5 -53.5zM1057 0q-72 -60 -110 -108t-38 -104q0 -31 19 -58t70 -27q32 0 56.5 9t48.5 23l24 -83q-29 -19 -65.5 -31.5 t-86.5 -12.5q-76 0 -124.5 44.5t-48.5 124.5q0 70 51 138.5t143 121.5z" />
<glyph unicode="&#x106;" horiz-adv-x="1349" d="M103 0zM1230 1000h-93l-17 221q-58 69 -151 111.5t-215 42.5q-244 0 -388 -177.5t-144 -458.5v-21q0 -281 142.5 -459.5t374.5 -178.5q123 0 223.5 43t157.5 111l17 221h93v-256q-68 -94 -198.5 -157t-292.5 -63q-280 0 -458 207.5t-178 531.5v19q0 325 177.5 532.5 t464.5 207.5q162 0 289.5 -63.5t195.5 -157.5v-256zM847 1839h147l3 -6l-249 -260h-107z" />
<glyph unicode="&#x107;" horiz-adv-x="1094" d="M97 0zM559 80q119 0 210 68t91 189h106l2 -6q5 -150 -119.5 -251t-289.5 -101q-220 0 -341 151.5t-121 389.5v42q0 236 121 388t340 152q125 0 229 -47t169 -128l5 -236h-102l-19 192q-48 54 -119.5 85.5t-162.5 31.5q-174 0 -257.5 -124.5t-83.5 -313.5v-42 q0 -192 83 -316t259 -124zM668 1494h147l3 -6l-249 -260h-107z" />
<glyph unicode="&#x108;" horiz-adv-x="1349" d="M103 0zM1230 1000h-93l-17 221q-58 69 -151 111.5t-215 42.5q-244 0 -388 -177.5t-144 -458.5v-21q0 -281 142.5 -459.5t374.5 -178.5q123 0 223.5 43t157.5 111l17 221h93v-256q-68 -94 -198.5 -157t-292.5 -63q-280 0 -458 207.5t-178 531.5v19q0 325 177.5 532.5 t464.5 207.5q162 0 289.5 -63.5t195.5 -157.5v-256zM1017 1634v-18h-112l-167 168l-166 -168h-109v21l226 221h98z" />
<glyph unicode="&#x109;" horiz-adv-x="1094" d="M97 0zM559 80q119 0 210 68t91 189h106l2 -6q5 -150 -119.5 -251t-289.5 -101q-220 0 -341 151.5t-121 389.5v42q0 236 121 388t340 152q125 0 229 -47t169 -128l5 -236h-102l-19 192q-48 54 -119.5 85.5t-162.5 31.5q-174 0 -257.5 -124.5t-83.5 -313.5v-42 q0 -192 83 -316t259 -124zM838 1289v-18h-112l-167 168l-166 -168h-109v21l226 221h98z" />
<glyph unicode="&#x10a;" horiz-adv-x="1349" d="M103 0zM1230 1000h-93l-17 221q-58 69 -151 111.5t-215 42.5q-244 0 -388 -177.5t-144 -458.5v-21q0 -281 142.5 -459.5t374.5 -178.5q123 0 223.5 43t157.5 111l17 221h93v-256q-68 -94 -198.5 -157t-292.5 -63q-280 0 -458 207.5t-178 531.5v19q0 325 177.5 532.5 t464.5 207.5q162 0 289.5 -63.5t195.5 -157.5v-256zM810 1643h-151v168h151v-168z" />
<glyph unicode="&#x10b;" horiz-adv-x="1094" d="M97 0zM559 80q119 0 210 68t91 189h106l2 -6q5 -150 -119.5 -251t-289.5 -101q-220 0 -341 151.5t-121 389.5v42q0 236 121 388t340 152q125 0 229 -47t169 -128l5 -236h-102l-19 192q-48 54 -119.5 85.5t-162.5 31.5q-174 0 -257.5 -124.5t-83.5 -313.5v-42 q0 -192 83 -316t259 -124zM631 1298h-151v168h151v-168z" />
<glyph unicode="&#x10c;" horiz-adv-x="1349" d="M103 0zM1230 1000h-93l-17 221q-58 69 -151 111.5t-215 42.5q-244 0 -388 -177.5t-144 -458.5v-21q0 -281 142.5 -459.5t374.5 -178.5q123 0 223.5 43t157.5 111l17 221h93v-256q-68 -94 -198.5 -157t-292.5 -63q-280 0 -458 207.5t-178 531.5v19q0 325 177.5 532.5 t464.5 207.5q162 0 289.5 -63.5t195.5 -157.5v-256zM736 1673l167 169h115v-17l-233 -225h-98l-231 225v17h114z" />
<glyph unicode="&#x10d;" horiz-adv-x="1094" d="M97 0zM559 80q119 0 210 68t91 189h106l2 -6q5 -150 -119.5 -251t-289.5 -101q-220 0 -341 151.5t-121 389.5v42q0 236 121 388t340 152q125 0 229 -47t169 -128l5 -236h-102l-19 192q-48 54 -119.5 85.5t-162.5 31.5q-174 0 -257.5 -124.5t-83.5 -313.5v-42 q0 -192 83 -316t259 -124zM557 1328l167 169h115v-17l-233 -225h-98l-231 225v17h114z" />
<glyph unicode="&#x10e;" horiz-adv-x="1401" d="M71 0zM657 1456q267 0 441 -178t174 -457v-187q0 -280 -174 -457t-441 -177h-586v88l163 13v1253l-163 13v89h163h423zM353 1354v-1253h304q216 0 355.5 151t139.5 382v190q0 228 -140 379t-355 151h-304zM613 1652l167 169h115v-17l-233 -225h-98l-231 225v17h114z" />
<glyph unicode="&#x10f;" horiz-adv-x="1366" d="M97 0zM849 156q-54 -85 -139 -131t-200 -46q-194 0 -303.5 145t-109.5 387v21q0 259 109.5 414.5t305.5 155.5q113 0 196 -47.5t138 -135.5v539l-163 13v89h163h120v-1459l163 -13v-88h-270zM218 511q0 -196 78.5 -312t236.5 -116q115 0 192.5 52t120.5 143v512 q-40 92 -115.5 150t-195.5 58q-158 0 -237.5 -129.5t-79.5 -336.5v-21zM1260 1453q0 -87 -33 -169t-92 -138l-71 51q41 61 60.5 121t19.5 132v109h116v-106z" />
<glyph unicode="&#x110;" horiz-adv-x="1431" d="M687 1456q267 0 441 -178t174 -457v-187q0 -280 -174 -457t-441 -177h-586v88l163 13v588h-161v102h161v563l-163 13v89h586zM715 689h-332v-588h304q216 0 355.5 151t139.5 382v190q0 228 -140 379t-355 151h-304v-563h332v-102z" />
<glyph unicode="&#x111;" horiz-adv-x="1246" d="M849 156q-54 -85 -139 -131t-200 -46q-194 0 -303.5 145t-109.5 387v21q0 259 109.5 414.5t305.5 155.5q113 0 196 -47.5t138 -135.5v290h-283v102h283v147l-163 13v89h283v-249h209v-102h-209v-1108l163 -13v-88h-270zM218 511q0 -196 78.5 -312t236.5 -116 q115 0 192.5 52t120.5 143v512q-40 92 -115.5 150t-195.5 58q-158 0 -237.5 -129.5t-79.5 -336.5v-21z" />
<glyph unicode="&#x112;" horiz-adv-x="1286" d="M71 0zM950 705h-597v-604h688l9 218h106v-319h-1085v88l163 13v1253l-163 13v89h163h917v-320h-106l-9 218h-683v-547h597v-102zM974 1694h-670v97h670v-97z" />
<glyph unicode="&#x113;" horiz-adv-x="1102" d="M102 0zM574 -21q-204 0 -338 149.5t-134 380.5v55q0 232 133.5 385t322.5 153q199 0 313 -126t114 -336v-102h-764v-29q0 -182 97.5 -305.5t255.5 -123.5q111 0 190 31t135 89l51 -82q-61 -64 -154 -101.5t-222 -37.5zM558 1000q-132 0 -222.5 -101.5t-105.5 -254.5l2 -5 h634v30q0 141 -83 236t-225 95zM902 1371h-670v97h670v-97z" />
<glyph unicode="&#x114;" horiz-adv-x="1286" d="M71 0zM950 705h-597v-604h688l9 218h106v-319h-1085v88l163 13v1253l-163 13v89h163h917v-320h-106l-9 218h-683v-547h597v-102zM910 1835l2 -6q4 -111 -73 -181.5t-209 -70.5q-134 0 -211 70t-72 182l2 6h94q0 -77 45 -124t142 -47q94 0 140 48t46 123h94z" />
<glyph unicode="&#x115;" horiz-adv-x="1102" d="M102 0zM574 -21q-204 0 -338 149.5t-134 380.5v55q0 232 133.5 385t322.5 153q199 0 313 -126t114 -336v-102h-764v-29q0 -182 97.5 -305.5t255.5 -123.5q111 0 190 31t135 89l51 -82q-61 -64 -154 -101.5t-222 -37.5zM558 1000q-132 0 -222.5 -101.5t-105.5 -254.5l2 -5 h634v30q0 141 -83 236t-225 95zM838 1512l2 -6q4 -111 -73 -181.5t-209 -70.5q-134 0 -211 70t-72 182l2 6h94q0 -77 45 -124t142 -47q94 0 140 48t46 123h94z" />
<glyph unicode="&#x116;" horiz-adv-x="1286" d="M71 0zM950 705h-597v-604h688l9 218h106v-319h-1085v88l163 13v1253l-163 13v89h163h917v-320h-106l-9 218h-683v-547h597v-102zM706 1622h-151v168h151v-168z" />
<glyph unicode="&#x117;" horiz-adv-x="1102" d="M102 0zM574 -21q-204 0 -338 149.5t-134 380.5v55q0 232 133.5 385t322.5 153q199 0 313 -126t114 -336v-102h-764v-29q0 -182 97.5 -305.5t255.5 -123.5q111 0 190 31t135 89l51 -82q-61 -64 -154 -101.5t-222 -37.5zM558 1000q-132 0 -222.5 -101.5t-105.5 -254.5l2 -5 h634v30q0 141 -83 236t-225 95zM634 1299h-151v168h151v-168z" />
<glyph unicode="&#x118;" horiz-adv-x="1286" d="M71 0zM950 705h-597v-604h688l9 218h106v-319h-1085v88l163 13v1253l-163 13v89h163h917v-320h-106l-9 218h-683v-547h597v-102zM689 4q-72 -60 -110 -108t-38 -104q0 -31 19 -58t70 -27q32 0 56.5 9t48.5 23l24 -83q-29 -19 -65.5 -31.5t-86.5 -12.5q-76 0 -124.5 44.5 t-48.5 124.5q0 70 51 138.5t143 121.5z" />
<glyph unicode="&#x119;" horiz-adv-x="1102" d="M102 0zM574 -21q-204 0 -338 149.5t-134 380.5v55q0 232 133.5 385t322.5 153q199 0 313 -126t114 -336v-102h-764v-29q0 -182 97.5 -305.5t255.5 -123.5q111 0 190 31t135 89l51 -82q-61 -64 -154 -101.5t-222 -37.5zM558 1000q-132 0 -222.5 -101.5t-105.5 -254.5l2 -5 h634v30q0 141 -83 236t-225 95zM841 58q-72 -60 -110 -108t-38 -104q0 -31 19 -58t70 -27q32 0 56.5 9t48.5 23l24 -83q-29 -19 -65.5 -31.5t-86.5 -12.5q-76 0 -124.5 44.5t-48.5 124.5q0 70 51 138.5t143 121.5z" />
<glyph unicode="&#x11a;" horiz-adv-x="1286" d="M71 0zM950 705h-597v-604h688l9 218h106v-319h-1085v88l163 13v1253l-163 13v89h163h917v-320h-106l-9 218h-683v-547h597v-102zM632 1652l167 169h115v-17l-233 -225h-98l-231 225v17h114z" />
<glyph unicode="&#x11b;" horiz-adv-x="1102" d="M102 0zM574 -21q-204 0 -338 149.5t-134 380.5v55q0 232 133.5 385t322.5 153q199 0 313 -126t114 -336v-102h-764v-29q0 -182 97.5 -305.5t255.5 -123.5q111 0 190 31t135 89l51 -82q-61 -64 -154 -101.5t-222 -37.5zM558 1000q-132 0 -222.5 -101.5t-105.5 -254.5l2 -5 h634v30q0 141 -83 236t-225 95zM560 1329l167 169h115v-17l-233 -225h-98l-231 225v17h114z" />
<glyph unicode="&#x11c;" horiz-adv-x="1420" d="M95 0zM1239 160q-52 -64 -181 -122.5t-323 -58.5q-284 0 -462 205t-178 534v31q0 324 178 526t467 202q164 0 290 -54.5t205 -149.5v-253h-93l-21 213q-59 65 -153 103.5t-219 38.5q-248 0 -391 -174t-143 -450v-33q0 -284 140.5 -461t379.5 -177q142 0 243 37t142 79 v353l-280 5v97h399v-491zM977 1623v-18h-112l-167 168l-166 -168h-109v21l226 221h98z" />
<glyph unicode="&#x11d;" horiz-adv-x="1148" d="M102 0zM102 532q0 259 110.5 414.5t306.5 155.5q115 0 199.5 -50.5t139.5 -142.5l14 173h101v-1068q0 -209 -113 -330t-315 -121q-78 0 -166.5 19t-154.5 52l32 101q65 -31 136.5 -48t150.5 -17q154 0 232 91t78 253v137q-55 -83 -139 -127.5t-197 -44.5q-195 0 -305 145 t-110 387v21zM222 511q0 -195 79.5 -311.5t237.5 -116.5q117 0 194.5 53t119.5 146v502q-40 95 -115 154.5t-197 59.5q-158 0 -238.5 -130t-80.5 -336v-21zM857 1289v-18h-112l-167 168l-166 -168h-109v21l226 221h98z" />
<glyph unicode="&#x11e;" horiz-adv-x="1420" d="M95 0zM1239 160q-52 -64 -181 -122.5t-323 -58.5q-284 0 -462 205t-178 534v31q0 324 178 526t467 202q164 0 290 -54.5t205 -149.5v-253h-93l-21 213q-59 65 -153 103.5t-219 38.5q-248 0 -391 -174t-143 -450v-33q0 -284 140.5 -461t379.5 -177q142 0 243 37t142 79 v353l-280 5v97h399v-491zM974 1845l2 -6q4 -111 -73 -181.5t-209 -70.5q-134 0 -211 70t-72 182l2 6h94q0 -77 45 -124t142 -47q94 0 140 48t46 123h94z" />
<glyph unicode="&#x11f;" horiz-adv-x="1148" d="M102 0zM102 532q0 259 110.5 414.5t306.5 155.5q115 0 199.5 -50.5t139.5 -142.5l14 173h101v-1068q0 -209 -113 -330t-315 -121q-78 0 -166.5 19t-154.5 52l32 101q65 -31 136.5 -48t150.5 -17q154 0 232 91t78 253v137q-55 -83 -139 -127.5t-197 -44.5q-195 0 -305 145 t-110 387v21zM222 511q0 -195 79.5 -311.5t237.5 -116.5q117 0 194.5 53t119.5 146v502q-40 95 -115 154.5t-197 59.5q-158 0 -238.5 -130t-80.5 -336v-21zM854 1511l2 -6q4 -111 -73 -181.5t-209 -70.5q-134 0 -211 70t-72 182l2 6h94q0 -77 45 -124t142 -47q94 0 140 48 t46 123h94z" />
<glyph unicode="&#x120;" horiz-adv-x="1420" d="M95 0zM1239 160q-52 -64 -181 -122.5t-323 -58.5q-284 0 -462 205t-178 534v31q0 324 178 526t467 202q164 0 290 -54.5t205 -149.5v-253h-93l-21 213q-59 65 -153 103.5t-219 38.5q-248 0 -391 -174t-143 -450v-33q0 -284 140.5 -461t379.5 -177q142 0 243 37t142 79 v353l-280 5v97h399v-491zM770 1632h-151v168h151v-168z" />
<glyph unicode="&#x121;" horiz-adv-x="1148" d="M102 0zM102 532q0 259 110.5 414.5t306.5 155.5q115 0 199.5 -50.5t139.5 -142.5l14 173h101v-1068q0 -209 -113 -330t-315 -121q-78 0 -166.5 19t-154.5 52l32 101q65 -31 136.5 -48t150.5 -17q154 0 232 91t78 253v137q-55 -83 -139 -127.5t-197 -44.5q-195 0 -305 145 t-110 387v21zM222 511q0 -195 79.5 -311.5t237.5 -116.5q117 0 194.5 53t119.5 146v502q-40 95 -115 154.5t-197 59.5q-158 0 -238.5 -130t-80.5 -336v-21zM650 1298h-151v168h151v-168z" />
<glyph unicode="&#x122;" horiz-adv-x="1420" d="M95 0zM1239 160q-52 -64 -181 -122.5t-323 -58.5q-284 0 -462 205t-178 534v31q0 324 178 526t467 202q164 0 290 -54.5t205 -149.5v-253h-93l-21 213q-59 65 -153 103.5t-219 38.5q-248 0 -391 -174t-143 -450v-33q0 -284 140.5 -461t379.5 -177q142 0 243 37t142 79 v353l-280 5v97h399v-491zM746 -245q0 -87 -33 -169t-92 -138l-71 51q41 61 60.5 121t19.5 132v109h116v-106z" />
<glyph unicode="&#x123;" horiz-adv-x="1148" d="M102 0zM102 532q0 259 110.5 414.5t306.5 155.5q115 0 199.5 -50.5t139.5 -142.5l14 173h101v-1068q0 -209 -113 -330t-315 -121q-78 0 -166.5 19t-154.5 52l32 101q65 -31 136.5 -48t150.5 -17q154 0 232 91t78 253v137q-55 -83 -139 -127.5t-197 -44.5q-195 0 -305 145 t-110 387v21zM222 511q0 -195 79.5 -311.5t237.5 -116.5q117 0 194.5 53t119.5 146v502q-40 95 -115 154.5t-197 59.5q-158 0 -238.5 -130t-80.5 -336v-21zM516 1399l88 216h71l-39 -218v-135h-120v137z" />
<glyph unicode="&#x124;" horiz-adv-x="1537" d="M71 0zM71 1367v89h445v-89l-163 -13v-582h828v582l-163 13v89h163h119h163v-89l-163 -13v-1253l163 -13v-88h-445v88l163 13v569h-828v-569l163 -13v-88h-445v88l163 13v1253zM1023 1612v-18h-112l-167 168l-166 -168h-109v21l226 221h98z" />
<glyph unicode="&#x125;" horiz-adv-x="1298" d="M62 0zM62 1471v89h282v-663q54 97 144 151t210 54q171 0 262.5 -106t91.5 -329v-566l163 -13v-88h-446v88l163 13v568q0 176 -69.5 252.5t-191.5 76.5q-123 0 -205.5 -64.5t-121.5 -171.5v-661l163 -13v-88h-445v88l163 13v1357zM749 1612v-18h-112l-167 168l-166 -168 h-109v21l226 221h98z" />
<glyph unicode="&#x126;" horiz-adv-x="1486" d="M1437 1456v-89l-163 -13v-264h134v-97h-134v-892l163 -13v-88h-445v88l163 13v569h-828v-569l163 -13v-88h-445v88l163 13v892h-159v97h159v264l-163 13v89h445v-89l-163 -13v-264h828v264l-163 13v89h163h119h163zM327 772h828v221h-828v-221z" />
<glyph unicode="&#x127;" horiz-adv-x="1328" d="M81 1209v102h174v147l-163 13v89h282v-249h319v-102h-319v-312q54 97 144 151t210 54q171 0 262.5 -106t91.5 -329v-566l163 -13v-88h-446v88l163 13v568q0 176 -69.5 252.5t-191.5 76.5q-123 0 -205.5 -64.5t-121.5 -171.5v-661l163 -13v-88h-445v88l163 13v1108h-174z " />
<glyph unicode="&#x128;" horiz-adv-x="627" d="M1 0zM91 1367v89h446v-89l-163 -13v-1253l163 -13v-88h-446v88l163 13v1253zM665 1821q0 -88 -55 -146t-137 -58q-74 0 -151 55t-131 55q-47 0 -79 -35t-32 -89l-79 18q0 86 53.5 144.5t136.5 58.5q65 0 147.5 -55t134.5 -55q46 0 79 36t33 91z" />
<glyph unicode="&#x129;" horiz-adv-x="637" d="M0 0zM90 993v89h282v-981l163 -13v-88h-445v88l163 13v879zM657 1487q0 -88 -55 -146t-137 -58q-74 0 -151 55t-131 55q-47 0 -79 -35t-32 -89l-79 18q0 86 53.5 144.5t136.5 58.5q65 0 147.5 -55t134.5 -55q46 0 79 36t33 91z" />
<glyph unicode="&#x12a;" horiz-adv-x="627" d="M0 0zM91 1367v89h446v-89l-163 -13v-1253l163 -13v-88h-446v88l163 13v1253zM662 1693h-670v97h670v-97z" />
<glyph unicode="&#x12b;" horiz-adv-x="637" d="M0 0zM90 993v89h282v-981l163 -13v-88h-445v88l163 13v879zM654 1359h-670v97h670v-97z" />
<glyph unicode="&#x12c;" horiz-adv-x="627" d="M30 0zM91 1367v89h446v-89l-163 -13v-1253l163 -13v-88h-446v88l163 13v1253zM598 1834l2 -6q4 -111 -73 -181.5t-209 -70.5q-134 0 -211 70t-72 182l2 6h94q0 -77 45 -124t142 -47q94 0 140 48t46 123h94z" />
<glyph unicode="&#x12d;" horiz-adv-x="637" d="M22 0zM90 993v89h282v-981l163 -13v-88h-445v88l163 13v879zM590 1500l2 -6q4 -111 -73 -181.5t-209 -70.5q-134 0 -211 70t-72 182l2 6h94q0 -77 45 -124t142 -47q94 0 140 48t46 123h94z" />
<glyph unicode="&#x12e;" horiz-adv-x="627" d="M91 0zM91 1367v89h446v-89l-163 -13v-1253l163 -13v-88h-446v88l163 13v1253zM537 0q-72 -60 -110 -108t-38 -104q0 -31 19 -58t70 -27q32 0 56.5 9t48.5 23l24 -83q-29 -19 -65.5 -31.5t-86.5 -12.5q-76 0 -124.5 44.5t-48.5 124.5q0 70 51 138.5t143 121.5z" />
<glyph unicode="&#x12f;" horiz-adv-x="638" d="M89 0zM89 88l163 13v879l-163 13v89h282v-981l163 -13v-88h-445v88zM371 1392h-119v168h119v-168zM534 0q-72 -60 -110 -108t-38 -104q0 -31 19 -58t70 -27q32 0 56.5 9t48.5 23l24 -83q-29 -19 -65.5 -31.5t-86.5 -12.5q-76 0 -124.5 44.5t-48.5 124.5q0 70 51 138.5 t143 121.5z" />
<glyph unicode="&#x130;" horiz-adv-x="627" d="M91 0zM91 1367v89h446v-89l-163 -13v-1253l163 -13v-88h-446v88l163 13v1253zM393 1621h-151v168h151v-168z" />
<glyph unicode="&#x131;" horiz-adv-x="637" d="M90 993v89h282v-981l163 -13v-88h-445v88l163 13v879z" />
<glyph unicode="&#x132;" horiz-adv-x="1785" d="M91 0zM91 1367v89h446v-89l-163 -13v-1253l163 -13v-88h-446v88l163 13v1253zM1707 1456v-89l-163 -13v-941q0 -199 -118.5 -316.5t-306.5 -117.5q-205 0 -324 106t-114 310l2 6h112q0 -158 84 -239.5t240 -81.5q133 0 219 90.5t86 242.5v941l-163 13v89h283h163z" />
<glyph unicode="&#x133;" horiz-adv-x="1200" d="M89 0zM89 88l163 13v879l-163 13v89h282v-981l163 -13v-88h-445v88zM371 1392h-119v168h119v-168zM1040 -89q0 -167 -80 -257.5t-223 -90.5q-31 0 -57.5 5t-54.5 14l13 101q15 -5 42.5 -10t49.5 -5q90 0 140 61.5t50 181.5v1069l-163 13v89h283v-1171zM1034 1396h-120 v164h120v-164z" />
<glyph unicode="&#x134;" horiz-adv-x="1158" d="M49 0zM1080 1456v-89l-163 -13v-941q0 -199 -118.5 -316.5t-306.5 -117.5q-205 0 -324 106t-114 310l2 6h112q0 -158 84 -239.5t240 -81.5q133 0 219 90.5t86 242.5v941l-163 13v89h283h163zM1150 1591v-18h-112l-167 168l-166 -168h-109v21l226 221h98z" />
<glyph unicode="&#x135;" horiz-adv-x="570" d="M0 0zM411 -89q0 -167 -80 -257.5t-223 -90.5q-31 0 -57.5 5t-54.5 14l13 99q15 -6 46 -11t53 -5q87 0 135 65t48 181v1069l-163 13v89h283v-1171zM630 1268v-18h-112l-167 168l-166 -168h-109v21l226 221h98z" />
<glyph unicode="&#x136;" horiz-adv-x="1417" d="M71 0zM71 88l163 13v1253l-163 13v89h445v-89l-163 -13v-568h199l490 573l-140 8v89h407v-89l-128 -12l-521 -615l562 -640l131 -12v-88h-415v88l138 8l-523 589h-200v-584l163 -13v-88h-445v88zM705 -240q0 -87 -33 -169t-92 -138l-71 51q41 61 60.5 121t19.5 132v109 h116v-106z" />
<glyph unicode="&#x137;" horiz-adv-x="1194" d="M62 0zM62 1471v89h282v-930h127l329 351l-2 5l-99 7v89h381v-89l-126 -12l-370 -393l421 -489l120 -11v-88h-380v88l114 7l-376 432h-139v-426l163 -13v-88h-445v88l163 13v1357zM616 -231q0 -87 -33 -169t-92 -138l-71 51q41 61 60.5 121t19.5 132v109h116v-106z" />
<glyph unicode="&#x138;" horiz-adv-x="1202" d="M62 88l163 13v878l-159 14v88h278v-451h127l340 351l-2 5l-97 7v89h382v-89l-127 -12l-382 -394l420 -488l120 -11v-88h-183l-459 527h-139v-426l163 -13v-88h-445v88z" />
<glyph unicode="&#x139;" horiz-adv-x="1178" d="M71 0zM71 0v88l163 13v1253l-163 13v89h163h120h163v-89l-163 -13v-1253h605l9 205h106v-306h-1003zM403 1782h147l3 -6l-249 -260h-107z" />
<glyph unicode="&#x13a;" horiz-adv-x="610" d="M73 0zM73 1471v89h282v-1459l163 -13v-88h-445v88l163 13v1357zM400 1879h147l3 -6l-249 -260h-107z" />
<glyph unicode="&#x13b;" horiz-adv-x="1178" d="M71 0zM71 0v88l163 13v1253l-163 13v89h163h120h163v-89l-163 -13v-1253h605l9 205h106v-306h-1003zM695 -231q0 -87 -33 -169t-92 -138l-71 51q41 61 60.5 121t19.5 132v109h116v-106z" />
<glyph unicode="&#x13c;" horiz-adv-x="610" d="M73 0zM73 1471v89h282v-1459l163 -13v-88h-445v88l163 13v1357zM349 -236q0 -87 -33 -169t-92 -138l-71 51q41 61 60.5 121t19.5 132v109h116v-106z" />
<glyph unicode="&#x13d;" horiz-adv-x="1178" d="M71 0zM71 0v88l163 13v1253l-163 13v89h163h120h163v-89l-163 -13v-1253h605l9 205h106v-306h-1003zM743 1350q0 -87 -33 -169t-92 -138l-71 51q41 61 60.5 121t19.5 132v109h116v-106z" />
<glyph unicode="&#x13e;" horiz-adv-x="760" d="M73 0zM73 1471v89h282v-1459l163 -13v-88h-445v88l163 13v1357zM618 1453q0 -87 -33 -169t-92 -138l-71 51q41 61 60.5 121t19.5 132v109h116v-106z" />
<glyph unicode="&#x13f;" horiz-adv-x="1178" d="M71 0zM71 0v88l163 13v1253l-163 13v89h163h120h163v-89l-163 -13v-1253h605l9 205h106v-306h-1003zM764 687h-151v168h151v-168z" />
<glyph unicode="&#x140;" horiz-adv-x="830" d="M73 0zM73 1471v89h282v-1459l163 -13v-88h-445v88l163 13v1357zM610 700h-151v168h151v-168z" />
<glyph unicode="&#x141;" horiz-adv-x="1179" d="M517 1456v-89l-163 -13v-542l306 97v-108l-306 -97v-603h605l9 205h106v-306h-1003v88l163 13v565l-163 -52v108l163 52v580l-163 13v89h283h163z" />
<glyph unicode="&#x142;" horiz-adv-x="579" d="M344 856l187 74v-109l-187 -74v-646l163 -13v-88h-445v88l163 13v599l-168 -66v109l168 66v649l-163 13v89h282v-704z" />
<glyph unicode="&#x143;" horiz-adv-x="1536" d="M71 0zM1469 1456v-89l-163 -13v-1354h-119l-827 1252l-6 -1v-1150l163 -13v-88h-446v88l163 13v1253l-163 13v89h163h120l827 -1250l6 1v1147l-163 13v89h282h163zM847 1818h147l3 -6l-249 -260h-107z" />
<glyph unicode="&#x144;" horiz-adv-x="1319" d="M75 0zM75 88l163 13v879l-163 13v89h269l11 -189q52 100 140.5 154.5t209.5 54.5q176 0 268 -107.5t92 -335.5v-558l163 -13v-88h-446v88l163 13v557q0 186 -69.5 263t-197.5 77q-126 0 -205.5 -66.5t-114.5 -176.5v-654l163 -13v-88h-446v88zM761 1494h147l3 -6 l-249 -260h-107z" />
<glyph unicode="&#x145;" horiz-adv-x="1536" d="M71 0zM1469 1456v-89l-163 -13v-1354h-119l-827 1252l-6 -1v-1150l163 -13v-88h-446v88l163 13v1253l-163 13v89h163h120l827 -1250l6 1v1147l-163 13v89h282h163zM795 -231q0 -87 -33 -169t-92 -138l-71 51q41 61 60.5 121t19.5 132v109h116v-106z" />
<glyph unicode="&#x146;" horiz-adv-x="1319" d="M75 0zM75 88l163 13v879l-163 13v89h269l11 -189q52 100 140.5 154.5t209.5 54.5q176 0 268 -107.5t92 -335.5v-558l163 -13v-88h-446v88l163 13v557q0 186 -69.5 263t-197.5 77q-126 0 -205.5 -66.5t-114.5 -176.5v-654l163 -13v-88h-446v88zM700 -234q0 -87 -33 -169 t-92 -138l-71 51q41 61 60.5 121t19.5 132v109h116v-106z" />
<glyph unicode="&#x147;" horiz-adv-x="1536" d="M71 0zM1469 1456v-89l-163 -13v-1354h-119l-827 1252l-6 -1v-1150l163 -13v-88h-446v88l163 13v1253l-163 13v89h163h120l827 -1250l6 1v1147l-163 13v89h282h163zM736 1652l167 169h115v-17l-233 -225h-98l-231 225v17h114z" />
<glyph unicode="&#x148;" horiz-adv-x="1319" d="M75 0zM75 88l163 13v879l-163 13v89h269l11 -189q52 100 140.5 154.5t209.5 54.5q176 0 268 -107.5t92 -335.5v-558l163 -13v-88h-446v88l163 13v557q0 186 -69.5 263t-197.5 77q-126 0 -205.5 -66.5t-114.5 -176.5v-654l163 -13v-88h-446v88zM650 1328l167 169h115v-17 l-233 -225h-98l-231 225v17h114z" />
<glyph unicode="&#x149;" horiz-adv-x="1319" d="M0 0zM75 88l163 13v879l-163 13v89h269l11 -189q52 100 140.5 154.5t209.5 54.5q176 0 268 -107.5t92 -335.5v-558l163 -13v-88h-446v88l163 13v557q0 186 -69.5 263t-197.5 77q-126 0 -205.5 -66.5t-114.5 -176.5v-654l163 -13v-88h-446v88zM178 1451q0 -87 -33 -169 t-92 -138l-71 51q41 61 60.5 121t19.5 132v109h116v-106z" />
<glyph unicode="&#x14a;" horiz-adv-x="1547" d="M70 1367v89h282l828 -1245l6 1v1142l-163 13v89h163h120h163v-89l-163 -13v-1443q0 -167 -80.5 -257.5t-223.5 -90.5q-31 0 -57 5t-55 14l13 99q15 -5 46 -10.5t53 -5.5q87 0 135.5 64.5t48.5 181.5v89l-828 1246l-6 -1v-1144l163 -13v-88h-445v88l163 13v1253z" />
<glyph unicode="&#x14b;" horiz-adv-x="1242" d="M90 993v89h269l10 -185q53 97 140.5 151t206.5 54q176 0 268 -107t92 -336v-748q0 -167 -80.5 -257.5t-223.5 -90.5q-34 0 -62.5 5t-60.5 14l13 103q16 -5 50.5 -10t59.5 -5q88 0 136 62.5t48 178.5v747q0 186 -69.5 263t-197.5 77q-125 0 -203 -60.5t-114 -163.5v-673 l163 -13v-88h-445v88l163 13v879z" />
<glyph unicode="&#x14c;" horiz-adv-x="1468" d="M106 0zM1357 718q0 -328 -175 -533.5t-455 -205.5q-276 0 -448.5 206t-172.5 533v19q0 327 172 533.5t448 206.5q280 0 455.5 -206.5t175.5 -533.5v-19zM1237 739q0 283 -138 458t-373 175q-231 0 -365.5 -175t-134.5 -458v-21q0 -285 135 -460t366 -175 q237 0 373.5 174.5t136.5 460.5v21zM1069 1704h-670v97h670v-97z" />
<glyph unicode="&#x14d;" horiz-adv-x="1152" d="M97 0zM97 557q0 239 131 392t347 153q217 0 348 -153t131 -392v-33q0 -240 -130.5 -392.5t-346.5 -152.5q-218 0 -349 152.5t-131 392.5v33zM217 524q0 -188 95 -316t265 -128q167 0 262 128t95 316v33q0 185 -95.5 314t-263.5 129t-263 -129t-95 -314v-33zM918 1370 h-670v97h670v-97z" />
<glyph unicode="&#x14e;" horiz-adv-x="1468" d="M106 0zM1357 718q0 -328 -175 -533.5t-455 -205.5q-276 0 -448.5 206t-172.5 533v19q0 327 172 533.5t448 206.5q280 0 455.5 -206.5t175.5 -533.5v-19zM1237 739q0 283 -138 458t-373 175q-231 0 -365.5 -175t-134.5 -458v-21q0 -285 135 -460t366 -175 q237 0 373.5 174.5t136.5 460.5v21zM1005 1845l2 -6q4 -111 -73 -181.5t-209 -70.5q-134 0 -211 70t-72 182l2 6h94q0 -77 45 -124t142 -47q94 0 140 48t46 123h94z" />
<glyph unicode="&#x14f;" horiz-adv-x="1152" d="M97 0zM97 557q0 239 131 392t347 153q217 0 348 -153t131 -392v-33q0 -240 -130.5 -392.5t-346.5 -152.5q-218 0 -349 152.5t-131 392.5v33zM217 524q0 -188 95 -316t265 -128q167 0 262 128t95 316v33q0 185 -95.5 314t-263.5 129t-263 -129t-95 -314v-33zM854 1511 l2 -6q4 -111 -73 -181.5t-209 -70.5q-134 0 -211 70t-72 182l2 6h94q0 -77 45 -124t142 -47q94 0 140 48t46 123h94z" />
<glyph unicode="&#x150;" horiz-adv-x="1468" d="M106 0zM1357 718q0 -328 -175 -533.5t-455 -205.5q-276 0 -448.5 206t-172.5 533v19q0 327 172 533.5t448 206.5q280 0 455.5 -206.5t175.5 -533.5v-19zM1237 739q0 283 -138 458t-373 175q-231 0 -365.5 -175t-134.5 -458v-21q0 -285 135 -460t366 -175 q237 0 373.5 174.5t136.5 460.5v21zM1009 1877h144l2 -6l-295 -260h-114l-2 6zM713 1877h133l3 -6l-244 -260h-102l-3 5z" />
<glyph unicode="&#x151;" horiz-adv-x="1152" d="M97 0zM97 557q0 239 131 392t347 153q217 0 348 -153t131 -392v-33q0 -240 -130.5 -392.5t-346.5 -152.5q-218 0 -349 152.5t-131 392.5v33zM217 524q0 -188 95 -316t265 -128q167 0 262 128t95 316v33q0 185 -95.5 314t-263.5 129t-263 -129t-95 -314v-33zM858 1543h144 l2 -6l-295 -260h-114l-2 6zM562 1543h133l3 -6l-244 -260h-102l-3 5z" />
<glyph unicode="&#x152;" horiz-adv-x="1971" d="M963 0q-99 -10 -168.5 -15.5t-142.5 -5.5q-240 0 -389 166t-149 431v304q0 265 148.5 431t387.5 166q75 0 151.5 -6t161.5 -15h889v-320h-106l-9 218h-683v-547h597v-102h-597v-604h688l9 218h106v-319h-894zM652 81q29 0 59.5 0.5t60.5 2.5v4l163 13v1253l-163 13v5 q-30 1 -61 2t-61 1q-192 0 -304 -132t-112 -361v-306q0 -228 113.5 -361.5t304.5 -133.5z" />
<glyph unicode="&#x153;" horiz-adv-x="1916" d="M104 557q0 239 130.5 392t346.5 153q146 0 255.5 -72.5t168.5 -199.5q59 125 166 198.5t234 73.5q199 0 313 -126t114 -336v-102h-764v-29q0 -183 97 -306t255 -123q112 0 191 31t135 89l51 -82q-61 -64 -154.5 -101.5t-222.5 -37.5q-138 0 -248 72t-169 197 q-58 -126 -167 -197.5t-253 -71.5q-217 0 -348 152.5t-131 392.5v33zM223 524q0 -188 95 -316t265 -128q167 0 262.5 128t95.5 316v33q0 185 -96 314t-264 129t-263 -129t-95 -314v-33zM1405 1000q-132 0 -222.5 -101.5t-105.5 -254.5l2 -5h634v30q0 141 -83 236t-225 95z " />
<glyph unicode="&#x154;" horiz-adv-x="1374" d="M71 0zM676 1455q234 0 359.5 -102t125.5 -295q0 -114 -67 -205t-189 -132q135 -34 194.5 -121.5t59.5 -220.5v-133q0 -77 24 -114t73 -40l49 -3v-89h-76q-106 0 -148 72t-42 176v129q0 132 -84.5 209.5t-235.5 80.5h-366v-566l163 -14v-87h-445v87l163 14v1252l-163 14 v88h605zM353 769h309q197 0 288 79t91 211q0 140 -91 217t-274 77h-323v-584zM733 1818h147l3 -6l-249 -260h-107z" />
<glyph unicode="&#x155;" horiz-adv-x="823" d="M89 0zM356 1082l15 -180v-13q46 100 125.5 156.5t188.5 56.5q23 0 44.5 -3.5t35.5 -7.5l-16 -112l-89 6q-113 0 -185.5 -63.5t-103.5 -174.5v-646l163 -13v-88h-445v88l163 13v879l-163 13v89h163h104zM545 1496h147l3 -6l-249 -260h-107z" />
<glyph unicode="&#x156;" horiz-adv-x="1374" d="M71 0zM676 1455q234 0 359.5 -102t125.5 -295q0 -114 -67 -205t-189 -132q135 -34 194.5 -121.5t59.5 -220.5v-133q0 -77 24 -114t73 -40l49 -3v-89h-76q-106 0 -148 72t-42 176v129q0 132 -84.5 209.5t-235.5 80.5h-366v-566l163 -14v-87h-445v87l163 14v1252l-163 14 v88h605zM353 769h309q197 0 288 79t91 211q0 140 -91 217t-274 77h-323v-584zM725 -231q0 -87 -33 -169t-92 -138l-71 51q41 61 60.5 121t19.5 132v109h116v-106z" />
<glyph unicode="&#x157;" horiz-adv-x="823" d="M89 0zM356 1082l15 -180v-13q46 100 125.5 156.5t188.5 56.5q23 0 44.5 -3.5t35.5 -7.5l-16 -112l-89 6q-113 0 -185.5 -63.5t-103.5 -174.5v-646l163 -13v-88h-445v88l163 13v879l-163 13v89h163h104zM347 -227q0 -87 -33 -169t-92 -138l-71 51q41 61 60.5 121t19.5 132 v109h116v-106z" />
<glyph unicode="&#x158;" horiz-adv-x="1374" d="M71 0zM676 1455q234 0 359.5 -102t125.5 -295q0 -114 -67 -205t-189 -132q135 -34 194.5 -121.5t59.5 -220.5v-133q0 -77 24 -114t73 -40l49 -3v-89h-76q-106 0 -148 72t-42 176v129q0 132 -84.5 209.5t-235.5 80.5h-366v-566l163 -14v-87h-445v87l163 14v1252l-163 14 v88h605zM353 769h309q197 0 288 79t91 211q0 140 -91 217t-274 77h-323v-584zM622 1652l167 169h115v-17l-233 -225h-98l-231 225v17h114z" />
<glyph unicode="&#x159;" horiz-adv-x="823" d="M89 0zM356 1082l15 -180v-13q46 100 125.5 156.5t188.5 56.5q23 0 44.5 -3.5t35.5 -7.5l-16 -112l-89 6q-113 0 -185.5 -63.5t-103.5 -174.5v-646l163 -13v-88h-445v88l163 13v879l-163 13v89h163h104zM434 1330l167 169h115v-17l-233 -225h-98l-231 225v17h114z" />
<glyph unicode="&#x15a;" horiz-adv-x="1220" d="M109 0zM1099 1024h-98l-17 206q-54 68 -147 106.5t-218 38.5q-180 0 -280.5 -78t-100.5 -194q0 -110 90.5 -183.5t313.5 -129.5q235 -60 357.5 -162t122.5 -269q0 -174 -142 -277t-363 -103q-156 0 -289.5 55t-218.5 157v255h98l17 -213q66 -75 169 -114t224 -39 q172 0 278.5 76t106.5 201q0 119 -89 194.5t-310 133.5q-239 60 -362 156t-123 259q0 167 140 272t361 105q159 0 283.5 -55t196.5 -149v-249zM733 1828h147l3 -6l-249 -260h-107z" />
<glyph unicode="&#x15b;" horiz-adv-x="1025" d="M116 0zM882 748h-98l-14 153q-45 47 -113.5 73t-157.5 26q-131 0 -196.5 -56.5t-65.5 -132.5q0 -75 56.5 -124t225.5 -86q193 -43 289 -117.5t96 -202.5q0 -135 -109.5 -218.5t-289.5 -83.5q-120 0 -218.5 33.5t-170.5 94.5v218h97l17 -154q48 -48 121.5 -69.5 t153.5 -21.5q130 0 205 57t75 138q0 76 -62.5 133t-225.5 93q-193 42 -286.5 111.5t-93.5 194.5q0 124 105 209.5t277 85.5q119 0 217.5 -36.5t160.5 -98.5zM630 1496h147l3 -6l-249 -260h-107z" />
<glyph unicode="&#x15c;" horiz-adv-x="1220" d="M109 0zM1099 1024h-98l-17 206q-54 68 -147 106.5t-218 38.5q-180 0 -280.5 -78t-100.5 -194q0 -110 90.5 -183.5t313.5 -129.5q235 -60 357.5 -162t122.5 -269q0 -174 -142 -277t-363 -103q-156 0 -289.5 55t-218.5 157v255h98l17 -213q66 -75 169 -114t224 -39 q172 0 278.5 76t106.5 201q0 119 -89 194.5t-310 133.5q-239 60 -362 156t-123 259q0 167 140 272t361 105q159 0 283.5 -55t196.5 -149v-249zM903 1623v-18h-112l-167 168l-166 -168h-109v21l226 221h98z" />
<glyph unicode="&#x15d;" horiz-adv-x="1025" d="M116 0zM882 748h-98l-14 153q-45 47 -113.5 73t-157.5 26q-131 0 -196.5 -56.5t-65.5 -132.5q0 -75 56.5 -124t225.5 -86q193 -43 289 -117.5t96 -202.5q0 -135 -109.5 -218.5t-289.5 -83.5q-120 0 -218.5 33.5t-170.5 94.5v218h97l17 -154q48 -48 121.5 -69.5 t153.5 -21.5q130 0 205 57t75 138q0 76 -62.5 133t-225.5 93q-193 42 -286.5 111.5t-93.5 194.5q0 124 105 209.5t277 85.5q119 0 217.5 -36.5t160.5 -98.5zM800 1291v-18h-112l-167 168l-166 -168h-109v21l226 221h98z" />
<glyph unicode="&#x15e;" horiz-adv-x="1220" d="M109 0zM1099 1024h-98l-17 206q-54 68 -147 106.5t-218 38.5q-180 0 -280.5 -78t-100.5 -194q0 -110 90.5 -183.5t313.5 -129.5q235 -60 357.5 -162t122.5 -269q0 -174 -142 -277t-363 -103q-156 0 -289.5 55t-218.5 157v255h98l17 -213q66 -75 169 -114t224 -39 q172 0 278.5 76t106.5 201q0 119 -89 194.5t-310 133.5q-239 60 -362 156t-123 259q0 167 140 272t361 105q159 0 283.5 -55t196.5 -149v-249zM669 -9l-11 -64q79 -9 127.5 -48.5t48.5 -122.5q0 -91 -79 -145.5t-226 -54.5l-7 78q89 0 150.5 30.5t61.5 89.5q0 57 -41 79.5 t-145 30.5l28 127h93z" />
<glyph unicode="&#x15f;" horiz-adv-x="1025" d="M116 0zM882 748h-98l-14 153q-45 47 -113.5 73t-157.5 26q-131 0 -196.5 -56.5t-65.5 -132.5q0 -75 56.5 -124t225.5 -86q193 -43 289 -117.5t96 -202.5q0 -135 -109.5 -218.5t-289.5 -83.5q-120 0 -218.5 33.5t-170.5 94.5v218h97l17 -154q48 -48 121.5 -69.5 t153.5 -21.5q130 0 205 57t75 138q0 76 -62.5 133t-225.5 93q-193 42 -286.5 111.5t-93.5 194.5q0 124 105 209.5t277 85.5q119 0 217.5 -36.5t160.5 -98.5zM563 -6l-11 -64q79 -9 127.5 -48.5t48.5 -122.5q0 -91 -79 -145.5t-226 -54.5l-7 78q89 0 150.5 30.5t61.5 89.5 q0 57 -41 79.5t-145 30.5l28 127h93z" />
<glyph unicode="&#x160;" horiz-adv-x="1220" d="M109 0zM1099 1024h-98l-17 206q-54 68 -147 106.5t-218 38.5q-180 0 -280.5 -78t-100.5 -194q0 -110 90.5 -183.5t313.5 -129.5q235 -60 357.5 -162t122.5 -269q0 -174 -142 -277t-363 -103q-156 0 -289.5 55t-218.5 157v255h98l17 -213q66 -75 169 -114t224 -39 q172 0 278.5 76t106.5 201q0 119 -89 194.5t-310 133.5q-239 60 -362 156t-123 259q0 167 140 272t361 105q159 0 283.5 -55t196.5 -149v-249zM622 1662l167 169h115v-17l-233 -225h-98l-231 225v17h114z" />
<glyph unicode="&#x161;" horiz-adv-x="1025" d="M116 0zM882 748h-98l-14 153q-45 47 -113.5 73t-157.5 26q-131 0 -196.5 -56.5t-65.5 -132.5q0 -75 56.5 -124t225.5 -86q193 -43 289 -117.5t96 -202.5q0 -135 -109.5 -218.5t-289.5 -83.5q-120 0 -218.5 33.5t-170.5 94.5v218h97l17 -154q48 -48 121.5 -69.5 t153.5 -21.5q130 0 205 57t75 138q0 76 -62.5 133t-225.5 93q-193 42 -286.5 111.5t-93.5 194.5q0 124 105 209.5t277 85.5q119 0 217.5 -36.5t160.5 -98.5zM519 1330l167 169h115v-17l-233 -225h-98l-231 225v17h114z" />
<glyph unicode="&#x162;" horiz-adv-x="1280" d="M60 0zM1218 1456v-307h-106l-9 205h-404v-1253l163 -13v-88h-446v88l163 13v1253h-404l-8 -205h-107v307h1158zM688 0l-11 -64q79 -9 127.5 -48.5t48.5 -122.5q0 -91 -79 -145.5t-226 -54.5l-7 78q89 0 150.5 30.5t61.5 89.5q0 57 -41 79.5t-145 30.5l28 127h93z" />
<glyph unicode="&#x163;" horiz-adv-x="733" d="M65 0zM372 1359v-277h238v-98h-238v-705q0 -106 38.5 -150.5t102.5 -44.5q29 0 56.5 2.5t63.5 8.5l18 -89q-30 -13 -73 -20t-86 -7q-114 0 -177.5 72t-63.5 228v705h-186v98h186v277h121zM513 0l-11 -64q79 -9 127.5 -48.5t48.5 -122.5q0 -91 -79 -145.5t-226 -54.5 l-7 78q89 0 150.5 30.5t61.5 89.5q0 57 -41 79.5t-145 30.5l28 127h93z" />
<glyph unicode="&#x164;" horiz-adv-x="1280" d="M60 0zM1218 1456v-307h-106l-9 205h-404v-1253l163 -13v-88h-446v88l163 13v1253h-404l-8 -205h-107v307h1158zM644 1646l167 169h115v-17l-233 -225h-98l-231 225v17h114z" />
<glyph unicode="&#x165;" horiz-adv-x="773" d="M65 0zM372 1359v-277h238v-98h-238v-705q0 -106 38.5 -150.5t102.5 -44.5q29 0 56.5 2.5t63.5 8.5l18 -89q-30 -13 -73 -20t-86 -7q-114 0 -177.5 72t-63.5 228v705h-186v98h186v277h121zM671 1465q0 -87 -33 -169t-92 -138l-71 51q41 61 60.5 121t19.5 132v109h116v-106 z" />
<glyph unicode="&#x166;" horiz-adv-x="1280" d="M1218 1456v-307h-106l-9 205h-404v-454h270v-102h-270v-697l163 -13v-88h-446v88l163 13v697h-222v102h222v454h-404l-8 -205h-107v307h1158z" />
<glyph unicode="&#x167;" horiz-adv-x="733" d="M372 1359v-277h238v-98h-238v-265h285v-102h-285v-338q0 -106 38.5 -150.5t102.5 -44.5q29 0 56.5 2.5t63.5 8.5l18 -89q-30 -13 -73 -20t-86 -7q-114 0 -177.5 72t-63.5 228v338h-206v102h206v265h-186v98h186v277h121z" />
<glyph unicode="&#x168;" horiz-adv-x="1487" d="M60 0zM505 1456v-89l-163 -13v-885q0 -186 110 -287.5t287 -101.5q180 0 293 101t113 288v885l-163 13v89h445v-89l-163 -13v-885q0 -238 -145.5 -364t-379.5 -126q-230 0 -373 126.5t-143 363.5v885l-163 13v89h163h119h163zM1082 1815q0 -88 -55 -146t-137 -58 q-74 0 -151 55t-131 55q-47 0 -79 -35t-32 -89l-79 18q0 86 53.5 144.5t136.5 58.5q65 0 147.5 -55t134.5 -55q46 0 79 36t33 91z" />
<glyph unicode="&#x169;" horiz-adv-x="1232" d="M46 0zM892 178q-51 -95 -139.5 -147t-208.5 -52q-171 0 -267.5 116t-96.5 360v525l-134 13v89h134h119v-629q0 -198 67.5 -284t191.5 -86q136 0 216.5 60t113.5 166v671l-154 13v89h154h120v-981l145 -13v-88h-250zM902 1487q0 -88 -55 -146t-137 -58q-74 0 -151 55 t-131 55q-47 0 -79 -35t-32 -89l-79 18q0 86 53.5 144.5t136.5 58.5q65 0 147.5 -55t134.5 -55q46 0 79 36t33 91z" />
<glyph unicode="&#x16a;" horiz-adv-x="1487" d="M60 0zM505 1456v-89l-163 -13v-885q0 -186 110 -287.5t287 -101.5q180 0 293 101t113 288v885l-163 13v89h445v-89l-163 -13v-885q0 -238 -145.5 -364t-379.5 -126q-230 0 -373 126.5t-143 363.5v885l-163 13v89h163h119h163zM1079 1687h-670v97h670v-97z" />
<glyph unicode="&#x16b;" horiz-adv-x="1232" d="M46 0zM892 178q-51 -95 -139.5 -147t-208.5 -52q-171 0 -267.5 116t-96.5 360v525l-134 13v89h134h119v-629q0 -198 67.5 -284t191.5 -86q136 0 216.5 60t113.5 166v671l-154 13v89h154h120v-981l145 -13v-88h-250zM899 1359h-670v97h670v-97z" />
<glyph unicode="&#x16c;" horiz-adv-x="1487" d="M60 0zM505 1456v-89l-163 -13v-885q0 -186 110 -287.5t287 -101.5q180 0 293 101t113 288v885l-163 13v89h445v-89l-163 -13v-885q0 -238 -145.5 -364t-379.5 -126q-230 0 -373 126.5t-143 363.5v885l-163 13v89h163h119h163zM1015 1828l2 -6q4 -111 -73 -181.5 t-209 -70.5q-134 0 -211 70t-72 182l2 6h94q0 -77 45 -124t142 -47q94 0 140 48t46 123h94z" />
<glyph unicode="&#x16d;" horiz-adv-x="1232" d="M46 0zM892 178q-51 -95 -139.5 -147t-208.5 -52q-171 0 -267.5 116t-96.5 360v525l-134 13v89h134h119v-629q0 -198 67.5 -284t191.5 -86q136 0 216.5 60t113.5 166v671l-154 13v89h154h120v-981l145 -13v-88h-250zM835 1500l2 -6q4 -111 -73 -181.5t-209 -70.5 q-134 0 -211 70t-72 182l2 6h94q0 -77 45 -124t142 -47q94 0 140 48t46 123h94z" />
<glyph unicode="&#x16e;" horiz-adv-x="1487" d="M60 0zM505 1456v-89l-163 -13v-885q0 -186 110 -287.5t287 -101.5q180 0 293 101t113 288v885l-163 13v89h445v-89l-163 -13v-885q0 -238 -145.5 -364t-379.5 -126q-230 0 -373 126.5t-143 363.5v885l-163 13v89h163h119h163zM572 1735q0 69 49.5 117.5t119.5 48.5 q68 0 117 -48.5t49 -117.5q0 -71 -48.5 -117t-117.5 -46q-71 0 -120 46t-49 117zM650 1735q0 -39 26.5 -65t64.5 -26q37 0 62 25.5t25 65.5t-25 66.5t-62 26.5q-38 0 -64.5 -26.5t-26.5 -66.5z" />
<glyph unicode="&#x16f;" horiz-adv-x="1232" d="M46 0zM892 178q-51 -95 -139.5 -147t-208.5 -52q-171 0 -267.5 116t-96.5 360v525l-134 13v89h134h119v-629q0 -198 67.5 -284t191.5 -86q136 0 216.5 60t113.5 166v671l-154 13v89h154h120v-981l145 -13v-88h-250zM392 1407q0 69 49.5 117.5t119.5 48.5q68 0 117 -48.5 t49 -117.5q0 -71 -48.5 -117t-117.5 -46q-71 0 -120 46t-49 117zM470 1407q0 -39 26.5 -65t64.5 -26q37 0 62 25.5t25 65.5t-25 66.5t-62 26.5q-38 0 -64.5 -26.5t-26.5 -66.5z" />
<glyph unicode="&#x170;" horiz-adv-x="1487" d="M60 0zM505 1456v-89l-163 -13v-885q0 -186 110 -287.5t287 -101.5q180 0 293 101t113 288v885l-163 13v89h445v-89l-163 -13v-885q0 -238 -145.5 -364t-379.5 -126q-230 0 -373 126.5t-143 363.5v885l-163 13v89h163h119h163zM1019 1860h144l2 -6l-295 -260h-114l-2 6z M723 1860h133l3 -6l-244 -260h-102l-3 5z" />
<glyph unicode="&#x171;" horiz-adv-x="1232" d="M46 0zM892 178q-51 -95 -139.5 -147t-208.5 -52q-171 0 -267.5 116t-96.5 360v525l-134 13v89h134h119v-629q0 -198 67.5 -284t191.5 -86q136 0 216.5 60t113.5 166v671l-154 13v89h154h120v-981l145 -13v-88h-250zM839 1532h144l2 -6l-295 -260h-114l-2 6zM543 1532h133 l3 -6l-244 -260h-102l-3 5z" />
<glyph unicode="&#x172;" horiz-adv-x="1487" d="M60 0zM505 1456v-89l-163 -13v-885q0 -186 110 -287.5t287 -101.5q180 0 293 101t113 288v885l-163 13v89h445v-89l-163 -13v-885q0 -238 -145.5 -364t-379.5 -126q-230 0 -373 126.5t-143 363.5v885l-163 13v89h163h119h163zM787 -3q-72 -60 -110 -108t-38 -104 q0 -31 19 -58t70 -27q32 0 56.5 9t48.5 23l24 -83q-29 -19 -65.5 -31.5t-86.5 -12.5q-76 0 -124.5 44.5t-48.5 124.5q0 70 51 138.5t143 121.5z" />
<glyph unicode="&#x173;" horiz-adv-x="1232" d="M46 0zM892 178q-51 -95 -139.5 -147t-208.5 -52q-171 0 -267.5 116t-96.5 360v525l-134 13v89h134h119v-629q0 -198 67.5 -284t191.5 -86q136 0 216.5 60t113.5 166v671l-154 13v89h154h120v-981l145 -13v-88h-250zM1153 0q-72 -60 -110 -108t-38 -104q0 -31 19 -58 t70 -27q32 0 56.5 9t48.5 23l24 -83q-29 -19 -65.5 -31.5t-86.5 -12.5q-76 0 -124.5 44.5t-48.5 124.5q0 70 51 138.5t143 121.5z" />
<glyph unicode="&#x174;" horiz-adv-x="1937" d="M43 0zM423 1367l-148 -11l230 -944l44 -222h6l54 222l320 1044h113l319 -1044l53 -225l6 1l47 224l227 944l-148 11v89h380v-89l-109 -8l-339 -1359h-113l-339 1117l-38 153h-6l-36 -153l-342 -1117h-113l-339 1359l-109 8v89h380v-89zM1261 1613v-18h-112l-167 168 l-166 -168h-109v21l226 221h98z" />
<glyph unicode="&#x175;" horiz-adv-x="1690" d="M56 0zM419 993l-136 -11l175 -631l41 -193h6l51 193l231 731h102l231 -731l52 -198h6l45 198l170 631l-136 11v89h364v-89l-105 -8l-287 -985h-102l-241 740l-47 187h-6l-47 -187l-237 -740h-102l-286 985l-105 8v89h363v-89zM1110 1278v-18h-112l-167 168l-166 -168 h-109v21l226 221h98z" />
<glyph unicode="&#x176;" horiz-adv-x="1423" d="M55 0zM455 1367l-140 -10l394 -710l396 710l-140 10v89h401v-89l-124 -10l-474 -825v-431l163 -13v-88h-446v88l163 13v438l-470 818l-123 10v89h400v-89zM992 1606v-18h-112l-167 168l-166 -168h-109v21l226 221h98z" />
<glyph unicode="&#x177;" horiz-adv-x="1174" d="M46 0zM1135 993l-110 -9l-437 -1157q-42 -110 -109 -187t-196 -77q-21 0 -51 4.5t-44 9.5l14 100q12 -2 38.5 -4.5t37.5 -2.5q79 0 125 55t81 143l56 145l-384 971l-110 9v89h372v-89l-129 -10l264 -690l38 -130h6l296 820l-132 10v89h374v-89zM874 1278v-18h-112 l-167 168l-166 -168h-109v21l226 221h98z" />
<glyph unicode="&#x178;" horiz-adv-x="1423" d="M55 0zM455 1367l-140 -10l394 -710l396 710l-140 10v89h401v-89l-124 -10l-474 -825v-431l163 -13v-88h-446v88l163 13v438l-470 818l-123 10v89h400v-89zM1028 1634h-173v157h173v-157zM559 1634h-174v157h174v-157z" />
<glyph unicode="&#x179;" horiz-adv-x="1220" d="M92 0zM92 0v92l857 1262h-716l-8 -205h-107v307h977v-87l-861 -1268h778l9 205h107v-306h-1036zM719 1818h147l3 -6l-249 -260h-107z" />
<glyph unicode="&#x17a;" horiz-adv-x="1080" d="M116 0zM263 101h588l9 205h107v-306h-851v88l652 891h-534l-8 -204h-107v307h800v-89zM644 1483h147l3 -6l-249 -260h-107z" />
<glyph unicode="&#x17b;" horiz-adv-x="1220" d="M92 0zM92 0v92l857 1262h-716l-8 -205h-107v307h977v-87l-861 -1268h778l9 205h107v-306h-1036zM682 1622h-151v168h151v-168z" />
<glyph unicode="&#x17c;" horiz-adv-x="1080" d="M116 0zM263 101h588l9 205h107v-306h-851v88l652 891h-534l-8 -204h-107v307h800v-89zM607 1288h-151v168h151v-168z" />
<glyph unicode="&#x17d;" horiz-adv-x="1220" d="M92 0zM92 0v92l857 1262h-716l-8 -205h-107v307h977v-87l-861 -1268h778l9 205h107v-306h-1036zM608 1652l167 169h115v-17l-233 -225h-98l-231 225v17h114z" />
<glyph unicode="&#x17e;" horiz-adv-x="1080" d="M116 0zM263 101h588l9 205h107v-306h-851v88l652 891h-534l-8 -204h-107v307h800v-89zM533 1318l167 169h115v-17l-233 -225h-98l-231 225v17h114z" />
<glyph unicode="&#x17f;" horiz-adv-x="715" d="M220 1240q0 163 81.5 252t228.5 89q33 0 67 -5t68 -14l-15 -96q-25 6 -49 9.5t-56 3.5q-98 0 -152 -63.5t-54 -175.5v-1139l163 -13v-88h-445v88l163 13v1139v0z" />
<glyph unicode="&#x192;" horiz-adv-x="774" d="M657 984h-245v-1073q0 -167 -80 -257.5t-223 -90.5q-31 0 -57.5 5t-54.5 14l13 99q15 -6 46 -11t53 -5q87 0 135 65t48 181v1073h-179v98h179v158q0 163 82 252t229 89q32 0 66 -5t69 -14l-15 -99q-24 6 -49 9.5t-59 3.5q-98 0 -150.5 -62t-52.5 -174v-158h245v-98z" />
<glyph unicode="&#x1a0;" horiz-adv-x="1468" d="M1349 718q0 -328 -175 -533.5t-455 -205.5q-276 0 -448.5 206t-172.5 533v19q0 327 172 533.5t448 206.5q135 0 249 -51.5t198 -146.5q111 9 156 80t45 207h111q0 -160 -61 -253.5t-187 -118.5q58 -94 89 -209.5t31 -247.5v-19zM1229 739q0 283 -138 458t-373 175 q-231 0 -365.5 -175t-134.5 -458v-21q0 -285 135 -460t366 -175q237 0 373.5 174.5t136.5 460.5v21z" />
<glyph unicode="&#x1a1;" horiz-adv-x="1263" d="M103 557q0 239 131 392t347 153q103 0 189.5 -37.5t150.5 -105.5q92 9 123.5 66.5t31.5 172.5h103q0 -136 -47.5 -215t-154.5 -101q40 -68 61.5 -151t21.5 -174v-33q0 -240 -130.5 -392.5t-346.5 -152.5q-218 0 -349 152.5t-131 392.5v33zM223 524q0 -188 95 -316 t265 -128q167 0 262 128t95 316v33q0 185 -95.5 314t-263.5 129t-263 -129t-95 -314v-33z" />
<glyph unicode="&#x1af;" horiz-adv-x="1603" d="M1244 1456v-202l6 -1q126 1 175.5 74.5t49.5 222.5h103l2 -5q3 -188 -77 -287.5t-259 -106.5v-682q0 -237 -146 -363.5t-379 -126.5q-231 0 -374 126.5t-143 363.5v885l-163 13v89h163h119h163v-89l-163 -13v-885q0 -186 110.5 -287.5t287.5 -101.5q179 0 292 101 t113 288v885l-163 13v89h163h120z" />
<glyph unicode="&#x1b0;" horiz-adv-x="1374" d="M1030 1082v-135l6 -2q110 -1 145 52t35 177h87l2 -5q3 -154 -58.5 -230t-216.5 -80v-758l145 -13v-88h-250l-11 178q-51 -95 -139.5 -147t-208.5 -52q-171 0 -267.5 116t-96.5 360v525l-134 13v89h134h119v-629q0 -198 67.5 -284t191.5 -86q136 0 216.5 60t113.5 166v671 l-154 13v89h154h120z" />
<glyph unicode="&#x1f0;" horiz-adv-x="570" d="M0 0zM411 -89q0 -167 -80 -257.5t-223 -90.5q-31 0 -57.5 5t-54.5 14l13 99q15 -6 46 -11t53 -5q87 0 135 65t48 181v1069l-163 13v89h283v-1171zM349 1307l167 169h115v-17l-233 -225h-98l-231 225v17h114z" />
<glyph unicode="&#x1fa;" horiz-adv-x="1485" d="M55 0zM55 88l107 8l517 1360h113l512 -1360l109 -8v-88h-359v88l127 10l-120 326h-654l-121 -326l127 -10v-88h-358v88zM447 531h575l-283 770h-6zM859 1939h126l2 -6l-196 -181h-83l-2 5zM579 1546q0 65 45.5 109.5t109.5 44.5q63 0 108 -44.5t45 -109.5q0 -64 -45 -107 t-108 -43q-64 0 -109.5 43t-45.5 107zM647 1546q0 -36 25.5 -61t61.5 -25q35 0 60 24.5t25 61.5q0 38 -25 64t-60 26q-36 0 -61.5 -26t-25.5 -64z" />
<glyph unicode="&#x1fb;" d="M104 0zM844 0q-12 55 -17 95t-5 81q-60 -85 -160 -141t-225 -56q-159 0 -246 82t-87 222q0 150 129 238t350 88h239v143q0 116 -74.5 182t-208.5 66q-90 0 -164.5 -24.5t-124.5 -66.5l-10 -145h-99l1 208q75 58 179.5 94t222.5 36q179 0 288 -91t109 -261v-532 q0 -33 1.5 -63.5t6.5 -59.5l108 -7v-88h-213zM450 85q130 0 229 60t143 155v217h-241q-163 0 -260.5 -67.5t-97.5 -170.5q0 -87 60.5 -140.5t166.5 -53.5zM669 1619h126l2 -6l-196 -181h-83l-2 5zM389 1226q0 65 45.5 109.5t109.5 44.5q63 0 108 -44.5t45 -109.5 q0 -64 -45 -107t-108 -43q-64 0 -109.5 43t-45.5 107zM457 1226q0 -36 25.5 -61t61.5 -25q35 0 60 24.5t25 61.5q0 38 -25 64t-60 26q-36 0 -61.5 -26t-25.5 -64z" />
<glyph unicode="&#x1fc;" horiz-adv-x="2058" d="M51 0zM51 88l130 10l822 1358h864v-307h-107l-9 205h-578l23 -545h589v-102h-585l26 -606h587l9 205h106v-306h-980v88l158 12l-12 289h-597l-172 -293l106 -8v-88h-380v88zM564 502h526l-35 839l-6 1l-15 -44zM1216 1817h147l3 -6l-249 -260h-107z" />
<glyph unicode="&#x1fd;" horiz-adv-x="1786" d="M97 0zM1285 -21q-138 0 -241 55.5t-163 157.5q-49 -87 -159.5 -150t-269.5 -63q-170 0 -262.5 84.5t-92.5 229.5q0 158 113 248.5t325 90.5h263v88q0 134 -63.5 207t-187.5 73q-135 0 -213 -67t-78 -168l-110 12l-2 6q-5 138 106 228.5t297 90.5q125 0 213 -54t129 -157 q61 99 156 155t210 56q200 0 311.5 -124t111.5 -340v-100h-755v-29q0 -191 90 -310t272 -119q103 0 181 32.5t142 86.5l48 -87q-60 -55 -148.5 -94t-222.5 -39zM469 79q102 0 197.5 53.5t131.5 115.5v288h-261q-155 0 -237.5 -71t-82.5 -176q0 -97 64.5 -153.5t187.5 -56.5z M1255 1000q-138 0 -224.5 -101.5t-99.5 -257.5l2 -5h625v31q0 146 -77 239.5t-226 93.5zM974 1495h147l3 -6l-249 -260h-107z" />
<glyph unicode="&#x1fe;" horiz-adv-x="1408" d="M100 0zM1351 718q0 -328 -175 -533.5t-455 -205.5q-98 0 -185 27.5t-158 80.5l-105 -171h-104l141 229q-101 99 -155.5 246.5t-54.5 326.5v19q0 327 172 533.5t448 206.5q96 0 183.5 -27t161.5 -78l82 133h104l-117 -191q103 -100 160 -249t57 -328v-19zM1231 739 q0 148 -40.5 270.5t-113.5 202.5l-6 1l-637 -1035q59 -47 131 -71t156 -24q237 0 373.5 174.5t136.5 460.5v21zM220 718q0 -148 38 -269.5t109 -200.5l6 -1l635 1033q-60 44 -132.5 68t-155.5 24q-231 0 -365.5 -175t-134.5 -458v-21zM810 1851h147l3 -6l-249 -260h-107z " />
<glyph unicode="&#x1ff;" horiz-adv-x="1152" d="M97 0zM97 557q0 239 131 392t347 153q62 0 119 -14.5t108 -40.5l86 167h93l-110 -214q87 -73 135 -188t48 -255v-33q0 -240 -130.5 -392.5t-346.5 -152.5q-58 0 -110 11t-98 34l-84 -164h-93l106 207q-96 71 -148.5 190t-52.5 267v33zM217 524q0 -110 33.5 -202.5 t96.5 -147.5h6l399 776q-38 24 -82.5 37t-94.5 13q-168 0 -263 -129t-95 -314v-33zM934 557q0 100 -30 187.5t-85 144.5h-5l-397 -771q34 -19 74 -28.5t86 -9.5q167 0 262 128t95 316v33zM680 1494h147l3 -6l-249 -260h-107z" />
<glyph unicode="&#x218;" horiz-adv-x="1220" d="M109 0zM1099 1024h-98l-17 206q-54 68 -147 106.5t-218 38.5q-180 0 -280.5 -78t-100.5 -194q0 -110 90.5 -183.5t313.5 -129.5q235 -60 357.5 -162t122.5 -269q0 -174 -142 -277t-363 -103q-156 0 -289.5 55t-218.5 157v255h98l17 -213q66 -75 169 -114t224 -39 q172 0 278.5 76t106.5 201q0 119 -89 194.5t-310 133.5q-239 60 -362 156t-123 259q0 167 140 272t361 105q159 0 283.5 -55t196.5 -149v-249zM673 -251q0 -87 -33 -169t-92 -138l-71 51q41 61 60.5 121t19.5 132v109h116v-106z" />
<glyph unicode="&#x219;" horiz-adv-x="1025" d="M116 0zM882 748h-98l-14 153q-45 47 -113.5 73t-157.5 26q-131 0 -196.5 -56.5t-65.5 -132.5q0 -75 56.5 -124t225.5 -86q193 -43 289 -117.5t96 -202.5q0 -135 -109.5 -218.5t-289.5 -83.5q-120 0 -218.5 33.5t-170.5 94.5v218h97l17 -154q48 -48 121.5 -69.5 t153.5 -21.5q130 0 205 57t75 138q0 76 -62.5 133t-225.5 93q-193 42 -286.5 111.5t-93.5 194.5q0 124 105 209.5t277 85.5q119 0 217.5 -36.5t160.5 -98.5zM567 -248q0 -87 -33 -169t-92 -138l-71 51q41 61 60.5 121t19.5 132v109h116v-106z" />
<glyph unicode="&#x21a;" horiz-adv-x="1280" d="M60 0zM1218 1456v-307h-106l-9 205h-404v-1253l163 -13v-88h-446v88l163 13v1253h-404l-8 -205h-107v307h1158zM692 -241q0 -87 -33 -169t-92 -138l-71 51q41 61 60.5 121t19.5 132v109h116v-106z" />
<glyph unicode="&#x21b;" horiz-adv-x="733" d="M65 0zM372 1359v-277h238v-98h-238v-705q0 -106 38.5 -150.5t102.5 -44.5q29 0 56.5 2.5t63.5 8.5l18 -89q-30 -13 -73 -20t-86 -7q-114 0 -177.5 72t-63.5 228v705h-186v98h186v277h121zM517 -241q0 -87 -33 -169t-92 -138l-71 51q41 61 60.5 121t19.5 132v109h116v-106 z" />
<glyph unicode="&#x237;" horiz-adv-x="570" d="M411 -89q0 -167 -80 -257.5t-223 -90.5q-31 0 -57.5 5t-54.5 14l13 99q15 -6 46 -11t53 -5q87 0 135 65t48 181v1069l-163 13v89h283v-1171z" />
<glyph unicode="&#x259;" horiz-adv-x="1070" d="M506 1102q203 0 337.5 -150t134.5 -380v-55q0 -233 -134 -385t-322 -152q-200 0 -314 125t-114 336v102h764v29q0 182 -97.5 305.5t-254.5 123.5q-113 0 -191.5 -31.5t-133.5 -89.5l-51 83q60 63 153 101t223 38zM522 81q131 0 220.5 100.5t105.5 254.5l-2 5h-632v-29 q0 -142 82.5 -236.5t225.5 -94.5z" />
<glyph unicode="&#x2bc;" horiz-adv-x="364" d="M62 1055zM273 1385q0 -94 -37.5 -182t-102.5 -148l-71 52q47 65 69.5 130t22.5 145v178h119v-175z" />
<glyph unicode="&#x2c6;" horiz-adv-x="801" d="M658 1270v-18h-112l-167 168l-166 -168h-109v21l226 221h98z" />
<glyph unicode="&#x2c7;" horiz-adv-x="779" d="M370 1325l167 169h115v-17l-233 -225h-98l-231 225v17h114z" />
<glyph unicode="&#x2d8;" horiz-adv-x="827" d="M688 1456l2 -6q4 -111 -73 -181.5t-209 -70.5q-134 0 -211 70t-72 182l2 6h94q0 -77 45 -124t142 -47q94 0 140 48t46 123h94z" />
<glyph unicode="&#x2d9;" horiz-adv-x="499" d="M303 1288h-151v168h151v-168z" />
<glyph unicode="&#x2da;" horiz-adv-x="652" d="M138 1324q0 69 49.5 117.5t119.5 48.5q68 0 117 -48.5t49 -117.5q0 -71 -48.5 -117t-117.5 -46q-71 0 -120 46t-49 117zM216 1324q0 -39 26.5 -65t64.5 -26q37 0 62 25.5t25 65.5t-25 66.5t-62 26.5q-38 0 -64.5 -26.5t-26.5 -66.5z" />
<glyph unicode="&#x2db;" horiz-adv-x="440" d="M309 0q-72 -60 -110 -108t-38 -104q0 -31 19 -58t70 -27q32 0 56.5 9t48.5 23l24 -83q-29 -19 -65.5 -31.5t-86.5 -12.5q-76 0 -124.5 44.5t-48.5 124.5q0 70 51 138.5t143 121.5z" />
<glyph unicode="&#x2dc;" horiz-adv-x="934" d="M791 1481q0 -88 -55 -146t-137 -58q-74 0 -151 55t-131 55q-47 0 -79 -35t-32 -89l-79 18q0 86 53.5 144.5t136.5 58.5q65 0 147.5 -55t134.5 -55q46 0 79 36t33 91z" />
<glyph unicode="&#x2dd;" horiz-adv-x="892" d="M617 1518h144l2 -6l-295 -260h-114l-2 6zM321 1518h133l3 -6l-244 -260h-102l-3 5z" />
<glyph unicode="&#x2f3;" horiz-adv-x="437" d="M72 -237q0 57 43 98.5t103 41.5q58 0 100 -41t42 -99q0 -56 -42 -95.5t-100 -39.5q-60 0 -103 40t-43 95zM144 -237q0 -26 22 -46.5t52 -20.5q29 0 50 20t21 47q0 29 -21 50t-50 21q-30 0 -52 -21t-22 -50z" />
<glyph unicode="&#x300;" horiz-adv-x="492" d="M351 1214h-96l-168 318h125z" />
<glyph unicode="&#x301;" horiz-adv-x="483" d="M258 1533h120l-172 -318h-88z" />
<glyph unicode="&#x303;" horiz-adv-x="423" d="M-161 1263zM-161 1481q0 -88 -55 -146t-137 -58q-74 0 -151 55t-131 55q-47 0 -79 -35t-32 -89l-79 18q0 86 53.5 144.5t136.5 58.5q65 0 147.5 -55t134.5 -55q46 0 79 36t33 91z" />
<glyph unicode="&#x309;" horiz-adv-x="569" d="M169 1234l-1 125q89 6 128 27t39 67q0 49 -58.5 72t-141.5 23l7 77q135 0 214 -47t79 -126q0 -74 -49 -111.5t-126 -44.5l-1 -62h-90z" />
<glyph unicode="&#x30f;" horiz-adv-x="892" d="M496 1258l-2 -6h-113l-295 260l2 6h144zM741 1257l-3 -5h-102l-245 260l3 6h134z" />
<glyph unicode="&#x323;" horiz-adv-x="358" d="M252 -315h-152v168h152v-168z" />
<glyph unicode="&#x384;" horiz-adv-x="476" d="M214 1617h152l-159 -329h-71z" />
<glyph unicode="&#x385;" horiz-adv-x="984" d="M803 1304h-159v152h159v-152zM310 1304h-159v152h159v-152zM461 1664h174l-122 -252h-88z" />
<glyph unicode="&#x386;" horiz-adv-x="1485" d="M55 0zM55 88l107 8l517 1360h113l512 -1360l109 -8v-88h-359v88l127 10l-120 326h-654l-121 -326l127 -10v-88h-358v88zM447 531h575l-283 770h-6zM238 1617h152l-159 -329h-71z" />
<glyph unicode="&#x387;" horiz-adv-x="492" d="M159 624zM313 624h-154v180h154v-180z" />
<glyph unicode="&#x388;" horiz-adv-x="1386" d="M0 0zM1050 705h-597v-604h688l9 218h106v-319h-1085v88l163 13v1253l-163 13v89h163h917v-320h-106l-9 218h-683v-547h597v-102zM-10 1619h152l-159 -329h-71z" />
<glyph unicode="&#x389;" horiz-adv-x="1637" d="M0 0zM171 1367v89h445v-89l-163 -13v-582h828v582l-163 13v89h163h119h163v-89l-163 -13v-1253l163 -13v-88h-445v88l163 13v569h-828v-569l163 -13v-88h-445v88l163 13v1253zM-26 1619h152l-159 -329h-71z" />
<glyph unicode="&#x38a;" horiz-adv-x="727" d="M0 0zM191 1367v89h446v-89l-163 -13v-1253l163 -13v-88h-446v88l163 13v1253zM-15 1617h152l-159 -329h-71z" />
<glyph unicode="&#x38c;" horiz-adv-x="1488" d="M8 0zM1377 718q0 -328 -175 -533.5t-455 -205.5q-276 0 -448.5 206t-172.5 533v19q0 327 172 533.5t448 206.5q280 0 455.5 -206.5t175.5 -533.5v-19zM1257 739q0 283 -138 458t-373 175q-231 0 -365.5 -175t-134.5 -458v-21q0 -285 135 -460t366 -175q237 0 373.5 174.5 t136.5 460.5v21zM86 1617h152l-159 -329h-71z" />
<glyph unicode="&#x38e;" horiz-adv-x="1523" d="M0 0zM555 1367l-140 -10l394 -710l396 710l-140 10v89h401v-89l-124 -10l-474 -825v-431l163 -13v-88h-446v88l163 13v438l-470 818l-123 10v89h400v-89zM-69 1614h152l-159 -329h-71z" />
<glyph unicode="&#x38f;" horiz-adv-x="1364" d="M22 0zM765 134q153 47 263 208.5t110 424.5v48q0 253 -125 406.5t-335 153.5t-334 -153.5t-124 -406.5v-48q0 -263 112 -424.5t267 -208.5v-134h-463v101h322q-155 89 -256.5 266t-101.5 400v46q0 288 161 476t417 188t418 -188t162 -476v-46q0 -223 -101.5 -400 t-253.5 -266h325v-101h-463v134zM100 1617h152l-159 -329h-71z" />
<glyph unicode="&#x390;" horiz-adv-x="628" d="M0 0zM312 274q0 -106 38 -148.5t107 -42.5q26 0 48.5 4t51.5 13l25 -89q-35 -18 -70.5 -25t-76.5 -7q-123 0 -183 70.5t-60 229.5v701l-163 13v89h283v-808zM594 1249h-159v152h159v-152zM101 1249h-159v152h159v-152zM252 1609h174l-122 -252h-88z" />
<glyph unicode="&#x391;" horiz-adv-x="1485" d="M55 0zM55 88l107 8l517 1360h113l512 -1360l109 -8v-88h-359v88l127 10l-120 326h-654l-121 -326l127 -10v-88h-358v88zM447 531h575l-283 770h-6z" />
<glyph unicode="&#x392;" horiz-adv-x="1322" d="M71 0zM659 1456q227 0 353.5 -95.5t126.5 -287.5q0 -112 -63.5 -195t-172.5 -115q133 -24 216 -125t83 -233q0 -195 -126.5 -300t-338.5 -105h-666v88l163 13v1253l-163 13v89h163h425zM353 702v-601h384q161 0 253 79.5t92 222.5q0 131 -83.5 215t-242.5 84h-403z M353 803h335q158 0 244.5 69.5t86.5 204.5q0 138 -92 207.5t-268 69.5h-306v-551z" />
<glyph unicode="&#x393;" horiz-adv-x="1209" d="M77 88l163 13v1253l-163 13v89h1039v-307h-107l-9 205h-641v-1253l163 -13v-88h-445v88z" />
<glyph unicode="&#x394;" horiz-adv-x="1417" d="M760 1456l598 -1456h-1327l616 1456h113zM197 101h995l-487 1205h-6z" />
<glyph unicode="&#x395;" horiz-adv-x="1286" d="M71 0zM950 705h-597v-604h688l9 218h106v-319h-1085v88l163 13v1253l-163 13v89h163h917v-320h-106l-9 218h-683v-547h597v-102z" />
<glyph unicode="&#x396;" horiz-adv-x="1220" d="M92 0zM92 0v92l857 1262h-716l-8 -205h-107v307h977v-87l-861 -1268h778l9 205h107v-306h-1036z" />
<glyph unicode="&#x397;" horiz-adv-x="1537" d="M71 0zM71 1367v89h445v-89l-163 -13v-582h828v582l-163 13v89h163h119h163v-89l-163 -13v-1253l163 -13v-88h-445v88l163 13v569h-828v-569l163 -13v-88h-445v88l163 13v1253z" />
<glyph unicode="&#x398;" horiz-adv-x="1386" d="M966 676h-554v101h554v-101zM1351 718q0 -328 -175 -533.5t-455 -205.5q-276 0 -448.5 206t-172.5 533v19q0 327 172 533.5t448 206.5q280 0 455.5 -206.5t175.5 -533.5v-19zM1231 739q0 283 -138 458t-373 175q-231 0 -365.5 -175t-134.5 -458v-21q0 -285 135 -460 t366 -175q237 0 373.5 174.5t136.5 460.5v21z" />
<glyph unicode="&#x399;" horiz-adv-x="627" d="M91 0zM91 1367v89h446v-89l-163 -13v-1253l163 -13v-88h-446v88l163 13v1253z" />
<glyph unicode="&#x39a;" horiz-adv-x="1417" d="M71 0zM71 88l163 13v1253l-163 13v89h445v-89l-163 -13v-568h199l490 573l-140 8v89h407v-89l-128 -12l-521 -615l562 -640l131 -12v-88h-415v88l138 8l-523 589h-200v-584l163 -13v-88h-445v88z" />
<glyph unicode="&#x39b;" horiz-adv-x="1442" d="M52 88l106 8l499 1360h113l499 -1360l108 -8v-88h-359v88l127 10l-429 1187h-6l-428 -1187l128 -10v-88h-358v88z" />
<glyph unicode="&#x39c;" horiz-adv-x="1861" d="M71 0zM1518 1280l-6 2l-541 -1282h-83l-540 1276l-6 -1l11 -632v-542l163 -13v-88h-445v88l163 13v1253l-163 13v89h163h157l535 -1282h6l537 1282h321v-89l-163 -13v-1253l163 -13v-88h-445v88l163 13v542z" />
<glyph unicode="&#x39d;" horiz-adv-x="1536" d="M71 0zM1469 1456v-89l-163 -13v-1354h-119l-827 1252l-6 -1v-1150l163 -13v-88h-446v88l163 13v1253l-163 13v89h163h120l827 -1250l6 1v1147l-163 13v89h282h163z" />
<glyph unicode="&#x39e;" horiz-adv-x="1194" d="M80 0v306h107l8 -205h809l10 205h106v-306h-1040zM1093 1456v-307h-106l-9 205h-771l-8 -205h-107v307h1001zM290 784h611v-102h-611v102z" />
<glyph unicode="&#x39f;" horiz-adv-x="1468" d="M106 0zM1357 718q0 -328 -175 -533.5t-455 -205.5q-276 0 -448.5 206t-172.5 533v19q0 327 172 533.5t448 206.5q280 0 455.5 -206.5t175.5 -533.5v-19zM1237 739q0 283 -138 458t-373 175q-231 0 -365.5 -175t-134.5 -458v-21q0 -285 135 -460t366 -175 q237 0 373.5 174.5t136.5 460.5v21z" />
<glyph unicode="&#x3a0;" horiz-adv-x="1561" d="M77 88l163 13v1253l-163 13v89h1393v-89l-163 -13v-1253l163 -13v-88h-445v88l163 13v1253h-829v-1253l163 -13v-88h-445v88z" />
<glyph unicode="&#x3a1;" horiz-adv-x="1276" d="M71 0zM685 1456q229 0 354.5 -116.5t125.5 -308.5q0 -194 -125.5 -310t-354.5 -116h-332v-504l163 -13v-88h-445v88l163 13v1253l-163 13v89h163h451zM353 707h332q180 0 270.5 91.5t90.5 230.5q0 140 -90 232.5t-271 92.5h-332v-647z" />
<glyph unicode="&#x3a3;" horiz-adv-x="1173" d="M718 743l-489 -641h741l10 204h106v-306h-1007v93l515 666l-515 604v93h952v-307h-107l-9 205h-672l-2 -5l477 -570v-36z" />
<glyph unicode="&#x3a4;" horiz-adv-x="1280" d="M60 0zM1218 1456v-307h-106l-9 205h-404v-1253l163 -13v-88h-446v88l163 13v1253h-404l-8 -205h-107v307h1158z" />
<glyph unicode="&#x3a5;" horiz-adv-x="1423" d="M55 0zM455 1367l-140 -10l394 -710l396 710l-140 10v89h401v-89l-124 -10l-474 -825v-431l163 -13v-88h-446v88l163 13v438l-470 818l-123 10v89h400v-89z" />
<glyph unicode="&#x3a6;" horiz-adv-x="1458" d="M659 211q-258 0 -419 146.5t-161 372.5q0 224 161 372t419 148h2v104l-163 13v89h163h283v-89l-163 -13v-104h2q256 0 418.5 -147.5t162.5 -370.5q0 -226 -162.5 -373.5t-418.5 -147.5h-2v-110l163 -13v-88h-446v88l163 13v110h-2zM781 1148v-836h4q213 0 336.5 116 t123.5 304q0 185 -124 300.5t-336 115.5h-4zM659 1148q-214 0 -337.5 -117t-123.5 -301q0 -188 123 -303t338 -115h2v836h-2z" />
<glyph unicode="&#x3a7;" horiz-adv-x="1397" d="M54 0zM54 88l122 10l453 640l-438 619l-122 10v89h400v-89l-139 -6l368 -532l369 532l-137 6v89h399v-89l-122 -10l-437 -619l453 -640l123 -10v-88h-399v88l137 6l-384 553l-385 -553l138 -6v-88h-399v88z" />
<glyph unicode="&#x3a8;" horiz-adv-x="1640" d="M1018 1456v-89l-163 -13v-855l6 -2q179 9 290.5 127t111.5 312v520h282v-89l-163 -13v-418q0 -246 -145 -390t-382 -158v-287l163 -13v-88h-446v88l163 13v287q-233 15 -375 159t-142 389v418l-163 13v89h163h119v-520q0 -193 108.5 -310.5t283.5 -128.5l6 2v855l-163 13 v89h163h120h163z" />
<glyph unicode="&#x3a9;" horiz-adv-x="1344" d="M745 134q153 47 263 208.5t110 424.5v48q0 253 -125 406.5t-335 153.5t-334 -153.5t-124 -406.5v-48q0 -263 112 -424.5t267 -208.5v-134h-463v101h322q-155 89 -256.5 266t-101.5 400v46q0 288 161 476t417 188t418 -188t162 -476v-46q0 -223 -101.5 -400t-253.5 -266 h325v-101h-463v134z" />
<glyph unicode="&#x3aa;" horiz-adv-x="627" d="M0 0zM91 1367v89h446v-89l-163 -13v-1253l163 -13v-88h-446v88l163 13v1253zM637 1640h-173v157h173v-157zM168 1640h-174v157h174v-157z" />
<glyph unicode="&#x3ab;" horiz-adv-x="1423" d="M55 0zM455 1367l-140 -10l394 -710l396 710l-140 10v89h401v-89l-124 -10l-474 -825v-431l163 -13v-88h-446v88l163 13v438l-470 818l-123 10v89h400v-89zM1028 1634h-173v157h173v-157zM559 1634h-174v157h174v-157z" />
<glyph unicode="&#x3ac;" horiz-adv-x="1204" d="M104 0zM971 1082v-808q0 -104 26.5 -145.5t74.5 -41.5q12 0 22.5 1.5t27.5 6.5l17 -93q-23 -13 -47 -18t-51 -5q-80 0 -126 46.5t-59 150.5q-53 -95 -138 -146t-201 -51q-194 0 -303.5 144.5t-109.5 387.5v21q0 259 109.5 414.5t305.5 155.5q115 0 198.5 -53.5 t136.5 -152.5l14 186h103zM224 511q0 -196 78.5 -313.5t236.5 -117.5q117 0 193 64.5t119 177.5v413q-42 117 -118 191t-192 74q-158 0 -237.5 -130.5t-79.5 -337.5v-21zM598 1580h152l-159 -329h-71z" />
<glyph unicode="&#x3ad;" horiz-adv-x="1093" d="M105 0zM105 297q0 97 56.5 162.5t167.5 95.5q-98 34 -151.5 97.5t-53.5 141.5q0 146 113.5 225.5t309.5 79.5q181 0 305 -84.5t119 -218.5l-2 -6h-109q0 91 -90.5 149.5t-222.5 58.5q-151 0 -227 -57t-76 -145q0 -92 72.5 -143t226.5 -51h185v-100h-185 q-159 0 -238.5 -50.5t-79.5 -156.5q0 -96 85 -154.5t237 -58.5q146 0 238 65.5t92 162.5h110l2 -6q5 -156 -127.5 -239t-314.5 -83q-197 0 -319.5 84t-122.5 231zM576 1581h152l-159 -329h-71z" />
<glyph unicode="&#x3ae;" horiz-adv-x="1203" d="M0 0zM212 0l1 891q0 52 -19.5 72t-56.5 20q-28 0 -57 -8t-53 -20l-31 91q32 21 79 35.5t94 14.5q83 0 123.5 -43t40.5 -139v-10q53 94 139.5 146t204.5 52q177 0 268 -105t91 -338v-1074h-119v1073q0 186 -69.5 264t-198.5 78q-124 0 -202 -61t-114 -164v-775h-121z M651 1580h152l-159 -329h-71z" />
<glyph unicode="&#x3af;" horiz-adv-x="628" d="M29 0zM312 274q0 -106 38 -148.5t107 -42.5q26 0 48.5 4t51.5 13l25 -89q-35 -18 -70.5 -25t-76.5 -7q-123 0 -183 70.5t-60 229.5v701l-163 13v89h283v-808zM292 1569h152l-159 -329h-71z" />
<glyph unicode="&#x3b0;" horiz-adv-x="1192" d="M11 0zM348 405q0 -168 65 -246.5t176 -78.5q161 0 248.5 136.5t87.5 323.5q-2 140 -33 274.5t-84 267.5h130q49 -120 77.5 -246t28.5 -294q0 -247 -116.5 -405t-332.5 -158q-174 0 -270 104.5t-96 323.5v487q0 51 -20 71t-57 20q-28 0 -57.5 -8t-52.5 -19l-31 91 q35 23 80.5 36.5t92.5 13.5q84 0 124 -43t40 -140v-511zM878 1249h-159v152h159v-152zM385 1249h-159v152h159v-152zM536 1609h174l-122 -252h-88z" />
<glyph unicode="&#x3b1;" horiz-adv-x="1204" d="M971 1082v-808q0 -104 26.5 -145.5t74.5 -41.5q12 0 22.5 1.5t27.5 6.5l17 -93q-23 -13 -47 -18t-51 -5q-80 0 -126 46.5t-59 150.5q-53 -95 -138 -146t-201 -51q-194 0 -303.5 144.5t-109.5 387.5v21q0 259 109.5 414.5t305.5 155.5q115 0 198.5 -53.5t136.5 -152.5 l14 186h103zM224 511q0 -196 78.5 -313.5t236.5 -117.5q117 0 193 64.5t119 177.5v413q-42 117 -118 191t-192 74q-158 0 -237.5 -130.5t-79.5 -337.5v-21z" />
<glyph unicode="&#x3b2;" horiz-adv-x="1158" d="M560 1477q184 0 296.5 -107.5t112.5 -276.5q0 -101 -52.5 -183.5t-146.5 -127.5q138 -39 212 -139.5t74 -238.5q0 -200 -124 -312.5t-326 -112.5q-96 0 -188.5 32.5t-154.5 96.5v-507h-119v1462q0 174 122 294t294 120zM556 823q151 0 222.5 72t71.5 203q0 113 -75.5 195 t-214.5 82q-126 0 -211.5 -89t-85.5 -223v-825q45 -73 134.5 -115.5t199.5 -42.5q162 0 250.5 86t88.5 234q0 140 -87.5 230.5t-243.5 90.5h-143v102h94z" />
<glyph unicode="&#x3b3;" horiz-adv-x="1085" d="M1078 993l-99 -8l-362 -954v-446h-120v438l-297 849q-27 74 -52.5 95t-67.5 21q-18 0 -36.5 -5t-32.5 -10l-17 92q20 11 52 19t62 8q74 0 115.5 -35.5t73.5 -129.5l223 -656l34 -128h6l38 128l258 711l-136 11v89h358v-89z" />
<glyph unicode="&#x3b4;" horiz-adv-x="1140" d="M218 1289q0 122 100 198t265 76q80 0 159 -20.5t151 -60.5l-30 -88q-68 30 -133 47.5t-148 17.5q-107 0 -175.5 -45t-68.5 -123q0 -71 61.5 -124.5t215.5 -93.5q210 -60 321.5 -204t111.5 -333v-32q0 -231 -130.5 -377.5t-346.5 -146.5q-218 0 -349 146.5t-131 377.5v32 q0 188 104 317t245 156l2 11q-114 43 -169 113.5t-55 155.5zM212 504q0 -180 95 -302t264 -122q167 0 262 122t95 302v32q0 155 -101.5 273.5t-243.5 144.5q-174 0 -272.5 -122.5t-98.5 -295.5v-32z" />
<glyph unicode="&#x3b5;" horiz-adv-x="1093" d="M105 297q0 97 56.5 162.5t167.5 95.5q-98 34 -151.5 97.5t-53.5 141.5q0 146 113.5 225.5t309.5 79.5q181 0 305 -84.5t119 -218.5l-2 -6h-109q0 91 -90.5 149.5t-222.5 58.5q-151 0 -227 -57t-76 -145q0 -92 72.5 -143t226.5 -51h185v-100h-185q-159 0 -238.5 -50.5 t-79.5 -156.5q0 -96 85 -154.5t237 -58.5q146 0 238 65.5t92 162.5h110l2 -6q5 -156 -127.5 -239t-314.5 -83q-197 0 -319.5 84t-122.5 231z" />
<glyph unicode="&#x3b6;" horiz-adv-x="1007" d="M925 1456v-78l-396 -504q-125 -155 -177.5 -272t-52.5 -239q0 -100 59 -156t194 -87l109 -31q126 -34 180.5 -72.5t54.5 -128.5q-1 -80 -54.5 -159t-111.5 -116l-68 57q50 42 84.5 94.5t34.5 109.5q0 45 -37.5 71t-121.5 48l-90 23q-191 49 -271.5 126.5t-80.5 217.5 q0 116 59.5 259.5t197.5 312.5l339 417l-3 5h-700v102h852z" />
<glyph unicode="&#x3b7;" horiz-adv-x="1203" d="M212 0l1 891q0 52 -19.5 72t-56.5 20q-28 0 -57 -8t-53 -20l-31 91q32 21 79 35.5t94 14.5q83 0 123.5 -43t40.5 -139v-10q53 94 139.5 146t204.5 52q177 0 268 -105t91 -338v-1074h-119v1073q0 186 -69.5 264t-198.5 78q-124 0 -202 -61t-114 -164v-775h-121z" />
<glyph unicode="&#x3b8;" horiz-adv-x="1152" d="M1033 565q0 -282 -119.5 -434t-332.5 -152q-212 0 -332.5 152.5t-120.5 433.5v325q0 281 119.5 434t331.5 153q213 0 333.5 -153t120.5 -434v-325zM247 775h666v135q0 224 -85.5 344.5t-248.5 120.5q-162 0 -247 -121t-85 -344v-135zM913 673h-666v-126 q0 -222 86.5 -344.5t247.5 -122.5q162 0 247 122t85 345v126z" />
<glyph unicode="&#x3b9;" horiz-adv-x="628" d="M312 274q0 -106 38 -148.5t107 -42.5q26 0 48.5 4t51.5 13l25 -89q-35 -18 -70.5 -25t-76.5 -7q-123 0 -183 70.5t-60 229.5v701l-163 13v89h283v-808z" />
<glyph unicode="&#x3ba;" horiz-adv-x="1202" d="M62 0zM62 88l163 13v878l-159 14v88h278v-451h127l340 351l-2 5l-97 7v89h382v-89l-127 -12l-382 -394l420 -488l120 -11v-88h-183l-459 527h-139v-426l163 -13v-88h-445v88z" />
<glyph unicode="&#x3bb;" horiz-adv-x="1135" d="M167 0h-132l416 1052l-80 206q-27 80 -62 119t-95 39q-8 0 -24 -1.5t-23 -2.5l-5 95q12 4 39 7.5t46 3.5q102 0 152.5 -58t82.5 -155l398 -1047q30 -80 62 -121.5t78 -41.5q9 0 22 0.5t20 3.5l8 -99q-11 -4 -30.5 -7.5t-36.5 -3.5q-92 0 -143.5 58.5t-94.5 173.5 l-256 677h-6l-33 -114z" />
<glyph unicode="&#x3bc;" horiz-adv-x="1297" d="M66 0zM347 1082v-633q0 -207 71 -288t192 -81q137 0 212 59.5t103 170.5v670l-163 13v89h283v-981l163 -13v-88h-266l-11 155q-48 -85 -126 -130.5t-187 -45.5q-88 0 -157 30t-114 96v-521h-118v1396l-163 13v89h163h118z" />
<glyph unicode="&#x3bd;" horiz-adv-x="1155" d="M47 0zM411 993l-135 -10l270 -712l35 -127h6l38 127l266 712l-135 10v89h364v-89l-106 -9l-382 -984h-96l-383 984l-106 9v89h364v-89z" />
<glyph unicode="&#x3be;" horiz-adv-x="1005" d="M902 1333q-57 19 -114 30t-114 11q-180 0 -270.5 -65t-90.5 -167q0 -114 88 -176t276 -62h131v-103h-131q-201 0 -319.5 -88.5t-118.5 -268.5q0 -147 98 -230.5t270 -125.5l75 -16q126 -30 183.5 -70t57.5 -128q0 -73 -53.5 -143.5t-110.5 -111.5l-65 58q57 53 85.5 90.5 t28.5 95.5q0 46 -38.5 70.5t-127.5 43.5l-48 12q-230 54 -352.5 155.5t-122.5 303.5q0 153 87 256t241 148q-122 37 -188.5 113t-66.5 173q0 161 129.5 249t353.5 88q64 0 129 -12t115 -32z" />
<glyph unicode="&#x3bf;" horiz-adv-x="1152" d="M97 0zM97 557q0 239 131 392t347 153q217 0 348 -153t131 -392v-33q0 -240 -130.5 -392.5t-346.5 -152.5q-218 0 -349 152.5t-131 392.5v33zM217 524q0 -188 95 -316t265 -128q167 0 262 128t95 316v33q0 185 -95.5 314t-263.5 129t-263 -129t-95 -314v-33z" />
<glyph unicode="&#x3c0;" horiz-adv-x="1273" d="M1108 979h-183v-705q0 -106 38 -148.5t107 -42.5q26 0 48.5 4t51.5 13l25 -89q-35 -18 -70.5 -25t-76.5 -7q-123 0 -183 70.5t-60 229.5v700h-463v-979h-120v979h-147v103h1033v-103z" />
<glyph unicode="&#x3c1;" horiz-adv-x="1134" d="M1002 511q0 -243 -108.5 -387.5t-301.5 -144.5q-112 0 -197 40t-141 115v-550h-120v1015h1l-1 9q0 234 122.5 364t310.5 130q207 0 321 -154.5t114 -415.5v-21zM882 532q0 207 -79 337.5t-236 130.5q-158 0 -235.5 -122t-77.5 -282v-329q42 -87 119.5 -137t191.5 -50 q157 0 237 117.5t80 313.5v21z" />
<glyph unicode="&#x3c2;" horiz-adv-x="1090" d="M573 1102q176 0 290 -101.5t110 -279.5l-2 -6h-106q0 132 -81 208.5t-211 76.5q-166 0 -253.5 -126.5t-87.5 -311.5v-42q0 -168 101.5 -274.5t294.5 -153.5q135 -34 191 -76.5t56 -138.5q-1 -66 -53 -142.5t-104 -110.5l-66 57q49 43 78.5 85.5t29.5 98.5t-34.5 81 t-131.5 46q-232 50 -357.5 180t-125.5 348v42q0 233 124.5 386.5t337.5 153.5z" />
<glyph unicode="&#x3c3;" horiz-adv-x="1241" d="M1144 979h-313q110 -69 170 -182t60 -258v-33q0 -226 -131.5 -376.5t-345.5 -150.5q-217 0 -348 152.5t-131 392.5v33q0 229 130.5 377t346.5 148h562v-103zM224 524q0 -188 95 -316t265 -128q167 0 262.5 128t95.5 316v33q0 176 -96 299t-264 123t-263 -123t-95 -299 v-33z" />
<glyph unicode="&#x3c4;" horiz-adv-x="1025" d="M959 1082v-102h-401v-706q0 -106 38 -148.5t107 -42.5q25 0 49.5 5t56.5 15l25 -89q-34 -18 -73 -26.5t-80 -8.5q-122 0 -182.5 70.5t-60.5 229.5v701h-376v102h897z" />
<glyph unicode="&#x3c5;" horiz-adv-x="1192" d="M348 405q0 -168 65 -246.5t176 -78.5q161 0 248.5 136.5t87.5 323.5q-2 140 -33 274.5t-84 267.5h130q49 -120 77.5 -246t28.5 -294q0 -247 -116.5 -405t-332.5 -158q-174 0 -270 104.5t-96 323.5v487q0 51 -20 71t-57 20q-28 0 -57.5 -8t-52.5 -19l-31 91 q35 23 80.5 36.5t92.5 13.5q84 0 124 -43t40 -140v-511z" />
<glyph unicode="&#x3c6;" horiz-adv-x="1453" d="M635 -19q-268 18 -395 173.5t-127 399.5q0 176 69.5 311.5t189.5 216.5l63 -87q-96 -70 -149 -189.5t-54 -252.5q0 -187 94 -318.5t303 -144.5l6 2v768q0 96 65.5 159t156.5 63q184 0 310 -152.5t126 -384.5q0 -230 -136.5 -388.5t-401.5 -175.5v-459h-120v459zM755 90 l6 -2q201 12 307 145t106 311q-2 177 -89 306t-228 129q-45 0 -73.5 -32.5t-28.5 -83.5v-773z" />
<glyph unicode="&#x3c7;" horiz-adv-x="1192" d="M73 88l121 11l337 447l-321 436l-122 11v89l205 -1l313 -438l254 345l-111 5v89h367v-89l-121 -11l-326 -429l341 -454l122 -11v-88h-198l-332 461l-274 -368l111 -5v-88h-366v88z" />
<glyph unicode="&#x3c8;" horiz-adv-x="1548" d="M341 591q-1 -242 99 -365t275 -135l6 2v988h120v-990l6 -2q219 11 318 149.5t99 339.5q-1 129 -38 254.5t-101 249.5h131q59 -115 93.5 -231.5t34.5 -271.5q0 -260 -131.5 -422t-411.5 -176v-424h-120v425q-239 18 -370 168.5t-130 442.5v302q0 51 -19.5 71t-56.5 20 q-28 0 -57.5 -8t-52.5 -19l-32 91q35 23 80.5 36.5t93.5 13.5q83 0 123.5 -43t40.5 -139v-327z" />
<glyph unicode="&#x3c9;" horiz-adv-x="1666" d="M383 1082q-69 -135 -108 -272t-40 -281q0 -192 66 -320.5t200 -128.5q119 0 190 96.5t71 301.5v292h121v-292q0 -205 70 -301.5t190 -96.5q134 0 201 128t67 321q-3 143 -42.5 280t-106.5 273h130q64 -127 101 -254t37 -297q0 -243 -97 -397.5t-284 -154.5 q-121 0 -204.5 63t-122.5 190q-40 -127 -123 -190t-203 -63q-189 0 -284.5 154t-95.5 398q0 171 36.5 299t100.5 252h130z" />
<glyph unicode="&#x3ca;" horiz-adv-x="628" d="M0 0zM312 274q0 -106 38 -148.5t107 -42.5q26 0 48.5 4t51.5 13l25 -89q-35 -18 -70.5 -25t-76.5 -7q-123 0 -183 70.5t-60 229.5v701l-163 13v89h283v-808zM584 1306h-173v157h173v-157zM115 1306h-174v157h174v-157z" />
<glyph unicode="&#x3cb;" horiz-adv-x="1192" d="M11 0zM348 405q0 -168 65 -246.5t176 -78.5q161 0 248.5 136.5t87.5 323.5q-2 140 -33 274.5t-84 267.5h130q49 -120 77.5 -246t28.5 -294q0 -247 -116.5 -405t-332.5 -158q-174 0 -270 104.5t-96 323.5v487q0 51 -20 71t-57 20q-28 0 -57.5 -8t-52.5 -19l-31 91 q35 23 80.5 36.5t92.5 13.5q84 0 124 -43t40 -140v-511zM868 1306h-173v157h173v-157zM399 1306h-174v157h174v-157z" />
<glyph unicode="&#x3cc;" horiz-adv-x="1152" d="M97 0zM97 557q0 239 131 392t347 153q217 0 348 -153t131 -392v-33q0 -240 -130.5 -392.5t-346.5 -152.5q-218 0 -349 152.5t-131 392.5v33zM217 524q0 -188 95 -316t265 -128q167 0 262 128t95 316v33q0 185 -95.5 314t-263.5 129t-263 -129t-95 -314v-33zM602 1580h152 l-159 -329h-71z" />
<glyph unicode="&#x3cd;" horiz-adv-x="1192" d="M11 0zM348 405q0 -168 65 -246.5t176 -78.5q161 0 248.5 136.5t87.5 323.5q-2 140 -33 274.5t-84 267.5h130q49 -120 77.5 -246t28.5 -294q0 -247 -116.5 -405t-332.5 -158q-174 0 -270 104.5t-96 323.5v487q0 51 -20 71t-57 20q-28 0 -57.5 -8t-52.5 -19l-31 91 q35 23 80.5 36.5t92.5 13.5q84 0 124 -43t40 -140v-511zM577 1569h152l-159 -329h-71z" />
<glyph unicode="&#x3ce;" horiz-adv-x="1666" d="M116 0zM383 1082q-69 -135 -108 -272t-40 -281q0 -192 66 -320.5t200 -128.5q119 0 190 96.5t71 301.5v292h121v-292q0 -205 70 -301.5t190 -96.5q134 0 201 128t67 321q-3 143 -42.5 280t-106.5 273h130q64 -127 101 -254t37 -297q0 -243 -97 -397.5t-284 -154.5 q-121 0 -204.5 63t-122.5 190q-40 -127 -123 -190t-203 -63q-189 0 -284.5 154t-95.5 398q0 171 36.5 299t100.5 252h130zM846 1569h152l-159 -329h-71z" />
<glyph unicode="&#x3d1;" horiz-adv-x="1313" d="M620 83q190 0 296 121t106 345v36q-222 8 -357.5 133.5t-135.5 317.5v62q0 173 85 276t220 103q142 0 224.5 -101t82.5 -278v-549q0 -266 -142.5 -418t-378.5 -152q-224 0 -361.5 158.5t-137.5 411.5v703l119 2v-705q0 -211 102.5 -338.5t277.5 -127.5zM648 1034 q0 -144 98.5 -239t270.5 -100l5 2v401q0 135 -48 204.5t-140 69.5q-85 0 -135.5 -69.5t-50.5 -204.5v-64z" />
<glyph unicode="&#x3d2;" horiz-adv-x="1257" d="M873 1239q52 124 112.5 176t146.5 52q30 0 57.5 -7t48.5 -19l-23 -94q-10 5 -26.5 10t-36.5 5q-49 0 -88.5 -29t-76.5 -114l-281 -620v-599h-120v601l-284 618q-39 85 -78 114t-86 29q-21 0 -38 -5t-25 -10l-23 94q20 12 47.5 19t58.5 7q85 0 145.5 -52t113.5 -176 l189 -426l36 -111h6l36 111z" />
<glyph unicode="&#x3d6;" horiz-adv-x="1687" d="M1621 979h-166q41 -97 64.5 -205.5t23.5 -242.5q0 -243 -92 -397.5t-270 -154.5q-121 0 -204.5 63t-122.5 190q-40 -127 -122.5 -190t-202.5 -63q-179 0 -270.5 154.5t-91.5 397.5q0 133 23 241.5t65 206.5h-150v103h1516v-103zM1424 529q-2 116 -28.5 227.5t-72.5 222.5 h-937q-47 -111 -73.5 -223t-26.5 -227q0 -193 62 -321t187 -128q119 0 189 96.5t70 301.5v269h121v-269q0 -205 70.5 -301.5t190.5 -96.5q123 0 185.5 128t62.5 321z" />
<glyph unicode="&#x400;" horiz-adv-x="1286" d="M71 0zM950 705h-597v-604h688l9 218h106v-319h-1085v88l163 13v1253l-163 13v89h163h917v-320h-106l-9 218h-683v-547h597v-102zM702 1567h-117l-241 261l2 5h154z" />
<glyph unicode="&#x401;" horiz-adv-x="1286" d="M71 0zM950 705h-597v-604h688l9 218h106v-319h-1085v88l163 13v1253l-163 13v89h163h917v-320h-106l-9 218h-683v-547h597v-102zM949 1641h-173v157h173v-157zM480 1641h-174v157h174v-157z" />
<glyph unicode="&#x402;" horiz-adv-x="1558" d="M1219 1149h-107l-9 205h-465v-540q90 31 177 51t154 20q232 0 365.5 -116t133.5 -346q0 -185 -122 -308.5t-350 -120.5l-5 2l-1 90q177 0 267.5 95t90.5 242q-1 179 -101 267.5t-278 88.5q-76 0 -161.5 -19.5t-169.5 -50.5v-608l154 -13v-88h-437v88l163 13v1253h-324 l-8 -205h-107v307h1140v-307z" />
<glyph unicode="&#x403;" horiz-adv-x="1209" d="M77 0zM77 88l163 13v1253l-163 13v89h1039v-307h-107l-9 205h-641v-1253l163 -13v-88h-445v88zM727 1818h147l3 -6l-249 -260h-107z" />
<glyph unicode="&#x404;" horiz-adv-x="1274" d="M1215 1001h-93l-17 221q-58 69 -151 111.5t-215 42.5q-234 0 -375.5 -162.5t-150.5 -420.5l2 -5h612v-101h-613l-2 -5q5 -265 145.5 -433t366.5 -168q123 0 223.5 43t157.5 111l17 221h93v-256q-68 -94 -198.5 -157t-292.5 -63q-280 0 -458 207.5t-178 531.5v19 q0 325 177.5 532.5t464.5 207.5q162 0 289.5 -63.5t195.5 -157.5v-256z" />
<glyph unicode="&#x405;" horiz-adv-x="1220" d="M1099 1024h-98l-17 206q-54 68 -147 106.5t-218 38.5q-180 0 -280.5 -78t-100.5 -194q0 -110 90.5 -183.5t313.5 -129.5q235 -60 357.5 -162t122.5 -269q0 -174 -142 -277t-363 -103q-156 0 -289.5 55t-218.5 157v255h98l17 -213q66 -75 169 -114t224 -39q172 0 278.5 76 t106.5 201q0 119 -89 194.5t-310 133.5q-239 60 -362 156t-123 259q0 167 140 272t361 105q159 0 283.5 -55t196.5 -149v-249z" />
<glyph unicode="&#x406;" horiz-adv-x="627" d="M91 0zM91 1367v89h446v-89l-163 -13v-1253l163 -13v-88h-446v88l163 13v1253z" />
<glyph unicode="&#x407;" horiz-adv-x="627" d="M0 0zM91 1367v89h446v-89l-163 -13v-1253l163 -13v-88h-446v88l163 13v1253zM637 1640h-173v157h173v-157zM168 1640h-174v157h174v-157z" />
<glyph unicode="&#x408;" horiz-adv-x="1158" d="M49 0zM1080 1456v-89l-163 -13v-941q0 -199 -118.5 -316.5t-306.5 -117.5q-205 0 -324 106t-114 310l2 6h112q0 -158 84 -239.5t240 -81.5q133 0 219 90.5t86 242.5v941l-163 13v89h283h163z" />
<glyph unicode="&#x409;" horiz-adv-x="2197" d="M1421 1456v-89l-163 -13v-508h364q230 0 355.5 -117t125.5 -306t-126 -306t-355 -117h-484v1354h-562l-20 -557q-17 -437 -112.5 -617t-342.5 -180h-41v101h37q175 0 249 148t91 548l19 557l-159 13v89h961h163zM1258 745v-644h364q180 0 271 93t91 231q0 133 -91 226.5 t-271 93.5h-364z" />
<glyph unicode="&#x40a;" horiz-adv-x="2247" d="M77 1367v89h445v-89l-163 -13v-569h829v569l-163 13v89h163h119h163v-89l-163 -13v-530h365q230 0 355 -113t125 -297q0 -185 -126 -299.5t-354 -114.5h-647v88l163 13v583h-829v-583l163 -13v-88h-445v88l163 13v1253zM1307 722v-616h365q180 0 270.5 88t90.5 222 q0 129 -90.5 217.5t-270.5 88.5h-365z" />
<glyph unicode="&#x40b;" horiz-adv-x="1732" d="M1209 1149h-106l-9 205h-446v-546q92 25 182.5 38.5t194.5 13.5q239 0 361 -105.5t122 -341.5v-312l163 -13v-88h-445v88l163 13v312q0 185 -90 265t-274 80q-97 0 -190 -13.5t-187 -38.5v-605l163 -13v-88h-446v88l163 13v1253h-344l-8 -205h-107v307h1140v-307z" />
<glyph unicode="&#x40c;" horiz-adv-x="1417" d="M71 0zM71 88l163 13v1253l-163 13v89h445v-89l-163 -13v-568h199l490 573l-140 8v89h407v-89l-128 -12l-521 -615l562 -640l131 -12v-88h-415v88l138 8l-523 589h-200v-584l163 -13v-88h-445v88zM782 1787h147l3 -6l-249 -260h-107z" />
<glyph unicode="&#x40d;" horiz-adv-x="1562" d="M77 0zM522 1456v-89l-163 -13v-990l6 -2l828 876v116l-163 13v89h163h119h163v-89l-163 -13v-1253l163 -13v-88h-445v88l163 13v981l-6 2l-828 -879v-104l163 -13v-88h-445v88l163 13v1253l-163 13v89h163h119h163zM830 1567h-117l-241 261l2 5h154z" />
<glyph unicode="&#x40e;" horiz-adv-x="1398" d="M42 0zM1356 1367l-116 -9l-513 -1110q-58 -122 -132 -195.5t-220 -73.5q-23 0 -53 3.5t-40 7.5l11 97q11 -3 37.5 -5t46.5 -2q87 0 137.5 50t97.5 145l53 107l-501 975l-122 10v89h382v-89l-122 -9l357 -698l63 -147h6l372 844l-128 10v89h384v-89zM993 1835l2 -6 q4 -111 -73 -181.5t-209 -70.5q-134 0 -211 70t-72 182l2 6h94q0 -77 45 -124t142 -47q94 0 140 48t46 123h94z" />
<glyph unicode="&#x40f;" horiz-adv-x="1560" d="M1470 1367l-163 -13v-1253l163 -13v-88h-631v-353h-120v353h-642v88l163 13v1253l-163 13v89h282h163v-89l-163 -13v-1253h829v1253l-163 13v89h445v-89z" />
<glyph unicode="&#x410;" horiz-adv-x="1485" d="M55 0zM55 88l107 8l517 1360h113l512 -1360l109 -8v-88h-359v88l127 10l-120 326h-654l-121 -326l127 -10v-88h-358v88zM447 531h575l-283 770h-6z" />
<glyph unicode="&#x411;" horiz-adv-x="1316" d="M1105 1149h-107l-9 205h-637v-532h365q230 0 355 -111t125 -298q0 -188 -125.5 -300.5t-354.5 -112.5h-651v88l163 13v1253l-163 13v89h1039v-307zM352 720v-619h365q181 0 270.5 88.5t89.5 225.5q0 131 -90 218t-270 87h-365z" />
<glyph unicode="&#x412;" horiz-adv-x="1322" d="M71 0zM659 1456q227 0 353.5 -95.5t126.5 -287.5q0 -112 -63.5 -195t-172.5 -115q133 -24 216 -125t83 -233q0 -195 -126.5 -300t-338.5 -105h-666v88l163 13v1253l-163 13v89h163h425zM353 702v-601h384q161 0 253 79.5t92 222.5q0 131 -83.5 215t-242.5 84h-403z M353 803h335q158 0 244.5 69.5t86.5 204.5q0 138 -92 207.5t-268 69.5h-306v-551z" />
<glyph unicode="&#x413;" horiz-adv-x="1209" d="M77 0zM77 88l163 13v1253l-163 13v89h1039v-307h-107l-9 205h-641v-1253l163 -13v-88h-445v88z" />
<glyph unicode="&#x414;" horiz-adv-x="1544" d="M1390 -353h-111v353h-1105v-353h-106l-13 454h98q82 86 163 284t98 547l21 422l-158 13v89h1129v-89l-163 -13v-1253h156zM534 932q-15 -285 -82.5 -499.5t-160.5 -331.5h832v1253h-568z" />
<glyph unicode="&#x415;" horiz-adv-x="1286" d="M71 0zM950 705h-597v-604h688l9 218h106v-319h-1085v88l163 13v1253l-163 13v89h163h917v-320h-106l-9 218h-683v-547h597v-102z" />
<glyph unicode="&#x416;" horiz-adv-x="2029" d="M772 679l-418 -584l95 -7v-88h-386v88l142 11l469 651l-344 489q-52 70 -88 94t-85 24q-20 0 -38.5 -4t-34.5 -10l-26 89q24 16 54 25.5t64 9.5q70 0 125.5 -33.5t125.5 -133.5l362 -514h163v568l-163 13v89h445v-89l-163 -13v-568h170l362 514q69 100 124.5 133.5 t127.5 33.5q33 0 62.5 -9.5t54.5 -25.5l-26 -89q-17 6 -35.5 10t-37.5 4q-50 0 -86 -24t-87 -94l-351 -494l465 -646l142 -11v-88h-385v88l94 7l-418 584h-176v-578l163 -13v-88h-445v88l163 13v578h-180z" />
<glyph unicode="&#x417;" horiz-adv-x="1216" d="M580 794q195 0 287 74t92 209q0 134 -97.5 216t-294.5 82q-123 0 -216 -42.5t-150 -111.5l-17 -210h-93v245q67 94 194.5 157.5t290.5 63.5q233 0 368 -105t135 -299q0 -109 -69.5 -196.5t-192.5 -130.5q140 -39 212 -128t72 -223q0 -195 -145.5 -305.5t-379.5 -110.5 q-205 0 -355 108t-145 311l2 6h111q0 -140 108 -232t279 -92q191 0 298.5 84t107.5 227q0 155 -101.5 227.5t-300.5 72.5h-174v103h174z" />
<glyph unicode="&#x418;" horiz-adv-x="1562" d="M522 1456v-89l-163 -13v-990l6 -2l828 876v116l-163 13v89h163h119h163v-89l-163 -13v-1253l163 -13v-88h-445v88l163 13v981l-6 2l-828 -879v-104l163 -13v-88h-445v88l163 13v1253l-163 13v89h163h119h163z" />
<glyph unicode="&#x419;" horiz-adv-x="1562" d="M77 0zM522 1456v-89l-163 -13v-990l6 -2l828 876v116l-163 13v89h163h119h163v-89l-163 -13v-1253l163 -13v-88h-445v88l163 13v981l-6 2l-828 -879v-104l163 -13v-88h-445v88l163 13v1253l-163 13v89h163h119h163zM1038 1835l2 -6q4 -111 -73 -181.5t-209 -70.5 q-134 0 -211 70t-72 182l2 6h94q0 -77 45 -124t142 -47q94 0 140 48t46 123h94z" />
<glyph unicode="&#x41a;" horiz-adv-x="1412" d="M71 88l163 13v1253l-163 13v89h445v-89l-163 -13v-574h200l385 520q73 99 128 133t124 34q32 0 60 -9.5t54 -25.5l-26 -90q-17 6 -36 10.5t-38 4.5q-50 0 -85.5 -24.5t-87.5 -93.5l-372 -498l563 -641l131 -12v-88h-415v88l138 8l-513 578h-210v-573l163 -13v-88h-445v88 z" />
<glyph unicode="&#x41b;" horiz-adv-x="1507" d="M531 1354l-31 -557q-21 -441 -103.5 -619t-298.5 -178h-41v101h37q147 0 207 145.5t80 550.5l31 557l-157 13v89h1174v-89l-163 -13v-1253l163 -13v-88h-446v88l163 13v1253h-615z" />
<glyph unicode="&#x41c;" horiz-adv-x="1861" d="M71 0zM1518 1280l-6 2l-541 -1282h-83l-540 1276l-6 -1l11 -632v-542l163 -13v-88h-445v88l163 13v1253l-163 13v89h163h157l535 -1282h6l537 1282h321v-89l-163 -13v-1253l163 -13v-88h-445v88l163 13v542z" />
<glyph unicode="&#x41d;" horiz-adv-x="1537" d="M71 0zM71 1367v89h445v-89l-163 -13v-582h828v582l-163 13v89h163h119h163v-89l-163 -13v-1253l163 -13v-88h-445v88l163 13v569h-828v-569l163 -13v-88h-445v88l163 13v1253z" />
<glyph unicode="&#x41e;" horiz-adv-x="1468" d="M106 0zM1357 718q0 -328 -175 -533.5t-455 -205.5q-276 0 -448.5 206t-172.5 533v19q0 327 172 533.5t448 206.5q280 0 455.5 -206.5t175.5 -533.5v-19zM1237 739q0 283 -138 458t-373 175q-231 0 -365.5 -175t-134.5 -458v-21q0 -285 135 -460t366 -175 q237 0 373.5 174.5t136.5 460.5v21z" />
<glyph unicode="&#x41f;" horiz-adv-x="1561" d="M77 0zM77 88l163 13v1253l-163 13v89h1393v-89l-163 -13v-1253l163 -13v-88h-445v88l163 13v1253h-829v-1253l163 -13v-88h-445v88z" />
<glyph unicode="&#x420;" horiz-adv-x="1276" d="M71 0zM685 1456q229 0 354.5 -116.5t125.5 -308.5q0 -194 -125.5 -310t-354.5 -116h-332v-504l163 -13v-88h-445v88l163 13v1253l-163 13v89h163h451zM353 707h332q180 0 270.5 91.5t90.5 230.5q0 140 -90 232.5t-271 92.5h-332v-647z" />
<glyph unicode="&#x421;" horiz-adv-x="1349" d="M103 0zM1230 1000h-93l-17 221q-58 69 -151 111.5t-215 42.5q-244 0 -388 -177.5t-144 -458.5v-21q0 -281 142.5 -459.5t374.5 -178.5q123 0 223.5 43t157.5 111l17 221h93v-256q-68 -94 -198.5 -157t-292.5 -63q-280 0 -458 207.5t-178 531.5v19q0 325 177.5 532.5 t464.5 207.5q162 0 289.5 -63.5t195.5 -157.5v-256z" />
<glyph unicode="&#x422;" horiz-adv-x="1280" d="M60 0zM1218 1456v-307h-106l-9 205h-404v-1253l163 -13v-88h-446v88l163 13v1253h-404l-8 -205h-107v307h1158z" />
<glyph unicode="&#x423;" horiz-adv-x="1398" d="M1356 1367l-116 -9l-513 -1110q-58 -122 -132 -195.5t-220 -73.5q-23 0 -53 3.5t-40 7.5l11 97q11 -3 37.5 -5t46.5 -2q87 0 137.5 50t97.5 145l53 107l-501 975l-122 10v89h382v-89l-122 -9l357 -698l63 -147h6l372 844l-128 10v89h384v-89z" />
<glyph unicode="&#x424;" horiz-adv-x="1525" d="M675 171q-266 0 -432.5 158.5t-166.5 400.5q0 241 167 400.5t432 159.5h27v133l-163 14v88h446v-88l-163 -14v-133h27q265 0 432.5 -158.5t167.5 -399.5q0 -242 -168 -401.5t-432 -159.5h-27v-138l163 -14v-88h-446v88l163 14v138h-27zM822 1189v-916h29q221 0 349.5 127 t128.5 332q0 202 -128.5 329.5t-349.5 127.5h-29zM675 1189q-223 0 -351 -128t-128 -331q0 -205 127.5 -331t351.5 -126h27v916h-27z" />
<glyph unicode="&#x425;" horiz-adv-x="1397" d="M54 0zM54 88l122 10l453 640l-438 619l-122 10v89h400v-89l-139 -6l368 -532l369 532l-137 6v89h399v-89l-122 -10l-437 -619l453 -640l123 -10v-88h-399v88l137 6l-384 553l-385 -553l138 -6v-88h-399v88z" />
<glyph unicode="&#x426;" horiz-adv-x="1579" d="M1470 1456v-89l-163 -13v-1253h159v-452h-118v351h-1271v88l163 13v1253l-163 13v89h282h163v-89l-163 -13v-1253h829v1253l-163 13v89h163h119h163z" />
<glyph unicode="&#x427;" horiz-adv-x="1491" d="M1104 664q-101 -29 -196 -43.5t-203 -14.5q-240 0 -361.5 105t-121.5 342v301l-163 13v89h282h163v-89l-163 -13v-301q0 -186 89 -265.5t275 -79.5q102 0 200 14.5t199 43.5v588l-163 13v89h283h163v-89l-163 -13v-1253l163 -13v-88h-446v88l163 13v563v0z" />
<glyph unicode="&#x428;" horiz-adv-x="2017" d="M77 88l163 13v1253l-163 13v89h283h163v-89l-163 -13v-1253h584v1253l-163 13v89h446v-89l-163 -13v-1253h584v1253l-163 13v89h163h119h163v-89l-163 -13v-1253l163 -13v-88h-1853v88z" />
<glyph unicode="&#x429;" horiz-adv-x="2024" d="M1930 1456v-89l-163 -13v-1252h173l-9 -453h-110v351h-1744v88l163 13v1253l-163 13v89h163h120h163v-89l-163 -13v-1253h584v1253l-163 13v89h283h163v-89l-163 -13v-1253h584v1253l-163 13v89h163h282z" />
<glyph unicode="&#x42a;" horiz-adv-x="1661" d="M185 1354l-8 -204h-107v306h652h163v-89l-163 -13v-532h365q230 0 355 -111t125 -298q0 -188 -125.5 -300.5t-354.5 -112.5h-647v88l163 13v1253h-418zM722 720v-619h365q181 0 270.5 88.5t89.5 225.5q0 131 -90 218t-270 87h-365z" />
<glyph unicode="&#x42b;" horiz-adv-x="1769" d="M360 1456v-634h365q230 0 355 -111t125 -298q0 -188 -125.5 -300.5t-354.5 -112.5h-647v88l163 13v1253l-163 13v89h163h119zM360 720v-619h365q181 0 270.5 88.5t89.5 225.5q0 131 -90 218t-270 87h-365zM1272 1367v89h446v-89l-163 -13v-1253l163 -13v-88h-446v88 l163 13v1253zM523 1456v-89l-163 -13v102h163z" />
<glyph unicode="&#x42c;" horiz-adv-x="1320" d="M352 1456v-634h365q230 0 355 -111t125 -298q0 -188 -125.5 -300.5t-354.5 -112.5h-647v88l163 13v1253l-163 13v89h163h119zM352 720v-619h365q181 0 270.5 88.5t89.5 225.5q0 131 -90 218t-270 87h-365zM515 1456v-89l-163 -13v102h163z" />
<glyph unicode="&#x42d;" horiz-adv-x="1268" d="M89 1257q67 93 195 156.5t290 63.5q284 0 453 -205.5t169 -533.5v-20q0 -327 -169.5 -532.5t-446.5 -205.5q-163 0 -293.5 62.5t-197.5 156.5v257h93l17 -221q55 -69 155.5 -111.5t225.5 -42.5q224 0 356 168t136 438l-3 5h-595v101h594l2 5q-10 258 -143 417.5 t-362 159.5q-123 0 -216.5 -42.5t-149.5 -111.5l-17 -221h-93v257z" />
<glyph unicode="&#x42e;" horiz-adv-x="1941" d="M57 1367v89h446v-89l-163 -13v-589h271q9 315 180 512.5t440 197.5q280 0 455.5 -206.5t175.5 -533.5v-19q0 -328 -175 -533.5t-455 -205.5q-264 0 -434.5 190t-185.5 497h-272v-563l163 -13v-88h-446v88l163 13v1253zM1742 737q0 283 -138 458t-373 175 q-231 0 -365.5 -175t-134.5 -458v-21q0 -285 135 -460t366 -175q237 0 373.5 174.5t136.5 460.5v21z" />
<glyph unicode="&#x42f;" horiz-adv-x="1372" d="M78 115q13 -7 28.5 -10.5t32.5 -3.5q46 0 82 30.5t70 100.5l199 404l-3 2q-151 46 -229.5 143t-78.5 242q0 208 131 320.5t362 112.5h608v-89l-163 -13v-1253l163 -13v-88h-447v88l163 13v505h-409l-203 -435q-44 -94 -102.5 -136.5t-125.5 -42.5q-31 0 -56 8t-48 25z M299 1025q0 -143 89.5 -229.5t249.5 -86.5h358v645h-324q-184 0 -278.5 -86t-94.5 -243z" />
<glyph unicode="&#x430;" d="M104 0zM844 0q-12 55 -17 95t-5 81q-60 -85 -160 -141t-225 -56q-159 0 -246 82t-87 222q0 150 129 238t350 88h239v143q0 116 -74.5 182t-208.5 66q-90 0 -164.5 -24.5t-124.5 -66.5l-10 -145h-99l1 208q75 58 179.5 94t222.5 36q179 0 288 -91t109 -261v-532 q0 -33 1.5 -63.5t6.5 -59.5l108 -7v-88h-213zM450 85q130 0 229 60t143 155v217h-241q-163 0 -260.5 -67.5t-97.5 -170.5q0 -87 60.5 -140.5t166.5 -53.5z" />
<glyph unicode="&#x431;" horiz-adv-x="1162" d="M601 1010q209 0 335.5 -136t126.5 -348v-33q0 -226 -131 -370t-347 -144q-217 0 -348 144t-131 370v157q0 314 130.5 504.5t354.5 226.5q151 23 213.5 61t62.5 111h94l2 -6q4 -136 -83.5 -192.5t-263.5 -79.5q-155 -19 -261.5 -131t-127.5 -304l4 -5q58 79 155.5 127 t214.5 48zM583 909q-168 0 -263 -112t-95 -271v-33q0 -175 95 -294t265 -119q167 0 262.5 119t95.5 294v33q0 160 -96 271.5t-264 111.5z" />
<glyph unicode="&#x432;" horiz-adv-x="1249" d="M657 1082q202 0 314 -72.5t112 -216.5q0 -83 -50.5 -146t-141.5 -91q106 -20 170.5 -91.5t64.5 -164.5q0 -147 -107.5 -223.5t-292.5 -76.5h-629v88l163 13v879l-163 13v89h163h397zM379 498v-398h347q134 0 207 52t73 150q0 90 -74 143t-206 53h-347zM379 598h289 q145 0 220 48.5t75 143.5q0 97 -77 143.5t-229 46.5h-278v-382z" />
<glyph unicode="&#x433;" horiz-adv-x="1050" d="M235 980l-163 13v89h830v-18h15v-215h-88l-9 130h-466v-878l163 -13v-88h-445v88l163 13v879z" />
<glyph unicode="&#x434;" horiz-adv-x="1277" d="M144 101q86 108 137 226.5t62 363.5l13 289l-158 13v89h965v-89l-163 -13v-879h112l-9 -419h-110v318h-813v-318h-106l-8 419h78zM462 691q-9 -212 -57 -355t-123 -235h598v869h-405z" />
<glyph unicode="&#x435;" horiz-adv-x="1102" d="M102 0zM574 -21q-204 0 -338 149.5t-134 380.5v55q0 232 133.5 385t322.5 153q199 0 313 -126t114 -336v-102h-764v-29q0 -182 97.5 -305.5t255.5 -123.5q111 0 190 31t135 89l51 -82q-61 -64 -154 -101.5t-222 -37.5zM558 1000q-132 0 -222.5 -101.5t-105.5 -254.5l2 -5 h634v30q0 141 -83 236t-225 95z" />
<glyph unicode="&#x436;" horiz-adv-x="1767" d="M662 88l163 13v395h-146l-397 -496h-224v88l152 11l373 463l-235 316q-48 62 -83 85.5t-80 23.5q-21 0 -36.5 -4t-32.5 -10l-26 88q27 17 53.5 26.5t59.5 9.5q65 0 120.5 -36t117.5 -122l247 -337h137v378l-163 13v89h446v-89l-163 -13v-378h146l246 337q62 86 117 122 t121 36q32 0 59 -9.5t54 -26.5l-26 -88q-16 6 -32.5 10t-35.5 4q-47 0 -82 -23.5t-82 -85.5l-238 -320l369 -459l152 -11v-88h-224l-397 496h-147v-395l163 -13v-88h-446v88z" />
<glyph unicode="&#x437;" horiz-adv-x="1038" d="M504 604q142 0 206 49.5t64 142.5q0 89 -67.5 145.5t-206.5 56.5q-117 0 -199 -59t-82 -149h-111l-2 6q-6 133 111 218t283 85q185 0 289.5 -79t104.5 -226q0 -79 -49 -142t-139 -97q102 -30 154.5 -95t52.5 -163q0 -148 -113.5 -231.5t-299.5 -83.5q-167 0 -291.5 83.5 t-119.5 238.5l2 6h110q0 -96 85 -162t214 -66q141 0 217 58t76 155q0 107 -71 156t-218 49h-164v104h164z" />
<glyph unicode="&#x438;" horiz-adv-x="1372" d="M542 1082v-89l-163 -13v-780l6 -1l578 883h120h163v-89l-163 -13v-879l163 -13v-88h-446v88l163 13v782l-6 2l-578 -885h-282v88l163 13v879l-163 13v89h282h163z" />
<glyph unicode="&#x439;" horiz-adv-x="1372" d="M97 0zM542 1082v-89l-163 -13v-780l6 -1l578 883h120h163v-89l-163 -13v-879l163 -13v-88h-446v88l163 13v782l-6 2l-578 -885h-282v88l163 13v879l-163 13v89h282h163zM967 1500l2 -6q4 -111 -73 -181.5t-209 -70.5q-134 0 -211 70t-72 182l2 6h94q0 -77 45 -124 t142 -47q94 0 140 48t46 123h94z" />
<glyph unicode="&#x43a;" horiz-adv-x="1245" d="M97 993v89h446v-89l-163 -13v-378h160l265 337q67 86 120.5 122t117.5 36q32 0 58.5 -9.5t54.5 -26.5l-26 -88q-18 6 -33.5 10t-35.5 4q-44 0 -80 -25t-83 -84l-252 -319l407 -459l142 -12v-88h-211l-438 496h-166v-395l163 -13v-88h-446v88l163 13v879z" />
<glyph unicode="&#x43b;" horiz-adv-x="1294" d="M437 979v-375q0 -318 -74.5 -461t-250.5 -143h-43l1 107l38 1q110 0 159.5 110.5t49.5 385.5v376l-163 13v89h1024v-89l-163 -13v-879l163 -13v-88h-446v88l163 13v878h-458z" />
<glyph unicode="&#x43c;" horiz-adv-x="1702" d="M842 168h6l427 914h148h163v-89l-163 -13v-879l163 -13v-88h-446v88l163 13v770l-6 2l-409 -873h-85l-418 895l-6 -1v-793l163 -13v-88h-445v88l163 13v879l-163 13v89h163h156z" />
<glyph unicode="&#x43d;" horiz-adv-x="1371" d="M97 993v89h445v-89l-163 -13v-383h583v383l-163 13v89h163h120h163v-89l-163 -13v-879l163 -13v-88h-446v88l163 13v395h-583v-395l163 -13v-88h-445v88l163 13v879z" />
<glyph unicode="&#x43e;" horiz-adv-x="1152" d="M97 0zM97 557q0 239 131 392t347 153q217 0 348 -153t131 -392v-33q0 -240 -130.5 -392.5t-346.5 -152.5q-218 0 -349 152.5t-131 392.5v33zM217 524q0 -188 95 -316t265 -128q167 0 262 128t95 316v33q0 185 -95.5 314t-263.5 129t-263 -129t-95 -314v-33z" />
<glyph unicode="&#x43f;" horiz-adv-x="1372" d="M97 88l163 13v879l-163 13v89h1149v-89l-163 -13v-879l163 -13v-88h-446v88l163 13v878h-584v-878l163 -13v-88h-445v88z" />
<glyph unicode="&#x440;" horiz-adv-x="1197" d="M65 0zM65 993v89h263l15 -168q55 90 140.5 139t200.5 49q195 0 305 -155.5t110 -414.5v-21q0 -243 -110 -387.5t-303 -144.5q-114 0 -199.5 43.5t-139.5 123.5v-460l163 -13v-89h-445v89l163 13v1294zM979 532q0 206 -82 336t-240 130q-121 0 -196.5 -57.5t-113.5 -149.5 v-520q41 -89 118.5 -140t193.5 -51q157 0 238.5 118t81.5 313v21z" />
<glyph unicode="&#x441;" horiz-adv-x="1094" d="M559 80q119 0 210 68t91 189h106l2 -6q5 -150 -119.5 -251t-289.5 -101q-220 0 -341 151.5t-121 389.5v42q0 236 121 388t340 152q125 0 229 -47t169 -128l5 -236h-102l-19 192q-48 54 -119.5 85.5t-162.5 31.5q-174 0 -257.5 -124.5t-83.5 -313.5v-42q0 -192 83 -316 t259 -124z" />
<glyph unicode="&#x442;" d="M1031 1082v-307h-106l-9 205h-306v-879l163 -13v-88h-445v88l163 13v879h-292l-8 -205h-107v307h947z" />
<glyph unicode="&#x443;" horiz-adv-x="1174" d="M46 0zM1135 993l-110 -9l-437 -1157q-42 -110 -109 -187t-196 -77q-21 0 -51 4.5t-44 9.5l14 100q12 -2 38.5 -4.5t37.5 -2.5q79 0 125 55t81 143l56 145l-384 971l-110 9v89h372v-89l-129 -10l264 -690l38 -130h6l296 820l-132 10v89h374v-89z" />
<glyph unicode="&#x444;" horiz-adv-x="1459" d="M778 1052q35 24 81 37t103 13q185 0 288 -155t103 -415v-21q0 -243 -102.5 -387.5t-286.5 -144.5q-57 0 -103.5 12t-82.5 35v-340l163 -13v-89h-446v89l163 13v338q-36 -22 -81 -33.5t-98 -11.5q-184 0 -286 144.5t-102 387.5v21q0 260 102 415t288 155q53 0 97 -12.5 t80 -34.5v403l-163 13v89h283v-508zM1233 532q0 207 -75 337.5t-223 130.5q-54 0 -93 -12.5t-64 -31.5v-837q28 -18 67 -28.5t92 -10.5q147 0 221.5 117.5t74.5 313.5v21zM211 511q0 -197 72 -314t219 -117q50 0 89 11t67 30v838q-27 18 -64.5 29.5t-89.5 11.5 q-148 0 -220.5 -130t-72.5 -338v-21z" />
<glyph unicode="&#x445;" horiz-adv-x="1192" d="M73 0zM73 88l121 11l342 452l-326 431l-122 11v89h367v-89l-112 -6l258 -347l259 348l-111 5v89h367v-89l-121 -11l-326 -431l341 -452l122 -11v-88h-366v88l111 5l-275 368l-274 -368l111 -5v-88h-366v88z" />
<glyph unicode="&#x446;" horiz-adv-x="1338" d="M1056 101h126l-9 -422h-109v321h-994v88l163 13v879l-163 13v89h163h119h163v-89l-163 -13v-879h584v879l-163 13v89h283v-981zM1219 1082v-89l-163 -13v102h163z" />
<glyph unicode="&#x447;" horiz-adv-x="1335" d="M510 1082v-88l-163 -13v-173q0 -170 69.5 -237t224.5 -67q72 1 145.5 15t137.5 37v424l-163 13v89h445v-89l-163 -13v-879l163 -13v-88h-445v88l163 13v354q-69 -25 -142 -39.5t-141 -14.5q-209 0 -311 93.5t-102 313.5v173l-163 13v88h282h163z" />
<glyph unicode="&#x448;" horiz-adv-x="1856" d="M97 993v89h282h163v-89l-163 -13v-879h482v981h120v-981h477v879l-163 13v89h282h163v-89l-163 -13v-879l163 -13v-88h-1643v88l163 13v879z" />
<glyph unicode="&#x449;" horiz-adv-x="1857" d="M1735 1082v-89l-163 -13v-878h168l-9 -423h-110v321h-1529v88l163 13v879l-163 13v89h163h119h163v-89l-163 -13v-879h482v981h120v-981h477v879l-163 13v89h163h119h163z" />
<glyph unicode="&#x44a;" horiz-adv-x="1413" d="M178 980l-8 -204h-107v306h527h163v-89l-163 -13v-291h310q186 0 291 -95.5t105 -247.5q0 -153 -105 -249.5t-291 -96.5h-592v88l163 13v879h-293zM590 587v-486h310q139 0 207.5 69.5t68.5 173.5q0 100 -69 171.5t-207 71.5h-310z" />
<glyph unicode="&#x44b;" horiz-adv-x="1625" d="M379 1082v-393h310q186 0 291 -95.5t105 -247.5q0 -153 -105 -249.5t-291 -96.5h-592v88l163 13v879l-163 13v89h163h119zM379 587v-486h310q139 0 207.5 69.5t68.5 173.5q0 100 -69 171.5t-207 71.5h-310zM1139 88l163 13v879l-163 13v89h282v-981l163 -13v-88h-445v88z M542 1082v-89l-163 -13v102h163z" />
<glyph unicode="&#x44c;" horiz-adv-x="1191" d="M379 1082v-393h310q186 0 291 -95.5t105 -247.5q0 -153 -105 -249.5t-291 -96.5h-592v88l163 13v879l-163 13v89h163h119zM379 587v-486h310q139 0 207.5 69.5t68.5 173.5q0 100 -69 171.5t-207 71.5h-310zM542 1082v-89l-163 -13v102h163z" />
<glyph unicode="&#x44d;" horiz-adv-x="1077" d="M530 80q168 0 251.5 116t86.5 295l-3 5h-494v101h493l2 5q-4 171 -87.5 284.5t-247.5 113.5q-92 0 -164 -31.5t-118 -85.5l-20 -192h-101l4 236q65 81 168.5 128t230.5 47q218 0 339 -152t121 -388v-42q0 -238 -121 -389.5t-340 -151.5q-166 0 -290.5 101t-118.5 251l2 6 h105q0 -121 91 -189t211 -68z" />
<glyph unicode="&#x44e;" horiz-adv-x="1735" d="M81 88l163 13v879l-163 13v89h282v-493h285q9 226 139 369.5t338 143.5q217 0 348 -153t131 -392v-33q0 -240 -130.5 -392.5t-346.5 -152.5q-209 0 -339 141t-140 368h-285v-387l163 -13v-88h-445v88zM767 524q0 -188 95 -316t265 -128q167 0 262 128t95 316v33 q0 185 -95.5 314t-263.5 129t-263 -129t-95 -314v-33z" />
<glyph unicode="&#x44f;" horiz-adv-x="1275" d="M532 436l-264 -436h-203v88l130 10l214 352q-112 30 -173 112t-61 197q0 142 102.5 232.5t285.5 90.5h589v-89l-163 -13v-879l163 -13v-88h-446v88l163 13v335h-337zM295 757q0 -92 58.5 -155.5t176.5 -63.5h339v442h-306q-134 0 -201 -64.5t-67 -158.5z" />
<glyph unicode="&#x450;" horiz-adv-x="1102" d="M102 0zM574 -21q-204 0 -338 149.5t-134 380.5v55q0 232 133.5 385t322.5 153q199 0 313 -126t114 -336v-102h-764v-29q0 -182 97.5 -305.5t255.5 -123.5q111 0 190 31t135 89l51 -82q-61 -64 -154 -101.5t-222 -37.5zM558 1000q-132 0 -222.5 -101.5t-105.5 -254.5l2 -5 h634v30q0 141 -83 236t-225 95zM630 1244h-117l-241 261l2 5h154z" />
<glyph unicode="&#x451;" horiz-adv-x="1102" d="M102 0zM574 -21q-204 0 -338 149.5t-134 380.5v55q0 232 133.5 385t322.5 153q199 0 313 -126t114 -336v-102h-764v-29q0 -182 97.5 -305.5t255.5 -123.5q111 0 190 31t135 89l51 -82q-61 -64 -154 -101.5t-222 -37.5zM558 1000q-132 0 -222.5 -101.5t-105.5 -254.5l2 -5 h634v30q0 141 -83 236t-225 95zM877 1318h-173v157h173v-157zM408 1318h-174v157h174v-157z" />
<glyph unicode="&#x452;" horiz-adv-x="1245" d="M591 1217h-247v-320q54 97 144 151t210 54q171 0 262.5 -106t91.5 -329v-756q0 -167 -80.5 -257.5t-223.5 -90.5q-34 0 -63 5t-61 14l14 99q17 -6 51.5 -11t58.5 -5q87 0 135.5 64.5t48.5 181.5v758q0 176 -69.5 252.5t-191.5 76.5q-123 0 -205.5 -64.5t-121.5 -171.5 v-661l163 -13v-88h-445v88l163 13v1116h-207v82h207v159l-163 13v89h282v-261h247v-82z" />
<glyph unicode="&#x453;" horiz-adv-x="1050" d="M72 0zM235 980l-163 13v89h830v-18h15v-215h-88l-9 130h-466v-878l163 -13v-88h-445v88l163 13v879zM650 1491h147l3 -6l-249 -260h-107z" />
<glyph unicode="&#x454;" horiz-adv-x="1101" d="M578 80q119 0 210 68t91 189h106l2 -6q5 -150 -119.5 -251t-289.5 -101q-220 0 -341 151.5t-121 389.5v42q0 236 121 388t340 152q125 0 229 -47t169 -128l5 -236h-102l-19 192q-48 54 -119.5 85.5t-162.5 31.5q-167 0 -250.5 -115t-85.5 -288l2 -5h468v-101h-468l-2 -5 q2 -177 85 -291.5t252 -114.5z" />
<glyph unicode="&#x455;" horiz-adv-x="1025" d="M116 0zM882 748h-98l-14 153q-45 47 -113.5 73t-157.5 26q-131 0 -196.5 -56.5t-65.5 -132.5q0 -75 56.5 -124t225.5 -86q193 -43 289 -117.5t96 -202.5q0 -135 -109.5 -218.5t-289.5 -83.5q-120 0 -218.5 33.5t-170.5 94.5v218h97l17 -154q48 -48 121.5 -69.5 t153.5 -21.5q130 0 205 57t75 138q0 76 -62.5 133t-225.5 93q-193 42 -286.5 111.5t-93.5 194.5q0 124 105 209.5t277 85.5q119 0 217.5 -36.5t160.5 -98.5z" />
<glyph unicode="&#x456;" horiz-adv-x="638" d="M89 0zM89 88l163 13v879l-163 13v89h282v-981l163 -13v-88h-445v88zM371 1392h-119v168h119v-168z" />
<glyph unicode="&#x457;" horiz-adv-x="637" d="M0 0zM90 993v89h282v-981l163 -13v-88h-445v88l163 13v879zM629 1306h-173v157h173v-157zM160 1306h-174v157h174v-157z" />
<glyph unicode="&#x458;" horiz-adv-x="562" d="M0 0zM402 -89q0 -167 -80 -257.5t-223 -90.5q-31 0 -57.5 5t-54.5 14l13 101q15 -5 42.5 -10t49.5 -5q90 0 140 61.5t50 181.5v1069l-163 13v89h283v-1171zM396 1396h-120v164h120v-164z" />
<glyph unicode="&#x459;" horiz-adv-x="1790" d="M1161 1082v-89l-163 -13v-331h310q187 0 291.5 -90t104.5 -233q0 -144 -104.5 -235t-291.5 -91h-593v88l163 13v878h-441v-375q0 -317 -76 -460.5t-253 -143.5h-43l1 103h38q110 0 161.5 113.5t51.5 387.5v376l-163 13v89h844h163zM998 548v-448h310q139 0 207.5 66 t68.5 162q0 92 -68.5 156t-207.5 64h-310z" />
<glyph unicode="&#x45a;" horiz-adv-x="1885" d="M97 88l163 13v879l-163 13v89h445v-89l-163 -13v-328h583v328l-163 13v89h163h120h163v-89l-163 -13v-331h310q187 0 291.5 -90t104.5 -233q0 -144 -104.5 -235t-291.5 -91h-593v88l163 13v450h-583v-450l163 -13v-88h-445v88zM1082 548v-448h310q139 0 207.5 66 t68.5 162q0 92 -68.5 156t-207.5 64h-310z" />
<glyph unicode="&#x45b;" horiz-adv-x="1298" d="M31 1224v102h194v132l-163 13v89h282v-234h299v-102h-299v-327q54 97 144 151t210 54q171 0 262.5 -106t91.5 -329v-566l163 -13v-88h-446v88l163 13v568q0 176 -69.5 252.5t-191.5 76.5q-123 0 -205.5 -64.5t-121.5 -171.5v-661l163 -13v-88h-445v88l163 13v1123h-194z " />
<glyph unicode="&#x45c;" horiz-adv-x="1245" d="M97 0zM97 993v89h446v-89l-163 -13v-378h160l265 337q67 86 120.5 122t117.5 36q32 0 58.5 -9.5t54.5 -26.5l-26 -88q-18 6 -33.5 10t-35.5 4q-44 0 -80 -25t-83 -84l-252 -319l407 -459l142 -12v-88h-211l-438 496h-166v-395l163 -13v-88h-446v88l163 13v879zM750 1482 h147l3 -6l-249 -260h-107z" />
<glyph unicode="&#x45d;" horiz-adv-x="1372" d="M97 0zM542 1082v-89l-163 -13v-780l6 -1l578 883h120h163v-89l-163 -13v-879l163 -13v-88h-446v88l163 13v782l-6 2l-578 -885h-282v88l163 13v879l-163 13v89h282h163zM759 1232h-117l-241 261l2 5h154z" />
<glyph unicode="&#x45e;" horiz-adv-x="1174" d="M46 0zM1135 993l-110 -9l-437 -1157q-42 -110 -109 -187t-196 -77q-21 0 -51 4.5t-44 9.5l14 100q12 -2 38.5 -4.5t37.5 -2.5q79 0 125 55t81 143l56 145l-384 971l-110 9v89h372v-89l-129 -10l264 -690l38 -130h6l296 820l-132 10v89h374v-89zM871 1500l2 -6 q4 -111 -73 -181.5t-209 -70.5q-134 0 -211 70t-72 182l2 6h94q0 -77 45 -124t142 -47q94 0 140 48t46 123h94z" />
<glyph unicode="&#x45f;" horiz-adv-x="1373" d="M735 -353h-119v353h-518v88l163 13v879l-163 13v89h282h163v-89l-163 -13v-879h584v879l-163 13v89h446v-89l-163 -13v-879l163 -13v-88h-512v-353z" />
<glyph unicode="&#x460;" horiz-adv-x="1756" d="M1613 1456v-1045q0 -211 -109.5 -321.5t-286.5 -110.5q-118 0 -207 53.5t-133 159.5q-46 -106 -136 -159.5t-210 -53.5q-174 0 -280.5 110.5t-106.5 321.5v1045h119v-1045q0 -159 74 -245t194 -86q127 0 206.5 86.5t79.5 244.5v1045h122v-1045q0 -159 76.5 -245 t201.5 -86q122 0 199 86.5t77 244.5v1045h120z" />
<glyph unicode="&#x461;" horiz-adv-x="1619" d="M1500 1082v-700q0 -197 -101.5 -300t-265.5 -103q-107 0 -187.5 47.5t-121.5 140.5q-44 -93 -126.5 -140.5t-189.5 -47.5q-162 0 -260 103t-98 300v700h119v-700q0 -145 66 -223.5t173 -78.5q114 0 185.5 78.5t71.5 223.5v700h120v-700q0 -145 68.5 -223.5t179.5 -78.5 q110 0 178.5 78.5t68.5 223.5v700h120z" />
<glyph unicode="&#x462;" horiz-adv-x="1320" d="M352 1172h270v-102h-270v-248h365q230 0 355 -111t125 -298q0 -188 -125.5 -300.5t-354.5 -112.5h-647v88l163 13v969h-223v102h223v182l-163 13v89h282v-284zM352 720v-619h365q181 0 270.5 88.5t89.5 225.5q0 131 -90 218t-270 87h-365zM515 1456v-89l-163 -13v102h163 z" />
<glyph unicode="&#x463;" horiz-adv-x="1137" d="M339 1183h326v-101h-326v-375h310q187 0 291.5 -98t104.5 -254q0 -157 -104.5 -256t-291.5 -99h-592v88l163 13v981h-199v101h199v276l-163 13v89h282v-378zM339 605v-504h310q139 0 207.5 72t68.5 180q0 104 -69 178t-207 74h-310z" />
<glyph unicode="&#x464;" horiz-adv-x="1774" d="M1723 1001h-93l-17 221q-58 69 -151 111.5t-215 42.5q-227 0 -368 -155t-156 -402l3 -6h543v-102h-547l-3 -5q-1 -275 140.5 -450t372.5 -175q123 0 223.5 43t157.5 111l17 221h93v-256q-68 -94 -198.5 -157t-292.5 -63q-278 0 -456 205t-180 526h-251v-610l163 -13v-88 h-446v88l163 13v1253l-163 13v89h163h120h163v-89l-163 -13v-541h254q21 296 195.5 480.5t443.5 184.5q162 0 289.5 -63.5t195.5 -157.5v-256z" />
<glyph unicode="&#x465;" horiz-adv-x="1589" d="M370 601h229q10 221 130 361t330 140q125 0 229 -47t169 -128l5 -236h-102l-19 192q-48 54 -119.5 85.5t-162.5 31.5q-165 0 -248 -112t-87 -282l2 -5h471v-101h-472l-3 -5q0 -180 83.5 -297.5t254.5 -117.5q119 0 210 68t91 189h106l2 -6q5 -150 -119.5 -251 t-289.5 -101q-216 0 -336.5 145t-125.5 376h-228v-399l163 -13v-88h-445v88l163 13v879l-163 13v89h163h119v-481z" />
<glyph unicode="&#x466;" horiz-adv-x="1430" d="M52 88l106 8l500 1360h113l496 -1360l107 -8v-88h-359v88l128 10l-139 386h-237v-484h-120v484h-225l-140 -386l128 -10v-88h-358v88zM460 590h506l-248 695h-6z" />
<glyph unicode="&#x467;" horiz-adv-x="1238" d="M853 347h-171v-347h-119v347h-179l-145 -347h-178v88l93 8l412 986h105l413 -986l94 -8v-88h-177zM427 449h383l-153 360l-36 120h-6l-37 -120z" />
<glyph unicode="&#x468;" horiz-adv-x="1966" d="M510 1456v-89l-163 -13v-764h531l318 866h113l496 -1360l107 -8v-88h-359v88l128 10l-139 386h-237v-484h-120v484h-225l-140 -386l128 -10v-88h-358v88l106 8l143 388h-492v-383l163 -13v-88h-446v88l163 13v1253l-163 13v89h163h120h163zM998 590h506l-248 695h-6z" />
<glyph unicode="&#x469;" horiz-adv-x="1736" d="M353 449h442l265 633h105l413 -986l94 -8v-88h-177l-148 347h-171v-347h-119v347h-179l-145 -347h-178v88l93 8l105 251h-400v-246l163 -13v-88h-445v88l163 13v879l-163 13v89h163h119v-633zM921 449h383l-153 360l-36 120h-6l-37 -120z" />
<glyph unicode="&#x46a;" horiz-adv-x="1845" d="M827 678h-166q-170 0 -246.5 -67t-76.5 -231v-279l163 -13v-88h-446v88l163 13v279q0 210 113 305t330 95h101l-369 576l-135 11v89h1275v-89l-135 -11l-368 -576h95q217 0 330.5 -94.5t113.5 -305.5v-279l163 -13v-88h-446v88l163 13v279q0 165 -77 231.5t-247 66.5 h-160l-11 -17v-560l163 -13v-88h-446v88l163 13v566zM886 780h19l355 574h-728z" />
<glyph unicode="&#x46b;" horiz-adv-x="1593" d="M708 492h-74q-161 0 -233.5 -66.5t-72.5 -230.5v-195h-265v88l145 13v94q0 210 108.5 304.5t317.5 94.5h6l-259 388l-138 11v89h1067v-89l-138 -11l-260 -388q208 0 317 -94.5t109 -304.5v-94l145 -13v-88h-265v195q0 164 -73 230.5t-233 66.5h-68l-9 -14v-377l163 -13 v-88h-446v88l163 13v381zM766 594h21l248 385h-517z" />
<glyph unicode="&#x46c;" horiz-adv-x="2402" d="M1371 678h-182q-161 -4 -234 -71t-73 -227v-279l163 -13v-88h-446v88l163 13v279q0 101 26.5 175t78.5 123h-523v-577l163 -13v-88h-446v88l163 13v1253l-163 13v89h163h120h163v-89l-163 -13v-574h840h21h101l-369 576l-135 11v89h1275v-89l-135 -11l-368 -576h95 q217 0 330.5 -94.5t113.5 -305.5v-279l163 -13v-88h-446v88l163 13v279q0 165 -77 231.5t-247 66.5h-160l-11 -17v-560l163 -13v-88h-446v88l163 13v566zM1430 780h19l355 574h-728z" />
<glyph unicode="&#x46d;" horiz-adv-x="2113" d="M57 88l163 13v879l-163 13v89h282v-488h765l-259 388l-138 11v89h1067v-89l-138 -11l-260 -388q208 0 317 -94.5t109 -304.5v-94l145 -13v-88h-265v195q0 164 -73 230.5t-233 66.5h-68l-9 -14v-377l163 -13v-88h-446v88l163 13v381l-7 10h-74q-161 0 -233.5 -66.5 t-72.5 -230.5v-195h-265v88l145 13v94q0 101 25 174.5t75 122.5h-433v-391l163 -13v-88h-445v88zM1230 594h21l248 385h-517z" />
<glyph unicode="&#x46e;" horiz-adv-x="1040" d="M413 797q193 0 285 73t92 207q0 125 -84.5 206t-248.5 81q-94 0 -168 -31.5t-122 -84.5l-7 -192h-101v236q64 80 168 127t230 47q205 0 329.5 -105.5t124.5 -287.5q0 -110 -70.5 -196.5t-195.5 -128.5q142 -38 215 -127.5t73 -224.5q0 -189 -143 -297t-361 -108h-67 q-91 0 -131.5 -32.5t-40.5 -95.5q0 -65 54 -113.5t117 -71.5l-45 -87q-91 33 -165.5 107.5t-74.5 168.5q0 108 73.5 166.5t216.5 58.5h63q175 0 279.5 81.5t104.5 218.5q0 154 -101.5 228t-298.5 74h-132v103h132zM501 1716l167 169h115v-17l-233 -225h-98l-231 225v17h114z " />
<glyph unicode="&#x46f;" horiz-adv-x="943" d="M836 794q0 -79 -55.5 -144.5t-154.5 -101.5q114 -30 173 -93t59 -155q0 -145 -127.5 -227t-323.5 -82h-45q-91 0 -131 -32.5t-40 -95.5q0 -65 54 -113.5t117 -71.5l-45 -87q-92 33 -166.5 107.5t-74.5 168.5q0 108 73.5 166.5t216.5 58.5h41q152 0 241.5 54.5t89.5 149.5 q0 101 -87.5 149t-259.5 48h-132v103h132q166 0 245.5 53.5t79.5 148.5q0 81 -72.5 133.5t-215.5 53.5q-85 0 -151 -26.5t-109 -70.5l-6 -144h-101v188q59 71 154.5 112.5t212.5 41.5q185 0 296.5 -78t111.5 -214zM430 1387l167 169h115v-17l-233 -225h-98l-231 225v17h114z " />
<glyph unicode="&#x470;" horiz-adv-x="1640" d="M55 0zM1018 1456v-89l-163 -13v-855l6 -2q179 9 290.5 127t111.5 312v520h282v-89l-163 -13v-418q0 -246 -145 -390t-382 -158v-287l163 -13v-88h-446v88l163 13v287q-233 15 -375 159t-142 389v418l-163 13v89h163h119v-520q0 -193 108.5 -310.5t283.5 -128.5l6 2v855 l-163 13v89h163h120h163z" />
<glyph unicode="&#x471;" horiz-adv-x="1548" d="M3 0zM341 591q-1 -242 99 -365t275 -135l6 2v988h120v-990l6 -2q219 11 318 149.5t99 339.5q-1 129 -38 254.5t-101 249.5h131q59 -115 93.5 -231.5t34.5 -271.5q0 -260 -131.5 -422t-411.5 -176v-424h-120v425q-239 18 -370 168.5t-130 442.5v302q0 51 -19.5 71 t-56.5 20q-28 0 -57.5 -8t-52.5 -19l-32 91q35 23 80.5 36.5t93.5 13.5q83 0 123.5 -43t40.5 -139v-327z" />
<glyph unicode="&#x472;" horiz-adv-x="1386" d="M1351 718q0 -328 -175 -533.5t-455 -205.5q-276 0 -448.5 206t-172.5 533v19q0 327 172 533.5t448 206.5q280 0 455.5 -206.5t175.5 -533.5v-19zM720 1372q-224 0 -357 -164t-137 -429l2 -5h995l2 5q-6 265 -141.5 429t-363.5 164zM721 83q227 0 361.5 160.5t142.5 424.5 l-2 5h-995l-2 -5q6 -263 139.5 -424t355.5 -161z" />
<glyph unicode="&#x473;" horiz-adv-x="1180" d="M103 557q0 239 131 392t347 153q217 0 348 -153t131 -392v-33q0 -240 -130.5 -392.5t-346.5 -152.5q-218 0 -349 152.5t-131 392.5v33zM583 80q159 0 252.5 117t98.5 290l-2 5h-701l-2 -5q3 -174 97 -290.5t257 -116.5zM581 1000q-160 0 -253.5 -116.5t-98.5 -284.5l2 -5 h701l2 5q-7 169 -100.5 285t-252.5 116z" />
<glyph unicode="&#x474;" horiz-adv-x="1387" d="M421 1367l-131 -11l352 -1101l29 -101h6l29 101l307 953q44 145 112.5 206.5t176.5 61.5l28 -1l-1 -105h-11q-65 0 -112.5 -37t-83.5 -149l-392 -1184h-112l-458 1359l-103 8v89h364v-89z" />
<glyph unicode="&#x475;" horiz-adv-x="1183" d="M423 993l-131 -11l234 -711l35 -127h6l38 127l186 593q42 126 104 181.5t149 55.5q30 0 57 -7t49 -20l-23 -93q-10 5 -27 10t-37 5q-49 0 -89 -32t-69 -120l-293 -844h-96l-346 985l-105 8v89h358v-89z" />
<glyph unicode="&#x476;" horiz-adv-x="1387" d="M57 0zM421 1367l-131 -11l352 -1101l29 -101h6l29 101l307 953q44 145 112.5 206.5t176.5 61.5l28 -1l-1 -105h-11q-65 0 -112.5 -37t-83.5 -149l-392 -1184h-112l-458 1359l-103 8v89h364v-89zM635 1543l-2 -6h-113l-295 260l2 6h144zM880 1542l-3 -5h-102l-245 260l3 6 h134z" />
<glyph unicode="&#x477;" horiz-adv-x="1183" d="M65 0zM423 993l-131 -11l234 -711l35 -127h6l38 127l186 593q42 126 104 181.5t149 55.5q30 0 57 -7t49 -20l-23 -93q-10 5 -27 10t-37 5q-49 0 -89 -32t-69 -120l-293 -844h-96l-346 985l-105 8v89h358v-89zM536 1264l-2 -6h-113l-295 260l2 6h144zM781 1263l-3 -5h-102 l-245 260l3 6h134z" />
<glyph unicode="&#x478;" horiz-adv-x="2642" d="M106 0zM1357 718q0 -328 -175 -533.5t-455 -205.5q-276 0 -448.5 206t-172.5 533v19q0 327 172 533.5t448 206.5q280 0 455.5 -206.5t175.5 -533.5v-19zM1237 739q0 283 -138 458t-373 175q-231 0 -365.5 -175t-134.5 -458v-21q0 -285 135 -460t366 -175 q237 0 373.5 174.5t136.5 460.5v21zM2603 993l-110 -9l-437 -1157q-42 -110 -109 -187t-196 -77q-21 0 -51 4.5t-44 9.5l14 100q12 -2 38.5 -4.5t37.5 -2.5q79 0 125 55t81 143l56 145l-384 971l-110 9v89h372v-89l-129 -10l264 -690l38 -130h6l296 820l-132 10v89h374v-89z " />
<glyph unicode="&#x479;" horiz-adv-x="2326" d="M97 0zM97 557q0 239 131 392t347 153q217 0 348 -153t131 -392v-33q0 -240 -130.5 -392.5t-346.5 -152.5q-218 0 -349 152.5t-131 392.5v33zM217 524q0 -188 95 -316t265 -128q167 0 262 128t95 316v33q0 185 -95.5 314t-263.5 129t-263 -129t-95 -314v-33zM2287 993 l-110 -9l-437 -1157q-42 -110 -109 -187t-196 -77q-21 0 -51 4.5t-44 9.5l14 100q12 -2 38.5 -4.5t37.5 -2.5q79 0 125 55t81 143l56 145l-384 971l-110 9v89h372v-89l-129 -10l264 -690l38 -130h6l296 820l-132 10v89h374v-89z" />
<glyph unicode="&#x47a;" horiz-adv-x="1449" d="M786 1248h-119v346h119v-346zM786 -143h-119v351h119v-351zM1351 718q0 -328 -175 -533.5t-455 -205.5q-276 0 -448.5 206t-172.5 533v19q0 327 172 533.5t448 206.5q280 0 455.5 -206.5t175.5 -533.5v-19zM1231 739q0 283 -138 458t-373 175q-231 0 -365.5 -175 t-134.5 -458v-21q0 -285 135 -460t366 -175q237 0 373.5 174.5t136.5 460.5v21z" />
<glyph unicode="&#x47b;" horiz-adv-x="1160" d="M609 875h-120v337h120v-337zM609 -133h-120v337h120v-337zM103 557q0 239 131 392t347 153q217 0 348 -153t131 -392v-33q0 -240 -130.5 -392.5t-346.5 -152.5q-218 0 -349 152.5t-131 392.5v33zM223 524q0 -188 95 -316t265 -128q167 0 262 128t95 316v33 q0 185 -95.5 314t-263.5 129t-263 -129t-95 -314v-33z" />
<glyph unicode="&#x47c;" horiz-adv-x="1737" d="M1214 1445l6 2q169 5 275.5 -110t106.5 -333v-575q0 -219 -107 -334.5t-281 -115.5q-120 0 -210 53.5t-136 157.5q-46 -104 -136 -157.5t-209 -53.5q-174 0 -280.5 115.5t-106.5 334.5v575q0 218 106 333t275 110l6 -2v-92q-120 0 -194 -91.5t-74 -257.5v-575 q0 -167 74 -258t194 -91q127 0 206.5 86.5t79.5 244.5v473h120v-473q0 -159 78.5 -245t206.5 -86q119 0 193.5 91t74.5 258v575q0 166 -74.5 257.5t-193.5 91.5v92zM1326 1683v-85h-30q-129 0 -263 78.5t-192 78.5q-73 0 -111.5 -41t-38.5 -106v-18h-91v31q0 102 63 162.5 t174 60.5q80 0 215.5 -80.5t245.5 -80.5h28zM820 1330l-56 46l62 121l-1 140h139v-133z" />
<glyph unicode="&#x47d;" horiz-adv-x="1546" d="M1105 1085l6 2q156 5 254 -102.5t98 -311.5v-273q0 -206 -98.5 -313.5t-259.5 -107.5q-109 0 -191.5 47.5t-125.5 142.5q-43 -95 -125.5 -142.5t-190.5 -47.5q-162 0 -260 107.5t-98 313.5v273q0 204 97.5 311.5t254.5 102.5l6 -2v-92q-108 0 -173.5 -83.5t-65.5 -236.5 v-273q0 -154 65.5 -237t173.5 -83q114 0 185.5 78.5t71.5 223.5v244h119v-244q0 -145 71 -223.5t186 -78.5q107 0 173 83t66 237v273q0 153 -66 236.5t-173 83.5v92zM1255 1355v-85h-30q-128 0 -262.5 78.5t-193.5 78.5q-72 0 -110.5 -40.5t-38.5 -105.5v-18h-91v30 q0 102 62.5 163t173.5 61q80 0 216 -81t246 -81h28zM893 1176l-144 -174l-56 46l61 121v140h139v-133z" />
<glyph unicode="&#x47e;" horiz-adv-x="1756" d="M518 1697v81h756l1 -81h-331v-114h-111v114h-315zM1493 1456v-1045q0 -158 -77 -244.5t-199 -86.5q-125 0 -201.5 86t-76.5 245v1045h-122v-1045q0 -158 -79.5 -244.5t-206.5 -86.5q-120 0 -194 86t-74 245v1045h-119v-1045q0 -211 106.5 -321.5t280.5 -110.5 q120 0 210 53.5t136 159.5q44 -106 133 -159.5t207 -53.5q177 0 286.5 110.5t109.5 321.5v1045h-120z" />
<glyph unicode="&#x47f;" horiz-adv-x="1577" d="M443 1375l2 81h755l3 -81h-333v-130h-111v130h-316zM1380 1082v-700q0 -145 -68.5 -223.5t-178.5 -78.5q-111 0 -179.5 78.5t-68.5 223.5v700h-120v-700q0 -145 -71.5 -223.5t-185.5 -78.5q-107 0 -173 78.5t-66 223.5v700h-119v-700q0 -197 98 -300t260 -103 q107 0 189.5 47.5t126.5 140.5q41 -93 121.5 -140.5t187.5 -47.5q164 0 265.5 103t101.5 300v700h-120z" />
<glyph unicode="&#x480;" horiz-adv-x="1253" d="M732 -366h-119v347q-227 16 -363 188.5t-136 439.5v237q0 278 149 454.5t392 176.5q236 0 378.5 -125t138.5 -344l-2 -6h-111q0 176 -107.5 274.5t-296.5 98.5q-191 0 -306.5 -147.5t-115.5 -379.5v-239q0 -234 115.5 -381.5t306.5 -147.5h77v-446z" />
<glyph unicode="&#x481;" horiz-adv-x="1046" d="M640 -366h-119v347q-194 17 -305.5 167t-111.5 372v42q0 233 124.5 386.5t336.5 153.5q173 0 289 -105t112 -276l-2 -6h-107q0 130 -84.5 207.5t-207.5 77.5q-166 0 -253.5 -126.5t-87.5 -311.5v-42q0 -188 87.5 -314t254.5 -126h74v-446z" />
<glyph unicode="&#x482;" horiz-adv-x="1115" d="M480 432l289 -172l-54 -95l-291 170l-187 -335h-134l225 398l-289 171l52 94l293 -171l221 394l-290 171l54 96l291 -171l204 360h131l-240 -422l293 -171l-58 -94l-288 170z" />
<glyph unicode="&#x483;" horiz-adv-x="962" d="M267 1339v-123h-111v202h510v108h110v-187h-509z" />
<glyph unicode="&#x484;" horiz-adv-x="1027" d="M164 1395q110 0 246 81t216 81q110 0 173.5 -61t63.5 -163v-30h-91v18q0 65 -39 105.5t-111 40.5q-59 0 -193 -78.5t-262 -78.5h-30v85h27z" />
<glyph unicode="&#x485;" horiz-adv-x="475" d="M126 1500v133h138l-1 -140l62 -121l-57 -46z" />
<glyph unicode="&#x486;" horiz-adv-x="470" d="M182 1326l-56 46l61 121l-1 140h139v-133z" />
<glyph unicode="&#x488;" horiz-adv-x="2030" d="M800 1267l-2 6q-5 79 51 130.5t153 51.5q96 0 152.5 -51.5t52.5 -130.5l-2 -6h-104q0 43 -24.5 72t-74.5 29t-73.5 -29t-23.5 -72h-105zM1391 990l-2 6q-5 78 51.5 130t152.5 52t153 -51.5t53 -130.5l-2 -6h-105q0 44 -24 72.5t-75 28.5q-50 0 -73 -29t-23 -72h-106z M1578 487l-2 6q-5 78 51.5 130t152.5 52t152.5 -51.5t52.5 -130.5l-2 -6h-104q0 44 -24 72.5t-75 28.5q-50 0 -73.5 -29t-23.5 -72h-105zM1381 -32l-2 6q-5 78 51.5 130t152.5 52t152.5 -51.5t52.5 -130.5l-2 -6h-104q0 44 -24 72.5t-75 28.5q-50 0 -73.5 -29t-23.5 -72 h-105zM805 -316l-2 6q-5 80 51 131t153 51q96 0 152.5 -51t52.5 -131l-2 -6h-104q0 44 -24.5 72.5t-74.5 28.5t-73.5 -28.5t-23.5 -72.5h-105zM227 990l-2 6q-5 79 51.5 130.5t153.5 51.5q96 0 152.5 -51.5t52.5 -130.5l-2 -6h-104q0 43 -24.5 72t-74.5 29t-73.5 -29 t-23.5 -72h-106zM51 487l-2 6q-5 78 51.5 130t152.5 52t152.5 -51.5t52.5 -130.5l-2 -6h-104q0 44 -24 72.5t-75 28.5q-50 0 -73.5 -29t-23.5 -72h-105zM217 -32l-2 6q-5 78 51.5 130t152.5 52t153 -51.5t53 -130.5l-2 -6h-105q0 44 -24 72.5t-75 28.5q-50 0 -73 -29 t-23 -72h-106z" />
<glyph unicode="&#x489;" horiz-adv-x="1964" d="M1076 -60l11 -14l-122 -339h-96l70 353h137zM881 1126l-12 14l122 338h96l-70 -352h-136zM1559 631l13 12l333 -124v-98l-346 71v139zM395 433l-13 -12l-333 124v98l346 -71v-139zM1319 1002l2 16l321 153l68 -68q-37 -23 -294 -200zM635 21l-2 -17l-320 -153l-69 69 l294 200zM495 860l-17 2l-148 326l65 69l198 -299zM1457 161l17 -2l149 -325l-66 -71l-197 299z" />
<glyph unicode="&#x48a;" horiz-adv-x="1562" d="M77 0zM522 1456v-89l-163 -13v-990l6 -2l828 876v116l-163 13v89h163h119h163v-89l-163 -13v-1253l163 -13v-88h-445v88l163 13v981l-6 2l-828 -879v-104l163 -13v-88h-445v88l163 13v1253l-163 13v89h163h119h163zM1038 1835l2 -6q4 -111 -73 -181.5t-209 -70.5 q-134 0 -211 70t-72 182l2 6h94q0 -77 45 -124t142 -47q94 0 140 48t46 123h94zM1594 3q0 -92 -37.5 -180t-102.5 -149l-71 52q47 66 69.5 131t22.5 144v142h119v-140z" />
<glyph unicode="&#x48b;" horiz-adv-x="1372" d="M97 0zM542 1082v-89l-163 -13v-780l6 -1l578 883h120h163v-89l-163 -13v-879l163 -13v-88h-446v88l163 13v782l-6 2l-578 -885h-282v88l163 13v879l-163 13v89h282h163zM967 1500l2 -6q4 -111 -73 -181.5t-209 -70.5q-134 0 -211 70t-72 182l2 6h94q0 -77 45 -124 t142 -47q94 0 140 48t46 123h94zM1365 3q0 -92 -37.5 -180t-102.5 -149l-71 52q47 66 69.5 131t22.5 144v142h119v-140z" />
<glyph unicode="&#x48c;" horiz-adv-x="1320" d="M352 1172h270v-102h-270v-248h365q230 0 355 -111t125 -298q0 -188 -125.5 -300.5t-354.5 -112.5h-647v88l163 13v969h-223v102h223v182l-163 13v89h282v-284zM352 720v-619h365q181 0 270.5 88.5t89.5 225.5q0 131 -90 218t-270 87h-365zM515 1456v-89l-163 -13v102h163 z" />
<glyph unicode="&#x48d;" horiz-adv-x="1134" d="M337 1456h312v-102h-312v-647h310q187 0 291 -98t104 -254q0 -157 -104.5 -256t-290.5 -99h-593v88l163 13v1253h-212v102h212v77l-163 14v88h283v-179zM337 605v-504h310q139 0 207 72t68 180q0 104 -68.5 178t-206.5 74h-310z" />
<glyph unicode="&#x48e;" horiz-adv-x="1285" d="M1164 566l-75 -68l-334 379l75 67zM681 1456q229 0 354.5 -116.5t125.5 -308.5q0 -194 -125.5 -310t-354.5 -116h-332v-504l163 -13v-88h-445v88l163 13v1253l-163 13v89h163h451zM349 707h332q180 0 270.5 91.5t90.5 230.5q0 140 -90 232.5t-271 92.5h-332v-647z" />
<glyph unicode="&#x48f;" horiz-adv-x="1247" d="M1042 -17l-77 -67l-290 360l77 66zM65 993v89h263l15 -168q55 90 140.5 139t200.5 49q195 0 305 -155.5t110 -414.5v-21q0 -243 -110 -387.5t-303 -144.5q-114 0 -199.5 43.5t-139.5 123.5v-460l163 -13v-89h-445v89l163 13v1294zM979 532q0 206 -82 336t-240 130 q-121 0 -196.5 -57.5t-113.5 -149.5v-520q41 -89 118.5 -140t193.5 -51q157 0 238.5 118t81.5 313v21z" />
<glyph unicode="&#x490;" horiz-adv-x="1199" d="M1012 1810h101v-457h-119v1h-642v-1253l163 -13v-88h-446v88l163 13v1253l-163 13v89h929z" />
<glyph unicode="&#x491;" horiz-adv-x="1048" d="M793 1082l23 291h88v-394h-554v-878l163 -13v-88h-446v88l163 13v879l-163 13v89h163h563z" />
<glyph unicode="&#x492;" horiz-adv-x="1209" d="M77 88l163 13v602h-149v102h149v549l-163 13v89h1039v-307h-107l-9 205h-641v-549h344v-102h-344v-602l163 -13v-88h-445v88z" />
<glyph unicode="&#x493;" horiz-adv-x="1050" d="M235 520h-179v101h179v359l-163 13v89h850v-233h-88l-8 130h-472v-358h314v-101h-314v-419l163 -13v-88h-445v88l163 13v419z" />
<glyph unicode="&#x494;" horiz-adv-x="1220" d="M77 88l163 13v1253l-163 13v89h1039v-307h-107l-9 205h-641v-527h179q268 0 423 -143.5t155 -427.5q0 -227 -116.5 -382t-334.5 -151l-6 2l-1 89q167 0 252.5 125.5t85.5 316.5q-1 232 -122 348.5t-336 116.5h-179v-620l163 -13v-88h-445v88z" />
<glyph unicode="&#x495;" horiz-adv-x="1112" d="M912 849h-88l-8 130h-466v-354h155q232 0 374 -116.5t142 -343.5q0 -132 -91 -264.5t-284 -168.5l-32 92q153 35 219 128t68 213q2 174 -108 264t-288 90h-155v-418l163 -13v-88h-446v88l163 13v879l-163 13v89h163h668v-18h14v-215z" />
<glyph unicode="&#x496;" horiz-adv-x="2029" d="M58 0zM772 679l-418 -584l95 -7v-88h-386v88l142 11l469 651l-344 489q-52 70 -88 94t-85 24q-20 0 -38.5 -4t-34.5 -10l-26 89q24 16 54 25.5t64 9.5q70 0 125.5 -33.5t125.5 -133.5l362 -514h163v568l-163 13v89h445v-89l-163 -13v-568h170l362 514q69 100 124.5 133.5 t127.5 33.5q33 0 62.5 -9.5t54.5 -25.5l-26 -89q-17 6 -35.5 10t-37.5 4q-50 0 -86 -24t-87 -94l-351 -494l465 -646l142 -11v-88h-385v88l94 7l-418 584h-176v-578l163 -13v-88h-445v88l163 13v578h-180zM1956 -355h-120v434h120v-434z" />
<glyph unicode="&#x497;" horiz-adv-x="1767" d="M58 0zM662 88l163 13v395h-146l-397 -496h-224v88l152 11l373 463l-235 316q-48 62 -83 85.5t-80 23.5q-21 0 -36.5 -4t-32.5 -10l-26 88q27 17 53.5 26.5t59.5 9.5q65 0 120.5 -36t117.5 -122l247 -337h137v378l-163 13v89h446v-89l-163 -13v-378h146l246 337 q62 86 117 122t121 36q32 0 59 -9.5t54 -26.5l-26 -88q-16 6 -32.5 10t-35.5 4q-47 0 -82 -23.5t-82 -85.5l-238 -320l369 -459l152 -11v-88h-224l-397 496h-147v-395l163 -13v-88h-446v88zM1714 -355h-120v434h120v-434z" />
<glyph unicode="&#x498;" horiz-adv-x="1216" d="M71 0zM580 794q195 0 287 74t92 209q0 134 -97.5 216t-294.5 82q-123 0 -216 -42.5t-150 -111.5l-17 -210h-93v245q67 94 194.5 157.5t290.5 63.5q233 0 368 -105t135 -299q0 -109 -69.5 -196.5t-192.5 -130.5q140 -39 212 -128t72 -223q0 -195 -145.5 -305.5 t-379.5 -110.5q-205 0 -355 108t-145 311l2 6h111q0 -140 108 -232t279 -92q191 0 298.5 84t107.5 227q0 155 -101.5 227.5t-300.5 72.5h-174v103h174zM644 -359h-120v434h120v-434z" />
<glyph unicode="&#x499;" horiz-adv-x="1038" d="M84 0zM504 604q142 0 206 49.5t64 142.5q0 89 -67.5 145.5t-206.5 56.5q-117 0 -199 -59t-82 -149h-111l-2 6q-6 133 111 218t283 85q185 0 289.5 -79t104.5 -226q0 -79 -49 -142t-139 -97q102 -30 154.5 -95t52.5 -163q0 -148 -113.5 -231.5t-299.5 -83.5 q-167 0 -291.5 83.5t-119.5 238.5l2 6h110q0 -96 85 -162t214 -66q141 0 217 58t76 155q0 107 -71 156t-218 49h-164v104h164zM572 -364h-120v434h120v-434z" />
<glyph unicode="&#x49a;" horiz-adv-x="1417" d="M71 0zM71 88l163 13v1253l-163 13v89h445v-89l-163 -13v-568h199l490 573l-140 8v89h407v-89l-128 -12l-521 -615l562 -640l131 -12v-88h-415v88l138 8l-523 589h-200v-584l163 -13v-88h-445v88zM1353 -355h-120v434h120v-434z" />
<glyph unicode="&#x49b;" horiz-adv-x="1245" d="M97 0zM97 993v89h446v-89l-163 -13v-378h160l265 337q67 86 120.5 122t117.5 36q32 0 58.5 -9.5t54.5 -26.5l-26 -88q-18 6 -33.5 10t-35.5 4q-44 0 -80 -25t-83 -84l-252 -319l407 -459l142 -12v-88h-211l-438 496h-166v-395l163 -13v-88h-446v88l163 13v879zM1195 -355 h-120v434h120v-434z" />
<glyph unicode="&#x49c;" horiz-adv-x="1449" d="M70 88l163 13v1253l-163 13v89h282h163v-89l-163 -13v-568h145v288h102v-288h84l316 514q62 102 117.5 134.5t129.5 32.5q33 0 62.5 -9.5t54.5 -25.5l-26 -89q-16 6 -34.5 10t-38.5 4q-51 0 -85 -23.5t-83 -94.5l-305 -490l428 -651l137 -10v-88h-223l-435 679h-99v-274 h-102v274h-145v-578l163 -13v-88h-445v88z" />
<glyph unicode="&#x49d;" horiz-adv-x="1329" d="M90 88l163 13v879l-163 13v89h283h163v-89l-163 -13v-378h136v241h102v-241h58l215 337q57 87 112 122.5t122 35.5q32 0 58.5 -9.5t54.5 -26.5l-26 -88q-18 6 -33.5 10t-34.5 4q-48 0 -82 -23t-78 -86l-204 -307l334 -473l123 -10v-88h-211l-333 496h-75v-238h-102v238 h-136v-395l163 -13v-88h-446v88z" />
<glyph unicode="&#x49e;" horiz-adv-x="1437" d="M91 88l163 13v990h-225v102h225v161l-163 13v89h445v-89l-163 -13v-161h268v-102h-268v-305h199l490 573l-140 8v89h407v-89l-128 -12l-521 -615l562 -640l131 -12v-88h-415v88l138 8l-523 589h-200v-584l163 -13v-88h-445v88z" />
<glyph unicode="&#x49f;" horiz-adv-x="1214" d="M76 1213v102h169v143l-163 13v89h282v-245h324v-102h-324v-583h127l329 351l-2 5l-99 7v89h381v-89l-126 -12l-370 -393l421 -489l120 -11v-88h-380v88l114 7l-376 432h-139v-426l163 -13v-88h-445v88l163 13v1112h-169z" />
<glyph unicode="&#x4a0;" horiz-adv-x="1786" d="M155 1354l-8 -204h-107v306h693h163v-89l-163 -13v-574h200l385 520q73 99 128 133t124 34q32 0 60 -9.5t54 -25.5l-26 -90q-17 6 -36 10.5t-38 4.5q-50 0 -85.5 -24.5t-87.5 -93.5l-372 -498l563 -641l131 -12v-88h-415v88l138 8l-513 578h-210v-573l163 -13v-88h-445 v88l163 13v1253h-459z" />
<glyph unicode="&#x4a1;" horiz-adv-x="1565" d="M385 88l163 13v879l-11 1v-1h-340l-8 -204h-107v306h466h120h163v-89l-163 -13v-378h160l265 337q67 86 120.5 122t117.5 36q32 0 58.5 -9.5t54.5 -26.5l-26 -88q-18 6 -33.5 10t-35.5 4q-44 0 -80 -25t-83 -84l-252 -319l407 -459l142 -12v-88h-211l-438 496h-166v-395 l163 -13v-88h-446v88z" />
<glyph unicode="&#x4a2;" horiz-adv-x="1537" d="M71 0zM71 1367v89h445v-89l-163 -13v-582h828v582l-163 13v89h163h119h163v-89l-163 -13v-1253l163 -13v-88h-445v88l163 13v569h-828v-569l163 -13v-88h-445v88l163 13v1253zM1463 -355h-120v434h120v-434z" />
<glyph unicode="&#x4a3;" horiz-adv-x="1371" d="M97 0zM97 993v89h445v-89l-163 -13v-383h583v383l-163 13v89h163h120h163v-89l-163 -13v-879l163 -13v-88h-446v88l163 13v395h-583v-395l163 -13v-88h-445v88l163 13v879zM1245 -355h-120v434h120v-434z" />
<glyph unicode="&#x4a4;" horiz-adv-x="2057" d="M2018 1150h-107l-9 204h-615v-1253l163 -13v-88h-445v88l163 13v569h-828v-569l163 -13v-88h-445v88l163 13v1253l-163 13v89h163h119h163v-89l-163 -13v-582h828v582l-163 13v89h163h850v-306z" />
<glyph unicode="&#x4a5;" horiz-adv-x="1542" d="M1505 776h-106l-9 203h-313v-878l163 -13v-88h-446v88l163 13v395h-583v-395l163 -13v-88h-445v88l163 13v879l-163 13v89h163h119h163v-89l-163 -13v-383h583v383l-163 13v89h163h548v-306z" />
<glyph unicode="&#x4a6;" horiz-adv-x="2101" d="M65 1367v89h1393v-89l-163 -13v-519h144q268 0 423 -143.5t155 -427.5q0 -227 -116.5 -382t-334.5 -151l-6 2l-1 89q167 0 252.5 125.5t85.5 316.5q-1 232 -122 348.5t-336 116.5h-144v-628l163 -13v-88h-445v88l163 13v1253h-829v-1253l163 -13v-88h-445v88l163 13v1253 z" />
<glyph unicode="&#x4a7;" horiz-adv-x="1818" d="M1241 993l-163 -13v-355h96q236 0 380.5 -116.5t144.5 -343.5q0 -133 -90.5 -265t-283.5 -169l-32 93q152 34 218.5 127.5t67.5 213.5q3 175 -109.5 264.5t-295.5 89.5h-96v-418l163 -13v-88h-446v88l163 13v878h-584v-878l163 -13v-88h-445v88l163 13v879l-163 13v89 h163h986v-89z" />
<glyph unicode="&#x4a8;" horiz-adv-x="1534" d="M1411 -26q-105 0 -200 18.5t-177 54.5q-69 -34 -148.5 -51t-165.5 -17q-281 0 -447.5 203.5t-166.5 516.5v151q0 273 125 448.5t323 170.5l6 -1l2 -96q-153 0 -244.5 -149.5t-91.5 -370.5v-153q0 -267 135 -441.5t359 -174.5q52 0 100 7t92 22q-147 97 -227 249t-80 337 v201q0 253 107.5 411t286.5 158t289 -157t110 -412v-212q0 -183 -66 -330.5t-187 -241.5q59 -19 125.5 -28t140.5 -9v-104zM725 696q0 -176 76.5 -314.5t223.5 -216.5q121 77 187.5 214t66.5 308v214q0 207 -75 335t-205 128q-127 0 -200.5 -130t-73.5 -333v-205z" />
<glyph unicode="&#x4a9;" horiz-adv-x="1259" d="M1146 -12q-84 0 -159.5 14t-141.5 42q-55 -32 -118.5 -48.5t-133.5 -16.5q-214 0 -347.5 162.5t-133.5 408.5v77q0 205 94 338.5t241 128.5l6 -2v-95q-94 0 -158 -105.5t-64 -262.5v-79q0 -203 97.5 -335t264.5 -132q37 0 71 5.5t66 17.5q-111 77 -170.5 193.5 t-59.5 259.5v106q0 193 82.5 315t219.5 122q136 0 220 -130.5t84 -327.5v-104q0 -127 -42 -235.5t-119 -184.5q45 -14 95.5 -21t105.5 -7v-104zM987 540v107q0 148 -51 249t-134 101q-87 0 -134.5 -92t-47.5 -238v-110q0 -130 55.5 -229.5t156.5 -154.5h6q71 56 110 152.5 t39 214.5v0z" />
<glyph unicode="&#x4aa;" horiz-adv-x="1349" d="M103 0zM1230 1000h-93l-17 221q-58 69 -151 111.5t-215 42.5q-244 0 -388 -177.5t-144 -458.5v-21q0 -281 142.5 -459.5t374.5 -178.5q123 0 223.5 43t157.5 111l17 221h93v-256q-68 -94 -198.5 -157t-292.5 -63q-280 0 -458 207.5t-178 531.5v19q0 325 177.5 532.5 t464.5 207.5q162 0 289.5 -63.5t195.5 -157.5v-256zM795 -359h-120v434h120v-434z" />
<glyph unicode="&#x4ab;" horiz-adv-x="1094" d="M97 0zM559 80q119 0 210 68t91 189h106l2 -6q5 -150 -119.5 -251t-289.5 -101q-220 0 -341 151.5t-121 389.5v42q0 236 121 388t340 152q125 0 229 -47t169 -128l5 -236h-102l-19 192q-48 54 -119.5 85.5t-162.5 31.5q-174 0 -257.5 -124.5t-83.5 -313.5v-42 q0 -192 83 -316t259 -124zM598 -365h-120v434h120v-434z" />
<glyph unicode="&#x4ac;" horiz-adv-x="1280" d="M60 0zM1218 1456v-307h-106l-9 205h-404v-1253l163 -13v-88h-446v88l163 13v1253h-404l-8 -205h-107v307h1158zM862 -355h-120v434h120v-434z" />
<glyph unicode="&#x4ad;" d="M84 0zM1031 1082v-307h-106l-9 205h-306v-879l163 -13v-88h-445v88l163 13v879h-292l-8 -205h-107v307h947zM773 -355h-120v434h120v-434z" />
<glyph unicode="&#x4ae;" horiz-adv-x="1423" d="M55 0zM455 1367l-140 -10l394 -710l396 710l-140 10v89h401v-89l-124 -10l-474 -825v-431l163 -13v-88h-446v88l163 13v438l-470 818l-123 10v89h400v-89z" />
<glyph unicode="&#x4af;" horiz-adv-x="1085" d="M0 0zM1078 993l-99 -8l-362 -954v-446h-120v438l-297 849q-27 74 -52.5 95t-67.5 21q-18 0 -36.5 -5t-32.5 -10l-17 92q20 11 52 19t62 8q74 0 115.5 -35.5t73.5 -129.5l223 -656l34 -128h6l38 128l258 711l-136 11v89h358v-89z" />
<glyph unicode="&#x4b0;" horiz-adv-x="1423" d="M455 1367l-140 -10l394 -710l396 710l-140 10v89h401v-89l-124 -10l-410 -713h208v-102h-267l-5 -10v-431l163 -13v-88h-446v88l163 13v438l-2 3h-218v102h160l-410 713l-123 10v89h400v-89z" />
<glyph unicode="&#x4b1;" horiz-adv-x="1085" d="M886 -4h-269v-411h-120v411h-223v102h196l-270 774q-27 74 -52.5 95t-67.5 21q-18 0 -36.5 -5t-32.5 -10l-17 92q20 11 52 19t62 8q74 0 115.5 -35.5t73.5 -129.5l223 -656l34 -128h6l38 128l258 711l-136 11v89h358v-89l-99 -8l-337 -887h244v-102z" />
<glyph unicode="&#x4b2;" horiz-adv-x="1397" d="M54 0zM54 88l122 10l453 640l-438 619l-122 10v89h400v-89l-139 -6l368 -532l369 532l-137 6v89h399v-89l-122 -10l-437 -619l453 -640l123 -10v-88h-399v88l137 6l-384 553l-385 -553l138 -6v-88h-399v88zM1346 -355h-120v434h120v-434z" />
<glyph unicode="&#x4b3;" horiz-adv-x="1192" d="M73 0zM73 88l121 11l342 452l-326 431l-122 11v89h367v-89l-112 -6l258 -347l259 348l-111 5v89h367v-89l-121 -11l-326 -431l341 -452l122 -11v-88h-366v88l111 5l-275 368l-274 -368l111 -5v-88h-366v88zM1132 -355h-120v434h120v-434z" />
<glyph unicode="&#x4b4;" horiz-adv-x="1811" d="M776 1456v-1h249v-306h-106l-9 205h-297v-1253h829v1253l-163 13v89h163h119h163v-89l-163 -13v-1253h159v-452h-118v351h-1271v88l163 13v1253h-302l-8 -205h-107v306h254v1h282h163z" />
<glyph unicode="&#x4b5;" horiz-adv-x="1510" d="M906 1082v-307h-107l-9 205h-245v-879h591v981h121h163v-89l-163 -13v-879h126l-9 -422h-110v321h-1002v88l163 13v879h-260l-8 -205h-107v307h856z" />
<glyph unicode="&#x4b6;" horiz-adv-x="1491" d="M59 0zM1104 664q-101 -29 -196 -43.5t-203 -14.5q-240 0 -361.5 105t-121.5 342v301l-163 13v89h282h163v-89l-163 -13v-301q0 -186 89 -265.5t275 -79.5q102 0 200 14.5t199 43.5v588l-163 13v89h283h163v-89l-163 -13v-1253l163 -13v-88h-446v88l163 13v563v0z M1387 -355h-120v434h120v-434z" />
<glyph unicode="&#x4b7;" horiz-adv-x="1335" d="M65 0zM510 1082v-88l-163 -13v-173q0 -170 69.5 -237t224.5 -67q72 1 145.5 15t137.5 37v424l-163 13v89h445v-89l-163 -13v-879l163 -13v-88h-445v88l163 13v354q-69 -25 -142 -39.5t-141 -14.5q-209 0 -311 93.5t-102 313.5v173l-163 13v88h282h163zM1206 -355h-120 v434h120v-434z" />
<glyph unicode="&#x4b8;" horiz-adv-x="1491" d="M750 361h-102v691h102v-691zM1104 664q-101 -29 -196 -43.5t-203 -14.5q-240 0 -361.5 105t-121.5 342v301l-163 13v89h282h163v-89l-163 -13v-301q0 -186 89 -265.5t275 -79.5q102 0 200 14.5t199 43.5v588l-163 13v89h283h163v-89l-163 -13v-1253l163 -13v-88h-446v88 l163 13v563z" />
<glyph unicode="&#x4b9;" horiz-adv-x="1333" d="M710 209h-102v561h102v-561zM552 1082v-88l-163 -13v-173q0 -170 69.5 -237t224.5 -67q72 1 145.5 15t137.5 37v424l-163 13v89h445v-89l-163 -13v-879l163 -13v-88h-445v88l163 13v354q-69 -25 -142 -39.5t-141 -14.5q-209 0 -311 93.5t-102 313.5v173l-163 13v88h282 h163z" />
<glyph unicode="&#x4ba;" horiz-adv-x="1424" d="M487 1456v-88l-163 -13v-563q100 28 195 43t204 15q239 0 361 -105.5t122 -341.5v-301l163 -13v-89h-445v89l163 13v301q0 185 -89.5 265t-274.5 80q-103 0 -201 -15.5t-198 -43.5v-587l163 -13v-89h-446v89l163 13v1253l-163 13v88h163h120h163z" />
<glyph unicode="&#x4bb;" horiz-adv-x="1298" d="M62 0zM62 1471v89h282v-663q54 97 144 151t210 54q171 0 262.5 -106t91.5 -329v-566l163 -13v-88h-446v88l163 13v568q0 176 -69.5 252.5t-191.5 76.5q-123 0 -205.5 -64.5t-121.5 -171.5v-661l163 -13v-88h-445v88l163 13v1357z" />
<glyph unicode="&#x4bc;" horiz-adv-x="1531" d="M965 -23q-282 0 -439 165.5t-157 437.5v155q-150 15 -229 103.5t-75 233.5l2 5h95q0 -105 50.5 -168t150.5 -72l6 2v22q0 267 153 440.5t383 173.5q254 0 397 -171t143 -465v-106h-956v-153q0 -223 118.5 -362.5t357.5 -139.5q122 0 218 33t171 88l39 -89 q-68 -57 -170 -95t-258 -38zM489 826h836v42q0 222 -107 363t-313 141q-192 0 -304 -146t-112 -365v-35z" />
<glyph unicode="&#x4bd;" horiz-adv-x="1283" d="M710 -21q-204 0 -338 149.5t-134 380.5v50q-99 22 -150 99t-51 201h101q0 -78 26 -130t80 -73q26 197 153.5 321.5t296.5 124.5q199 0 313 -126t114 -336v-102h-764v-29q0 -182 97.5 -305.5t255.5 -123.5q111 0 190 31t135 89l51 -82q-61 -64 -154 -101.5t-222 -37.5z M694 1000q-132 0 -222.5 -101.5t-105.5 -254.5l2 -5h634v30q0 141 -83 236t-225 95z" />
<glyph unicode="&#x4be;" horiz-adv-x="1531" d="M61 0zM965 -23q-282 0 -439 165.5t-157 437.5v155q-150 15 -229 103.5t-75 233.5l2 5h95q0 -105 50.5 -168t150.5 -72l6 2v22q0 267 153 440.5t383 173.5q254 0 397 -171t143 -465v-106h-956v-153q0 -223 118.5 -362.5t357.5 -139.5q122 0 218 33t171 88l39 -89 q-68 -57 -170 -95t-258 -38zM489 826h836v42q0 222 -107 363t-313 141q-192 0 -304 -146t-112 -365v-35zM989 -380h-120v434h120v-434z" />
<glyph unicode="&#x4bf;" horiz-adv-x="1283" d="M37 0zM710 -21q-204 0 -338 149.5t-134 380.5v50q-99 22 -150 99t-51 201h101q0 -78 26 -130t80 -73q26 197 153.5 321.5t296.5 124.5q199 0 313 -126t114 -336v-102h-764v-29q0 -182 97.5 -305.5t255.5 -123.5q111 0 190 31t135 89l51 -82q-61 -64 -154 -101.5 t-222 -37.5zM694 1000q-132 0 -222.5 -101.5t-105.5 -254.5l2 -5h634v30q0 141 -83 236t-225 95zM761 -356h-120v434h120v-434z" />
<glyph unicode="&#x4c0;" horiz-adv-x="627" d="M91 0zM91 1367v89h446v-89l-163 -13v-1253l163 -13v-88h-446v88l163 13v1253z" />
<glyph unicode="&#x4c1;" horiz-adv-x="2029" d="M58 0zM772 679l-418 -584l95 -7v-88h-386v88l142 11l469 651l-344 489q-52 70 -88 94t-85 24q-20 0 -38.5 -4t-34.5 -10l-26 89q24 16 54 25.5t64 9.5q70 0 125.5 -33.5t125.5 -133.5l362 -514h163v568l-163 13v89h445v-89l-163 -13v-568h170l362 514q69 100 124.5 133.5 t127.5 33.5q33 0 62.5 -9.5t54.5 -25.5l-26 -89q-17 6 -35.5 10t-37.5 4q-50 0 -86 -24t-87 -94l-351 -494l465 -646l142 -11v-88h-385v88l94 7l-418 584h-176v-578l163 -13v-88h-445v88l163 13v578h-180zM1290 1834l2 -6q4 -111 -73 -181.5t-209 -70.5q-134 0 -211 70 t-72 182l2 6h94q0 -77 45 -124t142 -47q94 0 140 48t46 123h94z" />
<glyph unicode="&#x4c2;" horiz-adv-x="1767" d="M58 0zM662 88l163 13v395h-146l-397 -496h-224v88l152 11l373 463l-235 316q-48 62 -83 85.5t-80 23.5q-21 0 -36.5 -4t-32.5 -10l-26 88q27 17 53.5 26.5t59.5 9.5q65 0 120.5 -36t117.5 -122l247 -337h137v378l-163 13v89h446v-89l-163 -13v-378h146l246 337 q62 86 117 122t121 36q32 0 59 -9.5t54 -26.5l-26 -88q-16 6 -32.5 10t-35.5 4q-47 0 -82 -23.5t-82 -85.5l-238 -320l369 -459l152 -11v-88h-224l-397 496h-147v-395l163 -13v-88h-446v88zM1161 1500l2 -6q4 -111 -73 -181.5t-209 -70.5q-134 0 -211 70t-72 182l2 6h94 q0 -77 45 -124t142 -47q94 0 140 48t46 123h94z" />
<glyph unicode="&#x4c3;" horiz-adv-x="1397" d="M70 1367v89h445v-89l-163 -13v-554h177l551 656h202v-89l-143 -12l-467 -555q265 -2 418.5 -145.5t153.5 -425.5q0 -227 -116.5 -382t-333.5 -151l-6 2l-1 89q166 0 252 125.5t86 316.5q-1 232 -122.5 348.5t-336.5 116.5h-314v-593l163 -13v-88h-445v88l163 13v1253z " />
<glyph unicode="&#x4c4;" horiz-adv-x="1263" d="M90 88l163 13v879l-163 13v89h446v-89l-163 -13v-378h135l408 480h209v-89l-146 -12l-332 -383q203 -19 322 -129t119 -314q0 -130 -91 -259t-283 -165l-33 93q152 34 219 124.5t69 206.5q2 173 -109 257t-297 84h-190v-395l163 -13v-88h-446v88z" />
<glyph unicode="&#x4c5;" horiz-adv-x="1507" d="M57 0zM531 1354l-31 -557q-21 -441 -103.5 -619t-298.5 -178h-41v101h37q147 0 207 145.5t80 550.5l31 557l-157 13v89h1174v-89l-163 -13v-1253l163 -13v-88h-446v88l163 13v1253h-615zM1548 3q0 -92 -37.5 -180t-102.5 -149l-71 52q47 66 69.5 131t22.5 144v142h119 v-140z" />
<glyph unicode="&#x4c6;" horiz-adv-x="1294" d="M69 0zM437 979v-375q0 -318 -74.5 -461t-250.5 -143h-43l1 107l38 1q110 0 159.5 110.5t49.5 385.5v376l-163 13v89h1024v-89l-163 -13v-879l163 -13v-88h-446v88l163 13v878h-458zM1297 3q0 -92 -37.5 -180t-102.5 -149l-71 52q47 66 69.5 131t22.5 144v142h119v-140z " />
<glyph unicode="&#x4c7;" horiz-adv-x="1548" d="M77 88l163 13v1253l-163 13v89h282h163v-89l-163 -13v-582h828v582l-163 13v89h445v-89l-163 -13v-1443q0 -167 -80 -257.5t-223 -90.5q-31 0 -57.5 5t-55.5 14l14 99q15 -5 46 -10.5t53 -5.5q87 0 135.5 65t48.5 181v759h-828v-569l163 -13v-88h-445v88z" />
<glyph unicode="&#x4c8;" horiz-adv-x="1344" d="M1238 1082v-89l-163 -13v-1069q0 -167 -80.5 -257.5t-223.5 -90.5q-31 0 -57 5t-55 14l14 99q14 -5 45 -10.5t53 -5.5q87 0 135.5 64.5t48.5 181.5v585h-583v-395l163 -13v-88h-282v980l-163 13v89h282h163v-89l-163 -13v-383h583v383l-163 13v89h163h120h163zM90 0v88 l163 13v-101h-163z" />
<glyph unicode="&#x4c9;" horiz-adv-x="1537" d="M71 0zM71 1367v89h445v-89l-163 -13v-582h828v582l-163 13v89h163h119h163v-89l-163 -13v-1253l163 -13v-88h-445v88l163 13v569h-828v-569l163 -13v-88h-445v88l163 13v1253zM1582 3q0 -92 -37.5 -180t-102.5 -149l-71 52q47 66 69.5 131t22.5 144v142h119v-140z" />
<glyph unicode="&#x4ca;" horiz-adv-x="1371" d="M97 0zM97 993v89h445v-89l-163 -13v-383h583v383l-163 13v89h163h120h163v-89l-163 -13v-879l163 -13v-88h-446v88l163 13v395h-583v-395l163 -13v-88h-445v88l163 13v879zM1364 3q0 -92 -37.5 -180t-102.5 -149l-71 52q47 66 69.5 131t22.5 144v142h119v-140z" />
<glyph unicode="&#x4cb;" horiz-adv-x="1491" d="M59 0zM1104 664q-101 -29 -196 -43.5t-203 -14.5q-240 0 -361.5 105t-121.5 342v301l-163 13v89h282h163v-89l-163 -13v-301q0 -186 89 -265.5t275 -79.5q102 0 200 14.5t199 43.5v588l-163 13v89h283h163v-89l-163 -13v-1253l163 -13v-88h-446v88l163 13v563v0z M1061 -355h-120v434h120v-434z" />
<glyph unicode="&#x4cc;" horiz-adv-x="1335" d="M65 0zM510 1082v-88l-163 -13v-173q0 -170 69.5 -237t224.5 -67q72 1 145.5 15t137.5 37v424l-163 13v89h445v-89l-163 -13v-879l163 -13v-88h-445v88l163 13v354q-69 -25 -142 -39.5t-141 -14.5q-209 0 -311 93.5t-102 313.5v173l-163 13v88h282h163zM897 -355h-120v434 h120v-434z" />
<glyph unicode="&#x4cd;" horiz-adv-x="1861" d="M71 0zM1518 1280l-6 2l-541 -1282h-83l-540 1276l-6 -1l11 -632v-542l163 -13v-88h-445v88l163 13v1253l-163 13v89h163h157l535 -1282h6l537 1282h321v-89l-163 -13v-1253l163 -13v-88h-445v88l163 13v542zM1909 3q0 -92 -37.5 -180t-102.5 -149l-71 52q47 66 69.5 131 t22.5 144v142h119v-140z" />
<glyph unicode="&#x4ce;" horiz-adv-x="1702" d="M97 0zM842 168h6l427 914h148h163v-89l-163 -13v-879l163 -13v-88h-446v88l163 13v770l-6 2l-409 -873h-85l-418 895l-6 -1v-793l163 -13v-88h-445v88l163 13v879l-163 13v89h163h156zM1705 3q0 -92 -37.5 -180t-102.5 -149l-71 52q47 66 69.5 131t22.5 144v142h119v-140 z" />
<glyph unicode="&#x4cf;" horiz-adv-x="627" d="M91 0zM91 1367v89h446v-89l-163 -13v-1253l163 -13v-88h-446v88l163 13v1253z" />
<glyph unicode="&#x4d0;" horiz-adv-x="1485" d="M55 0zM55 88l107 8l517 1360h113l512 -1360l109 -8v-88h-359v88l127 10l-120 326h-654l-121 -326l127 -10v-88h-358v88zM447 531h575l-283 770h-6zM1010 1833l2 -6q4 -111 -73 -181.5t-209 -70.5q-134 0 -211 70t-72 182l2 6h94q0 -77 45 -124t142 -47q94 0 140 48 t46 123h94z" />
<glyph unicode="&#x4d1;" d="M104 0zM844 0q-12 55 -17 95t-5 81q-60 -85 -160 -141t-225 -56q-159 0 -246 82t-87 222q0 150 129 238t350 88h239v143q0 116 -74.5 182t-208.5 66q-90 0 -164.5 -24.5t-124.5 -66.5l-10 -145h-99l1 208q75 58 179.5 94t222.5 36q179 0 288 -91t109 -261v-532 q0 -33 1.5 -63.5t6.5 -59.5l108 -7v-88h-213zM450 85q130 0 229 60t143 155v217h-241q-163 0 -260.5 -67.5t-97.5 -170.5q0 -87 60.5 -140.5t166.5 -53.5zM820 1512l2 -6q4 -111 -73 -181.5t-209 -70.5q-134 0 -211 70t-72 182l2 6h94q0 -77 45 -124t142 -47q94 0 140 48 t46 123h94z" />
<glyph unicode="&#x4d2;" horiz-adv-x="1485" d="M55 0zM55 88l107 8l517 1360h113l512 -1360l109 -8v-88h-359v88l127 10l-120 326h-654l-121 -326l127 -10v-88h-358v88zM447 531h575l-283 770h-6zM1049 1639h-173v157h173v-157zM580 1639h-174v157h174v-157z" />
<glyph unicode="&#x4d3;" d="M104 0zM844 0q-12 55 -17 95t-5 81q-60 -85 -160 -141t-225 -56q-159 0 -246 82t-87 222q0 150 129 238t350 88h239v143q0 116 -74.5 182t-208.5 66q-90 0 -164.5 -24.5t-124.5 -66.5l-10 -145h-99l1 208q75 58 179.5 94t222.5 36q179 0 288 -91t109 -261v-532 q0 -33 1.5 -63.5t6.5 -59.5l108 -7v-88h-213zM450 85q130 0 229 60t143 155v217h-241q-163 0 -260.5 -67.5t-97.5 -170.5q0 -87 60.5 -140.5t166.5 -53.5zM859 1318h-173v157h173v-157zM390 1318h-174v157h174v-157z" />
<glyph unicode="&#x4d4;" horiz-adv-x="2058" d="M51 0zM51 88l130 10l822 1358h864v-307h-107l-9 205h-578l23 -545h589v-102h-585l26 -606h587l9 205h106v-306h-980v88l158 12l-12 289h-597l-172 -293l106 -8v-88h-380v88zM564 502h526l-35 839l-6 1l-15 -44z" />
<glyph unicode="&#x4d5;" horiz-adv-x="1786" d="M97 0zM1285 -21q-138 0 -241 55.5t-163 157.5q-49 -87 -159.5 -150t-269.5 -63q-170 0 -262.5 84.5t-92.5 229.5q0 158 113 248.5t325 90.5h263v88q0 134 -63.5 207t-187.5 73q-135 0 -213 -67t-78 -168l-110 12l-2 6q-5 138 106 228.5t297 90.5q125 0 213 -54t129 -157 q61 99 156 155t210 56q200 0 311.5 -124t111.5 -340v-100h-755v-29q0 -191 90 -310t272 -119q103 0 181 32.5t142 86.5l48 -87q-60 -55 -148.5 -94t-222.5 -39zM469 79q102 0 197.5 53.5t131.5 115.5v288h-261q-155 0 -237.5 -71t-82.5 -176q0 -97 64.5 -153.5t187.5 -56.5z M1255 1000q-138 0 -224.5 -101.5t-99.5 -257.5l2 -5h625v31q0 146 -77 239.5t-226 93.5z" />
<glyph unicode="&#x4d6;" horiz-adv-x="1286" d="M71 0zM950 705h-597v-604h688l9 218h106v-319h-1085v88l163 13v1253l-163 13v89h163h917v-320h-106l-9 218h-683v-547h597v-102zM910 1835l2 -6q4 -111 -73 -181.5t-209 -70.5q-134 0 -211 70t-72 182l2 6h94q0 -77 45 -124t142 -47q94 0 140 48t46 123h94z" />
<glyph unicode="&#x4d7;" horiz-adv-x="1102" d="M102 0zM574 -21q-204 0 -338 149.5t-134 380.5v55q0 232 133.5 385t322.5 153q199 0 313 -126t114 -336v-102h-764v-29q0 -182 97.5 -305.5t255.5 -123.5q111 0 190 31t135 89l51 -82q-61 -64 -154 -101.5t-222 -37.5zM558 1000q-132 0 -222.5 -101.5t-105.5 -254.5l2 -5 h634v30q0 141 -83 236t-225 95zM838 1512l2 -6q4 -111 -73 -181.5t-209 -70.5q-134 0 -211 70t-72 182l2 6h94q0 -77 45 -124t142 -47q94 0 140 48t46 123h94z" />
<glyph unicode="&#x4d8;" horiz-adv-x="1394" d="M637 1477q296 0 461 -180.5t165 -474.5v-168q0 -296 -165 -485.5t-412 -189.5q-287 0 -447.5 170t-160.5 465v117h1066v91q0 245 -126.5 399t-380.5 154q-129 0 -230 -33.5t-179 -87.5l-39 89q71 56 177.5 95t270.5 39zM686 80q206 0 329 158t124 395l-3 5h-939v-53 q0 -224 124 -364.5t365 -140.5z" />
<glyph unicode="&#x4d9;" horiz-adv-x="1070" d="M94 0zM506 1102q203 0 337.5 -150t134.5 -380v-55q0 -233 -134 -385t-322 -152q-200 0 -314 125t-114 336v102h764v29q0 182 -97.5 305.5t-254.5 123.5q-113 0 -191.5 -31.5t-133.5 -89.5l-51 83q60 63 153 101t223 38zM522 81q131 0 220.5 100.5t105.5 254.5l-2 5h-632 v-29q0 -142 82.5 -236.5t225.5 -94.5z" />
<glyph unicode="&#x4da;" horiz-adv-x="1394" d="M78 0zM637 1477q296 0 461 -180.5t165 -474.5v-168q0 -296 -165 -485.5t-412 -189.5q-287 0 -447.5 170t-160.5 465v117h1066v91q0 245 -126.5 399t-380.5 154q-129 0 -230 -33.5t-179 -87.5l-39 89q71 56 177.5 95t270.5 39zM686 80q206 0 329 158t124 395l-3 5h-939 v-53q0 -224 124 -364.5t365 -140.5zM1000 1614h-173v157h173v-157zM531 1614h-174v157h174v-157z" />
<glyph unicode="&#x4db;" horiz-adv-x="1070" d="M94 0zM506 1102q203 0 337.5 -150t134.5 -380v-55q0 -233 -134 -385t-322 -152q-200 0 -314 125t-114 336v102h764v29q0 182 -97.5 305.5t-254.5 123.5q-113 0 -191.5 -31.5t-133.5 -89.5l-51 83q60 63 153 101t223 38zM522 81q131 0 220.5 100.5t105.5 254.5l-2 5h-632 v-29q0 -142 82.5 -236.5t225.5 -94.5zM849 1320h-173v157h173v-157zM380 1320h-174v157h174v-157z" />
<glyph unicode="&#x4dc;" horiz-adv-x="2029" d="M58 0zM772 679l-418 -584l95 -7v-88h-386v88l142 11l469 651l-344 489q-52 70 -88 94t-85 24q-20 0 -38.5 -4t-34.5 -10l-26 89q24 16 54 25.5t64 9.5q70 0 125.5 -33.5t125.5 -133.5l362 -514h163v568l-163 13v89h445v-89l-163 -13v-568h170l362 514q69 100 124.5 133.5 t127.5 33.5q33 0 62.5 -9.5t54.5 -25.5l-26 -89q-17 6 -35.5 10t-37.5 4q-50 0 -86 -24t-87 -94l-351 -494l465 -646l142 -11v-88h-385v88l94 7l-418 584h-176v-578l163 -13v-88h-445v88l163 13v578h-180zM1329 1640h-173v157h173v-157zM860 1640h-174v157h174v-157z" />
<glyph unicode="&#x4dd;" horiz-adv-x="1767" d="M58 0zM662 88l163 13v395h-146l-397 -496h-224v88l152 11l373 463l-235 316q-48 62 -83 85.5t-80 23.5q-21 0 -36.5 -4t-32.5 -10l-26 88q27 17 53.5 26.5t59.5 9.5q65 0 120.5 -36t117.5 -122l247 -337h137v378l-163 13v89h446v-89l-163 -13v-378h146l246 337 q62 86 117 122t121 36q32 0 59 -9.5t54 -26.5l-26 -88q-16 6 -32.5 10t-35.5 4q-47 0 -82 -23.5t-82 -85.5l-238 -320l369 -459l152 -11v-88h-224l-397 496h-147v-395l163 -13v-88h-446v88zM1200 1306h-173v157h173v-157zM731 1306h-174v157h174v-157z" />
<glyph unicode="&#x4de;" horiz-adv-x="1216" d="M71 0zM580 794q195 0 287 74t92 209q0 134 -97.5 216t-294.5 82q-123 0 -216 -42.5t-150 -111.5l-17 -210h-93v245q67 94 194.5 157.5t290.5 63.5q233 0 368 -105t135 -299q0 -109 -69.5 -196.5t-192.5 -130.5q140 -39 212 -128t72 -223q0 -195 -145.5 -305.5 t-379.5 -110.5q-205 0 -355 108t-145 311l2 6h111q0 -140 108 -232t279 -92q191 0 298.5 84t107.5 227q0 155 -101.5 227.5t-300.5 72.5h-174v103h174zM913 1651h-173v157h173v-157zM444 1651h-174v157h174v-157z" />
<glyph unicode="&#x4df;" horiz-adv-x="1038" d="M84 0zM504 604q142 0 206 49.5t64 142.5q0 89 -67.5 145.5t-206.5 56.5q-117 0 -199 -59t-82 -149h-111l-2 6q-6 133 111 218t283 85q185 0 289.5 -79t104.5 -226q0 -79 -49 -142t-139 -97q102 -30 154.5 -95t52.5 -163q0 -148 -113.5 -231.5t-299.5 -83.5 q-167 0 -291.5 83.5t-119.5 238.5l2 6h110q0 -96 85 -162t214 -66q141 0 217 58t76 155q0 107 -71 156t-218 49h-164v104h164zM826 1318h-173v157h173v-157zM357 1318h-174v157h174v-157z" />
<glyph unicode="&#x4e0;" horiz-adv-x="1109" d="M835 1349l-2 5h-610l-8 -205h-107v307h869l2 -93l-446 -527q227 -2 346 -115.5t119 -325.5q0 -195 -128.5 -305.5t-333.5 -110.5q-187 0 -322.5 108t-130.5 311l2 6h112q0 -140 94 -232t245 -92q161 0 252 84t91 227q0 181 -89.5 265t-265.5 84h-122v102z" />
<glyph unicode="&#x4e1;" horiz-adv-x="1114" d="M823 974l-2 5h-600l-8 -204h-107v307h869l2 -93l-439 -529q218 -8 338 -122t120 -318q0 -192 -128.5 -303.5t-333.5 -111.5q-186 0 -322 108.5t-131 309.5l2 6h112q0 -138 94 -230t245 -92q161 0 252 84t91 225q0 180 -96.5 264.5t-275.5 84.5h-106v103z" />
<glyph unicode="&#x4e2;" horiz-adv-x="1562" d="M77 0zM522 1456v-89l-163 -13v-990l6 -2l828 876v116l-163 13v89h163h119h163v-89l-163 -13v-1253l163 -13v-88h-445v88l163 13v981l-6 2l-828 -879v-104l163 -13v-88h-445v88l163 13v1253l-163 13v89h163h119h163zM1102 1694h-670v97h670v-97z" />
<glyph unicode="&#x4e3;" horiz-adv-x="1372" d="M97 0zM542 1082v-89l-163 -13v-780l6 -1l578 883h120h163v-89l-163 -13v-879l163 -13v-88h-446v88l163 13v782l-6 2l-578 -885h-282v88l163 13v879l-163 13v89h282h163zM1031 1359h-670v97h670v-97z" />
<glyph unicode="&#x4e4;" horiz-adv-x="1562" d="M77 0zM522 1456v-89l-163 -13v-990l6 -2l828 876v116l-163 13v89h163h119h163v-89l-163 -13v-1253l163 -13v-88h-445v88l163 13v981l-6 2l-828 -879v-104l163 -13v-88h-445v88l163 13v1253l-163 13v89h163h119h163zM1077 1641h-173v157h173v-157zM608 1641h-174v157h174 v-157z" />
<glyph unicode="&#x4e5;" horiz-adv-x="1372" d="M97 0zM542 1082v-89l-163 -13v-780l6 -1l578 883h120h163v-89l-163 -13v-879l163 -13v-88h-446v88l163 13v782l-6 2l-578 -885h-282v88l163 13v879l-163 13v89h282h163zM1006 1306h-173v157h173v-157zM537 1306h-174v157h174v-157z" />
<glyph unicode="&#x4e6;" horiz-adv-x="1468" d="M106 0zM1357 718q0 -328 -175 -533.5t-455 -205.5q-276 0 -448.5 206t-172.5 533v19q0 327 172 533.5t448 206.5q280 0 455.5 -206.5t175.5 -533.5v-19zM1237 739q0 283 -138 458t-373 175q-231 0 -365.5 -175t-134.5 -458v-21q0 -285 135 -460t366 -175 q237 0 373.5 174.5t136.5 460.5v21zM1044 1651h-173v157h173v-157zM575 1651h-174v157h174v-157z" />
<glyph unicode="&#x4e7;" horiz-adv-x="1152" d="M97 0zM97 557q0 239 131 392t347 153q217 0 348 -153t131 -392v-33q0 -240 -130.5 -392.5t-346.5 -152.5q-218 0 -349 152.5t-131 392.5v33zM217 524q0 -188 95 -316t265 -128q167 0 262 128t95 316v33q0 185 -95.5 314t-263.5 129t-263 -129t-95 -314v-33zM893 1317 h-173v157h173v-157zM424 1317h-174v157h174v-157z" />
<glyph unicode="&#x4e8;" horiz-adv-x="1386" d="M100 0zM1351 718q0 -328 -175 -533.5t-455 -205.5q-276 0 -448.5 206t-172.5 533v19q0 327 172 533.5t448 206.5q280 0 455.5 -206.5t175.5 -533.5v-19zM720 1372q-224 0 -357 -164t-137 -429l2 -5h995l2 5q-6 265 -141.5 429t-363.5 164zM721 83q227 0 361.5 160.5 t142.5 424.5l-2 5h-995l-2 -5q6 -263 139.5 -424t355.5 -161z" />
<glyph unicode="&#x4e9;" horiz-adv-x="1180" d="M103 0zM103 557q0 239 131 392t347 153q217 0 348 -153t131 -392v-33q0 -240 -130.5 -392.5t-346.5 -152.5q-218 0 -349 152.5t-131 392.5v33zM583 80q159 0 252.5 117t98.5 290l-2 5h-701l-2 -5q3 -174 97 -290.5t257 -116.5zM581 1000q-160 0 -253.5 -116.5 t-98.5 -284.5l2 -5h701l2 5q-7 169 -100.5 285t-252.5 116z" />
</font>
</defs>
</svg>
