<?xml version="1.0" standalone="no"?>
<!DOCTYPE svg PUBLIC "-//W3C//DTD SVG 1.1//EN" "http://www.w3.org/Graphics/SVG/1.1/DTD/svg11.dtd" >
<svg xmlns="http://www.w3.org/2000/svg">
<metadata></metadata>
<defs>
<font id="roboto_condensedregular" horiz-adv-x="995" >
<font-face units-per-em="2048" ascent="1638" descent="-410" />
<missing-glyph horiz-adv-x="446" />
<glyph unicode="fi" horiz-adv-x="1025" d="M170 0v937h-141v145h141v111q0 186 97.5 287t271.5 101q62 0 124.5 -15.5t135.5 -44.5l-31 -158q-50 22 -102 35.5t-113 13.5q-92 0 -136 -55t-44 -164v-111h183v-145h-183v-937h-203zM895 0h-203v1082h203v-1082z" />
<glyph horiz-adv-x="0" />
<glyph horiz-adv-x="0" />
<glyph horiz-adv-x="16" />
<glyph unicode="&#x9;" horiz-adv-x="16" />
<glyph unicode=" "  horiz-adv-x="446" />
<glyph unicode="&#x09;" horiz-adv-x="446" />
<glyph unicode="&#xa0;" horiz-adv-x="446" />
<glyph unicode="!" horiz-adv-x="474" d="M339 485h-203v971h203v-971zM340 0h-204v204h204v-204z" />
<glyph unicode="&#x22;" horiz-adv-x="589" d="M236 1311l-56 -254h-97l1 245v258h152v-249zM507 1311l-57 -254h-96l1 252v251h152v-249z" />
<glyph unicode="#" horiz-adv-x="1069" d="M585 410h-192l-64 -410h-139l64 410h-197v130h217l58 368h-211v132h231l66 416h138l-65 -416h192l66 416h138l-65 -416h179v-132h-200l-57 -368h194v-130h-214l-64 -410h-139zM413 540h192l58 368h-193z" />
<glyph unicode="$" horiz-adv-x="1000" d="M703 370q0 96 -47 158.5t-159 116.5q-179 70 -268 167.5t-89 269.5q0 163 86 267.5t233 123.5v212h131v-214q145 -24 228 -142.5t83 -314.5h-203q0 136 -48.5 219.5t-131.5 83.5q-87 0 -131.5 -65t-44.5 -168q0 -98 45 -158t164 -117q179 -73 266.5 -169.5t87.5 -267.5 q0 -168 -88.5 -269t-242.5 -120v-193h-130v193q-153 17 -252 126t-99 323h202q0 -158 60.5 -226t149.5 -68q93 0 145.5 64t52.5 168z" />
<glyph unicode="%" horiz-adv-x="1350" d="M97 1176q0 128 72.5 214.5t197.5 86.5q126 0 198.5 -86.5t72.5 -214.5v-77q0 -128 -72 -213.5t-197 -85.5q-126 0 -199 85.5t-73 213.5v77zM240 1099q0 -74 33.5 -126.5t95.5 -52.5q60 0 93 52t33 127v77q0 75 -33.5 128t-94.5 53t-94 -53t-33 -128v-77zM720 357 q0 127 73 213.5t198 86.5q126 0 198.5 -86t72.5 -214v-78q0 -129 -72.5 -214.5t-196.5 -85.5q-126 0 -199.5 86t-73.5 214v78zM864 279q0 -74 34.5 -127t94.5 -53q63 0 94.5 51.5t31.5 128.5v78q0 76 -33.5 128t-94.5 52t-94 -52t-33 -128v-78zM413 113l-104 63l601 1138 l104 -63z" />
<glyph unicode="&#x26;" horiz-adv-x="1172" d="M67 383q0 121 62.5 213.5t185.5 188.5q-68 98 -101 177.5t-33 162.5q0 166 89.5 259t242.5 93q139 0 225 -89.5t86 -218.5q0 -96 -44 -168t-125 -137l-104 -86l293 -393l6 1q31 58 48.5 131.5t17.5 157.5h165q0 -131 -32 -240t-97 -195l179 -240h-237l-77 104 q-75 -61 -158 -93t-175 -32q-191 0 -304 111.5t-113 292.5zM490 133q62 0 123 23.5t114 68.5l-320 433l-23 -19q-67 -72 -89.5 -134.5t-22.5 -116.5q0 -110 58 -182.5t160 -72.5zM373 1127q0 -51 22.5 -105.5t66.5 -120.5l104 82q50 40 68.5 84t18.5 97q0 64 -38 110.5 t-102 46.5q-67 0 -103.5 -55.5t-36.5 -138.5z" />
<glyph unicode="'" horiz-adv-x="319" d="M233 1334l-55 -279h-96l1 266v239h150v-226z" />
<glyph unicode="(" horiz-adv-x="602" d="M117 590q0 379 130.5 660.5t283.5 372.5h6l37 -108q-112 -102 -193.5 -344t-81.5 -579v-20q0 -337 81.5 -578t193.5 -349l-37 -102h-6q-154 92 -284 369.5t-130 661.5v16z" />
<glyph unicode=")" horiz-adv-x="606" d="M490 574q0 -380 -133 -660t-288 -371h-6l-38 102q110 102 192.5 346t82.5 581v20q0 333 -84.5 578.5t-190.5 350.5l38 102h6q154 -91 287.5 -374t133.5 -659v-16z" />
<glyph unicode="*" horiz-adv-x="806" d="M301 984l-269 96l44 140l268 -119l-11 355h145l-12 -361l262 121l44 -141l-274 -100l179 -278l-118 -87l-162 295l-159 -289l-118 84z" />
<glyph unicode="+" horiz-adv-x="1023" d="M607 774h342v-174h-342v-454h-198v454h-342v174h342v432h198v-432z" />
<glyph unicode="," horiz-adv-x="397" d="M301 24l-127 -295h-121l59 302v183h189v-190z" />
<glyph unicode="-" horiz-adv-x="598" d="M519 542h-446v155h446v-155z" />
<glyph unicode="." horiz-adv-x="497" d="M341 0h-204v203h204v-203z" />
<glyph unicode="/" horiz-adv-x="693" d="M168 -125h-159l482 1581h159z" />
<glyph unicode="0" horiz-adv-x="1002" d="M905 563q0 -283 -108.5 -433.5t-294.5 -150.5q-187 0 -296.5 151t-109.5 433v329q0 281 109 433t295 152t295.5 -152t109.5 -433v-329zM703 921q0 198 -52.5 299t-150.5 101t-149.5 -101.5t-51.5 -298.5v-386q0 -198 52.5 -300t150.5 -102q97 0 149 101.5t52 300.5v386z " />
<glyph unicode="1" horiz-adv-x="1000" d="M630 -2h-202v1255l-285 -19v131l487 92v-1459z" />
<glyph unicode="2" horiz-adv-x="1000" d="M918 0h-817v135l400 526q97 137 135.5 226.5t38.5 173.5q0 115 -48.5 187.5t-133.5 72.5q-107 0 -160.5 -80t-53.5 -218h-195l-2 5q-4 189 107 319t304 130q178 0 281.5 -112.5t103.5 -297.5q0 -125 -63.5 -246.5t-184.5 -271.5l-275 -395h563v-154z" />
<glyph unicode="3" horiz-adv-x="1000" d="M340 818h139q101 0 147.5 67.5t46.5 182.5q0 118 -48.5 185.5t-141.5 67.5q-85 0 -139.5 -67.5t-54.5 -177.5h-193l-3 6q-4 169 106 282t280 113q180 0 288 -107.5t108 -303.5q0 -97 -51 -185.5t-145 -134.5q110 -41 163 -132.5t53 -211.5q0 -198 -116.5 -310.5 t-298.5 -112.5q-170 0 -287.5 107.5t-113.5 299.5l3 6h194q0 -115 57 -187t150 -72q98 0 153.5 69.5t55.5 197.5q0 136 -53 200.5t-160 64.5h-139v153z" />
<glyph unicode="4" horiz-adv-x="1000" d="M793 497h156v-155h-156v-342h-202v342h-529l-6 114l529 1000h208v-959zM256 497h335v665l-6 1l-20 -42z" />
<glyph unicode="5" horiz-adv-x="1000" d="M140 654l70 802h653v-167h-484l-38 -432q37 38 86 62.5t112 26.5q172 2 270 -127.5t98 -353.5q0 -217 -102.5 -351.5t-299.5 -134.5q-164 0 -276 104t-108 299l2 5l191 4q0 -124 52.5 -191t138.5 -67q99 0 149 87.5t50 242.5q0 146 -52 234.5t-149 88.5 q-86 0 -128.5 -37.5t-59.5 -111.5z" />
<glyph unicode="6" horiz-adv-x="1000" d="M581 1477q66 0 127 -17t111 -46l-39 -149q-45 27 -91 41t-107 14q-122 0 -197.5 -117.5t-75.5 -314.5v-41q50 57 118 88.5t149 31.5q165 0 260.5 -136t95.5 -349q0 -220 -110 -361.5t-288 -141.5q-187 0 -307 153t-120 426v316q0 271 135 437t339 166zM526 818 q-77 0 -132.5 -37t-84.5 -101v-134q0 -196 63 -305t162 -109q90 0 143 101.5t53 248.5q0 148 -54.5 242t-149.5 94z" />
<glyph unicode="7" horiz-adv-x="1000" d="M916 1300q-209 -278 -286.5 -532.5t-109.5 -628.5l-13 -139h-202l12 139q33 352 131.5 634t270.5 527h-653v156h850v-156z" />
<glyph unicode="8" horiz-adv-x="1000" d="M880 1076q0 -115 -55 -201.5t-149 -128.5q107 -45 170.5 -138.5t63.5 -215.5q0 -200 -113.5 -306.5t-295.5 -106.5q-185 0 -298.5 106.5t-113.5 306.5q0 123 63 216.5t171 138.5q-94 42 -148 128.5t-54 200.5q0 191 104 296t274 105q169 0 275 -105t106 -296zM708 399 q0 120 -59 195.5t-150 75.5q-92 0 -149.5 -75t-57.5 -196q0 -125 56.5 -195.5t152.5 -70.5q91 0 149 71t58 195zM676 1071q0 110 -49 180t-128 70q-80 0 -127.5 -67.5t-47.5 -182.5q0 -113 48 -180t129 -67q79 0 127 67t48 180z" />
<glyph unicode="9" horiz-adv-x="1000" d="M443 133q111 0 179.5 102.5t68.5 295.5v71q-42 -71 -103 -107.5t-133 -36.5q-174 0 -275.5 134.5t-101.5 364.5q0 223 114.5 371.5t283.5 148.5q189 0 303.5 -144t114.5 -415v-380q0 -266 -126 -412.5t-325 -146.5q-62 0 -130 15.5t-126 44.5l27 148q53 -29 107.5 -41.5 t121.5 -12.5zM476 610q78 0 132.5 44.5t82.5 114.5v169q0 188 -56 285.5t-156 97.5q-85 0 -141.5 -105t-56.5 -259t51.5 -250.5t143.5 -96.5z" />
<glyph unicode=":" horiz-adv-x="476" d="M341 0h-204v203h204v-203zM341 878h-204v203h204v-203z" />
<glyph unicode=";" horiz-adv-x="470" d="M338 879h-204v203h204v-203zM339 24l-127 -295h-121l59 302v183h189v-190z" />
<glyph unicode="&#x3c;" horiz-adv-x="898" d="M276 567l-64 -14v-6l64 -14l496 -240v-192l-711 376v151l711 374v-192z" />
<glyph unicode="=" horiz-adv-x="1003" d="M862 808h-732v160h732v-160zM862 390h-732v160h732v-160z" />
<glyph unicode="&#x3e;" horiz-adv-x="916" d="M114 814v188l731 -374v-151l-731 -376v189l516 247l63 13v6l-63 15z" />
<glyph unicode="?" horiz-adv-x="857" d="M296 408q1 133 28 191t121 151q71 90 108.5 162.5t37.5 170.5q0 110 -45.5 171.5t-129.5 61.5q-70 0 -120 -56.5t-50 -156.5h-195l-2 6q-3 173 100.5 270.5t266.5 97.5q177 0 277.5 -105t100.5 -286q0 -130 -60.5 -236t-160.5 -209q-49 -51 -61.5 -97.5t-12.5 -135.5 h-203zM503 0h-208v198h208v-198z" />
<glyph unicode="@" horiz-adv-x="1635" d="M1542 509q-8 -216 -109.5 -373t-301.5 -157q-69 0 -118 45t-68 127q-43 -86 -104 -128.5t-142 -42.5q-119 0 -182.5 120t-47.5 316q21 255 125 409.5t252 154.5q96 0 154.5 -26.5t128.5 -80.5l-3 -3h5l-46 -577q-7 -115 17 -157.5t63 -42.5q108 0 172.5 117t72.5 299 q15 376 -124.5 586t-433.5 210q-272 0 -438.5 -227t-178.5 -600q-16 -370 132.5 -590.5t425.5 -220.5q77 0 157 21t136 55l32 -107q-59 -42 -150.5 -65.5t-178.5 -23.5q-343 0 -529.5 249.5t-170.5 681.5q16 425 223 684.5t544 259.5q340 0 520 -245t166 -668zM637 416 q-10 -142 18.5 -221.5t92.5 -79.5q56 0 102 31t83 112v14.5t2 20.5l42 536q-24 11 -49 17.5t-51 6.5q-106 0 -164.5 -109t-75.5 -328z" />
<glyph unicode="A" horiz-adv-x="1137" d="M803 368h-464l-106 -368h-206l448 1456h196l444 -1456h-206zM386 529h371l-182 636h-6z" />
<glyph unicode="B" horiz-adv-x="1122" d="M141 0v1456h406q206 0 321.5 -98t115.5 -294q0 -104 -52.5 -183.5t-145.5 -116.5q118 -26 181.5 -123.5t63.5 -228.5q0 -201 -113.5 -306.5t-313.5 -105.5h-463zM344 679v-525h260q108 0 166.5 66.5t58.5 190.5q0 123 -50 195.5t-154 72.5h-281zM344 825h223 q100 0 157 60.5t57 174.5q0 120 -59.5 180t-174.5 60h-203v-475z" />
<glyph unicode="C" horiz-adv-x="1084" d="M1002 442l3 -6q-1 -218 -116 -337.5t-325 -119.5q-214 0 -342 144t-128 402v404q0 258 126.5 403t337.5 145q214 0 329 -117t118 -342l-3 -6h-192q-3 159 -63 234t-189 75q-125 0 -194 -101t-69 -288v-407q0 -190 70.5 -291t198.5 -101q126 0 184.5 73.5t60.5 235.5h193z " />
<glyph unicode="D" horiz-adv-x="1154" d="M141 0v1456h400q232 0 378.5 -175t146.5 -450v-207q0 -276 -146.5 -450t-378.5 -174h-400zM344 1300v-1146h190q153 0 241.5 131t88.5 339v209q0 206 -88.5 336.5t-241.5 130.5h-190z" />
<glyph unicode="E" horiz-adv-x="1018" d="M884 676h-540v-522h626v-154h-829v1456h823v-156h-620v-469h540v-155z" />
<glyph unicode="F" horiz-adv-x="1020" d="M885 647h-541v-647h-203v1456h831v-156h-628v-498h541v-155z" />
<glyph unicode="G" horiz-adv-x="1198" d="M1061 207q-50 -88 -162.5 -158t-287.5 -70q-229 0 -369 139t-140 396v432q0 253 133 392t353 139q223 0 341 -112.5t126 -315.5l-2 -6h-192q-5 136 -71.5 207t-198.5 71q-133 0 -210 -95.5t-77 -277.5v-434q0 -186 82.5 -283.5t224.5 -97.5q104 0 161.5 35.5t85.5 90.5 v331h-249v147h452v-530z" />
<glyph unicode="H" horiz-adv-x="1246" d="M1104 0h-202v642h-558v-642h-203v1456h203v-659h558v659h202v-1456z" />
<glyph unicode="I" horiz-adv-x="513" d="M357 0h-202v1456h202v-1456z" />
<glyph unicode="J" horiz-adv-x="989" d="M651 1456h202v-1039q0 -201 -110 -319.5t-282 -118.5q-185 0 -293.5 107.5t-104.5 315.5l3 6h195q0 -138 53.5 -206.5t146.5 -68.5q82 0 136 77t54 207v1039z" />
<glyph unicode="K" horiz-adv-x="1131" d="M483 653h-139v-653h-203v1456h203v-640h121l385 640h242l-458 -691l493 -765h-248z" />
<glyph unicode="L" horiz-adv-x="951" d="M344 154h568v-154h-771v1456h203v-1302z" />
<glyph unicode="M" horiz-adv-x="1483" d="M397 1456l340 -1188h6l341 1188h262v-1456h-201v559l18 560l-6 1l-350 -1120h-134l-349 1119l-6 -1l19 -559v-559h-201v1456h261z" />
<glyph unicode="N" horiz-adv-x="1247" d="M1104 0h-202l-552 1083l-6 -2v-1081h-203v1456h203l552 -1080l6 2v1078h202v-1456z" />
<glyph unicode="O" horiz-adv-x="1160" d="M1068 527q0 -259 -134 -403.5t-359 -144.5q-222 0 -353 144.5t-131 403.5v400q0 258 131.5 404t352.5 146q224 0 358.5 -146t134.5 -404v-400zM866 930q0 190 -76 288.5t-215 98.5q-137 0 -210 -98.5t-73 -288.5v-403q0 -192 73.5 -291t209.5 -99q140 0 215.5 98.5 t75.5 291.5v403z" />
<glyph unicode="P" horiz-adv-x="1132" d="M344 574v-574h-203v1456h478q204 0 320 -121.5t116 -319.5q0 -199 -116 -320t-320 -121h-275zM344 730h275q115 0 174 80.5t59 202.5q0 124 -58.5 205.5t-174.5 81.5h-275v-570z" />
<glyph unicode="Q" horiz-adv-x="1212" d="M1070 527q0 -129 -35 -231t-99 -172l220 -234l-132 -111l-226 245q-50 -23 -105.5 -34t-115.5 -11q-222 0 -353 144.5t-131 403.5v400q0 258 131.5 404t352.5 146q224 0 358.5 -146t134.5 -404v-400zM868 930q0 190 -76 288.5t-215 98.5q-137 0 -210 -98.5t-73 -288.5 v-403q0 -192 73.5 -291t209.5 -99q140 0 215.5 98.5t75.5 291.5v403z" />
<glyph unicode="R" horiz-adv-x="1162" d="M344 627v-627h-203v1455h453q207 0 320 -107t113 -307q0 -114 -52.5 -199t-151.5 -133q109 -37 157.5 -125.5t48.5 -218.5v-127q0 -67 13.5 -124.5t46.5 -90.5v-23h-209q-34 33 -43.5 99.5t-9.5 140.5v123q0 122 -55.5 193t-152.5 71h-275zM344 782h240q123 0 181.5 66.5 t58.5 188.5q0 125 -57 194t-173 69h-250v-518z" />
<glyph unicode="S" horiz-adv-x="1087" d="M807 366q0 103 -58 169t-203 116q-208 63 -319 164.5t-111 268.5q0 172 123.5 282.5t317.5 110.5q202 0 325.5 -127.5t119.5 -307.5l-2 -6h-195q0 127 -65.5 206.5t-184.5 79.5q-113 0 -174.5 -66.5t-61.5 -169.5q0 -93 66 -156.5t218 -115.5q199 -62 303 -169t104 -277 q0 -179 -123 -284t-323 -105q-195 0 -340.5 115.5t-140.5 325.5l2 6h195q0 -150 78.5 -222t205.5 -72q114 0 178.5 63.5t64.5 170.5z" />
<glyph unicode="T" horiz-adv-x="1018" d="M984 1300h-374v-1300h-203v1300h-372v156h949v-156z" />
<glyph unicode="U" horiz-adv-x="1160" d="M1045 1456v-1009q0 -226 -129.5 -347t-338.5 -121q-206 0 -333 121t-127 347v1009h201v-1009q0 -156 70 -235t189 -79q124 0 195 76t71 238v1009h202z" />
<glyph unicode="V" horiz-adv-x="1119" d="M536 322l20 -85h6l21 84l297 1135h215l-438 -1456h-196l-437 1456h216z" />
<glyph unicode="W" horiz-adv-x="1551" d="M1103 418h6l196 1038h199l-294 -1456h-187l-247 1034h-6l-249 -1034h-187l-293 1456h199l197 -1038h6l248 1038h161z" />
<glyph unicode="X" horiz-adv-x="1112" d="M553 888h6l260 568h239l-379 -721l395 -735h-243l-269 582h-6l-268 -582h-240l388 735l-378 721h237z" />
<glyph unicode="Y" horiz-adv-x="1100" d="M547 749h6l298 707h225l-428 -932v-524h-202v537l-423 919h227z" />
<glyph unicode="Z" horiz-adv-x="1010" d="M295 154h644v-154h-860v125l621 1176h-617v155h836v-121z" />
<glyph unicode="[" horiz-adv-x="503" d="M480 1519h-148v-1686h148v-152h-353v1991h353v-153z" />
<glyph unicode="\" horiz-adv-x="736" d="M25 1456h197l515 -1581h-197z" />
<glyph unicode="]" horiz-adv-x="503" d="M17 1672h355v-1991h-355v152h150v1686h-150v153z" />
<glyph unicode="^" horiz-adv-x="758" d="M224 729h-171l253 727h145l252 -727h-170l-143 444l-10 48h-6l-10 -48z" />
<glyph unicode="_" horiz-adv-x="793" d="M782 -152h-772v152h772v-152z" />
<glyph unicode="`" horiz-adv-x="591" d="M478 1211h-170l-228 261l2 5h227z" />
<glyph unicode="a" horiz-adv-x="955" d="M667 0q-11 37 -18 72.5t-9 71.5q-45 -73 -113 -119t-151 -46q-137 0 -214.5 86.5t-77.5 231.5q0 155 105.5 243.5t296.5 88.5h151v111q0 99 -44 154.5t-125 55.5q-73 0 -117.5 -50t-44.5 -125l-193 1l-3 6q-5 125 100 222.5t271 97.5q160 0 259.5 -94.5t99.5 -269.5v-502 q0 -63 7.5 -121.5t24.5 -114.5h-205zM422 135q71 0 129.5 42t85.5 105v221h-154q-93 0 -144.5 -59.5t-51.5 -145.5q0 -73 35 -118t100 -45z" />
<glyph unicode="b" d="M917 451q0 -215 -93 -343.5t-262 -128.5q-85 0 -148.5 37.5t-106.5 110.5l-15 -127h-176v1560h203v-592q42 65 102 99.5t139 34.5q171 0 264 -137.5t93 -366.5v-147zM715 598q0 156 -49.5 251t-156.5 95q-68 0 -115.5 -40.5t-74.5 -108.5v-520q27 -66 75 -102.5 t117 -36.5q107 0 155.5 85t48.5 230v147z" />
<glyph unicode="c" horiz-adv-x="921" d="M492 133q76 0 128 58.5t52 156.5h182l2 -6q4 -153 -103.5 -258t-260.5 -105q-202 0 -309.5 137t-107.5 349v149q0 212 107.5 350t308.5 138q164 0 266.5 -109.5t99.5 -283.5l-3 -6h-182q0 108 -49.5 175.5t-131.5 67.5q-116 0 -164.5 -94t-48.5 -238v-149 q0 -146 48.5 -239t165.5 -93z" />
<glyph unicode="d" d="M78 528q0 259 93.5 416.5t263.5 157.5q76 0 135.5 -34t102.5 -98v590h202v-1560h-177l-15 124q-43 -71 -105.5 -108t-143.5 -37q-169 0 -262.5 144t-93.5 384v21zM281 507q0 -171 49 -271t155 -100q66 0 112.5 36t75.5 101v526q-29 67 -75.5 106t-110.5 39 q-106 0 -156 -115t-50 -301v-21z" />
<glyph unicode="e" horiz-adv-x="930" d="M507 -21q-193 0 -309 134t-116 343v158q0 212 113.5 350t288.5 138q184 0 283 -125.5t99 -337.5v-140h-582v-43q0 -140 61.5 -231.5t174.5 -91.5q84 0 144 26.5t114 77.5l64 -126q-51 -58 -137 -95t-198 -37zM484 946q-88 0 -141 -85.5t-59 -216.5h381v41q0 115 -46 188 t-135 73z" />
<glyph unicode="f" horiz-adv-x="623" d="M187 0v937h-140v145h140v139q0 172 82.5 266t231.5 94q29 0 59.5 -5.5t68.5 -15.5l-20 -149q-17 5 -38 8t-45 3q-67 0 -101.5 -52t-34.5 -149v-139h189v-145h-189v-937h-203z" />
<glyph unicode="g" horiz-adv-x="994" d="M78 584q0 233 95.5 375.5t265.5 142.5q82 0 144 -38.5t106 -111.5l15 130h175v-1077q0 -208 -110.5 -325t-308.5 -117q-68 0 -145.5 21t-138.5 57l43 152q51 -31 112 -48.5t127 -17.5q111 0 164.5 71t53.5 208v98q-43 -62 -102.5 -93.5t-136.5 -31.5q-169 0 -264 129.5 t-95 342.5v133zM281 451q0 -144 50 -229.5t157 -85.5q66 0 112.5 34t75.5 96v539q-30 64 -76 101.5t-110 37.5q-106 0 -157.5 -100t-51.5 -260v-133z" />
<glyph unicode="h" d="M316 937q45 78 111 121.5t147 43.5q146 0 227 -108t81 -332v-662h-203v664q0 149 -43.5 214.5t-129.5 65.5q-62 0 -110.5 -35.5t-79.5 -97.5v-811h-203v1560h203v-623z" />
<glyph unicode="i" horiz-adv-x="462" d="M332 0h-203v1082h203v-1082zM332 1366h-203v194h203v-194z" />
<glyph unicode="j" horiz-adv-x="467" d="M340 1082v-1156q0 -174 -78.5 -268.5t-219.5 -94.5q-30 0 -54 4.5t-52 13.5l11 155q16 -6 36.5 -10t38.5 -4q53 0 84 50.5t31 153.5v1156h203zM340 1366h-203v194h203v-194z" />
<glyph unicode="k" horiz-adv-x="922" d="M405 496h-86v-496h-202v1560h202v-909h83l239 431h237l-314 -488l359 -594h-236z" />
<glyph unicode="l" horiz-adv-x="462" d="M332 0h-203v1560h203v-1560z" />
<glyph unicode="m" horiz-adv-x="1525" d="M301 1082l11 -147q44 80 112 123.5t159 43.5q89 0 153 -49.5t97 -150.5q42 94 112 147t166 53q138 0 217.5 -113.5t79.5 -345.5v-643h-203v644q0 166 -41 233t-121 67q-69 0 -115.5 -52.5t-67.5 -139.5q-1 8 1 -25.5t2 -48.5v-678h-202v644q0 161 -42 230.5t-122 69.5 q-64 0 -109 -35.5t-70 -98.5v-810h-202v1082h185z" />
<glyph unicode="n" d="M300 1082l11 -160q45 85 114 132.5t156 47.5q142 0 221 -105t79 -326v-671h-203v669q0 151 -43 213t-130 62q-62 0 -110 -38.5t-78 -104.5v-801h-203v1082h186z" />
<glyph unicode="o" d="M76 609q0 215 112.5 354t308.5 139q195 0 308 -138.5t113 -354.5v-138q0 -217 -112.5 -354.5t-307.5 -137.5q-197 0 -309.5 137.5t-112.5 354.5v138zM279 471q0 -148 54 -243t165 -95q108 0 162.5 95t54.5 243v138q0 146 -54.5 241.5t-163.5 95.5q-110 0 -164 -95 t-54 -242v-138z" />
<glyph unicode="p" d="M916 451q0 -214 -94 -343t-261 -129q-79 0 -139 31t-103 91v-517h-203v1498h181l13 -124q43 69 105 106.5t144 37.5q169 0 263 -142t94 -376v-133zM713 584q0 159 -52.5 259.5t-156.5 100.5q-65 0 -111 -37t-74 -101v-547q27 -61 73 -93.5t113 -32.5q105 0 156.5 87.5 t51.5 230.5v133z" />
<glyph unicode="q" d="M78 584q0 234 94 376t263 142q79 0 139.5 -36t104.5 -104l15 120h176v-1498h-203v513q-43 -58 -101 -88t-132 -30q-169 0 -262.5 129t-93.5 343v133zM281 451q0 -144 49 -231t155 -87q63 0 108 32t74 91v561q-28 60 -73 94.5t-107 34.5q-106 0 -156 -100.5t-50 -261.5 v-133z" />
<glyph unicode="r" horiz-adv-x="633" d="M582 911l-95 5q-63 0 -104.5 -38t-63.5 -107v-771h-203v1082h185l15 -163q34 86 89 134.5t127 48.5q20 0 41 -3.5t33 -8.5z" />
<glyph unicode="s" horiz-adv-x="891" d="M620 271q0 63 -41.5 106.5t-156.5 95.5q-167 65 -247.5 138.5t-80.5 190.5q0 125 98.5 212.5t258.5 87.5q167 0 266 -94.5t95 -235.5l-2 -6h-195q0 77 -43.5 132.5t-120.5 55.5q-76 0 -118.5 -43t-42.5 -101q0 -62 36.5 -98t157.5 -94q170 -61 252.5 -138.5t82.5 -198.5 q0 -134 -102 -218t-268 -84q-179 0 -282 101.5t-98 237.5l2 6h189q4 -105 58 -151.5t134 -46.5q79 0 123.5 40.5t44.5 104.5z" />
<glyph unicode="t" horiz-adv-x="628" d="M375 1351v-269h169v-145h-169v-644q0 -84 25 -119.5t65 -35.5q24 0 44.5 3t48.5 9l21 -140q-34 -14 -76.5 -22.5t-87.5 -8.5q-115 0 -178.5 75.5t-63.5 238.5v644h-141v145h141v269h202z" />
<glyph unicode="u" d="M687 145q-43 -80 -110 -123t-154 -43q-147 0 -229 113t-82 351v639h202v-641q0 -166 39.5 -235.5t118.5 -69.5q75 0 125.5 35t80.5 100v811h203v-1082h-181z" />
<glyph unicode="v" horiz-adv-x="892" d="M430 325l17 -84h6l17 84l184 757h209l-324 -1082h-179l-326 1082h210z" />
<glyph unicode="w" horiz-adv-x="1308" d="M920 351h6l143 731h194l-248 -1082h-167l-194 719h-6l-191 -719h-168l-248 1082h194l146 -725h6l192 725h146z" />
<glyph unicode="x" horiz-adv-x="892" d="M440 687h6l170 395h232l-287 -534l297 -548h-231l-177 408h-6l-178 -408h-231l296 548l-287 534h230z" />
<glyph unicode="y" horiz-adv-x="892" d="M420 373l15 -71h6l208 780h221l-379 -1250q-38 -112 -103 -190.5t-187 -78.5q-25 0 -53.5 5.5t-56.5 12.5l22 150q11 -2 30 -4t30 -2q59 0 93.5 50.5t53.5 119.5l36 110l-334 1077h220z" />
<glyph unicode="z" horiz-adv-x="865" d="M298 154h499v-154h-721v128l474 797h-464v157h690v-126z" />
<glyph unicode="{" horiz-adv-x="594" d="M522 -379q-164 55 -233.5 174.5t-69.5 289.5v212q0 112 -40.5 175t-123.5 63v146q83 0 123.5 61.5t40.5 174.5v215q0 171 69.5 290.5t233.5 174.5l39 -114q-83 -36 -117.5 -126.5t-34.5 -224.5v-215q0 -106 -40 -186.5t-121 -122.5q81 -44 121 -125t40 -186v-212 q0 -134 34.5 -223t118.5 -126z" />
<glyph unicode="|" horiz-adv-x="446" d="M292 -270h-137v1726h137v-1726z" />
<glyph unicode="}" horiz-adv-x="594" d="M30 -264q83 37 119 126.5t36 222.5v212q0 108 41 188.5t126 121.5q-85 40 -126 120.5t-41 189.5v215q0 133 -35.5 223.5t-118.5 127.5l40 114q163 -55 233 -174.5t70 -290.5v-215q0 -113 39.5 -174.5t124.5 -61.5v-146q-84 0 -124 -63t-40 -175v-212q0 -170 -70 -289.5 t-233 -174.5z" />
<glyph unicode="~" horiz-adv-x="1165" d="M1057 745q0 -142 -74 -242.5t-185 -100.5q-73 0 -134.5 34t-131.5 108q-47 50 -83.5 74t-77.5 24q-51 0 -86 -56t-35 -140l-142 20q0 141 72 239t185 98q72 0 135.5 -35.5t132.5 -105.5q44 -52 80.5 -75t77.5 -23q50 0 86.5 58t36.5 143z" />
<glyph unicode="&#xa1;" horiz-adv-x="473" d="M333 -374h-203v970h203v-970zM334 869h-205v213h205v-213z" />
<glyph unicode="&#xa2;" horiz-adv-x="991" d="M514 133q76 0 128 58.5t52 156.5h183l3 -5q2 -133 -81.5 -232.5t-210.5 -124.5v-231h-163v232q-160 30 -244 161t-84 317v149q0 186 84 317.5t244 162.5v224h163v-223q134 -25 215 -130.5t81 -261.5h-190q0 108 -49.5 175.5t-131.5 67.5q-116 0 -164.5 -94t-48.5 -238 v-149q0 -146 48.5 -239t165.5 -93z" />
<glyph unicode="&#xa3;" horiz-adv-x="1034" d="M422 618l5 -141q0 -93 -24 -177.5t-69 -145.5h629v-154h-832v154h7q42 13 63 113t21 206l-5 145h-140v155h135l-8 263q0 205 98 323t263 118q175 0 270.5 -107t92.5 -282l-3 -6h-195q0 123 -46 181t-119 58t-115.5 -75t-42.5 -210l9 -263h328v-155h-322z" />
<glyph unicode="&#xa4;" horiz-adv-x="1290" d="M972 112q-68 -64 -151 -98t-173 -34q-91 0 -173.5 33.5t-150.5 96.5l-118 -136l-116 118l129 147q-48 78 -73.5 172t-25.5 197q0 107 27 203t79 176l-136 157l116 120l129 -149q67 57 146.5 88t166.5 31q86 0 165.5 -31.5t147.5 -89.5l132 152l116 -121l-139 -160 q49 -81 76 -176.5t27 -199.5q0 -102 -25 -194.5t-71 -170.5l132 -151l-116 -119zM273 608q0 -198 109.5 -336.5t265.5 -138.5q154 0 263 138.5t109 336.5q0 196 -109 334t-263 138q-156 0 -265.5 -138t-109.5 -334z" />
<glyph unicode="&#xa5;" horiz-adv-x="1070" d="M530 824h6l272 632h226l-350 -730h247v-155h-300v-137h300v-155h-300v-279h-203v279h-304v155h304v137h-304v155h256l-349 730h226z" />
<glyph unicode="&#xa6;" horiz-adv-x="442" d="M123 -270v784h190v-784h-190zM313 698h-190v758h190v-758z" />
<glyph unicode="&#xa7;" horiz-adv-x="1091" d="M991 444q0 -93 -43.5 -162t-122.5 -108q68 -51 102.5 -120.5t34.5 -171.5q0 -172 -115.5 -269t-310.5 -97q-191 0 -320 101.5t-124 320.5l2 6l194 2q0 -144 72.5 -209.5t175.5 -65.5q104 0 163.5 58.5t59.5 150.5q0 90 -56.5 140.5t-214.5 108.5q-205 64 -302.5 154.5 t-97.5 262.5q0 91 42 160.5t121 110.5q-67 50 -100 120.5t-33 171.5q0 166 116.5 267t310.5 101q201 0 313.5 -111.5t108.5 -312.5l-2 -6h-194q0 118 -60 196t-166 78q-112 0 -168 -59t-56 -151q0 -97 52.5 -147.5t216.5 -106.5q209 -66 305 -154.5t96 -258.5zM516 697 q-36 10 -66.5 20.5t-56.5 22.5q-52 -22 -77 -70t-25 -114q0 -101 52.5 -152.5t218.5 -111.5q29 -10 58 -20.5t58 -20.5q53 22 83 70t30 113q0 92 -58 146.5t-217 116.5z" />
<glyph unicode="&#xa8;" horiz-adv-x="940" d="M787 1271h-207v185h207v-185zM359 1271h-208v185h208v-185z" />
<glyph unicode="&#xa9;" horiz-adv-x="1440" d="M989 596l3 -6q3 -150 -74 -229t-214 -79q-141 0 -224 106.5t-83 280.5v119q0 173 83 280t224 107q137 0 214.5 -79.5t74.5 -228.5l-3 -6h-121q0 102 -42 150t-123 48q-86 0 -132.5 -75t-46.5 -195v-120q0 -123 46.5 -197.5t132.5 -74.5q82 0 123 47t41 152h121zM190 729 q0 -271 153.5 -457t371.5 -186t371.5 186t153.5 457q0 268 -153.5 453t-371.5 185q-219 0 -372 -185t-153 -453zM88 729q0 315 182.5 531t444.5 216q261 0 444.5 -216t183.5 -531q0 -316 -184 -533t-444 -217q-261 0 -444 217t-183 533z" />
<glyph unicode="&#xaa;" horiz-adv-x="788" d="M525 705q-7 22 -11.5 47t-7.5 53q-27 -50 -74.5 -82t-113.5 -32q-100 0 -155.5 61.5t-55.5 166.5q0 109 71 168t208 59h118v56q0 71 -25.5 110t-75.5 39q-58 0 -90 -31.5t-32 -88.5l-133 12l-1 6q-5 98 66.5 163t189.5 65q112 0 178 -71t66 -205v-315q0 -51 5 -95t17 -86 h-144zM352 813q45 0 91 33t61 73v124h-117q-66 0 -102 -35.5t-36 -84.5q0 -53 25.5 -81.5t77.5 -28.5z" />
<glyph unicode="&#xab;" horiz-adv-x="857" d="M253 516l210 -394h-139l-243 385v19l243 384h139zM559 516l210 -394h-139l-243 385v19l243 384h139z" />
<glyph unicode="&#xac;" horiz-adv-x="972" d="M819 378h-162v271h-542v143h704v-414z" />
<glyph unicode="&#xad;" horiz-adv-x="598" d="M519 542h-446v155h446v-155z" />
<glyph unicode="&#xae;" horiz-adv-x="1441" d="M87 729q0 315 183 531t445 216q261 0 444 -216t183 -531q0 -316 -183.5 -533t-443.5 -217q-262 0 -445 217t-183 533zM189 729q0 -271 153.5 -457t372.5 -186q217 0 370.5 186t153.5 457q0 268 -153.5 453t-370.5 185q-219 0 -372.5 -185t-153.5 -453zM585 660v-344h-126 v850h245q133 0 209 -65.5t76 -189.5q0 -63 -29.5 -109.5t-85.5 -77.5q58 -27 84.5 -80.5t26.5 -128.5v-56q0 -42 3 -74t11 -53v-16h-129q-8 21 -9.5 61.5t-1.5 82.5v54q0 76 -30.5 111t-99.5 35h-144zM585 776h131q62 0 105 35t43 97q0 77 -36 110t-124 33h-119v-275z" />
<glyph unicode="&#xaf;" horiz-adv-x="879" d="M760 1324h-635v132h635v-132z" />
<glyph unicode="&#xb0;" horiz-adv-x="706" d="M122 1216q0 106 68.5 183.5t164.5 77.5q93 0 161 -77.5t68 -183.5q0 -108 -67.5 -182.5t-161.5 -74.5q-96 0 -164.5 74.5t-68.5 182.5zM239 1216q0 -59 33.5 -98.5t82.5 -39.5q47 0 79.5 39t32.5 99t-32.5 100.5t-79.5 40.5q-49 0 -82.5 -40.5t-33.5 -100.5z" />
<glyph unicode="&#xb1;" horiz-adv-x="986" d="M592 873h308v-157h-308v-414h-182v414h-320v157h320v407h182v-407zM829 21h-706v155h706v-155z" />
<glyph unicode="&#xb2;" horiz-adv-x="745" d="M622 667h-513v121l260 267q55 60 72 99t17 84q0 53 -22.5 85.5t-69.5 32.5q-53 0 -80.5 -35t-27.5 -91h-150l-2 6q-5 100 67.5 171.5t194.5 71.5q117 0 182.5 -63t65.5 -179q0 -78 -43.5 -140.5t-141.5 -159.5l-122 -144l2 -5h311v-121z" />
<glyph unicode="&#xb3;" horiz-adv-x="747" d="M360 1130q56 0 83 30t27 85q0 48 -27.5 79t-81.5 31q-48 0 -75.5 -27.5t-27.5 -72.5h-148l-2 6q-6 97 67.5 157t183.5 60q124 0 196.5 -59.5t72.5 -168.5q0 -56 -30.5 -102t-83.5 -72q60 -23 92.5 -71t32.5 -117q0 -110 -75.5 -171.5t-200.5 -61.5q-116 0 -193.5 59 t-72.5 171l2 6h149q0 -52 30 -83.5t84 -31.5q55 0 87.5 31t32.5 85q0 64 -31 94.5t-91 30.5h-102v113h102z" />
<glyph unicode="&#xb4;" horiz-adv-x="615" d="M284 1478h226l2 -5l-238 -261h-162z" />
<glyph unicode="&#xb5;" horiz-adv-x="1042" d="M334 1082v-626q0 -185 43.5 -253.5t126.5 -68.5q75 0 122 36t73 105v807h202v-1082h-186l-6 88q-38 -53 -89.5 -81t-116.5 -28q-53 0 -94.5 15t-74.5 49v-459h-202v1498h202z" />
<glyph unicode="&#xb6;" horiz-adv-x="896" d="M550 0v520h-72q-197 0 -306.5 129.5t-109.5 338.5q0 207 109.5 337.5t306.5 130.5h275v-1456h-203z" />
<glyph unicode="&#xb7;" horiz-adv-x="505" d="M348 606h-205v214h205v-214z" />
<glyph unicode="&#xb8;" horiz-adv-x="464" d="M276 2l-10 -58q56 -10 92.5 -50.5t36.5 -121.5q0 -98 -72.5 -156t-205.5 -58l-6 113q53 0 85.5 25t32.5 76q0 50 -29 69.5t-100 26.5l26 134h150z" />
<glyph unicode="&#xb9;" horiz-adv-x="491" d="M360 665h-159v666l-109 -3v126l268 23v-812z" />
<glyph unicode="&#xba;" horiz-adv-x="806" d="M109 1142q0 148 79.5 241.5t211.5 93.5q133 0 212 -93.5t79 -241.5v-117q0 -149 -78.5 -241.5t-210.5 -92.5q-134 0 -213.5 92.5t-79.5 241.5v117zM252 1025q0 -95 38 -153t112 -58q71 0 109 58t38 153v117q0 92 -38.5 150.5t-110.5 58.5t-110 -58.5t-38 -150.5v-117z " />
<glyph unicode="&#xbb;" horiz-adv-x="857" d="M224 946l243 -386v-19l-243 -386h-139l209 395l-209 396h139zM541 946l243 -386v-19l-243 -386h-139l209 395l-209 396h139z" />
<glyph unicode="&#xbc;" horiz-adv-x="1318" d="M402 664h-159v666l-109 -3v126l268 23v-812zM358 121l-104 63l601 1138l104 -63zM1155 277h98v-122h-98v-155h-157v155h-351l-8 95l358 551h158v-524zM804 277h194v321l-6 1l-11 -19z" />
<glyph unicode="&#xbd;" horiz-adv-x="1383" d="M362 121l-104 63l601 1138l104 -63zM395 664h-159v666l-109 -3v126l268 23v-812zM1268 0h-513v121l260 267q55 60 72 99t17 84q0 53 -22.5 85.5t-69.5 32.5q-53 0 -80.5 -35t-27.5 -91h-150l-2 6q-5 100 67.5 171.5t194.5 71.5q117 0 182.5 -63t65.5 -179 q0 -78 -43.5 -140.5t-141.5 -159.5l-122 -144l2 -5h311v-121z" />
<glyph unicode="&#xbe;" horiz-adv-x="1485" d="M529 121l-104 63l601 1138l104 -63zM1315 277h98v-122h-98v-155h-157v155h-351l-8 95l358 551h158v-524zM964 277h194v321l-6 1l-11 -19zM363 1131q56 0 83 30t27 85q0 48 -27.5 79t-81.5 31q-48 0 -75.5 -27.5t-27.5 -72.5h-148l-2 6q-6 97 67.5 157t183.5 60 q124 0 196.5 -59.5t72.5 -168.5q0 -56 -30.5 -102t-83.5 -72q60 -23 92.5 -71t32.5 -117q0 -110 -75.5 -171.5t-200.5 -61.5q-116 0 -193.5 59t-72.5 171l2 6h149q0 -52 30 -83.5t84 -31.5q55 0 87.5 31t32.5 85q0 64 -31 94.5t-91 30.5h-102v113h102z" />
<glyph unicode="&#xbf;" horiz-adv-x="879" d="M584 673q-2 -134 -29 -192t-121 -150q-72 -92 -108.5 -163.5t-36.5 -167.5q0 -110 45 -171.5t129 -61.5q70 0 120 56t51 157h195l2 -6q2 -173 -102 -270.5t-266 -97.5q-177 0 -276.5 104.5t-99.5 286.5q0 128 59.5 234t159.5 209q48 50 61.5 96.5t13.5 136.5h203z M377 1082h208v-199h-208v199z" />
<glyph unicode="&#xc0;" horiz-adv-x="1137" d="M803 368h-464l-106 -368h-206l448 1456h196l444 -1456h-206zM386 529h371l-182 636h-6zM689 1561h-170l-228 261l2 5h227z" />
<glyph unicode="&#xc1;" horiz-adv-x="1137" d="M803 368h-464l-106 -368h-206l448 1456h196l444 -1456h-206zM386 529h371l-182 636h-6zM658 1824h226l2 -5l-238 -261h-162z" />
<glyph unicode="&#xc2;" horiz-adv-x="1137" d="M803 368h-464l-106 -368h-206l448 1456h196l444 -1456h-206zM386 529h371l-182 636h-6zM875 1621v-22h-164l-123 151l-122 -151h-161v23l222 232h122z" />
<glyph unicode="&#xc3;" horiz-adv-x="1137" d="M803 368h-464l-106 -368h-206l448 1456h196l444 -1456h-206zM386 529h371l-182 636h-6zM892 1838q0 -92 -50 -155t-126 -63q-61 0 -131 49t-113 49q-33 0 -56 -33.5t-23 -82.5l-111 28q0 90 50 155t126 65q48 0 124 -49.5t120 -49.5q33 0 56.5 34t23.5 84z" />
<glyph unicode="&#xc4;" horiz-adv-x="1137" d="M803 368h-464l-106 -368h-206l448 1456h196l444 -1456h-206zM386 529h371l-182 636h-6zM907 1617h-207v185h207v-185zM479 1617h-208v185h208v-185z" />
<glyph unicode="&#xc5;" horiz-adv-x="1137" d="M803 368h-464l-106 -368h-206l448 1456h196l444 -1456h-206zM386 529h371l-182 636h-6zM408 1734q0 78 53 131t128 53q74 0 126 -53t52 -131q0 -80 -51.5 -130.5t-126.5 -50.5q-76 0 -128.5 51t-52.5 130zM501 1734q0 -41 25.5 -68.5t62.5 -27.5q36 0 60 27t24 69 q0 43 -24 71t-60 28q-37 0 -62.5 -28.5t-25.5 -70.5z" />
<glyph unicode="&#xc6;" horiz-adv-x="1639" d="M1590 0h-752l-13 361h-416l-164 -361h-242l703 1456h832v-157h-544l17 -467h458v-155h-453l18 -522h556v-155zM487 531h332l-24 665l-5 1z" />
<glyph unicode="&#xc7;" horiz-adv-x="1084" d="M1002 442l3 -6q-1 -218 -116 -337.5t-325 -119.5q-214 0 -342 144t-128 402v404q0 258 126.5 403t337.5 145q214 0 329 -117t118 -342l-3 -6h-192q-3 159 -63 234t-189 75q-125 0 -194 -101t-69 -288v-407q0 -190 70.5 -291t198.5 -101q126 0 184.5 73.5t60.5 235.5h193z M635 -3l-10 -58q56 -10 92.5 -50.5t36.5 -121.5q0 -98 -72.5 -156t-205.5 -58l-6 113q53 0 85.5 25t32.5 76q0 50 -29 69.5t-100 26.5l26 134h150z" />
<glyph unicode="&#xc8;" horiz-adv-x="1018" d="M884 676h-540v-522h626v-154h-829v1456h823v-156h-620v-469h540v-155zM629 1561h-170l-228 261l2 5h227z" />
<glyph unicode="&#xc9;" horiz-adv-x="1018" d="M884 676h-540v-522h626v-154h-829v1456h823v-156h-620v-469h540v-155zM598 1824h226l2 -5l-238 -261h-162z" />
<glyph unicode="&#xca;" horiz-adv-x="1018" d="M884 676h-540v-522h626v-154h-829v1456h823v-156h-620v-469h540v-155zM815 1621v-22h-164l-123 151l-122 -151h-161v23l222 232h122z" />
<glyph unicode="&#xcb;" horiz-adv-x="1018" d="M884 676h-540v-522h626v-154h-829v1456h823v-156h-620v-469h540v-155zM847 1617h-207v185h207v-185zM419 1617h-208v185h208v-185z" />
<glyph unicode="&#xcc;" horiz-adv-x="513" d="M357 0h-202v1456h202v-1456zM359 1561h-170l-228 261l2 5h227z" />
<glyph unicode="&#xcd;" horiz-adv-x="513" d="M357 0h-202v1456h202v-1456zM326 1824h226l2 -5l-238 -261h-162z" />
<glyph unicode="&#xce;" horiz-adv-x="513" d="M357 0h-202v1456h202v-1456zM545 1621v-22h-164l-123 151l-122 -151h-161v23l222 232h122z" />
<glyph unicode="&#xcf;" horiz-adv-x="513" d="M357 0h-202v1456h202v-1456zM577 1617h-207v185h207v-185zM149 1617h-208v185h208v-185z" />
<glyph unicode="&#xd0;" horiz-adv-x="1184" d="M171 0v670h-127v141h127v645h400q232 0 378.5 -175t146.5 -450v-207q0 -276 -146.5 -450t-378.5 -174h-400zM599 670h-225v-516h190q153 0 241.5 131t88.5 339v209q0 206 -88.5 336.5t-241.5 130.5h-190v-489h225v-141z" />
<glyph unicode="&#xd1;" horiz-adv-x="1247" d="M1104 0h-202l-552 1083l-6 -2v-1081h-203v1456h203l552 -1080l6 2v1078h202v-1456zM926 1838q0 -92 -50 -155t-126 -63q-61 0 -131 49t-113 49q-33 0 -56 -33.5t-23 -82.5l-111 28q0 90 50 155t126 65q48 0 124 -49.5t120 -49.5q33 0 56.5 34t23.5 84z" />
<glyph unicode="&#xd2;" horiz-adv-x="1160" d="M1068 527q0 -259 -134 -403.5t-359 -144.5q-222 0 -353 144.5t-131 403.5v400q0 258 131.5 404t352.5 146q224 0 358.5 -146t134.5 -404v-400zM866 930q0 190 -76 288.5t-215 98.5q-137 0 -210 -98.5t-73 -288.5v-403q0 -192 73.5 -291t209.5 -99q140 0 215.5 98.5 t75.5 291.5v403zM680 1582h-170l-228 261l2 5h227z" />
<glyph unicode="&#xd3;" horiz-adv-x="1160" d="M1068 527q0 -259 -134 -403.5t-359 -144.5q-222 0 -353 144.5t-131 403.5v400q0 258 131.5 404t352.5 146q224 0 358.5 -146t134.5 -404v-400zM866 930q0 190 -76 288.5t-215 98.5q-137 0 -210 -98.5t-73 -288.5v-403q0 -192 73.5 -291t209.5 -99q140 0 215.5 98.5 t75.5 291.5v403zM649 1845h226l2 -5l-238 -261h-162z" />
<glyph unicode="&#xd4;" horiz-adv-x="1160" d="M1068 527q0 -259 -134 -403.5t-359 -144.5q-222 0 -353 144.5t-131 403.5v400q0 258 131.5 404t352.5 146q224 0 358.5 -146t134.5 -404v-400zM866 930q0 190 -76 288.5t-215 98.5q-137 0 -210 -98.5t-73 -288.5v-403q0 -192 73.5 -291t209.5 -99q140 0 215.5 98.5 t75.5 291.5v403zM866 1642v-22h-164l-123 151l-122 -151h-161v23l222 232h122z" />
<glyph unicode="&#xd5;" horiz-adv-x="1160" d="M1068 527q0 -259 -134 -403.5t-359 -144.5q-222 0 -353 144.5t-131 403.5v400q0 258 131.5 404t352.5 146q224 0 358.5 -146t134.5 -404v-400zM866 930q0 190 -76 288.5t-215 98.5q-137 0 -210 -98.5t-73 -288.5v-403q0 -192 73.5 -291t209.5 -99q140 0 215.5 98.5 t75.5 291.5v403zM883 1859q0 -92 -50 -155t-126 -63q-61 0 -131 49t-113 49q-33 0 -56 -33.5t-23 -82.5l-111 28q0 90 50 155t126 65q48 0 124 -49.5t120 -49.5q33 0 56.5 34t23.5 84z" />
<glyph unicode="&#xd6;" horiz-adv-x="1160" d="M1068 527q0 -259 -134 -403.5t-359 -144.5q-222 0 -353 144.5t-131 403.5v400q0 258 131.5 404t352.5 146q224 0 358.5 -146t134.5 -404v-400zM866 930q0 190 -76 288.5t-215 98.5q-137 0 -210 -98.5t-73 -288.5v-403q0 -192 73.5 -291t209.5 -99q140 0 215.5 98.5 t75.5 291.5v403zM898 1638h-207v185h207v-185zM470 1638h-208v185h208v-185z" />
<glyph unicode="&#xd7;" horiz-adv-x="977" d="M76 344l293 339l-291 336l125 119l280 -324l281 324l125 -119l-292 -336l295 -339l-125 -119l-284 326l-283 -326z" />
<glyph unicode="&#xd8;" horiz-adv-x="1202" d="M1070 527q0 -259 -134 -403.5t-359 -144.5q-69 0 -129.5 14t-111.5 42l-63 -125h-120l95 189q-75 70 -115 178.5t-40 249.5v400q0 258 131.5 404t352.5 146q91 0 170 -26t141 -75l68 136h121l-110 -219q50 -70 76.5 -162.5t26.5 -203.5v-400zM294 527q0 -76 11 -136 t33 -100l6 -1l458 915q-38 55 -95 83.5t-130 28.5q-137 0 -210 -98.5t-73 -288.5v-403zM868 930q0 37 -3.5 70.5t-8.5 58.5l-6 1l-437 -871q32 -27 73 -39.5t91 -12.5q140 0 215.5 98.5t75.5 291.5v403z" />
<glyph unicode="&#xd9;" horiz-adv-x="1160" d="M1045 1456v-1009q0 -226 -129.5 -347t-338.5 -121q-206 0 -333 121t-127 347v1009h201v-1009q0 -156 70 -235t189 -79q124 0 195 76t71 238v1009h202zM682 1561h-170l-228 261l2 5h227z" />
<glyph unicode="&#xda;" horiz-adv-x="1160" d="M1045 1456v-1009q0 -226 -129.5 -347t-338.5 -121q-206 0 -333 121t-127 347v1009h201v-1009q0 -156 70 -235t189 -79q124 0 195 76t71 238v1009h202zM651 1824h226l2 -5l-238 -261h-162z" />
<glyph unicode="&#xdb;" horiz-adv-x="1160" d="M1045 1456v-1009q0 -226 -129.5 -347t-338.5 -121q-206 0 -333 121t-127 347v1009h201v-1009q0 -156 70 -235t189 -79q124 0 195 76t71 238v1009h202zM868 1621v-22h-164l-123 151l-122 -151h-161v23l222 232h122z" />
<glyph unicode="&#xdc;" horiz-adv-x="1160" d="M1045 1456v-1009q0 -226 -129.5 -347t-338.5 -121q-206 0 -333 121t-127 347v1009h201v-1009q0 -156 70 -235t189 -79q124 0 195 76t71 238v1009h202zM900 1617h-207v185h207v-185zM472 1617h-208v185h208v-185z" />
<glyph unicode="&#xdd;" horiz-adv-x="1100" d="M547 749h6l298 707h225l-428 -932v-524h-202v537l-423 919h227zM622 1820h226l2 -5l-238 -261h-162z" />
<glyph unicode="&#xde;" horiz-adv-x="1055" d="M336 1456v-290h211q205 0 319.5 -119t114.5 -309q0 -192 -114.5 -310.5t-319.5 -118.5h-211v-309h-203v1456h203zM336 1011v-547h211q116 0 173.5 79t57.5 193q0 115 -57.5 195t-173.5 80h-211z" />
<glyph unicode="&#xdf;" horiz-adv-x="1079" d="M326 0h-202v1088q0 215 103 335t275 120q143 0 236 -86.5t93 -246.5q0 -111 -49.5 -215.5t-49.5 -173.5q0 -76 136.5 -218t136.5 -283q0 -170 -93 -255.5t-259 -85.5q-69 0 -140 20t-104 50l40 154q35 -28 87 -49.5t106 -21.5q79 0 120.5 49.5t41.5 131.5 q0 86 -137.5 226t-137.5 280q0 88 52 194.5t52 184.5q0 85 -41 138t-94 53q-78 0 -125 -79.5t-47 -223.5v-1086z" />
<glyph unicode="&#xe0;" horiz-adv-x="955" d="M667 0q-11 37 -18 72.5t-9 71.5q-45 -73 -113 -119t-151 -46q-137 0 -214.5 86.5t-77.5 231.5q0 155 105.5 243.5t296.5 88.5h151v111q0 99 -44 154.5t-125 55.5q-73 0 -117.5 -50t-44.5 -125l-193 1l-3 6q-5 125 100 222.5t271 97.5q160 0 259.5 -94.5t99.5 -269.5v-502 q0 -63 7.5 -121.5t24.5 -114.5h-205zM422 135q71 0 129.5 42t85.5 105v221h-154q-93 0 -144.5 -59.5t-51.5 -145.5q0 -73 35 -118t100 -45zM572 1239h-170l-228 261l2 5h227z" />
<glyph unicode="&#xe1;" horiz-adv-x="955" d="M667 0q-11 37 -18 72.5t-9 71.5q-45 -73 -113 -119t-151 -46q-137 0 -214.5 86.5t-77.5 231.5q0 155 105.5 243.5t296.5 88.5h151v111q0 99 -44 154.5t-125 55.5q-73 0 -117.5 -50t-44.5 -125l-193 1l-3 6q-5 125 100 222.5t271 97.5q160 0 259.5 -94.5t99.5 -269.5v-502 q0 -63 7.5 -121.5t24.5 -114.5h-205zM422 135q71 0 129.5 42t85.5 105v221h-154q-93 0 -144.5 -59.5t-51.5 -145.5q0 -73 35 -118t100 -45zM541 1502h226l2 -5l-238 -261h-162z" />
<glyph unicode="&#xe2;" horiz-adv-x="955" d="M667 0q-11 37 -18 72.5t-9 71.5q-45 -73 -113 -119t-151 -46q-137 0 -214.5 86.5t-77.5 231.5q0 155 105.5 243.5t296.5 88.5h151v111q0 99 -44 154.5t-125 55.5q-73 0 -117.5 -50t-44.5 -125l-193 1l-3 6q-5 125 100 222.5t271 97.5q160 0 259.5 -94.5t99.5 -269.5v-502 q0 -63 7.5 -121.5t24.5 -114.5h-205zM422 135q71 0 129.5 42t85.5 105v221h-154q-93 0 -144.5 -59.5t-51.5 -145.5q0 -73 35 -118t100 -45zM758 1299v-22h-164l-123 151l-122 -151h-161v23l222 232h122z" />
<glyph unicode="&#xe3;" horiz-adv-x="955" d="M667 0q-11 37 -18 72.5t-9 71.5q-45 -73 -113 -119t-151 -46q-137 0 -214.5 86.5t-77.5 231.5q0 155 105.5 243.5t296.5 88.5h151v111q0 99 -44 154.5t-125 55.5q-73 0 -117.5 -50t-44.5 -125l-193 1l-3 6q-5 125 100 222.5t271 97.5q160 0 259.5 -94.5t99.5 -269.5v-502 q0 -63 7.5 -121.5t24.5 -114.5h-205zM422 135q71 0 129.5 42t85.5 105v221h-154q-93 0 -144.5 -59.5t-51.5 -145.5q0 -73 35 -118t100 -45zM775 1516q0 -92 -50 -155t-126 -63q-61 0 -131 49t-113 49q-33 0 -56 -33.5t-23 -82.5l-111 28q0 90 50 155t126 65q48 0 124 -49.5 t120 -49.5q33 0 56.5 34t23.5 84z" />
<glyph unicode="&#xe4;" horiz-adv-x="955" d="M667 0q-11 37 -18 72.5t-9 71.5q-45 -73 -113 -119t-151 -46q-137 0 -214.5 86.5t-77.5 231.5q0 155 105.5 243.5t296.5 88.5h151v111q0 99 -44 154.5t-125 55.5q-73 0 -117.5 -50t-44.5 -125l-193 1l-3 6q-5 125 100 222.5t271 97.5q160 0 259.5 -94.5t99.5 -269.5v-502 q0 -63 7.5 -121.5t24.5 -114.5h-205zM422 135q71 0 129.5 42t85.5 105v221h-154q-93 0 -144.5 -59.5t-51.5 -145.5q0 -73 35 -118t100 -45zM790 1295h-207v185h207v-185zM362 1295h-208v185h208v-185z" />
<glyph unicode="&#xe5;" horiz-adv-x="955" d="M667 0q-11 37 -18 72.5t-9 71.5q-45 -73 -113 -119t-151 -46q-137 0 -214.5 86.5t-77.5 231.5q0 155 105.5 243.5t296.5 88.5h151v111q0 99 -44 154.5t-125 55.5q-73 0 -117.5 -50t-44.5 -125l-193 1l-3 6q-5 125 100 222.5t271 97.5q160 0 259.5 -94.5t99.5 -269.5v-502 q0 -63 7.5 -121.5t24.5 -114.5h-205zM422 135q71 0 129.5 42t85.5 105v221h-154q-93 0 -144.5 -59.5t-51.5 -145.5q0 -73 35 -118t100 -45zM291 1412q0 78 53 131t128 53q74 0 126 -53t52 -131q0 -80 -51.5 -130.5t-126.5 -50.5q-76 0 -128.5 51t-52.5 130zM384 1412 q0 -41 25.5 -68.5t62.5 -27.5q36 0 60 27t24 69q0 43 -24 71t-60 28q-37 0 -62.5 -28.5t-25.5 -70.5z" />
<glyph unicode="&#xe6;" horiz-adv-x="1479" d="M1068 -21q-112 0 -198.5 45t-142.5 129q-49 -75 -139 -124.5t-215 -49.5q-153 0 -236.5 87t-83.5 238q0 158 102.5 246t297.5 88h176v78q0 109 -40 169.5t-114 60.5q-80 0 -126.5 -54.5t-46.5 -134.5l-194 16l-2 6q-5 139 97.5 231t272.5 92q92 0 164.5 -33.5 t119.5 -97.5q53 63 124.5 97t156.5 34q179 0 278.5 -128.5t99.5 -350.5v-124h-583q1 -166 61 -266t185 -100q83 0 139 26.5t119 76.5l59 -132q-47 -48 -133 -86.5t-198 -38.5zM413 127q57 0 119.5 40t96.5 92v242h-174q-94 0 -146.5 -58.5t-52.5 -142.5q0 -80 39 -126.5 t118 -46.5zM1041 946q-91 0 -141.5 -84t-60.5 -223h380v30q0 124 -44 200.5t-134 76.5z" />
<glyph unicode="&#xe7;" horiz-adv-x="921" d="M492 133q76 0 128 58.5t52 156.5h182l2 -6q4 -153 -103.5 -258t-260.5 -105q-202 0 -309.5 137t-107.5 349v149q0 212 107.5 350t308.5 138q164 0 266.5 -109.5t99.5 -283.5l-3 -6h-182q0 108 -49.5 175.5t-131.5 67.5q-116 0 -164.5 -94t-48.5 -238v-149 q0 -146 48.5 -239t165.5 -93zM548 -3l-10 -58q56 -10 92.5 -50.5t36.5 -121.5q0 -98 -72.5 -156t-205.5 -58l-6 113q53 0 85.5 25t32.5 76q0 50 -29 69.5t-100 26.5l26 134h150z" />
<glyph unicode="&#xe8;" horiz-adv-x="930" d="M507 -21q-193 0 -309 134t-116 343v158q0 212 113.5 350t288.5 138q184 0 283 -125.5t99 -337.5v-140h-582v-43q0 -140 61.5 -231.5t174.5 -91.5q84 0 144 26.5t114 77.5l64 -126q-51 -58 -137 -95t-198 -37zM484 946q-88 0 -141 -85.5t-59 -216.5h381v41q0 115 -46 188 t-135 73zM575 1240h-170l-228 261l2 5h227z" />
<glyph unicode="&#xe9;" horiz-adv-x="930" d="M507 -21q-193 0 -309 134t-116 343v158q0 212 113.5 350t288.5 138q184 0 283 -125.5t99 -337.5v-140h-582v-43q0 -140 61.5 -231.5t174.5 -91.5q84 0 144 26.5t114 77.5l64 -126q-51 -58 -137 -95t-198 -37zM484 946q-88 0 -141 -85.5t-59 -216.5h381v41q0 115 -46 188 t-135 73zM544 1503h226l2 -5l-238 -261h-162z" />
<glyph unicode="&#xea;" horiz-adv-x="930" d="M507 -21q-193 0 -309 134t-116 343v158q0 212 113.5 350t288.5 138q184 0 283 -125.5t99 -337.5v-140h-582v-43q0 -140 61.5 -231.5t174.5 -91.5q84 0 144 26.5t114 77.5l64 -126q-51 -58 -137 -95t-198 -37zM484 946q-88 0 -141 -85.5t-59 -216.5h381v41q0 115 -46 188 t-135 73zM761 1300v-22h-164l-123 151l-122 -151h-161v23l222 232h122z" />
<glyph unicode="&#xeb;" horiz-adv-x="930" d="M507 -21q-193 0 -309 134t-116 343v158q0 212 113.5 350t288.5 138q184 0 283 -125.5t99 -337.5v-140h-582v-43q0 -140 61.5 -231.5t174.5 -91.5q84 0 144 26.5t114 77.5l64 -126q-51 -58 -137 -95t-198 -37zM484 946q-88 0 -141 -85.5t-59 -216.5h381v41q0 115 -46 188 t-135 73zM793 1296h-207v185h207v-185zM365 1296h-208v185h208v-185z" />
<glyph unicode="&#xec;" horiz-adv-x="468" d="M332 0h-203v1082h203v-1082zM334 1218h-170l-228 261l2 5h227z" />
<glyph unicode="&#xed;" horiz-adv-x="468" d="M332 0h-203v1082h203v-1082zM301 1481h226l2 -5l-238 -261h-162z" />
<glyph unicode="&#xee;" horiz-adv-x="468" d="M332 0h-203v1082h203v-1082zM520 1278v-22h-164l-123 151l-122 -151h-161v23l222 232h122z" />
<glyph unicode="&#xef;" horiz-adv-x="468" d="M332 0h-203v1082h203v-1082zM552 1274h-207v185h207v-185zM124 1274h-208v185h208v-185z" />
<glyph unicode="&#xf0;" horiz-adv-x="1039" d="M739 1291q97 -120 150 -285t53 -369v-87q0 -251 -127 -411t-318 -160q-192 0 -314.5 138.5t-122.5 344.5q0 230 114.5 368t303.5 138q69 0 130 -27t104 -73l4 4q-16 94 -50.5 173t-82.5 142l-218 -146l-64 94l202 135q-35 28 -71.5 50.5t-73.5 39.5l63 157 q66 -25 126.5 -60.5t112.5 -81.5l195 130l63 -94zM739 639q0 7 -0.5 21.5t-0.5 21.5q-30 58 -91.5 96.5t-148.5 38.5q-110 0 -172.5 -101t-62.5 -254q0 -132 64.5 -230t172.5 -98t173.5 117t65.5 299v89z" />
<glyph unicode="&#xf1;" d="M300 1082l11 -160q45 85 114 132.5t156 47.5q142 0 221 -105t79 -326v-671h-203v669q0 151 -43 213t-130 62q-62 0 -110 -38.5t-78 -104.5v-801h-203v1082h186zM799 1516q0 -92 -50 -155t-126 -63q-61 0 -131 49t-113 49q-33 0 -56 -33.5t-23 -82.5l-111 28q0 90 50 155 t126 65q48 0 124 -49.5t120 -49.5q33 0 56.5 34t23.5 84z" />
<glyph unicode="&#xf2;" d="M76 609q0 215 112.5 354t308.5 139q195 0 308 -138.5t113 -354.5v-138q0 -217 -112.5 -354.5t-307.5 -137.5q-197 0 -309.5 137.5t-112.5 354.5v138zM279 471q0 -148 54 -243t165 -95q108 0 162.5 95t54.5 243v138q0 146 -54.5 241.5t-163.5 95.5q-110 0 -164 -95 t-54 -242v-138zM599 1239h-170l-228 261l2 5h227z" />
<glyph unicode="&#xf3;" d="M76 609q0 215 112.5 354t308.5 139q195 0 308 -138.5t113 -354.5v-138q0 -217 -112.5 -354.5t-307.5 -137.5q-197 0 -309.5 137.5t-112.5 354.5v138zM279 471q0 -148 54 -243t165 -95q108 0 162.5 95t54.5 243v138q0 146 -54.5 241.5t-163.5 95.5q-110 0 -164 -95 t-54 -242v-138zM568 1502h226l2 -5l-238 -261h-162z" />
<glyph unicode="&#xf4;" d="M76 609q0 215 112.5 354t308.5 139q195 0 308 -138.5t113 -354.5v-138q0 -217 -112.5 -354.5t-307.5 -137.5q-197 0 -309.5 137.5t-112.5 354.5v138zM279 471q0 -148 54 -243t165 -95q108 0 162.5 95t54.5 243v138q0 146 -54.5 241.5t-163.5 95.5q-110 0 -164 -95 t-54 -242v-138zM785 1299v-22h-164l-123 151l-122 -151h-161v23l222 232h122z" />
<glyph unicode="&#xf5;" d="M76 609q0 215 112.5 354t308.5 139q195 0 308 -138.5t113 -354.5v-138q0 -217 -112.5 -354.5t-307.5 -137.5q-197 0 -309.5 137.5t-112.5 354.5v138zM279 471q0 -148 54 -243t165 -95q108 0 162.5 95t54.5 243v138q0 146 -54.5 241.5t-163.5 95.5q-110 0 -164 -95 t-54 -242v-138zM802 1516q0 -92 -50 -155t-126 -63q-61 0 -131 49t-113 49q-33 0 -56 -33.5t-23 -82.5l-111 28q0 90 50 155t126 65q48 0 124 -49.5t120 -49.5q33 0 56.5 34t23.5 84z" />
<glyph unicode="&#xf6;" d="M76 609q0 215 112.5 354t308.5 139q195 0 308 -138.5t113 -354.5v-138q0 -217 -112.5 -354.5t-307.5 -137.5q-197 0 -309.5 137.5t-112.5 354.5v138zM279 471q0 -148 54 -243t165 -95q108 0 162.5 95t54.5 243v138q0 146 -54.5 241.5t-163.5 95.5q-110 0 -164 -95 t-54 -242v-138zM817 1295h-207v185h207v-185zM389 1295h-208v185h208v-185z" />
<glyph unicode="&#xf7;" horiz-adv-x="1005" d="M922 608h-858v171h858v-171zM597 995h-205v195h205v-195zM597 188h-205v195h205v-195z" />
<glyph unicode="&#xf8;" horiz-adv-x="996" d="M76 609q0 215 112.5 354t308.5 139q45 0 87 -8.5t80 -24.5l60 144h121l-85 -204q76 -66 117 -170t41 -230v-138q0 -217 -112.5 -354.5t-307.5 -137.5q-42 0 -80.5 7t-73.5 20l-60 -145h-121l83 200q-83 64 -126.5 170.5t-43.5 239.5v138zM279 471q0 -67 10 -122.5 t32 -91.5h6l273 659q-22 14 -48 22t-55 8q-110 0 -164 -95t-54 -242v-138zM715 609q0 58 -9 108.5t-25 85.5l-6 1l-269 -649q20 -11 42.5 -16.5t49.5 -5.5q108 0 162.5 95t54.5 243v138z" />
<glyph unicode="&#xf9;" d="M687 145q-43 -80 -110 -123t-154 -43q-147 0 -229 113t-82 351v639h202v-641q0 -166 39.5 -235.5t118.5 -69.5q75 0 125.5 35t80.5 100v811h203v-1082h-181zM597 1218h-170l-228 261l2 5h227z" />
<glyph unicode="&#xfa;" d="M687 145q-43 -80 -110 -123t-154 -43q-147 0 -229 113t-82 351v639h202v-641q0 -166 39.5 -235.5t118.5 -69.5q75 0 125.5 35t80.5 100v811h203v-1082h-181zM566 1481h226l2 -5l-238 -261h-162z" />
<glyph unicode="&#xfb;" d="M687 145q-43 -80 -110 -123t-154 -43q-147 0 -229 113t-82 351v639h202v-641q0 -166 39.5 -235.5t118.5 -69.5q75 0 125.5 35t80.5 100v811h203v-1082h-181zM783 1278v-22h-164l-123 151l-122 -151h-161v23l222 232h122z" />
<glyph unicode="&#xfc;" d="M687 145q-43 -80 -110 -123t-154 -43q-147 0 -229 113t-82 351v639h202v-641q0 -166 39.5 -235.5t118.5 -69.5q75 0 125.5 35t80.5 100v811h203v-1082h-181zM815 1274h-207v185h207v-185zM387 1274h-208v185h208v-185z" />
<glyph unicode="&#xfd;" horiz-adv-x="892" d="M420 373l15 -71h6l208 780h221l-379 -1250q-38 -112 -103 -190.5t-187 -78.5q-25 0 -53.5 5.5t-56.5 12.5l22 150q11 -2 30 -4t30 -2q59 0 93.5 50.5t53.5 119.5l36 110l-334 1077h220zM515 1481h226l2 -5l-238 -261h-162z" />
<glyph unicode="&#xfe;" horiz-adv-x="1006" d="M921 451q0 -214 -94 -343t-261 -129q-79 0 -139 31t-103 91v-517h-203v416h-1v1560h203v-590q42 64 102.5 98t138.5 34q169 0 263 -142t94 -376v-133zM718 584q0 159 -52.5 259.5t-156.5 100.5q-65 0 -111 -37t-74 -101v-547q27 -61 73 -93.5t113 -32.5q105 0 156.5 87.5 t51.5 230.5v133z" />
<glyph unicode="&#xff;" horiz-adv-x="892" d="M420 373l15 -71h6l208 780h221l-379 -1250q-38 -112 -103 -190.5t-187 -78.5q-25 0 -53.5 5.5t-56.5 12.5l22 150q11 -2 30 -4t30 -2q59 0 93.5 50.5t53.5 119.5l36 110l-334 1077h220zM766 1274h-207v185h207v-185zM338 1274h-208v185h208v-185z" />
<glyph unicode="&#x100;" horiz-adv-x="1137" d="M803 368h-464l-106 -368h-206l448 1456h196l444 -1456h-206zM386 529h371l-182 636h-6zM908 1652h-635v132h635v-132z" />
<glyph unicode="&#x101;" horiz-adv-x="955" d="M667 0q-11 37 -18 72.5t-9 71.5q-45 -73 -113 -119t-151 -46q-137 0 -214.5 86.5t-77.5 231.5q0 155 105.5 243.5t296.5 88.5h151v111q0 99 -44 154.5t-125 55.5q-73 0 -117.5 -50t-44.5 -125l-193 1l-3 6q-5 125 100 222.5t271 97.5q160 0 259.5 -94.5t99.5 -269.5v-502 q0 -63 7.5 -121.5t24.5 -114.5h-205zM422 135q71 0 129.5 42t85.5 105v221h-154q-93 0 -144.5 -59.5t-51.5 -145.5q0 -73 35 -118t100 -45zM791 1330h-635v132h635v-132z" />
<glyph unicode="&#x102;" horiz-adv-x="1137" d="M803 368h-464l-106 -368h-206l448 1456h196l444 -1456h-206zM386 529h371l-182 636h-6zM866 1872l2 -6q4 -118 -72.5 -192t-206.5 -74q-131 0 -207.5 74t-71.5 192l2 6h151q0 -66 30.5 -108t95.5 -42q62 0 92.5 42t30.5 108h154z" />
<glyph unicode="&#x103;" horiz-adv-x="955" d="M667 0q-11 37 -18 72.5t-9 71.5q-45 -73 -113 -119t-151 -46q-137 0 -214.5 86.5t-77.5 231.5q0 155 105.5 243.5t296.5 88.5h151v111q0 99 -44 154.5t-125 55.5q-73 0 -117.5 -50t-44.5 -125l-193 1l-3 6q-5 125 100 222.5t271 97.5q160 0 259.5 -94.5t99.5 -269.5v-502 q0 -63 7.5 -121.5t24.5 -114.5h-205zM422 135q71 0 129.5 42t85.5 105v221h-154q-93 0 -144.5 -59.5t-51.5 -145.5q0 -73 35 -118t100 -45zM749 1550l2 -6q4 -118 -72.5 -192t-206.5 -74q-131 0 -207.5 74t-71.5 192l2 6h151q0 -66 30.5 -108t95.5 -42q62 0 92.5 42 t30.5 108h154z" />
<glyph unicode="&#x104;" horiz-adv-x="1137" d="M803 368h-464l-106 -368h-206l448 1456h196l444 -1456h-206zM386 529h371l-182 636h-6zM1069 0q-52 -56 -78.5 -100t-26.5 -97q0 -33 16 -57.5t59 -24.5q25 0 44 8t38 19l29 -117q-30 -19 -67 -31.5t-87 -12.5q-85 0 -139 51.5t-54 143.5q0 76 44.5 145.5t135.5 121.5z " />
<glyph unicode="&#x105;" horiz-adv-x="955" d="M667 0q-11 37 -18 72.5t-9 71.5q-45 -73 -113 -119t-151 -46q-137 0 -214.5 86.5t-77.5 231.5q0 155 105.5 243.5t296.5 88.5h151v111q0 99 -44 154.5t-125 55.5q-73 0 -117.5 -50t-44.5 -125l-193 1l-3 6q-5 125 100 222.5t271 97.5q160 0 259.5 -94.5t99.5 -269.5v-502 q0 -63 7.5 -121.5t24.5 -114.5h-205zM422 135q71 0 129.5 42t85.5 105v221h-154q-93 0 -144.5 -59.5t-51.5 -145.5q0 -73 35 -118t100 -45zM826 0q-52 -56 -78.5 -100t-26.5 -97q0 -33 16 -57.5t59 -24.5q25 0 44 8t38 19l29 -117q-30 -19 -67 -31.5t-87 -12.5 q-85 0 -139 51.5t-54 143.5q0 76 44.5 145.5t135.5 121.5z" />
<glyph unicode="&#x106;" horiz-adv-x="1084" d="M1002 442l3 -6q-1 -218 -116 -337.5t-325 -119.5q-214 0 -342 144t-128 402v404q0 258 126.5 403t337.5 145q214 0 329 -117t118 -342l-3 -6h-192q-3 159 -63 234t-189 75q-125 0 -194 -101t-69 -288v-407q0 -190 70.5 -291t198.5 -101q126 0 184.5 73.5t60.5 235.5h193z M631 1845h226l2 -5l-238 -261h-162z" />
<glyph unicode="&#x107;" horiz-adv-x="921" d="M492 133q76 0 128 58.5t52 156.5h182l2 -6q4 -153 -103.5 -258t-260.5 -105q-202 0 -309.5 137t-107.5 349v149q0 212 107.5 350t308.5 138q164 0 266.5 -109.5t99.5 -283.5l-3 -6h-182q0 108 -49.5 175.5t-131.5 67.5q-116 0 -164.5 -94t-48.5 -238v-149 q0 -146 48.5 -239t165.5 -93zM529 1502h226l2 -5l-238 -261h-162z" />
<glyph unicode="&#x108;" horiz-adv-x="1084" d="M1002 442l3 -6q-1 -218 -116 -337.5t-325 -119.5q-214 0 -342 144t-128 402v404q0 258 126.5 403t337.5 145q214 0 329 -117t118 -342l-3 -6h-192q-3 159 -63 234t-189 75q-125 0 -194 -101t-69 -288v-407q0 -190 70.5 -291t198.5 -101q126 0 184.5 73.5t60.5 235.5h193z M848 1642v-22h-164l-123 151l-122 -151h-161v23l222 232h122z" />
<glyph unicode="&#x109;" horiz-adv-x="921" d="M492 133q76 0 128 58.5t52 156.5h182l2 -6q4 -153 -103.5 -258t-260.5 -105q-202 0 -309.5 137t-107.5 349v149q0 212 107.5 350t308.5 138q164 0 266.5 -109.5t99.5 -283.5l-3 -6h-182q0 108 -49.5 175.5t-131.5 67.5q-116 0 -164.5 -94t-48.5 -238v-149 q0 -146 48.5 -239t165.5 -93zM746 1299v-22h-164l-123 151l-122 -151h-161v23l222 232h122z" />
<glyph unicode="&#x10a;" horiz-adv-x="1084" d="M1002 442l3 -6q-1 -218 -116 -337.5t-325 -119.5q-214 0 -342 144t-128 402v404q0 258 126.5 403t337.5 145q214 0 329 -117t118 -342l-3 -6h-192q-3 159 -63 234t-189 75q-125 0 -194 -101t-69 -288v-407q0 -190 70.5 -291t198.5 -101q126 0 184.5 73.5t60.5 235.5h193z M668 1637h-217v200h217v-200z" />
<glyph unicode="&#x10b;" horiz-adv-x="921" d="M492 133q76 0 128 58.5t52 156.5h182l2 -6q4 -153 -103.5 -258t-260.5 -105q-202 0 -309.5 137t-107.5 349v149q0 212 107.5 350t308.5 138q164 0 266.5 -109.5t99.5 -283.5l-3 -6h-182q0 108 -49.5 175.5t-131.5 67.5q-116 0 -164.5 -94t-48.5 -238v-149 q0 -146 48.5 -239t165.5 -93zM566 1294h-217v200h217v-200z" />
<glyph unicode="&#x10c;" horiz-adv-x="1084" d="M1002 442l3 -6q-1 -218 -116 -337.5t-325 -119.5q-214 0 -342 144t-128 402v404q0 258 126.5 403t337.5 145q214 0 329 -117t118 -342l-3 -6h-192q-3 159 -63 234t-189 75q-125 0 -194 -101t-69 -288v-407q0 -190 70.5 -291t198.5 -101q126 0 184.5 73.5t60.5 235.5h193z M561 1730l112 150h181v-17l-226 -240h-134l-225 239v18h179z" />
<glyph unicode="&#x10d;" horiz-adv-x="921" d="M492 133q76 0 128 58.5t52 156.5h182l2 -6q4 -153 -103.5 -258t-260.5 -105q-202 0 -309.5 137t-107.5 349v149q0 212 107.5 350t308.5 138q164 0 266.5 -109.5t99.5 -283.5l-3 -6h-182q0 108 -49.5 175.5t-131.5 67.5q-116 0 -164.5 -94t-48.5 -238v-149 q0 -146 48.5 -239t165.5 -93zM459 1387l112 150h181v-17l-226 -240h-134l-225 239v18h179z" />
<glyph unicode="&#x10e;" horiz-adv-x="1154" d="M141 0v1456h400q232 0 378.5 -175t146.5 -450v-207q0 -276 -146.5 -450t-378.5 -174h-400zM344 1300v-1146h190q153 0 241.5 131t88.5 339v209q0 206 -88.5 336.5t-241.5 130.5h-190zM519 1709l112 150h181v-17l-226 -240h-134l-225 239v18h179z" />
<glyph unicode="&#x10f;" horiz-adv-x="1145" d="M78 528q0 259 93.5 416.5t263.5 157.5q76 0 135.5 -34t102.5 -98v590h202v-1560h-177l-15 124q-43 -71 -105.5 -108t-143.5 -37q-169 0 -262.5 144t-93.5 384v21zM281 507q0 -171 49 -271t155 -100q66 0 112.5 36t75.5 101v526q-29 67 -75.5 106t-110.5 39 q-106 0 -156 -115t-50 -301v-21zM1137 1420l-104 -224h-91l51 231v132h144v-139z" />
<glyph unicode="&#x110;" horiz-adv-x="1184" d="M171 0v670h-127v141h127v645h400q232 0 378.5 -175t146.5 -450v-207q0 -276 -146.5 -450t-378.5 -174h-400zM599 670h-225v-516h190q153 0 241.5 131t88.5 339v209q0 206 -88.5 336.5t-241.5 130.5h-190v-489h225v-141z" />
<glyph unicode="&#x111;" horiz-adv-x="1025" d="M1016 1238h-141v-1238h-177l-15 124q-43 -71 -105.5 -108t-143.5 -37q-169 0 -262.5 144t-93.5 384v21q0 259 93.5 416.5t263.5 157.5q76 0 135.5 -34t102.5 -98v268h-212v141h212v181h202v-181h141v-141zM281 507q0 -171 49 -271t155 -100q66 0 112.5 36t75.5 101v526 q-29 67 -75.5 106t-110.5 39q-106 0 -156 -115t-50 -301v-21z" />
<glyph unicode="&#x112;" horiz-adv-x="1018" d="M884 676h-540v-522h626v-154h-829v1456h823v-156h-620v-469h540v-155zM848 1652h-635v132h635v-132z" />
<glyph unicode="&#x113;" horiz-adv-x="930" d="M507 -21q-193 0 -309 134t-116 343v158q0 212 113.5 350t288.5 138q184 0 283 -125.5t99 -337.5v-140h-582v-43q0 -140 61.5 -231.5t174.5 -91.5q84 0 144 26.5t114 77.5l64 -126q-51 -58 -137 -95t-198 -37zM484 946q-88 0 -141 -85.5t-59 -216.5h381v41q0 115 -46 188 t-135 73zM794 1331h-635v132h635v-132z" />
<glyph unicode="&#x114;" horiz-adv-x="1018" d="M884 676h-540v-522h626v-154h-829v1456h823v-156h-620v-469h540v-155zM806 1872l2 -6q4 -118 -72.5 -192t-206.5 -74q-131 0 -207.5 74t-71.5 192l2 6h151q0 -66 30.5 -108t95.5 -42q62 0 92.5 42t30.5 108h154z" />
<glyph unicode="&#x115;" horiz-adv-x="930" d="M507 -21q-193 0 -309 134t-116 343v158q0 212 113.5 350t288.5 138q184 0 283 -125.5t99 -337.5v-140h-582v-43q0 -140 61.5 -231.5t174.5 -91.5q84 0 144 26.5t114 77.5l64 -126q-51 -58 -137 -95t-198 -37zM484 946q-88 0 -141 -85.5t-59 -216.5h381v41q0 115 -46 188 t-135 73zM752 1551l2 -6q4 -118 -72.5 -192t-206.5 -74q-131 0 -207.5 74t-71.5 192l2 6h151q0 -66 30.5 -108t95.5 -42q62 0 92.5 42t30.5 108h154z" />
<glyph unicode="&#x116;" horiz-adv-x="1018" d="M884 676h-540v-522h626v-154h-829v1456h823v-156h-620v-469h540v-155zM635 1616h-217v200h217v-200z" />
<glyph unicode="&#x117;" horiz-adv-x="930" d="M507 -21q-193 0 -309 134t-116 343v158q0 212 113.5 350t288.5 138q184 0 283 -125.5t99 -337.5v-140h-582v-43q0 -140 61.5 -231.5t174.5 -91.5q84 0 144 26.5t114 77.5l64 -126q-51 -58 -137 -95t-198 -37zM484 946q-88 0 -141 -85.5t-59 -216.5h381v41q0 115 -46 188 t-135 73zM581 1295h-217v200h217v-200z" />
<glyph unicode="&#x118;" horiz-adv-x="1018" d="M884 676h-540v-522h626v-154h-829v1456h823v-156h-620v-469h540v-155zM601 0q-52 -56 -78.5 -100t-26.5 -97q0 -33 16 -57.5t59 -24.5q25 0 44 8t38 19l29 -117q-30 -19 -67 -31.5t-87 -12.5q-85 0 -139 51.5t-54 143.5q0 76 44.5 145.5t135.5 121.5z" />
<glyph unicode="&#x119;" horiz-adv-x="930" d="M507 -21q-193 0 -309 134t-116 343v158q0 212 113.5 350t288.5 138q184 0 283 -125.5t99 -337.5v-140h-582v-43q0 -140 61.5 -231.5t174.5 -91.5q84 0 144 26.5t114 77.5l64 -126q-51 -58 -137 -95t-198 -37zM484 946q-88 0 -141 -85.5t-59 -216.5h381v41q0 115 -46 188 t-135 73zM749 55q-52 -56 -78.5 -100t-26.5 -97q0 -33 16 -57.5t59 -24.5q25 0 44 8t38 19l29 -117q-30 -19 -67 -31.5t-87 -12.5q-85 0 -139 51.5t-54 143.5q0 76 44.5 145.5t135.5 121.5z" />
<glyph unicode="&#x11a;" horiz-adv-x="1018" d="M884 676h-540v-522h626v-154h-829v1456h823v-156h-620v-469h540v-155zM528 1709l112 150h181v-17l-226 -240h-134l-225 239v18h179z" />
<glyph unicode="&#x11b;" horiz-adv-x="930" d="M507 -21q-193 0 -309 134t-116 343v158q0 212 113.5 350t288.5 138q184 0 283 -125.5t99 -337.5v-140h-582v-43q0 -140 61.5 -231.5t174.5 -91.5q84 0 144 26.5t114 77.5l64 -126q-51 -58 -137 -95t-198 -37zM484 946q-88 0 -141 -85.5t-59 -216.5h381v41q0 115 -46 188 t-135 73zM474 1388l112 150h181v-17l-226 -240h-134l-225 239v18h179z" />
<glyph unicode="&#x11c;" horiz-adv-x="1198" d="M1061 207q-50 -88 -162.5 -158t-287.5 -70q-229 0 -369 139t-140 396v432q0 253 133 392t353 139q223 0 341 -112.5t126 -315.5l-2 -6h-192q-5 136 -71.5 207t-198.5 71q-133 0 -210 -95.5t-77 -277.5v-434q0 -186 82.5 -283.5t224.5 -97.5q104 0 161.5 35.5t85.5 90.5 v331h-249v147h452v-530zM864 1642v-22h-164l-123 151l-122 -151h-161v23l222 232h122z" />
<glyph unicode="&#x11d;" horiz-adv-x="994" d="M78 584q0 233 95.5 375.5t265.5 142.5q82 0 144 -38.5t106 -111.5l15 130h175v-1077q0 -208 -110.5 -325t-308.5 -117q-68 0 -145.5 21t-138.5 57l43 152q51 -31 112 -48.5t127 -17.5q111 0 164.5 71t53.5 208v98q-43 -62 -102.5 -93.5t-136.5 -31.5q-169 0 -264 129.5 t-95 342.5v133zM281 451q0 -144 50 -229.5t157 -85.5q66 0 112.5 34t75.5 96v539q-30 64 -76 101.5t-110 37.5q-106 0 -157.5 -100t-51.5 -260v-133zM768 1299v-22h-164l-123 151l-122 -151h-161v23l222 232h122z" />
<glyph unicode="&#x11e;" horiz-adv-x="1198" d="M1061 207q-50 -88 -162.5 -158t-287.5 -70q-229 0 -369 139t-140 396v432q0 253 133 392t353 139q223 0 341 -112.5t126 -315.5l-2 -6h-192q-5 136 -71.5 207t-198.5 71q-133 0 -210 -95.5t-77 -277.5v-434q0 -186 82.5 -283.5t224.5 -97.5q104 0 161.5 35.5t85.5 90.5 v331h-249v147h452v-530zM855 1893l2 -6q4 -118 -72.5 -192t-206.5 -74q-131 0 -207.5 74t-71.5 192l2 6h151q0 -66 30.5 -108t95.5 -42q62 0 92.5 42t30.5 108h154z" />
<glyph unicode="&#x11f;" horiz-adv-x="994" d="M78 584q0 233 95.5 375.5t265.5 142.5q82 0 144 -38.5t106 -111.5l15 130h175v-1077q0 -208 -110.5 -325t-308.5 -117q-68 0 -145.5 21t-138.5 57l43 152q51 -31 112 -48.5t127 -17.5q111 0 164.5 71t53.5 208v98q-43 -62 -102.5 -93.5t-136.5 -31.5q-169 0 -264 129.5 t-95 342.5v133zM281 451q0 -144 50 -229.5t157 -85.5q66 0 112.5 34t75.5 96v539q-30 64 -76 101.5t-110 37.5q-106 0 -157.5 -100t-51.5 -260v-133zM759 1550l2 -6q4 -118 -72.5 -192t-206.5 -74q-131 0 -207.5 74t-71.5 192l2 6h151q0 -66 30.5 -108t95.5 -42 q62 0 92.5 42t30.5 108h154z" />
<glyph unicode="&#x120;" horiz-adv-x="1198" d="M1061 207q-50 -88 -162.5 -158t-287.5 -70q-229 0 -369 139t-140 396v432q0 253 133 392t353 139q223 0 341 -112.5t126 -315.5l-2 -6h-192q-5 136 -71.5 207t-198.5 71q-133 0 -210 -95.5t-77 -277.5v-434q0 -186 82.5 -283.5t224.5 -97.5q104 0 161.5 35.5t85.5 90.5 v331h-249v147h452v-530zM684 1637h-217v200h217v-200z" />
<glyph unicode="&#x121;" horiz-adv-x="994" d="M78 584q0 233 95.5 375.5t265.5 142.5q82 0 144 -38.5t106 -111.5l15 130h175v-1077q0 -208 -110.5 -325t-308.5 -117q-68 0 -145.5 21t-138.5 57l43 152q51 -31 112 -48.5t127 -17.5q111 0 164.5 71t53.5 208v98q-43 -62 -102.5 -93.5t-136.5 -31.5q-169 0 -264 129.5 t-95 342.5v133zM281 451q0 -144 50 -229.5t157 -85.5q66 0 112.5 34t75.5 96v539q-30 64 -76 101.5t-110 37.5q-106 0 -157.5 -100t-51.5 -260v-133zM588 1294h-217v200h217v-200z" />
<glyph unicode="&#x122;" horiz-adv-x="1198" d="M1061 207q-50 -88 -162.5 -158t-287.5 -70q-229 0 -369 139t-140 396v432q0 253 133 392t353 139q223 0 341 -112.5t126 -315.5l-2 -6h-192q-5 136 -71.5 207t-198.5 71q-133 0 -210 -95.5t-77 -277.5v-434q0 -186 82.5 -283.5t224.5 -97.5q104 0 161.5 35.5t85.5 90.5 v331h-249v147h452v-530zM651 -260l-104 -224h-91l51 231v132h144v-139z" />
<glyph unicode="&#x123;" horiz-adv-x="994" d="M78 584q0 233 95.5 375.5t265.5 142.5q82 0 144 -38.5t106 -111.5l15 130h175v-1077q0 -208 -110.5 -325t-308.5 -117q-68 0 -145.5 21t-138.5 57l43 152q51 -31 112 -48.5t127 -17.5q111 0 164.5 71t53.5 208v98q-43 -62 -102.5 -93.5t-136.5 -31.5q-169 0 -264 129.5 t-95 342.5v133zM281 451q0 -144 50 -229.5t157 -85.5q66 0 112.5 34t75.5 96v539q-30 64 -76 101.5t-110 37.5q-106 0 -157.5 -100t-51.5 -260v-133zM388 1411l97 238h107l-25 -244v-146h-179v152z" />
<glyph unicode="&#x124;" horiz-adv-x="1246" d="M1104 0h-202v642h-558v-642h-203v1456h203v-659h558v659h202v-1456zM905 1621v-22h-164l-123 151l-122 -151h-161v23l222 232h122z" />
<glyph unicode="&#x125;" d="M316 937q45 78 111 121.5t147 43.5q146 0 227 -108t81 -332v-662h-203v664q0 149 -43.5 214.5t-129.5 65.5q-62 0 -110.5 -35.5t-79.5 -97.5v-811h-203v1560h203v-623zM727 1620v-22h-164l-123 151l-122 -151h-161v23l222 232h122z" />
<glyph unicode="&#x126;" horiz-adv-x="1234" d="M1101 1159h115v-133h-115v-1026h-202v642h-558v-642h-203v1026h-110v133h110v297h203v-297h558v297h202v-297zM341 797h558v229h-558v-229z" />
<glyph unicode="&#x127;" horiz-adv-x="1025" d="M566 1237h-220v-300q45 78 111 121.5t147 43.5q146 0 227 -108t81 -332v-662h-203v664q0 149 -43.5 214.5t-129.5 65.5q-62 0 -110.5 -35.5t-79.5 -97.5v-811h-203v1237h-132v141h132v182h203v-182h220v-141z" />
<glyph unicode="&#x128;" horiz-adv-x="513" d="M357 0h-202v1456h202v-1456zM562 1838q0 -92 -50 -155t-126 -63q-61 0 -131 49t-113 49q-33 0 -56 -33.5t-23 -82.5l-111 28q0 90 50 155t126 65q48 0 124 -49.5t120 -49.5q33 0 56.5 34t23.5 84z" />
<glyph unicode="&#x129;" horiz-adv-x="468" d="M332 0h-203v1082h203v-1082zM537 1495q0 -92 -50 -155t-126 -63q-61 0 -131 49t-113 49q-33 0 -56 -33.5t-23 -82.5l-111 28q0 90 50 155t126 65q48 0 124 -49.5t120 -49.5q33 0 56.5 34t23.5 84z" />
<glyph unicode="&#x12a;" horiz-adv-x="513" d="M357 0h-202v1456h202v-1456zM578 1652h-635v132h635v-132z" />
<glyph unicode="&#x12b;" horiz-adv-x="468" d="M332 0h-203v1082h203v-1082zM553 1311h-635v132h635v-132z" />
<glyph unicode="&#x12c;" horiz-adv-x="513" d="M357 0h-202v1456h202v-1456zM536 1872l2 -6q4 -118 -72.5 -192t-206.5 -74q-131 0 -207.5 74t-71.5 192l2 6h151q0 -66 30.5 -108t95.5 -42q62 0 92.5 42t30.5 108h154z" />
<glyph unicode="&#x12d;" horiz-adv-x="468" d="M332 0h-203v1082h203v-1082zM511 1529l2 -6q4 -118 -72.5 -192t-206.5 -74q-131 0 -207.5 74t-71.5 192l2 6h151q0 -66 30.5 -108t95.5 -42q62 0 92.5 42t30.5 108h154z" />
<glyph unicode="&#x12e;" horiz-adv-x="513" d="M357 0h-202v1456h202v-1456zM313 0q-52 -56 -78.5 -100t-26.5 -97q0 -33 16 -57.5t59 -24.5q25 0 44 8t38 19l29 -117q-30 -19 -67 -31.5t-87 -12.5q-85 0 -139 51.5t-54 143.5q0 76 44.5 145.5t135.5 121.5z" />
<glyph unicode="&#x12f;" horiz-adv-x="462" d="M332 0h-203v1082h203v-1082zM332 1366h-203v194h203v-194zM287 0q-52 -56 -78.5 -100t-26.5 -97q0 -33 16 -57.5t59 -24.5q25 0 44 8t38 19l29 -117q-30 -19 -67 -31.5t-87 -12.5q-85 0 -139 51.5t-54 143.5q0 76 44.5 145.5t135.5 121.5z" />
<glyph unicode="&#x130;" horiz-adv-x="513" d="M357 0h-202v1456h202v-1456zM363 1616h-217v200h217v-200z" />
<glyph unicode="&#x131;" horiz-adv-x="468" d="M332 0h-203v1082h203v-1082z" />
<glyph unicode="&#x132;" horiz-adv-x="1502" d="M357 0h-202v1456h202v-1456zM1164 1456h202v-1039q0 -201 -110 -319.5t-282 -118.5q-185 0 -293.5 107.5t-104.5 315.5l3 6h195q0 -138 53.5 -206.5t146.5 -68.5q82 0 136 77t54 207v1039z" />
<glyph unicode="&#x133;" horiz-adv-x="929" d="M332 0h-203v1082h203v-1082zM332 1366h-203v194h203v-194zM802 1082v-1156q0 -174 -78.5 -268.5t-219.5 -94.5q-30 0 -54 4.5t-52 13.5l11 155q16 -6 36.5 -10t38.5 -4q53 0 84 50.5t31 153.5v1156h203zM802 1366h-203v194h203v-194z" />
<glyph unicode="&#x134;" horiz-adv-x="989" d="M651 1456h202v-1039q0 -201 -110 -319.5t-282 -118.5q-185 0 -293.5 107.5t-104.5 315.5l3 6h195q0 -138 53.5 -206.5t146.5 -68.5q82 0 136 77t54 207v1039zM1028 1607v-22h-164l-123 151l-122 -151h-161v23l222 232h122z" />
<glyph unicode="&#x135;" horiz-adv-x="479" d="M346 1082v-1156q0 -174 -78.5 -268.5t-219.5 -94.5q-30 0 -54.5 4.5t-52.5 13.5l12 151q16 -5 39 -9t42 -4q51 0 80.5 54.5t29.5 152.5v1156h202zM525 1264v-22h-164l-123 151l-122 -151h-161v23l222 232h122z" />
<glyph unicode="&#x136;" horiz-adv-x="1131" d="M483 653h-139v-653h-203v1456h203v-640h121l385 640h242l-458 -691l493 -765h-248zM614 -248l-104 -224h-91l51 231v132h144v-139z" />
<glyph unicode="&#x137;" horiz-adv-x="922" d="M405 496h-86v-496h-202v1560h202v-909h83l239 431h237l-314 -488l359 -594h-236zM540 -246l-104 -224h-91l51 231v132h144v-139z" />
<glyph unicode="&#x138;" horiz-adv-x="1010" d="M420 457h-90v-457h-203v1082h203v-453h76l285 453h252l-363 -507l384 -575h-258z" />
<glyph unicode="&#x139;" horiz-adv-x="951" d="M344 154h568v-154h-771v1456h203v-1302zM312 1773h226l2 -5l-238 -261h-162z" />
<glyph unicode="&#x13a;" horiz-adv-x="462" d="M332 0h-203v1560h203v-1560zM300 1885h226l2 -5l-238 -261h-162z" />
<glyph unicode="&#x13b;" horiz-adv-x="951" d="M344 154h568v-154h-771v1456h203v-1302zM596 -246l-104 -224h-91l51 231v132h144v-139z" />
<glyph unicode="&#x13c;" horiz-adv-x="462" d="M332 0h-203v1560h203v-1560zM296 -246l-104 -224h-91l51 231v132h144v-139z" />
<glyph unicode="&#x13d;" horiz-adv-x="951" d="M344 154h568v-154h-771v1456h203v-1302zM709 1317l-104 -224h-91l51 231v132h144v-139z" />
<glyph unicode="&#x13e;" horiz-adv-x="612" d="M332 0h-203v1560h203v-1560zM609 1420l-104 -224h-91l51 231v132h144v-139z" />
<glyph unicode="&#x13f;" horiz-adv-x="951" d="M344 154h568v-154h-771v1456h203v-1302zM728 685h-217v200h217v-200z" />
<glyph unicode="&#x140;" horiz-adv-x="682" d="M332 0h-203v1560h203v-1560zM645 669h-217v200h217v-200z" />
<glyph unicode="&#x141;" horiz-adv-x="911" d="M333 852l221 79v-151l-221 -79v-547h568v-154h-771v629l-102 -36v151l102 36v676h203v-604z" />
<glyph unicode="&#x142;" horiz-adv-x="502" d="M351 885l125 52v-151l-125 -52v-734h-203v649l-119 -50v151l119 50v760h203v-675z" />
<glyph unicode="&#x143;" horiz-adv-x="1247" d="M1104 0h-202l-552 1083l-6 -2v-1081h-203v1456h203l552 -1080l6 2v1078h202v-1456zM692 1824h226l2 -5l-238 -261h-162z" />
<glyph unicode="&#x144;" d="M300 1082l11 -160q45 85 114 132.5t156 47.5q142 0 221 -105t79 -326v-671h-203v669q0 151 -43 213t-130 62q-62 0 -110 -38.5t-78 -104.5v-801h-203v1082h186zM565 1502h226l2 -5l-238 -261h-162z" />
<glyph unicode="&#x145;" horiz-adv-x="1247" d="M1104 0h-202l-552 1083l-6 -2v-1081h-203v1456h203l552 -1080l6 2v1078h202v-1456zM688 -246l-104 -224h-91l51 231v132h144v-139z" />
<glyph unicode="&#x146;" d="M300 1082l11 -160q45 85 114 132.5t156 47.5q142 0 221 -105t79 -326v-671h-203v669q0 151 -43 213t-130 62q-62 0 -110 -38.5t-78 -104.5v-801h-203v1082h186zM561 -246l-104 -224h-91l51 231v132h144v-139z" />
<glyph unicode="&#x147;" horiz-adv-x="1247" d="M1104 0h-202l-552 1083l-6 -2v-1081h-203v1456h203l552 -1080l6 2v1078h202v-1456zM622 1709l112 150h181v-17l-226 -240h-134l-225 239v18h179z" />
<glyph unicode="&#x148;" d="M300 1082l11 -160q45 85 114 132.5t156 47.5q142 0 221 -105t79 -326v-671h-203v669q0 151 -43 213t-130 62q-62 0 -110 -38.5t-78 -104.5v-801h-203v1082h186zM495 1387l112 150h181v-17l-226 -240h-134l-225 239v18h179z" />
<glyph unicode="&#x149;" d="M300 1082l11 -160q45 85 114 132.5t156 47.5q142 0 221 -105t79 -326v-671h-203v669q0 151 -43 213t-130 62q-62 0 -110 -38.5t-78 -104.5v-801h-203v1082h186zM180 1419l-104 -224h-91l51 231v132h144v-139z" />
<glyph unicode="&#x14a;" horiz-adv-x="1225" d="M1096 1456v-1530q0 -174 -79.5 -268.5t-219.5 -94.5q-30 0 -56 4.5t-54 13.5l12 151q15 -5 39.5 -9t44.5 -4q51 0 80.5 54.5t29.5 152.5v74l-551 1068l-6 -2v-1066h-203v1456h203l551 -1069l6 2v1067h203z" />
<glyph unicode="&#x14b;" d="M300 1082l11 -155q46 83 113.5 129t152.5 46q142 0 221.5 -106t79.5 -330v-740q0 -174 -79.5 -268.5t-219.5 -94.5q-30 0 -56 4.5t-54 13.5l12 157q16 -5 41 -9.5t43 -4.5q52 0 81 52.5t29 149.5v739q0 153 -42 216t-126 63q-65 0 -112.5 -33.5t-77.5 -93.5v-817h-203 v1082h186z" />
<glyph unicode="&#x14c;" horiz-adv-x="1160" d="M1068 527q0 -259 -134 -403.5t-359 -144.5q-222 0 -353 144.5t-131 403.5v400q0 258 131.5 404t352.5 146q224 0 358.5 -146t134.5 -404v-400zM866 930q0 190 -76 288.5t-215 98.5q-137 0 -210 -98.5t-73 -288.5v-403q0 -192 73.5 -291t209.5 -99q140 0 215.5 98.5 t75.5 291.5v403zM899 1673h-635v132h635v-132z" />
<glyph unicode="&#x14d;" d="M76 609q0 215 112.5 354t308.5 139q195 0 308 -138.5t113 -354.5v-138q0 -217 -112.5 -354.5t-307.5 -137.5q-197 0 -309.5 137.5t-112.5 354.5v138zM279 471q0 -148 54 -243t165 -95q108 0 162.5 95t54.5 243v138q0 146 -54.5 241.5t-163.5 95.5q-110 0 -164 -95 t-54 -242v-138zM818 1330h-635v132h635v-132z" />
<glyph unicode="&#x14e;" horiz-adv-x="1160" d="M1068 527q0 -259 -134 -403.5t-359 -144.5q-222 0 -353 144.5t-131 403.5v400q0 258 131.5 404t352.5 146q224 0 358.5 -146t134.5 -404v-400zM866 930q0 190 -76 288.5t-215 98.5q-137 0 -210 -98.5t-73 -288.5v-403q0 -192 73.5 -291t209.5 -99q140 0 215.5 98.5 t75.5 291.5v403zM857 1893l2 -6q4 -118 -72.5 -192t-206.5 -74q-131 0 -207.5 74t-71.5 192l2 6h151q0 -66 30.5 -108t95.5 -42q62 0 92.5 42t30.5 108h154z" />
<glyph unicode="&#x14f;" d="M76 609q0 215 112.5 354t308.5 139q195 0 308 -138.5t113 -354.5v-138q0 -217 -112.5 -354.5t-307.5 -137.5q-197 0 -309.5 137.5t-112.5 354.5v138zM279 471q0 -148 54 -243t165 -95q108 0 162.5 95t54.5 243v138q0 146 -54.5 241.5t-163.5 95.5q-110 0 -164 -95 t-54 -242v-138zM776 1550l2 -6q4 -118 -72.5 -192t-206.5 -74q-131 0 -207.5 74t-71.5 192l2 6h151q0 -66 30.5 -108t95.5 -42q62 0 92.5 42t30.5 108h154z" />
<glyph unicode="&#x150;" horiz-adv-x="1160" d="M1068 527q0 -259 -134 -403.5t-359 -144.5q-222 0 -353 144.5t-131 403.5v400q0 258 131.5 404t352.5 146q224 0 358.5 -146t134.5 -404v-400zM866 930q0 190 -76 288.5t-215 98.5q-137 0 -210 -98.5t-73 -288.5v-403q0 -192 73.5 -291t209.5 -99q140 0 215.5 98.5 t75.5 291.5v403zM814 1888h209l3 -6l-247 -260h-174zM514 1888h207l-208 -266h-164z" />
<glyph unicode="&#x151;" d="M76 609q0 215 112.5 354t308.5 139q195 0 308 -138.5t113 -354.5v-138q0 -217 -112.5 -354.5t-307.5 -137.5q-197 0 -309.5 137.5t-112.5 354.5v138zM279 471q0 -148 54 -243t165 -95q108 0 162.5 95t54.5 243v138q0 146 -54.5 241.5t-163.5 95.5q-110 0 -164 -95 t-54 -242v-138zM733 1545h209l3 -6l-247 -260h-174zM433 1545h207l-208 -266h-164z" />
<glyph unicode="&#x152;" horiz-adv-x="1681" d="M1597 0h-765q-78 -10 -133.5 -15.5t-112.5 -5.5q-219 0 -356 166t-137 431v304q0 265 136 431t356 166q58 0 118.5 -6t128.5 -15h759v-156h-620v-469h540v-155h-540v-522h626v-154zM586 134q46 0 92 3.5t90 10.5v1160q-45 6 -90.5 10t-92.5 4q-135 0 -212 -115.5 t-77 -324.5v-306q0 -210 77.5 -326t212.5 -116z" />
<glyph unicode="&#x153;" horiz-adv-x="1584" d="M84 553q0 241 112 395t307 154q104 0 186.5 -46.5t138.5 -130.5q54 84 132.5 130.5t172.5 46.5q184 0 283 -129.5t99 -347.5v-126h-581q2 -161 62.5 -263.5t172.5 -102.5q85 0 144.5 26.5t114.5 77.5l64 -126q-51 -58 -137 -95t-199 -37q-104 0 -188 45.5t-140 129.5 q-55 -84 -137 -129.5t-186 -45.5q-197 0 -309 152.5t-112 394.5v27zM286 526q0 -172 54.5 -282.5t164.5 -110.5q108 0 162.5 110.5t54.5 282.5v27q0 170 -54.5 281.5t-164.5 111.5q-109 0 -163 -112t-54 -281v-27zM1133 946q-80 0 -131.5 -84t-63.5 -218h377v28 q0 120 -46.5 197t-135.5 77z" />
<glyph unicode="&#x154;" horiz-adv-x="1162" d="M344 627v-627h-203v1455h453q207 0 320 -107t113 -307q0 -114 -52.5 -199t-151.5 -133q109 -37 157.5 -125.5t48.5 -218.5v-127q0 -67 13.5 -124.5t46.5 -90.5v-23h-209q-34 33 -43.5 99.5t-9.5 140.5v123q0 122 -55.5 193t-152.5 71h-275zM344 782h240q123 0 181.5 66.5 t58.5 188.5q0 125 -57 194t-173 69h-250v-518zM606 1824h226l2 -5l-238 -261h-162z" />
<glyph unicode="&#x155;" horiz-adv-x="633" d="M582 911l-95 5q-63 0 -104.5 -38t-63.5 -107v-771h-203v1082h185l15 -163q34 86 89 134.5t127 48.5q20 0 41 -3.5t33 -8.5zM426 1502h226l2 -5l-238 -261h-162z" />
<glyph unicode="&#x156;" horiz-adv-x="1162" d="M344 627v-627h-203v1455h453q207 0 320 -107t113 -307q0 -114 -52.5 -199t-151.5 -133q109 -37 157.5 -125.5t48.5 -218.5v-127q0 -67 13.5 -124.5t46.5 -90.5v-23h-209q-34 33 -43.5 99.5t-9.5 140.5v123q0 122 -55.5 193t-152.5 71h-275zM344 782h240q123 0 181.5 66.5 t58.5 188.5q0 125 -57 194t-173 69h-250v-518zM602 -246l-104 -224h-91l51 231v132h144v-139z" />
<glyph unicode="&#x157;" horiz-adv-x="633" d="M582 911l-95 5q-63 0 -104.5 -38t-63.5 -107v-771h-203v1082h185l15 -163q34 86 89 134.5t127 48.5q20 0 41 -3.5t33 -8.5zM294 -245l-104 -224h-91l51 231v132h144v-139z" />
<glyph unicode="&#x158;" horiz-adv-x="1162" d="M344 627v-627h-203v1455h453q207 0 320 -107t113 -307q0 -114 -52.5 -199t-151.5 -133q109 -37 157.5 -125.5t48.5 -218.5v-127q0 -67 13.5 -124.5t46.5 -90.5v-23h-209q-34 33 -43.5 99.5t-9.5 140.5v123q0 122 -55.5 193t-152.5 71h-275zM344 782h240q123 0 181.5 66.5 t58.5 188.5q0 125 -57 194t-173 69h-250v-518zM536 1709l112 150h181v-17l-226 -240h-134l-225 239v18h179z" />
<glyph unicode="&#x159;" horiz-adv-x="633" d="M582 911l-95 5q-63 0 -104.5 -38t-63.5 -107v-771h-203v1082h185l15 -163q34 86 89 134.5t127 48.5q20 0 41 -3.5t33 -8.5zM358 1387l112 150h181v-17l-226 -240h-134l-225 239v18h179z" />
<glyph unicode="&#x15a;" horiz-adv-x="1087" d="M807 366q0 103 -58 169t-203 116q-208 63 -319 164.5t-111 268.5q0 172 123.5 282.5t317.5 110.5q202 0 325.5 -127.5t119.5 -307.5l-2 -6h-195q0 127 -65.5 206.5t-184.5 79.5q-113 0 -174.5 -66.5t-61.5 -169.5q0 -93 66 -156.5t218 -115.5q199 -62 303 -169t104 -277 q0 -179 -123 -284t-323 -105q-195 0 -340.5 115.5t-140.5 325.5l2 6h195q0 -150 78.5 -222t205.5 -72q114 0 178.5 63.5t64.5 170.5zM607 1845h226l2 -5l-238 -261h-162z" />
<glyph unicode="&#x15b;" horiz-adv-x="891" d="M620 271q0 63 -41.5 106.5t-156.5 95.5q-167 65 -247.5 138.5t-80.5 190.5q0 125 98.5 212.5t258.5 87.5q167 0 266 -94.5t95 -235.5l-2 -6h-195q0 77 -43.5 132.5t-120.5 55.5q-76 0 -118.5 -43t-42.5 -101q0 -62 36.5 -98t157.5 -94q170 -61 252.5 -138.5t82.5 -198.5 q0 -134 -102 -218t-268 -84q-179 0 -282 101.5t-98 237.5l2 6h189q4 -105 58 -151.5t134 -46.5q79 0 123.5 40.5t44.5 104.5zM523 1502h226l2 -5l-238 -261h-162z" />
<glyph unicode="&#x15c;" horiz-adv-x="1087" d="M807 366q0 103 -58 169t-203 116q-208 63 -319 164.5t-111 268.5q0 172 123.5 282.5t317.5 110.5q202 0 325.5 -127.5t119.5 -307.5l-2 -6h-195q0 127 -65.5 206.5t-184.5 79.5q-113 0 -174.5 -66.5t-61.5 -169.5q0 -93 66 -156.5t218 -115.5q199 -62 303 -169t104 -277 q0 -179 -123 -284t-323 -105q-195 0 -340.5 115.5t-140.5 325.5l2 6h195q0 -150 78.5 -222t205.5 -72q114 0 178.5 63.5t64.5 170.5zM824 1642v-22h-164l-123 151l-122 -151h-161v23l222 232h122z" />
<glyph unicode="&#x15d;" horiz-adv-x="891" d="M620 271q0 63 -41.5 106.5t-156.5 95.5q-167 65 -247.5 138.5t-80.5 190.5q0 125 98.5 212.5t258.5 87.5q167 0 266 -94.5t95 -235.5l-2 -6h-195q0 77 -43.5 132.5t-120.5 55.5q-76 0 -118.5 -43t-42.5 -101q0 -62 36.5 -98t157.5 -94q170 -61 252.5 -138.5t82.5 -198.5 q0 -134 -102 -218t-268 -84q-179 0 -282 101.5t-98 237.5l2 6h189q4 -105 58 -151.5t134 -46.5q79 0 123.5 40.5t44.5 104.5zM740 1299v-22h-164l-123 151l-122 -151h-161v23l222 232h122z" />
<glyph unicode="&#x15e;" horiz-adv-x="1087" d="M807 366q0 103 -58 169t-203 116q-208 63 -319 164.5t-111 268.5q0 172 123.5 282.5t317.5 110.5q202 0 325.5 -127.5t119.5 -307.5l-2 -6h-195q0 127 -65.5 206.5t-184.5 79.5q-113 0 -174.5 -66.5t-61.5 -169.5q0 -93 66 -156.5t218 -115.5q199 -62 303 -169t104 -277 q0 -179 -123 -284t-323 -105q-195 0 -340.5 115.5t-140.5 325.5l2 6h195q0 -150 78.5 -222t205.5 -72q114 0 178.5 63.5t64.5 170.5zM624 -6l-10 -58q56 -10 92.5 -50.5t36.5 -121.5q0 -98 -72.5 -156t-205.5 -58l-6 113q53 0 85.5 25t32.5 76q0 50 -29 69.5t-100 26.5 l26 134h150z" />
<glyph unicode="&#x15f;" horiz-adv-x="891" d="M620 271q0 63 -41.5 106.5t-156.5 95.5q-167 65 -247.5 138.5t-80.5 190.5q0 125 98.5 212.5t258.5 87.5q167 0 266 -94.5t95 -235.5l-2 -6h-195q0 77 -43.5 132.5t-120.5 55.5q-76 0 -118.5 -43t-42.5 -101q0 -62 36.5 -98t157.5 -94q170 -61 252.5 -138.5t82.5 -198.5 q0 -134 -102 -218t-268 -84q-179 0 -282 101.5t-98 237.5l2 6h189q4 -105 58 -151.5t134 -46.5q79 0 123.5 40.5t44.5 104.5zM533 -4l-10 -58q56 -10 92.5 -50.5t36.5 -121.5q0 -98 -72.5 -156t-205.5 -58l-6 113q53 0 85.5 25t32.5 76q0 50 -29 69.5t-100 26.5l26 134h150z " />
<glyph unicode="&#x160;" horiz-adv-x="1087" d="M807 366q0 103 -58 169t-203 116q-208 63 -319 164.5t-111 268.5q0 172 123.5 282.5t317.5 110.5q202 0 325.5 -127.5t119.5 -307.5l-2 -6h-195q0 127 -65.5 206.5t-184.5 79.5q-113 0 -174.5 -66.5t-61.5 -169.5q0 -93 66 -156.5t218 -115.5q199 -62 303 -169t104 -277 q0 -179 -123 -284t-323 -105q-195 0 -340.5 115.5t-140.5 325.5l2 6h195q0 -150 78.5 -222t205.5 -72q114 0 178.5 63.5t64.5 170.5zM537 1730l112 150h181v-17l-226 -240h-134l-225 239v18h179z" />
<glyph unicode="&#x161;" horiz-adv-x="891" d="M620 271q0 63 -41.5 106.5t-156.5 95.5q-167 65 -247.5 138.5t-80.5 190.5q0 125 98.5 212.5t258.5 87.5q167 0 266 -94.5t95 -235.5l-2 -6h-195q0 77 -43.5 132.5t-120.5 55.5q-76 0 -118.5 -43t-42.5 -101q0 -62 36.5 -98t157.5 -94q170 -61 252.5 -138.5t82.5 -198.5 q0 -134 -102 -218t-268 -84q-179 0 -282 101.5t-98 237.5l2 6h189q4 -105 58 -151.5t134 -46.5q79 0 123.5 40.5t44.5 104.5zM453 1387l112 150h181v-17l-226 -240h-134l-225 239v18h179z" />
<glyph unicode="&#x162;" horiz-adv-x="1018" d="M984 1300h-374v-1300h-203v1300h-372v156h949v-156zM577 -250l-104 -224h-91l51 231v132h144v-139z" />
<glyph unicode="&#x163;" horiz-adv-x="628" d="M375 1351v-269h169v-145h-169v-644q0 -84 25 -119.5t65 -35.5q24 0 44.5 3t48.5 9l21 -140q-34 -14 -76.5 -22.5t-87.5 -8.5q-115 0 -178.5 75.5t-63.5 238.5v644h-141v145h141v269h202zM455 -256l-104 -224h-91l51 231v132h144v-139z" />
<glyph unicode="&#x164;" horiz-adv-x="1018" d="M984 1300h-374v-1300h-203v1300h-372v156h949v-156zM511 1706l112 150h181v-17l-226 -240h-134l-225 239v18h179z" />
<glyph unicode="&#x165;" horiz-adv-x="668" d="M375 1351v-269h169v-145h-169v-644q0 -84 25 -119.5t65 -35.5q24 0 44.5 3t48.5 9l21 -140q-34 -14 -76.5 -22.5t-87.5 -8.5q-115 0 -178.5 75.5t-63.5 238.5v644h-141v145h141v269h202zM682 1438l-104 -224h-91l51 231v132h144v-139z" />
<glyph unicode="&#x166;" horiz-adv-x="1018" d="M787 805h-177v-805h-203v805h-175v141h175v354h-372v156h949v-156h-374v-354h177v-141z" />
<glyph unicode="&#x167;" horiz-adv-x="628" d="M375 1351v-269h169v-145h-169v-209h185v-141h-185v-294q0 -84 25 -119.5t65 -35.5q24 0 44.5 3t48.5 9l21 -140q-34 -14 -76.5 -22.5t-87.5 -8.5q-115 0 -178.5 75.5t-63.5 238.5v294h-168v141h168v209h-141v145h141v269h202z" />
<glyph unicode="&#x168;" horiz-adv-x="1160" d="M1045 1456v-1009q0 -226 -129.5 -347t-338.5 -121q-206 0 -333 121t-127 347v1009h201v-1009q0 -156 70 -235t189 -79q124 0 195 76t71 238v1009h202zM885 1838q0 -92 -50 -155t-126 -63q-61 0 -131 49t-113 49q-33 0 -56 -33.5t-23 -82.5l-111 28q0 90 50 155t126 65 q48 0 124 -49.5t120 -49.5q33 0 56.5 34t23.5 84z" />
<glyph unicode="&#x169;" d="M687 145q-43 -80 -110 -123t-154 -43q-147 0 -229 113t-82 351v639h202v-641q0 -166 39.5 -235.5t118.5 -69.5q75 0 125.5 35t80.5 100v811h203v-1082h-181zM800 1495q0 -92 -50 -155t-126 -63q-61 0 -131 49t-113 49q-33 0 -56 -33.5t-23 -82.5l-111 28q0 90 50 155 t126 65q48 0 124 -49.5t120 -49.5q33 0 56.5 34t23.5 84z" />
<glyph unicode="&#x16a;" horiz-adv-x="1160" d="M1045 1456v-1009q0 -226 -129.5 -347t-338.5 -121q-206 0 -333 121t-127 347v1009h201v-1009q0 -156 70 -235t189 -79q124 0 195 76t71 238v1009h202zM901 1652h-635v132h635v-132z" />
<glyph unicode="&#x16b;" d="M687 145q-43 -80 -110 -123t-154 -43q-147 0 -229 113t-82 351v639h202v-641q0 -166 39.5 -235.5t118.5 -69.5q75 0 125.5 35t80.5 100v811h203v-1082h-181zM816 1311h-635v132h635v-132z" />
<glyph unicode="&#x16c;" horiz-adv-x="1160" d="M1045 1456v-1009q0 -226 -129.5 -347t-338.5 -121q-206 0 -333 121t-127 347v1009h201v-1009q0 -156 70 -235t189 -79q124 0 195 76t71 238v1009h202zM859 1872l2 -6q4 -118 -72.5 -192t-206.5 -74q-131 0 -207.5 74t-71.5 192l2 6h151q0 -66 30.5 -108t95.5 -42 q62 0 92.5 42t30.5 108h154z" />
<glyph unicode="&#x16d;" d="M687 145q-43 -80 -110 -123t-154 -43q-147 0 -229 113t-82 351v639h202v-641q0 -166 39.5 -235.5t118.5 -69.5q75 0 125.5 35t80.5 100v811h203v-1082h-181zM774 1529l2 -6q4 -118 -72.5 -192t-206.5 -74q-131 0 -207.5 74t-71.5 192l2 6h151q0 -66 30.5 -108t95.5 -42 q62 0 92.5 42t30.5 108h154z" />
<glyph unicode="&#x16e;" horiz-adv-x="1160" d="M1045 1456v-1009q0 -226 -129.5 -347t-338.5 -121q-206 0 -333 121t-127 347v1009h201v-1009q0 -156 70 -235t189 -79q124 0 195 76t71 238v1009h202zM401 1734q0 78 53 131t128 53q74 0 126 -53t52 -131q0 -80 -51.5 -130.5t-126.5 -50.5q-76 0 -128.5 51t-52.5 130z M494 1734q0 -41 25.5 -68.5t62.5 -27.5q36 0 60 27t24 69q0 43 -24 71t-60 28q-37 0 -62.5 -28.5t-25.5 -70.5z" />
<glyph unicode="&#x16f;" d="M687 145q-43 -80 -110 -123t-154 -43q-147 0 -229 113t-82 351v639h202v-641q0 -166 39.5 -235.5t118.5 -69.5q75 0 125.5 35t80.5 100v811h203v-1082h-181zM316 1391q0 78 53 131t128 53q74 0 126 -53t52 -131q0 -80 -51.5 -130.5t-126.5 -50.5q-76 0 -128.5 51 t-52.5 130zM409 1391q0 -41 25.5 -68.5t62.5 -27.5q36 0 60 27t24 69q0 43 -24 71t-60 28q-37 0 -62.5 -28.5t-25.5 -70.5z" />
<glyph unicode="&#x170;" horiz-adv-x="1160" d="M1045 1456v-1009q0 -226 -129.5 -347t-338.5 -121q-206 0 -333 121t-127 347v1009h201v-1009q0 -156 70 -235t189 -79q124 0 195 76t71 238v1009h202zM816 1867h209l3 -6l-247 -260h-174zM516 1867h207l-208 -266h-164z" />
<glyph unicode="&#x171;" d="M687 145q-43 -80 -110 -123t-154 -43q-147 0 -229 113t-82 351v639h202v-641q0 -166 39.5 -235.5t118.5 -69.5q75 0 125.5 35t80.5 100v811h203v-1082h-181zM731 1524h209l3 -6l-247 -260h-174zM431 1524h207l-208 -266h-164z" />
<glyph unicode="&#x172;" horiz-adv-x="1160" d="M1045 1456v-1009q0 -226 -129.5 -347t-338.5 -121q-206 0 -333 121t-127 347v1009h201v-1009q0 -156 70 -235t189 -79q124 0 195 76t71 238v1009h202zM672 0q-52 -56 -78.5 -100t-26.5 -97q0 -33 16 -57.5t59 -24.5q25 0 44 8t38 19l29 -117q-30 -19 -67 -31.5t-87 -12.5 q-85 0 -139 51.5t-54 143.5q0 76 44.5 145.5t135.5 121.5z" />
<glyph unicode="&#x173;" d="M687 145q-43 -80 -110 -123t-154 -43q-147 0 -229 113t-82 351v639h202v-641q0 -166 39.5 -235.5t118.5 -69.5q75 0 125.5 35t80.5 100v811h203v-1082h-181zM833 0q-52 -56 -78.5 -100t-26.5 -97q0 -33 16 -57.5t59 -24.5q25 0 44 8t38 19l29 -117q-30 -19 -67 -31.5 t-87 -12.5q-85 0 -139 51.5t-54 143.5q0 76 44.5 145.5t135.5 121.5z" />
<glyph unicode="&#x174;" horiz-adv-x="1551" d="M1103 418h6l196 1038h199l-294 -1456h-187l-247 1034h-6l-249 -1034h-187l-293 1456h199l197 -1038h6l248 1038h161zM1059 1621v-22h-164l-123 151l-122 -151h-161v23l222 232h122z" />
<glyph unicode="&#x175;" horiz-adv-x="1308" d="M920 351h6l143 731h194l-248 -1082h-167l-194 719h-6l-191 -719h-168l-248 1082h194l146 -725h6l192 725h146zM938 1278v-22h-164l-123 151l-122 -151h-161v23l222 232h122z" />
<glyph unicode="&#x176;" horiz-adv-x="1100" d="M547 749h6l298 707h225l-428 -932v-524h-202v537l-423 919h227zM839 1617v-22h-164l-123 151l-122 -151h-161v23l222 232h122z" />
<glyph unicode="&#x177;" horiz-adv-x="892" d="M420 373l15 -71h6l208 780h221l-379 -1250q-38 -112 -103 -190.5t-187 -78.5q-25 0 -53.5 5.5t-56.5 12.5l22 150q11 -2 30 -4t30 -2q59 0 93.5 50.5t53.5 119.5l36 110l-334 1077h220zM732 1278v-22h-164l-123 151l-122 -151h-161v23l222 232h122z" />
<glyph unicode="&#x178;" horiz-adv-x="1100" d="M547 749h6l298 707h225l-428 -932v-524h-202v537l-423 919h227zM871 1613h-207v185h207v-185zM443 1613h-208v185h208v-185z" />
<glyph unicode="&#x179;" horiz-adv-x="1010" d="M295 154h644v-154h-860v125l621 1176h-617v155h836v-121zM572 1824h226l2 -5l-238 -261h-162z" />
<glyph unicode="&#x17a;" horiz-adv-x="865" d="M298 154h499v-154h-721v128l474 797h-464v157h690v-126zM507 1481h226l2 -5l-238 -261h-162z" />
<glyph unicode="&#x17b;" horiz-adv-x="1010" d="M295 154h644v-154h-860v125l621 1176h-617v155h836v-121zM609 1616h-217v200h217v-200z" />
<glyph unicode="&#x17c;" horiz-adv-x="865" d="M298 154h499v-154h-721v128l474 797h-464v157h690v-126zM544 1273h-217v200h217v-200z" />
<glyph unicode="&#x17d;" horiz-adv-x="1010" d="M295 154h644v-154h-860v125l621 1176h-617v155h836v-121zM502 1709l112 150h181v-17l-226 -240h-134l-225 239v18h179z" />
<glyph unicode="&#x17e;" horiz-adv-x="865" d="M298 154h499v-154h-721v128l474 797h-464v157h690v-126zM437 1366l112 150h181v-17l-226 -240h-134l-225 239v18h179z" />
<glyph unicode="&#x17f;" horiz-adv-x="455" d="M124 0v1221q0 172 82.5 266t230.5 94q30 0 61.5 -5.5t67.5 -15.5l-21 -146q-20 5 -38.5 8t-41.5 3q-67 0 -102.5 -53.5t-35.5 -150.5v-1221h-203z" />
<glyph unicode="&#x192;" horiz-adv-x="624" d="M555 937h-175v-1011q0 -174 -79 -268.5t-219 -94.5q-31 0 -56 4.5t-51 13.5l12 151q13 -5 37.5 -9t43.5 -4q52 0 81 54.5t29 152.5v1011h-140v145h140v139q0 172 82 266t230 94q30 0 61 -5.5t68 -15.5l-19 -149q-18 5 -39 8t-45 3q-67 0 -101.5 -52t-34.5 -149v-139h175 v-145z" />
<glyph unicode="&#x1a0;" horiz-adv-x="1219" d="M1069 527q0 -259 -134 -403.5t-359 -144.5q-222 0 -353 144.5t-131 403.5v400q0 258 131.5 404t352.5 146q122 0 220 -45t164 -131q93 22 141 106.5t48 223.5h170q0 -189 -74.5 -309t-212.5 -159q18 -52 27.5 -111t9.5 -125v-400zM867 930q0 190 -76 288.5t-215 98.5 q-137 0 -210 -98.5t-73 -288.5v-403q0 -192 73.5 -291t209.5 -99q140 0 215.5 98.5t75.5 291.5v403z" />
<glyph unicode="&#x1a1;" horiz-adv-x="1016" d="M75 609q0 215 112.5 354t308.5 139q94 0 170.5 -34.5t132.5 -97.5q56 28 84.5 95.5t28.5 167.5h160q0 -139 -53 -233t-154 -133q25 -57 38.5 -122t13.5 -136v-138q0 -217 -112.5 -354.5t-307.5 -137.5q-197 0 -309.5 137.5t-112.5 354.5v138zM278 471q0 -148 54 -243 t165 -95q108 0 162.5 95t54.5 243v138q0 146 -54.5 241.5t-163.5 95.5q-110 0 -164 -95t-54 -242v-138z" />
<glyph unicode="&#x1af;" horiz-adv-x="1237" d="M1045 1456v-197l6 -2q91 14 134 100.5t43 237.5h169q0 -216 -88.5 -339t-263.5 -143v-666q0 -226 -129.5 -347t-338.5 -121q-206 0 -333 121t-127 347v1009h201v-1009q0 -156 70 -235t189 -79q124 0 195 76t71 238v1009h202z" />
<glyph unicode="&#x1b0;" horiz-adv-x="1088" d="M1140 1196q0 -156 -63.5 -244t-195.5 -110v-842h-181l-13 145q-43 -80 -110 -123t-154 -43q-147 0 -229 113t-82 351v639h202v-641q0 -166 39.5 -235.5t118.5 -69.5q75 0 125.5 35t80.5 100v811h203v-114l6 -2q57 13 82.5 70.5t25.5 159.5h145z" />
<glyph unicode="&#x1f0;" horiz-adv-x="479" d="M346 1082v-1156q0 -174 -78.5 -268.5t-219.5 -94.5q-30 0 -54.5 4.5t-52.5 13.5l12 151q16 -5 39 -9t42 -4q51 0 80.5 54.5t29.5 152.5v1156h202zM238 1352l112 150h181v-17l-226 -240h-134l-225 239v18h179z" />
<glyph unicode="&#x1fa;" horiz-adv-x="1137" d="M803 368h-464l-106 -368h-206l448 1456h196l444 -1456h-206zM386 529h371l-182 636h-6zM677 2100h187l2 -6l-201 -194h-131zM432 1682q0 72 46 120t113 48q65 0 110.5 -48.5t45.5 -119.5t-45.5 -117t-110.5 -46q-67 0 -113 46t-46 117zM515 1682q0 -37 21.5 -61.5 t54.5 -24.5q30 0 50.5 24.5t20.5 61.5q0 38 -20.5 64t-50.5 26q-33 0 -54.5 -26t-21.5 -64z" />
<glyph unicode="&#x1fb;" horiz-adv-x="955" d="M667 0q-11 37 -18 72.5t-9 71.5q-45 -73 -113 -119t-151 -46q-137 0 -214.5 86.5t-77.5 231.5q0 155 105.5 243.5t296.5 88.5h151v111q0 99 -44 154.5t-125 55.5q-73 0 -117.5 -50t-44.5 -125l-193 1l-3 6q-5 125 100 222.5t271 97.5q160 0 259.5 -94.5t99.5 -269.5v-502 q0 -63 7.5 -121.5t24.5 -114.5h-205zM422 135q71 0 129.5 42t85.5 105v221h-154q-93 0 -144.5 -59.5t-51.5 -145.5q0 -73 35 -118t100 -45zM560 1778h187l2 -6l-201 -194h-131zM315 1360q0 72 46 120t113 48q65 0 110.5 -48.5t45.5 -119.5t-45.5 -117t-110.5 -46 q-67 0 -113 46t-46 117zM398 1360q0 -37 21.5 -61.5t54.5 -24.5q30 0 50.5 24.5t20.5 61.5q0 38 -20.5 64t-50.5 26q-33 0 -54.5 -26t-21.5 -64z" />
<glyph unicode="&#x1fc;" horiz-adv-x="1639" d="M1590 0h-752l-13 361h-416l-164 -361h-242l703 1456h832v-157h-544l17 -467h458v-155h-453l18 -522h556v-155zM487 531h332l-24 665l-5 1zM870 1824h226l2 -5l-238 -261h-162z" />
<glyph unicode="&#x1fd;" horiz-adv-x="1479" d="M1068 -21q-112 0 -198.5 45t-142.5 129q-49 -75 -139 -124.5t-215 -49.5q-153 0 -236.5 87t-83.5 238q0 158 102.5 246t297.5 88h176v78q0 109 -40 169.5t-114 60.5q-80 0 -126.5 -54.5t-46.5 -134.5l-194 16l-2 6q-5 139 97.5 231t272.5 92q92 0 164.5 -33.5 t119.5 -97.5q53 63 124.5 97t156.5 34q179 0 278.5 -128.5t99.5 -350.5v-124h-583q1 -166 61 -266t185 -100q83 0 139 26.5t119 76.5l59 -132q-47 -48 -133 -86.5t-198 -38.5zM413 127q57 0 119.5 40t96.5 92v242h-174q-94 0 -146.5 -58.5t-52.5 -142.5q0 -80 39 -126.5 t118 -46.5zM1041 946q-91 0 -141.5 -84t-60.5 -223h380v30q0 124 -44 200.5t-134 76.5zM806 1503h226l2 -5l-238 -261h-162z" />
<glyph unicode="&#x1fe;" horiz-adv-x="1202" d="M1070 527q0 -259 -134 -403.5t-359 -144.5q-69 0 -129.5 14t-111.5 42l-63 -125h-120l95 189q-75 70 -115 178.5t-40 249.5v400q0 258 131.5 404t352.5 146q91 0 170 -26t141 -75l68 136h121l-110 -219q50 -70 76.5 -162.5t26.5 -203.5v-400zM294 527q0 -76 11 -136 t33 -100l6 -1l458 915q-38 55 -95 83.5t-130 28.5q-137 0 -210 -98.5t-73 -288.5v-403zM868 930q0 37 -3.5 70.5t-8.5 58.5l-6 1l-437 -871q32 -27 73 -39.5t91 -12.5q140 0 215.5 98.5t75.5 291.5v403zM676 1886h226l2 -5l-238 -261h-162z" />
<glyph unicode="&#x1ff;" horiz-adv-x="996" d="M76 609q0 215 112.5 354t308.5 139q45 0 87 -8.5t80 -24.5l60 144h121l-85 -204q76 -66 117 -170t41 -230v-138q0 -217 -112.5 -354.5t-307.5 -137.5q-42 0 -80.5 7t-73.5 20l-60 -145h-121l83 200q-83 64 -126.5 170.5t-43.5 239.5v138zM279 471q0 -67 10 -122.5 t32 -91.5h6l273 659q-22 14 -48 22t-55 8q-110 0 -164 -95t-54 -242v-138zM715 609q0 58 -9 108.5t-25 85.5l-6 1l-269 -649q20 -11 42.5 -16.5t49.5 -5.5q108 0 162.5 95t54.5 243v138zM533 1500h226l2 -5l-238 -261h-162z" />
<glyph unicode="&#x218;" horiz-adv-x="1087" d="M807 366q0 103 -58 169t-203 116q-208 63 -319 164.5t-111 268.5q0 172 123.5 282.5t317.5 110.5q202 0 325.5 -127.5t119.5 -307.5l-2 -6h-195q0 127 -65.5 206.5t-184.5 79.5q-113 0 -174.5 -66.5t-61.5 -169.5q0 -93 66 -156.5t218 -115.5q199 -62 303 -169t104 -277 q0 -179 -123 -284t-323 -105q-195 0 -340.5 115.5t-140.5 325.5l2 6h195q0 -150 78.5 -222t205.5 -72q114 0 178.5 63.5t64.5 170.5zM610 -266l-104 -224h-91l51 231v132h144v-139z" />
<glyph unicode="&#x219;" horiz-adv-x="891" d="M620 271q0 63 -41.5 106.5t-156.5 95.5q-167 65 -247.5 138.5t-80.5 190.5q0 125 98.5 212.5t258.5 87.5q167 0 266 -94.5t95 -235.5l-2 -6h-195q0 77 -43.5 132.5t-120.5 55.5q-76 0 -118.5 -43t-42.5 -101q0 -62 36.5 -98t157.5 -94q170 -61 252.5 -138.5t82.5 -198.5 q0 -134 -102 -218t-268 -84q-179 0 -282 101.5t-98 237.5l2 6h189q4 -105 58 -151.5t134 -46.5q79 0 123.5 40.5t44.5 104.5zM519 -264l-104 -224h-91l51 231v132h144v-139z" />
<glyph unicode="&#x21a;" horiz-adv-x="1018" d="M984 1300h-374v-1300h-203v1300h-372v156h949v-156zM591 8l-10 -58q56 -10 92.5 -50.5t36.5 -121.5q0 -98 -72.5 -156t-205.5 -58l-6 113q53 0 85.5 25t32.5 76q0 50 -29 69.5t-100 26.5l26 134h150z" />
<glyph unicode="&#x21b;" horiz-adv-x="628" d="M375 1351v-269h169v-145h-169v-644q0 -84 25 -119.5t65 -35.5q24 0 44.5 3t48.5 9l21 -140q-34 -14 -76.5 -22.5t-87.5 -8.5q-115 0 -178.5 75.5t-63.5 238.5v644h-141v145h141v269h202zM469 2l-10 -58q56 -10 92.5 -50.5t36.5 -121.5q0 -98 -72.5 -156t-205.5 -58 l-6 113q53 0 85.5 25t32.5 76q0 50 -29 69.5t-100 26.5l26 134h150z" />
<glyph unicode="&#x237;" horiz-adv-x="479" d="M346 1082v-1156q0 -174 -78.5 -268.5t-219.5 -94.5q-30 0 -54.5 4.5t-52.5 13.5l12 151q16 -5 39 -9t42 -4q51 0 80.5 54.5t29.5 152.5v1156h202z" />
<glyph unicode="&#x259;" horiz-adv-x="930" d="M440 1103q193 0 309.5 -150t116.5 -384v-47q0 -237 -114.5 -389.5t-288.5 -151.5q-185 0 -283 128t-98 347v125h581q-3 159 -64.5 263t-172.5 104q-85 0 -144.5 -27t-112.5 -77l-65 126q52 57 137.5 95t198.5 38zM463 134q79 0 130.5 84t65.5 219h-378v-27 q0 -122 46 -199t136 -77z" />
<glyph unicode="&#x2bc;" horiz-adv-x="360" d="M300 1372l-133 -331h-100l50 329v190h183v-188z" />
<glyph unicode="&#x2c6;" horiz-adv-x="853" d="M707 1274v-22h-164l-123 151l-122 -151h-161v23l222 232h122z" />
<glyph unicode="&#x2c7;" horiz-adv-x="808" d="M400 1359l112 150h181v-17l-226 -240h-134l-225 239v18h179z" />
<glyph unicode="&#x2d8;" horiz-adv-x="804" d="M675 1456l2 -6q4 -118 -72.5 -192t-206.5 -74q-131 0 -207.5 74t-71.5 192l2 6h151q0 -66 30.5 -108t95.5 -42q62 0 92.5 42t30.5 108h154z" />
<glyph unicode="&#x2d9;" horiz-adv-x="513" d="M354 1259h-217v200h217v-200z" />
<glyph unicode="&#x2da;" horiz-adv-x="622" d="M129 1311q0 78 53 131t128 53q74 0 126 -53t52 -131q0 -80 -51.5 -130.5t-126.5 -50.5q-76 0 -128.5 51t-52.5 130zM222 1311q0 -41 25.5 -68.5t62.5 -27.5q36 0 60 27t24 69q0 43 -24 71t-60 28q-37 0 -62.5 -28.5t-25.5 -70.5z" />
<glyph unicode="&#x2db;" horiz-adv-x="513" d="M340 0q-52 -56 -78.5 -100t-26.5 -97q0 -33 16 -57.5t59 -24.5q25 0 44 8t38 19l29 -117q-30 -19 -67 -31.5t-87 -12.5q-85 0 -139 51.5t-54 143.5q0 76 44.5 145.5t135.5 121.5z" />
<glyph unicode="&#x2dc;" horiz-adv-x="841" d="M722 1484q0 -92 -50 -155t-126 -63q-61 0 -131 49t-113 49q-33 0 -56 -33.5t-23 -82.5l-111 28q0 90 50 155t126 65q48 0 124 -49.5t120 -49.5q33 0 56.5 34t23.5 84z" />
<glyph unicode="&#x2dd;" horiz-adv-x="711" d="M577 1518h209l3 -6l-247 -260h-174zM277 1518h207l-208 -266h-164z" />
<glyph unicode="&#x2f3;" horiz-adv-x="580" d="M151 -228q0 63 42 105.5t102 42.5q59 0 100 -42.5t41 -105.5t-40.5 -103.5t-100.5 -40.5q-61 0 -102.5 41t-41.5 103zM236 -228q0 -27 17 -46t42 -19q24 0 40 18.5t16 46.5q0 30 -16 49t-40 19q-25 0 -42 -19t-17 -49z" />
<glyph unicode="&#x300;" horiz-adv-x="16" d="M-382 1207h-130l-154 325h173z" />
<glyph unicode="&#x301;" horiz-adv-x="16" d="M-484 1535h171l-160 -325h-123z" />
<glyph unicode="&#x303;" horiz-adv-x="17" d="M-144 1484q0 -92 -50 -155t-126 -63q-61 0 -131 49t-113 49q-33 0 -56 -33.5t-23 -82.5l-111 28q0 90 50 155t126 65q48 0 124 -49.5t120 -49.5q33 0 56.5 34t23.5 84z" />
<glyph unicode="&#x309;" horiz-adv-x="16" d="M-572 1245l-7 137q65 5 92.5 22.5t27.5 56.5q0 43 -35.5 62.5t-95.5 19.5l6 103q141 0 216 -49.5t75 -134.5q0 -69 -37 -106.5t-92 -45.5v-65h-150z" />
<glyph unicode="&#x30f;" horiz-adv-x="16" d="M-423 1252h-174l-247 260l3 6h209zM-167 1252h-164l-208 266h207z" />
<glyph unicode="&#x323;" horiz-adv-x="16" d="M-383 -333h-227v200h227v-200z" />
<glyph unicode="&#x384;" horiz-adv-x="535" d="M251 1633h203l-163 -356h-100z" />
<glyph unicode="&#x385;" horiz-adv-x="930" d="M776 1274h-188v182h188v-182zM330 1274h-189v182h189v-182zM437 1722h209l-128 -250h-118z" />
<glyph unicode="&#x386;" horiz-adv-x="1137" d="M803 368h-464l-106 -368h-206l448 1456h196l444 -1456h-206zM386 529h371l-182 636h-6zM214 1633h203l-163 -356h-100z" />
<glyph unicode="&#x387;" horiz-adv-x="506" d="M348 606h-205v214h205v-214z" />
<glyph unicode="&#x388;" horiz-adv-x="1118" d="M984 676h-540v-522h626v-154h-829v1456h823v-156h-620v-469h540v-155zM12 1635h203l-163 -356h-100z" />
<glyph unicode="&#x389;" horiz-adv-x="1346" d="M1204 0h-202v642h-558v-642h-203v1456h203v-659h558v659h202v-1456zM49 1633h203l-163 -356h-100z" />
<glyph unicode="&#x38a;" horiz-adv-x="613" d="M457 0h-202v1456h202v-1456zM55 1633h203l-163 -356h-100z" />
<glyph unicode="&#x38c;" horiz-adv-x="1180" d="M1088 527q0 -259 -134 -403.5t-359 -144.5q-222 0 -353 144.5t-131 403.5v400q0 258 131.5 404t352.5 146q224 0 358.5 -146t134.5 -404v-400zM886 930q0 190 -76 288.5t-215 98.5q-137 0 -210 -98.5t-73 -288.5v-403q0 -192 73.5 -291t209.5 -99q140 0 215.5 98.5 t75.5 291.5v403zM87 1633h203l-163 -356h-100z" />
<glyph unicode="&#x38e;" horiz-adv-x="1200" d="M647 749h6l298 707h225l-428 -932v-524h-202v537l-423 919h227zM-46 1633h203l-163 -356h-100z" />
<glyph unicode="&#x38f;" horiz-adv-x="1194" d="M651 164q98 36 154 178t56 395v111q0 222 -70.5 347t-193.5 125q-122 0 -191.5 -125t-69.5 -347v-111q0 -254 57 -396t158 -177v-164h-420v155h225q-107 93 -171 247t-64 335v109q0 280 131.5 455.5t344.5 175.5t346.5 -175.5t133.5 -455.5v-109q0 -181 -64.5 -335 t-170.5 -247h230v-155h-421v164zM87 1633h203l-163 -356h-100z" />
<glyph unicode="&#x390;" horiz-adv-x="584" d="M350 1081v-795q0 -84 21.5 -117t61.5 -33q23 0 39 4.5t42 15.5l30 -138q-39 -22 -75 -30.5t-81 -8.5q-118 0 -179.5 75t-61.5 239v788h203zM570 1204h-188v182h188v-182zM124 1204h-189v182h189v-182zM231 1652h209l-128 -250h-118z" />
<glyph unicode="&#x391;" horiz-adv-x="1137" d="M803 368h-464l-106 -368h-206l448 1456h196l444 -1456h-206zM386 529h371l-182 636h-6z" />
<glyph unicode="&#x392;" horiz-adv-x="1122" d="M141 0v1456h406q206 0 321.5 -98t115.5 -294q0 -104 -52.5 -183.5t-145.5 -116.5q118 -26 181.5 -123.5t63.5 -228.5q0 -201 -113.5 -306.5t-313.5 -105.5h-463zM344 679v-525h260q108 0 166.5 66.5t58.5 190.5q0 123 -50 195.5t-154 72.5h-281zM344 825h223 q100 0 157 60.5t57 174.5q0 120 -59.5 180t-174.5 60h-203v-475z" />
<glyph unicode="&#x393;" horiz-adv-x="980" d="M920 1300h-576v-1300h-203v1456h779v-156z" />
<glyph unicode="&#x394;" horiz-adv-x="1260" d="M538 1456h196l487 -1456h-1190zM292 154h669l-324 1009h-6z" />
<glyph unicode="&#x395;" horiz-adv-x="1018" d="M884 676h-540v-522h626v-154h-829v1456h823v-156h-620v-469h540v-155z" />
<glyph unicode="&#x396;" horiz-adv-x="1010" d="M295 154h644v-154h-860v125l621 1176h-617v155h836v-121z" />
<glyph unicode="&#x397;" horiz-adv-x="1246" d="M1104 0h-202v642h-558v-642h-203v1456h203v-659h558v659h202v-1456z" />
<glyph unicode="&#x398;" horiz-adv-x="1202" d="M794 652h-377v154h377v-154zM1067 527q0 -259 -134 -403.5t-359 -144.5q-222 0 -353 144.5t-131 403.5v400q0 258 131.5 404t352.5 146q224 0 358.5 -146t134.5 -404v-400zM865 930q0 190 -76 288.5t-215 98.5q-137 0 -210 -98.5t-73 -288.5v-403q0 -192 73.5 -291 t209.5 -99q140 0 215.5 98.5t75.5 291.5v403z" />
<glyph unicode="&#x399;" horiz-adv-x="513" d="M357 0h-202v1456h202v-1456z" />
<glyph unicode="&#x39a;" horiz-adv-x="1131" d="M483 653h-139v-653h-203v1456h203v-640h121l385 640h242l-458 -691l493 -765h-248z" />
<glyph unicode="&#x39b;" horiz-adv-x="1145" d="M573 1189h-6l-319 -1189h-210l433 1456h198l433 -1456h-210z" />
<glyph unicode="&#x39c;" horiz-adv-x="1483" d="M397 1456l340 -1188h6l341 1188h262v-1456h-201v559l18 560l-6 1l-350 -1120h-134l-349 1119l-6 -1l19 -559v-559h-201v1456h261z" />
<glyph unicode="&#x39d;" horiz-adv-x="1247" d="M1104 0h-202l-552 1083l-6 -2v-1081h-203v1456h203l552 -1080l6 2v1078h202v-1456z" />
<glyph unicode="&#x39e;" horiz-adv-x="1002" d="M100 154h811v-154h-811v154zM185 817h638v-152h-638v152zM111 1456h776v-155h-776v155z" />
<glyph unicode="&#x39f;" horiz-adv-x="1160" d="M1068 527q0 -259 -134 -403.5t-359 -144.5q-222 0 -353 144.5t-131 403.5v400q0 258 131.5 404t352.5 146q224 0 358.5 -146t134.5 -404v-400zM866 930q0 190 -76 288.5t-215 98.5q-137 0 -210 -98.5t-73 -288.5v-403q0 -192 73.5 -291t209.5 -99q140 0 215.5 98.5 t75.5 291.5v403z" />
<glyph unicode="&#x3a0;" horiz-adv-x="1247" d="M1105 0h-202v1300h-559v-1300h-203v1456h964v-1456z" />
<glyph unicode="&#x3a1;" horiz-adv-x="1132" d="M344 574v-574h-203v1456h478q204 0 320 -121.5t116 -319.5q0 -199 -116 -320t-320 -121h-275zM344 730h275q115 0 174 80.5t59 202.5q0 124 -58.5 205.5t-174.5 81.5h-275v-570z" />
<glyph unicode="&#x3a3;" horiz-adv-x="1002" d="M674 729l-367 -575h630v-154h-870v126l392 615l-392 588v127h838v-155h-593l362 -545v-27z" />
<glyph unicode="&#x3a4;" horiz-adv-x="1018" d="M984 1300h-374v-1300h-203v1300h-372v156h949v-156z" />
<glyph unicode="&#x3a5;" horiz-adv-x="1100" d="M547 749h6l298 707h225l-428 -932v-524h-202v537l-423 919h227z" />
<glyph unicode="&#x3a6;" horiz-adv-x="1302" d="M754 1273q208 -4 343 -156.5t135 -390.5t-135 -391t-343 -156v-179h-201v179q-210 1 -345 153.5t-135 391.5t135 392.5t345 156.5v183h201v-183zM272 724q0 -177 73.5 -279.5t201.5 -98.5l6 2v756l-6 2q-128 3 -201.5 -101.5t-73.5 -280.5zM1032 726q0 175 -73.5 278 t-198.5 101l-6 -2v-755l6 -2q125 -3 198.5 101t73.5 279z" />
<glyph unicode="&#x3a7;" horiz-adv-x="1112" d="M553 888h6l260 568h239l-379 -721l395 -735h-243l-269 582h-6l-268 -582h-240l388 735l-378 721h237z" />
<glyph unicode="&#x3a8;" horiz-adv-x="1243" d="M716 508l6 -1q111 16 174.5 120t63.5 278v551h203v-551q0 -247 -121.5 -395t-325.5 -171v-339h-202v338q-204 22 -324 170.5t-120 396.5v551h202v-551q0 -171 63.5 -275t172.5 -122l6 1v947h202v-948z" />
<glyph unicode="&#x3a9;" horiz-adv-x="1174" d="M631 164q98 36 154 178t56 395v111q0 222 -70.5 347t-193.5 125q-122 0 -191.5 -125t-69.5 -347v-111q0 -254 57 -396t158 -177v-164h-420v155h225q-107 93 -171 247t-64 335v109q0 280 131.5 455.5t344.5 175.5t346.5 -175.5t133.5 -455.5v-109q0 -181 -64.5 -335 t-170.5 -247h230v-155h-421v164z" />
<glyph unicode="&#x3aa;" horiz-adv-x="513" d="M357 0h-202v1456h202v-1456zM577 1617h-207v185h207v-185zM149 1617h-208v185h208v-185z" />
<glyph unicode="&#x3ab;" horiz-adv-x="1100" d="M547 749h6l298 707h225l-428 -932v-524h-202v537l-423 919h227zM871 1613h-207v185h207v-185zM443 1613h-208v185h208v-185z" />
<glyph unicode="&#x3ac;" horiz-adv-x="994" d="M870 1081v-779q0 -90 16.5 -125t47.5 -35q6 0 11.5 1.5t12.5 4.5l19 -142q-26 -15 -50.5 -21t-54.5 -6q-70 0 -117 37.5t-69 117.5q-43 -76 -105 -115.5t-144 -39.5q-169 0 -263 144.5t-94 383.5v21q0 260 94 417t264 157q79 0 139 -38.5t103 -111.5l16 129h174zM284 507 q0 -171 48.5 -272.5t154.5 -101.5q63 0 107.5 38.5t72.5 109.5v21v483q-29 75 -72.5 118t-105.5 43q-105 0 -155 -116t-50 -302v-21zM520 1606h203l-163 -356h-100z" />
<glyph unicode="&#x3ad;" horiz-adv-x="966" d="M90 302q0 93 46 157.5t134 96.5q-78 35 -121 96.5t-43 136.5q0 148 105 229.5t284 81.5q159 0 267.5 -87t103.5 -226l-2 -6h-194q0 74 -52 121.5t-130 47.5q-90 0 -134.5 -48t-44.5 -119q0 -75 43.5 -118t131.5 -43h165v-141h-165q-94 0 -142.5 -43t-48.5 -131 q0 -78 51 -128t144 -50q89 0 143 54t54 133h194l2 -6q4 -159 -111.5 -244t-274.5 -85q-179 0 -292 85.5t-113 235.5zM476 1605h203l-163 -356h-100z" />
<glyph unicode="&#x3ae;" d="M300 1082l11 -155q46 83 113.5 129t152.5 46q144 0 222.5 -103.5t78.5 -332.5v-1081h-203v1080q0 153 -42 217t-126 64q-65 0 -112.5 -34t-77.5 -94v-818h-203v1082h186zM482 1606h203l-163 -356h-100z" />
<glyph unicode="&#x3af;" horiz-adv-x="584" d="M350 1081v-795q0 -84 21.5 -117t61.5 -33q23 0 39 4.5t42 15.5l30 -138q-39 -22 -75 -30.5t-81 -8.5q-118 0 -179.5 75t-61.5 239v788h203zM245 1584h203l-163 -356h-100z" />
<glyph unicode="&#x3b0;" d="M318 1082v-609q0 -177 51 -258.5t137 -81.5q105 0 153.5 121t48.5 296q-3 134 -27.5 266.5t-66.5 265.5h201q43 -112 69.5 -241.5t26.5 -290.5q0 -257 -94.5 -414t-302.5 -157q-189 0 -293.5 122t-104.5 374v607h202zM824 1205h-188v182h188v-182zM378 1205h-189v182h189 v-182zM485 1653h209l-128 -250h-118z" />
<glyph unicode="&#x3b1;" horiz-adv-x="994" d="M870 1081v-779q0 -90 16.5 -125t47.5 -35q6 0 11.5 1.5t12.5 4.5l19 -142q-26 -15 -50.5 -21t-54.5 -6q-70 0 -117 37.5t-69 117.5q-43 -76 -105 -115.5t-144 -39.5q-169 0 -263 144.5t-94 383.5v21q0 260 94 417t264 157q79 0 139 -38.5t103 -111.5l16 129h174zM284 507 q0 -171 48.5 -272.5t154.5 -101.5q63 0 107.5 38.5t72.5 109.5v21v483q-29 75 -72.5 118t-105.5 43q-105 0 -155 -116t-50 -302v-21z" />
<glyph unicode="&#x3b2;" horiz-adv-x="1050" d="M529 1477q172 0 276 -107.5t104 -283.5q0 -97 -45 -177.5t-123 -126.5q107 -43 166 -140.5t59 -228.5q0 -205 -104 -319.5t-277 -114.5q-67 0 -131.5 20.5t-115.5 61.5v-456h-203v1452q0 178 115 299t279 121zM526 845q93 0 137 62.5t44 175.5q0 97 -47 167.5t-131 70.5 q-82 0 -136.5 -75t-54.5 -189v-832q36 -44 90 -68t120 -24q100 0 157 76.5t57 201.5q0 122 -52.5 203t-145.5 81h-101v150h63z" />
<glyph unicode="&#x3b3;" horiz-adv-x="892" d="M654 1082h209l-314 -1049v-449h-202v459l-313 1039h210l186 -757l17 -85h6l17 85z" />
<glyph unicode="&#x3b4;" d="M824 1456v-153h-368q197 -166 329.5 -355t132.5 -395v-27q0 -242 -112.5 -394.5t-307.5 -152.5q-197 0 -309.5 150t-112.5 389v27q0 208 96.5 351.5t255.5 164.5q3 0 6 -0.5t1 -1.5l3 6q-50 61 -118.5 128.5t-140.5 128.5v134h645zM279 526q0 -173 54 -283t165 -110 q108 0 162.5 110.5t54.5 282.5v27q0 129 -47 229.5t-114 151.5q-14 5 -29 8.5t-28 3.5q-110 0 -164 -111.5t-54 -281.5v-27z" />
<glyph unicode="&#x3b5;" horiz-adv-x="966" d="M90 302q0 93 46 157.5t134 96.5q-78 35 -121 96.5t-43 136.5q0 148 105 229.5t284 81.5q159 0 267.5 -87t103.5 -226l-2 -6h-194q0 74 -52 121.5t-130 47.5q-90 0 -134.5 -48t-44.5 -119q0 -75 43.5 -118t131.5 -43h165v-141h-165q-94 0 -142.5 -43t-48.5 -131 q0 -78 51 -128t144 -50q89 0 143 54t54 133h194l2 -6q4 -159 -111.5 -244t-274.5 -85q-179 0 -292 85.5t-113 235.5z" />
<glyph unicode="&#x3b6;" horiz-adv-x="902" d="M824 1456v-110l-301 -464q-99 -151 -142.5 -259.5t-43.5 -234.5q0 -112 44.5 -174t133.5 -62h39q126 0 198.5 -63t72.5 -181q-1 -113 -71.5 -199t-178.5 -124l-73 131q52 26 91 71t39 109q0 50 -30.5 77t-98.5 27h-45q-158 0 -240.5 106.5t-82.5 266.5q0 125 57 272.5 t175 319.5l236 336h-518v155h739z" />
<glyph unicode="&#x3b7;" d="M300 1082l11 -155q46 83 113.5 129t152.5 46q144 0 222.5 -103.5t78.5 -332.5v-1081h-203v1080q0 153 -42 217t-126 64q-65 0 -112.5 -34t-77.5 -94v-818h-203v1082h186z" />
<glyph unicode="&#x3b8;" horiz-adv-x="1022" d="M915 563q0 -283 -108.5 -433.5t-294.5 -150.5q-187 0 -296.5 151t-109.5 433v329q0 281 109 433t295 152t295.5 -152t109.5 -433v-329zM309 803h404v118q0 198 -52.5 299t-150.5 101t-149.5 -101.5t-51.5 -298.5v-118zM713 651h-404v-116q0 -198 52.5 -300t150.5 -102 q97 0 149 101.5t52 300.5v116z" />
<glyph unicode="&#x3b9;" horiz-adv-x="584" d="M350 1081v-795q0 -84 21.5 -117t61.5 -33q23 0 39 4.5t42 15.5l30 -138q-39 -22 -75 -30.5t-81 -8.5q-118 0 -179.5 75t-61.5 239v788h203z" />
<glyph unicode="&#x3ba;" horiz-adv-x="1010" d="M420 457h-90v-457h-203v1082h203v-453h76l285 453h252l-363 -507l384 -575h-258z" />
<glyph unicode="&#x3bb;" horiz-adv-x="971" d="M256 0h-220l327 1051l-48 136q-23 78 -58.5 126.5t-84.5 48.5q-9 0 -26.5 -2t-30.5 -3l-2 144q31 8 55 12.5t50 4.5q121 0 186 -79.5t101 -189.5l307 -939q16 -71 44.5 -116t64.5 -47q10 -1 17.5 0t24.5 4l-9 -151q-19 -6 -41.5 -9.5t-40.5 -2.5q-103 3 -164.5 79 t-100.5 204l-152 496h-6l-14 -65z" />
<glyph unicode="&#x3bc;" horiz-adv-x="1042" d="M334 1082v-626q0 -185 43.5 -253.5t126.5 -68.5q75 0 122 36t73 105v807h202v-1082h-186l-6 88q-38 -53 -89.5 -81t-116.5 -28q-53 0 -94.5 15t-74.5 49v-459h-202v1498h202z" />
<glyph unicode="&#x3bd;" horiz-adv-x="892" d="M430 325l17 -84h6l17 84l184 757h209l-324 -1082h-179l-326 1082h210z" />
<glyph unicode="&#x3be;" horiz-adv-x="922" d="M813 1456v-158h-252q-95 -8 -142.5 -68.5t-47.5 -151.5q0 -94 53.5 -147t168.5 -53h124v-157h-120q-146 0 -222.5 -77.5t-76.5 -231.5q0 -123 62 -197.5t170 -74.5h79q129 0 203 -64t74 -184q-1 -116 -70.5 -199.5t-180.5 -122.5l-65 124q51 28 90 70.5t39 106.5 q0 54 -28.5 84t-89.5 30h-57q-194 0 -311.5 114t-117.5 317q0 145 69 243.5t201 141.5q-94 38 -145.5 106t-51.5 155q0 78 30 137.5t87 98.5h-187v158h715z" />
<glyph unicode="&#x3bf;" d="M76 609q0 215 112.5 354t308.5 139q195 0 308 -138.5t113 -354.5v-138q0 -217 -112.5 -354.5t-307.5 -137.5q-197 0 -309.5 137.5t-112.5 354.5v138zM279 471q0 -148 54 -243t165 -95q108 0 162.5 95t54.5 243v138q0 146 -54.5 241.5t-163.5 95.5q-110 0 -164 -95 t-54 -242v-138z" />
<glyph unicode="&#x3c0;" horiz-adv-x="1097" d="M1000 930h-119v-644q0 -84 21.5 -117t61.5 -33q23 0 39 4.5t42 15.5l30 -138q-39 -22 -75 -30.5t-81 -8.5q-118 0 -179.5 75t-61.5 239v637h-281v-930h-202v930h-120v152h925v-152z" />
<glyph unicode="&#x3c1;" d="M914 507q0 -240 -93 -384t-260 -144q-78 0 -138.5 29.5t-103.5 85.5v-510h-203v1001h2l-2 4q0 239 110 376t289 137q192 0 295.5 -156.5t103.5 -417.5v-21zM711 528q0 187 -49 302.5t-153 115.5q-94 0 -142 -111t-48 -258v-318q27 -61 73 -93.5t113 -32.5 q105 0 155.5 101.5t50.5 272.5v21z" />
<glyph unicode="&#x3c2;" horiz-adv-x="926" d="M488 1102q163 0 263 -105.5t97 -288.5l-2 -5h-184q0 111 -44.5 177t-129.5 66q-107 0 -158 -111.5t-51 -275.5v-38q0 -156 63 -255t195 -120q152 -23 224.5 -78.5t72.5 -172.5q-2 -111 -72.5 -196t-177.5 -123l-73 131q52 26 90.5 69.5t38.5 106.5q0 49 -35 75.5 t-109 39.5q-209 29 -314.5 164.5t-105.5 358.5v38q0 234 109 388.5t303 154.5z" />
<glyph unicode="&#x3c3;" horiz-adv-x="1002" d="M978 925h-238q78 -69 124.5 -174t46.5 -229v-26q0 -221 -112 -369t-302 -148q-197 0 -309 152.5t-112 394.5v27q0 233 112 381t308 148h482v-157zM278 526q0 -173 54 -283t165 -110q105 0 158 110.5t53 282.5v27q0 161 -53 266.5t-159 105.5q-110 0 -164 -105.5 t-54 -266.5v-27z" />
<glyph unicode="&#x3c4;" horiz-adv-x="922" d="M861 927h-300v-927h-204v927h-294v155h798v-155z" />
<glyph unicode="&#x3c5;" d="M318 1082v-609q0 -177 51 -258.5t137 -81.5q105 0 153.5 121t48.5 296q-3 134 -27.5 266.5t-66.5 265.5h201q43 -112 69.5 -241.5t26.5 -290.5q0 -257 -94.5 -414t-302.5 -157q-189 0 -293.5 122t-104.5 374v607h202z" />
<glyph unicode="&#x3c6;" horiz-adv-x="1274" d="M731 1082q211 0 340.5 -160t129.5 -394q0 -217 -114 -367t-356 -176v-463h-203v464q-240 28 -350.5 187t-110.5 395q0 156 28.5 281t77.5 233h196q-45 -130 -71 -258t-28 -256q0 -159 60 -273t192 -141l6 2v926h203zM731 153l6 -2q134 23 197.5 127.5t63.5 249.5 q-2 165 -71.5 280t-189.5 109l-6 -1v-763z" />
<glyph unicode="&#x3c7;" horiz-adv-x="958" d="M166 1095q117 0 180.5 -78t99.5 -186l68 -194h6l185 445h206l-299 -720l166 -469q22 -72 47.5 -113.5t61.5 -44.5h20.5t21.5 2l-5 -156q-18 -6 -42.5 -9t-44.5 -3q-96 4 -154 77t-97 208l-82 232h-6l-208 -501h-206l322 777l-143 407q-24 75 -62 121.5t-87 46.5 q-10 0 -25.5 -2t-31.5 -4l-3 149q28 6 56 10.5t56 4.5z" />
<glyph unicode="&#x3c8;" horiz-adv-x="1269" d="M726 1081v-926l6 -2q134 27 197.5 145t63.5 281q-2 124 -28 249t-71 254h197q47 -104 76 -227t29 -276q0 -245 -112.5 -406.5t-357.5 -188.5v-446h-203v448q-214 28 -330.5 177.5t-116.5 428.5v490h204v-492q0 -197 64 -304t173 -129l6 1v923h203z" />
<glyph unicode="&#x3c9;" horiz-adv-x="1499" d="M419 1082q-58 -133 -91.5 -265.5t-36.5 -266.5q0 -183 41.5 -299t130.5 -111l6 -1q78 -5 126.5 77.5t48.5 262.5v311h210v-311q0 -180 47.5 -262.5t126.5 -77.5l6 1q89 -5 130.5 110.5t41.5 299.5q-4 135 -37.5 268t-90.5 264h201q59 -111 94.5 -240.5t35.5 -291.5 q0 -257 -88.5 -414t-281.5 -157q-103 0 -177 56t-114 166q-40 -110 -114 -166t-176 -56q-194 0 -281.5 157t-87.5 414q0 163 35 293t95 239h200z" />
<glyph unicode="&#x3ca;" horiz-adv-x="584" d="M350 1081v-795q0 -84 21.5 -117t61.5 -33q23 0 39 4.5t42 15.5l30 -138q-39 -22 -75 -30.5t-81 -8.5q-118 0 -179.5 75t-61.5 239v788h203zM577 1273h-207v185h207v-185zM149 1273h-208v185h208v-185z" />
<glyph unicode="&#x3cb;" d="M318 1082v-609q0 -177 51 -258.5t137 -81.5q105 0 153.5 121t48.5 296q-3 134 -27.5 266.5t-66.5 265.5h201q43 -112 69.5 -241.5t26.5 -290.5q0 -257 -94.5 -414t-302.5 -157q-189 0 -293.5 122t-104.5 374v607h202zM831 1274h-207v185h207v-185zM403 1274h-208v185h208 v-185z" />
<glyph unicode="&#x3cc;" d="M76 609q0 215 112.5 354t308.5 139q195 0 308 -138.5t113 -354.5v-138q0 -217 -112.5 -354.5t-307.5 -137.5q-197 0 -309.5 137.5t-112.5 354.5v138zM279 471q0 -148 54 -243t165 -95q108 0 162.5 95t54.5 243v138q0 146 -54.5 241.5t-163.5 95.5q-110 0 -164 -95 t-54 -242v-138zM485 1606h203l-163 -356h-100z" />
<glyph unicode="&#x3cd;" d="M318 1082v-609q0 -177 51 -258.5t137 -81.5q105 0 153.5 121t48.5 296q-3 134 -27.5 266.5t-66.5 265.5h201q43 -112 69.5 -241.5t26.5 -290.5q0 -257 -94.5 -414t-302.5 -157q-189 0 -293.5 122t-104.5 374v607h202zM499 1585h203l-163 -356h-100z" />
<glyph unicode="&#x3ce;" horiz-adv-x="1499" d="M419 1082q-58 -133 -91.5 -265.5t-36.5 -266.5q0 -183 41.5 -299t130.5 -111l6 -1q78 -5 126.5 77.5t48.5 262.5v311h210v-311q0 -180 47.5 -262.5t126.5 -77.5l6 1q89 -5 130.5 110.5t41.5 299.5q-4 135 -37.5 268t-90.5 264h201q59 -111 94.5 -240.5t35.5 -291.5 q0 -257 -88.5 -414t-281.5 -157q-103 0 -177 56t-114 166q-40 -110 -114 -166t-176 -56q-194 0 -281.5 157t-87.5 414q0 163 35 293t95 239h200zM735 1585h203l-163 -356h-100z" />
<glyph unicode="&#x3d1;" horiz-adv-x="1144" d="M585 139q127 0 199.5 111.5t72.5 312.5v9q-175 12 -285.5 135t-110.5 308v74q0 176 85 282t220 106q139 0 219 -103.5t80 -284.5v-526q0 -268 -131.5 -426t-348.5 -158q-213 0 -344.5 164t-131.5 420v689l210 2v-691q0 -190 71.5 -307t194.5 -117zM657 1013 q0 -117 52 -195.5t142 -84.5l6 2v363q0 106 -24.5 158.5t-69.5 48.5h-6q-45 4 -72.5 -49t-27.5 -158v-85z" />
<glyph unicode="&#x3d2;" horiz-adv-x="988" d="M650 1227q48 134 106 189t149 55q25 0 47 -6t43 -18l-21 -149q-5 3 -17 6.5t-23 3.5q-32 0 -56 -25t-39 -84l-247 -645v-554h-202v564l-244 635q-16 59 -40 84t-56 25q-11 0 -23.5 -3.5t-16.5 -6.5l-18 149q18 12 40 18t48 6q90 0 148 -54t106 -188l139 -407l16 -73h6 l17 73z" />
<glyph unicode="&#x3d6;" horiz-adv-x="1415" d="M1385 934h-122q28 -85 44 -180t16 -204q0 -257 -79.5 -414t-253.5 -157q-99 0 -171 55t-110 163q-39 -108 -110.5 -163t-169.5 -55q-174 0 -253.5 157.5t-79.5 413.5q0 109 15 204t44 180h-109v148h1339v-148zM1120 550q-2 96 -19 192t-47 192h-691q-29 -96 -45.5 -192 t-18.5 -192q0 -183 32.5 -299t103.5 -110l6 -1q73 -6 118.5 76.5t45.5 262.5v244h210v-244q0 -180 45 -262.5t119 -76.5l6 1q69 -6 102 110t33 299z" />
<glyph unicode="&#x400;" horiz-adv-x="1018" d="M884 676h-540v-522h626v-154h-829v1456h823v-156h-620v-469h540v-155zM629 1561h-170l-228 261l2 5h227z" />
<glyph unicode="&#x401;" horiz-adv-x="1018" d="M884 676h-540v-522h626v-154h-829v1456h823v-156h-620v-469h540v-155zM847 1617h-207v185h207v-185zM419 1617h-208v185h208v-185z" />
<glyph unicode="&#x402;" horiz-adv-x="1313" d="M997 1300h-423v-458q65 22 122 35t105 13q209 0 327.5 -117.5t118.5 -341.5q0 -199 -109.5 -320.5t-326.5 -117.5l-6 2v139q133 0 186.5 78.5t53.5 214.5q-1 147 -63 224.5t-181 77.5q-55 0 -112.5 -11t-114.5 -30v-688h-204v1300h-332v156h959v-156z" />
<glyph unicode="&#x403;" horiz-adv-x="980" d="M920 1300h-576v-1300h-203v1456h779v-156zM599 1824h226l2 -5l-238 -261h-162z" />
<glyph unicode="&#x404;" horiz-adv-x="1144" d="M1006 443l3 -6q-1 -218 -116 -337.5t-325 -119.5q-214 0 -342 144t-128 402v404q0 258 126.5 403t337.5 145q214 0 329 -117t118 -342l-3 -6h-192q-3 159 -63 234t-189 75q-125 0 -194 -101t-69 -288v-120h440v-155h-440v-132q0 -190 70.5 -291t198.5 -101 q126 0 184.5 73.5t60.5 235.5h193z" />
<glyph unicode="&#x405;" horiz-adv-x="1087" d="M807 366q0 103 -58 169t-203 116q-208 63 -319 164.5t-111 268.5q0 172 123.5 282.5t317.5 110.5q202 0 325.5 -127.5t119.5 -307.5l-2 -6h-195q0 127 -65.5 206.5t-184.5 79.5q-113 0 -174.5 -66.5t-61.5 -169.5q0 -93 66 -156.5t218 -115.5q199 -62 303 -169t104 -277 q0 -179 -123 -284t-323 -105q-195 0 -340.5 115.5t-140.5 325.5l2 6h195q0 -150 78.5 -222t205.5 -72q114 0 178.5 63.5t64.5 170.5z" />
<glyph unicode="&#x406;" horiz-adv-x="513" d="M357 0h-202v1456h202v-1456z" />
<glyph unicode="&#x407;" horiz-adv-x="513" d="M357 0h-202v1456h202v-1456zM577 1617h-207v185h207v-185zM149 1617h-208v185h208v-185z" />
<glyph unicode="&#x408;" horiz-adv-x="989" d="M651 1456h202v-1039q0 -201 -110 -319.5t-282 -118.5q-185 0 -293.5 107.5t-104.5 315.5l3 6h195q0 -138 53.5 -206.5t146.5 -68.5q82 0 136 77t54 207v1039z" />
<glyph unicode="&#x409;" horiz-adv-x="1865" d="M1099 1456v-567h257q204 0 321 -124t117 -320q0 -198 -117 -321.5t-321 -123.5h-459v1300h-380l-1 -512q-2 -415 -104.5 -601.5t-325.5 -186.5h-39v154h33q129 0 180.5 139t52.5 495l2 668h784zM1099 735v-581h257q115 0 175.5 84.5t60.5 208.5q0 119 -61 203.5 t-175 84.5h-257z" />
<glyph unicode="&#x40a;" horiz-adv-x="1870" d="M344 814h558v642h202v-595h257q204 0 321.5 -118.5t117.5 -309.5q0 -192 -117.5 -312.5t-321.5 -120.5h-459v659h-558v-659h-203v1456h203v-642zM1104 706v-546h257q115 0 176 78.5t61 196.5q0 114 -61 192.5t-176 78.5h-257z" />
<glyph unicode="&#x40b;" horiz-adv-x="1390" d="M999 1300h-424v-437q56 14 117 22.5t123 8.5q215 0 329.5 -109t114.5 -347v-438h-202v438q0 166 -58.5 233.5t-183.5 67.5q-57 0 -119 -8.5t-121 -23.5v-707h-204v1300h-321v156h949v-156z" />
<glyph unicode="&#x40c;" horiz-adv-x="1131" d="M483 653h-139v-653h-203v1456h203v-640h121l385 640h242l-458 -691l493 -765h-248zM591 1824h226l2 -5l-238 -261h-162z" />
<glyph unicode="&#x40d;" horiz-adv-x="1241" d="M897 1456h203v-1456h-203v1062l-6 2l-551 -1064h-203v1456h203v-1061l6 -2zM721 1561h-170l-228 261l2 5h227z" />
<glyph unicode="&#x40e;" horiz-adv-x="1107" d="M533 737l34 -104h6l265 823h222l-428 -1202q-56 -133 -121.5 -204t-195.5 -71q-21 0 -48.5 3t-37.5 6l1 150q8 -3 33 -4t40 -1q64 0 96 42t59 124l28 78l-429 1079h221zM832 1872l2 -6q4 -118 -72.5 -192t-206.5 -74q-131 0 -207.5 74t-71.5 192l2 6h151q0 -66 30.5 -108 t95.5 -42q62 0 92.5 42t30.5 108h154z" />
<glyph unicode="&#x40f;" horiz-adv-x="1240" d="M135 1456h203v-1302h558v1302h203v-1456h-372v-356h-203v356h-389v1456z" />
<glyph unicode="&#x410;" horiz-adv-x="1137" d="M803 368h-464l-106 -368h-206l448 1456h196l444 -1456h-206zM386 529h371l-182 636h-6z" />
<glyph unicode="&#x411;" horiz-adv-x="1105" d="M912 1300h-576v-438h256q206 0 323 -116.5t117 -310.5q0 -197 -117.5 -316t-322.5 -119h-459v1456h779v-156zM336 707v-553h256q117 0 177 80t60 203q0 117 -60 193.5t-177 76.5h-256z" />
<glyph unicode="&#x412;" horiz-adv-x="1122" d="M141 0v1456h406q206 0 321.5 -98t115.5 -294q0 -104 -52.5 -183.5t-145.5 -116.5q118 -26 181.5 -123.5t63.5 -228.5q0 -201 -113.5 -306.5t-313.5 -105.5h-463zM344 679v-525h260q108 0 166.5 66.5t58.5 190.5q0 123 -50 195.5t-154 72.5h-281zM344 825h223 q100 0 157 60.5t57 174.5q0 120 -59.5 180t-174.5 60h-203v-475z" />
<glyph unicode="&#x413;" horiz-adv-x="980" d="M920 1300h-576v-1300h-203v1456h779v-156z" />
<glyph unicode="&#x414;" horiz-adv-x="1315" d="M1251 -355h-184v355h-823v-356h-182l-21 510h98q64 71 117.5 246.5t61.5 490.5l31 565h767v-1302h154zM522 891q-9 -252 -55.5 -437t-118.5 -300h566v1146h-371z" />
<glyph unicode="&#x415;" horiz-adv-x="1018" d="M884 676h-540v-522h626v-154h-829v1456h823v-156h-620v-469h540v-155z" />
<glyph unicode="&#x416;" horiz-adv-x="1664" d="M1073 661h-134v-661h-202v661h-139l-318 -661h-253l410 781l-383 675h245l304 -632h134v632h202v-632h130l301 632h245l-380 -673l407 -783h-252z" />
<glyph unicode="&#x417;" horiz-adv-x="1064" d="M529 819q117 0 173 65.5t56 182.5q0 112 -61.5 183t-180.5 71q-96 0 -160.5 -70t-64.5 -180h-195l-2 6q-5 178 118.5 289t303.5 111q206 0 325.5 -107t119.5 -305q0 -103 -54.5 -187.5t-149.5 -131.5q108 -41 165.5 -128.5t57.5 -215.5q0 -199 -128.5 -311t-335.5 -112 q-181 0 -312.5 107t-126.5 312l2 6h195q0 -116 67.5 -193.5t174.5 -77.5q122 0 191.5 73t69.5 194q0 136 -62.5 200.5t-185.5 64.5h-145v154h145z" />
<glyph unicode="&#x418;" horiz-adv-x="1241" d="M897 1456h203v-1456h-203v1062l-6 2l-551 -1064h-203v1456h203v-1061l6 -2z" />
<glyph unicode="&#x419;" horiz-adv-x="1241" d="M897 1456h203v-1456h-203v1062l-6 2l-551 -1064h-203v1456h203v-1061l6 -2zM898 1872l2 -6q4 -118 -72.5 -192t-206.5 -74q-131 0 -207.5 74t-71.5 192l2 6h151q0 -66 30.5 -108t95.5 -42q62 0 92.5 42t30.5 108h154z" />
<glyph unicode="&#x41a;" horiz-adv-x="1131" d="M483 653h-139v-653h-203v1456h203v-640h121l385 640h242l-458 -691l493 -765h-248z" />
<glyph unicode="&#x41b;" horiz-adv-x="1241" d="M1099 1456v-1456h-202v1300h-404l-2 -512q-1 -416 -94.5 -602t-299.5 -186h-51v154h34q117 2 162.5 139.5t46.5 494.5l2 668h808z" />
<glyph unicode="&#x41c;" horiz-adv-x="1483" d="M397 1456l340 -1188h6l341 1188h262v-1456h-201v559l18 560l-6 1l-350 -1120h-134l-349 1119l-6 -1l19 -559v-559h-201v1456h261z" />
<glyph unicode="&#x41d;" horiz-adv-x="1246" d="M1104 0h-202v642h-558v-642h-203v1456h203v-659h558v659h202v-1456z" />
<glyph unicode="&#x41e;" horiz-adv-x="1160" d="M1068 527q0 -259 -134 -403.5t-359 -144.5q-222 0 -353 144.5t-131 403.5v400q0 258 131.5 404t352.5 146q224 0 358.5 -146t134.5 -404v-400zM866 930q0 190 -76 288.5t-215 98.5q-137 0 -210 -98.5t-73 -288.5v-403q0 -192 73.5 -291t209.5 -99q140 0 215.5 98.5 t75.5 291.5v403z" />
<glyph unicode="&#x41f;" horiz-adv-x="1247" d="M1105 0h-202v1300h-559v-1300h-203v1456h964v-1456z" />
<glyph unicode="&#x420;" horiz-adv-x="1132" d="M344 574v-574h-203v1456h478q204 0 320 -121.5t116 -319.5q0 -199 -116 -320t-320 -121h-275zM344 730h275q115 0 174 80.5t59 202.5q0 124 -58.5 205.5t-174.5 81.5h-275v-570z" />
<glyph unicode="&#x421;" horiz-adv-x="1084" d="M1002 442l3 -6q-1 -218 -116 -337.5t-325 -119.5q-214 0 -342 144t-128 402v404q0 258 126.5 403t337.5 145q214 0 329 -117t118 -342l-3 -6h-192q-3 159 -63 234t-189 75q-125 0 -194 -101t-69 -288v-407q0 -190 70.5 -291t198.5 -101q126 0 184.5 73.5t60.5 235.5h193z " />
<glyph unicode="&#x422;" horiz-adv-x="1018" d="M984 1300h-374v-1300h-203v1300h-372v156h949v-156z" />
<glyph unicode="&#x423;" horiz-adv-x="1107" d="M533 737l34 -104h6l265 823h222l-428 -1202q-56 -133 -121.5 -204t-195.5 -71q-21 0 -48.5 3t-37.5 6l1 150q8 -3 33 -4t40 -1q64 0 96 42t59 124l28 78l-429 1079h221z" />
<glyph unicode="&#x424;" horiz-adv-x="1395" d="M802 1314h12q222 0 367.5 -165t145.5 -422q0 -258 -145.5 -422.5t-367.5 -164.5h-12v-200h-202v200h-14q-223 0 -367 163.5t-144 421.5t144 423.5t367 165.5h14v202h202v-202zM586 1155q-146 0 -229 -117t-83 -313t83 -311t229 -115h14v856h-14zM802 1155v-856h14 q144 0 227.5 116t83.5 312q0 195 -83 311.5t-228 116.5h-14z" />
<glyph unicode="&#x425;" horiz-adv-x="1112" d="M553 888h6l260 568h239l-379 -721l395 -735h-243l-269 582h-6l-268 -582h-240l388 735l-378 721h237z" />
<glyph unicode="&#x426;" horiz-adv-x="1306" d="M135 1456h203v-1302h557v1302h203v-1300h146l-16 -507h-185v351h-908v1456z" />
<glyph unicode="&#x427;" horiz-adv-x="1211" d="M1069 1456v-1456h-203v611q-68 -22 -141 -34t-149 -12q-216 0 -330.5 108.5t-114.5 348.5v434h202v-434q0 -168 58 -235t185 -67q69 0 145.5 12.5t144.5 34.5v689h203z" />
<glyph unicode="&#x428;" horiz-adv-x="1661" d="M343 1456v-1302h388v1302h202v-1302h385v1302h203v-1456h-1381v1456h203z" />
<glyph unicode="&#x429;" horiz-adv-x="1743" d="M343 1456v-1302h388v1302h202v-1302h385v1302h203v-1302h150l-16 -505h-185v351h-1330v1456h203z" />
<glyph unicode="&#x42a;" horiz-adv-x="1343" d="M26 1456h548v-594h256q206 0 323 -116.5t117 -310.5q0 -197 -117.5 -316t-322.5 -119h-458v1301h-346v155zM574 707v-553h256q117 0 177 80t60 203q0 117 -60 193.5t-177 76.5h-256z" />
<glyph unicode="&#x42b;" horiz-adv-x="1520" d="M344 862h256q206 0 323 -116.5t117 -310.5q0 -197 -117.5 -316t-322.5 -119h-458v1456h202v-594zM1376 0h-202v1456h202v-1456zM344 707v-553h256q117 0 177 80t60 203q0 117 -60 193.5t-177 76.5h-256z" />
<glyph unicode="&#x42c;" horiz-adv-x="1101" d="M336 862h256q206 0 323 -116.5t117 -310.5q0 -197 -117.5 -316t-322.5 -119h-458v1456h202v-594zM336 707v-553h256q117 0 177 80t60 203q0 117 -60 193.5t-177 76.5h-256z" />
<glyph unicode="&#x42d;" horiz-adv-x="1142" d="M125 989l-3 6q-4 217 120 350t335 133t340.5 -174t129.5 -446v-260q0 -273 -129.5 -445.5t-340.5 -172.5q-214 0 -337 127t-119 353l3 6h195q0 -161 65.5 -246.5t192.5 -85.5q126 0 196.5 129t70.5 333v77h-444v154h444v31q0 205 -70.5 334.5t-196.5 129.5 q-127 0 -192.5 -85.5t-65.5 -247.5h-194z" />
<glyph unicode="&#x42e;" horiz-adv-x="1612" d="M1492 527q0 -259 -134 -403.5t-359 -144.5q-222 0 -353 144.5t-131 403.5v103h-161v-630h-202v1456h202v-671h161v142q0 258 131.5 404t352.5 146q224 0 358.5 -146t134.5 -404v-400zM1290 930q0 190 -76 288.5t-215 98.5q-137 0 -210 -98.5t-73 -288.5v-403 q0 -192 73.5 -291t209.5 -99q140 0 215.5 98.5t75.5 291.5v403z" />
<glyph unicode="&#x42f;" horiz-adv-x="1085" d="M258 0h-218l280 633q-109 55 -165 151t-56 231q0 210 117.5 325.5t325.5 115.5h410v-1456h-203v568h-245zM749 1300h-207q-119 0 -179.5 -75.5t-60.5 -212.5q0 -131 61 -211.5t176 -80.5h210v580z" />
<glyph unicode="&#x430;" horiz-adv-x="955" d="M667 0q-11 37 -18 72.5t-9 71.5q-45 -73 -113 -119t-151 -46q-137 0 -214.5 86.5t-77.5 231.5q0 155 105.5 243.5t296.5 88.5h151v111q0 99 -44 154.5t-125 55.5q-73 0 -117.5 -50t-44.5 -125l-193 1l-3 6q-5 125 100 222.5t271 97.5q160 0 259.5 -94.5t99.5 -269.5v-502 q0 -63 7.5 -121.5t24.5 -114.5h-205zM422 135q71 0 129.5 42t85.5 105v221h-154q-93 0 -144.5 -59.5t-51.5 -145.5q0 -73 35 -118t100 -45z" />
<glyph unicode="&#x431;" horiz-adv-x="989" d="M530 1016q184 0 290 -137.5t106 -354.5v-27q0 -230 -112.5 -374t-308.5 -144t-308 144t-112 374v149q0 327 115.5 519.5t303.5 232.5q95 22 139.5 55t44.5 101h156l2 -6q4 -165 -74.5 -223.5t-247.5 -87.5q-104 -19 -173 -102t-88 -231l3 -5q49 52 118 84.5t146 32.5z M504 861q-109 0 -163 -96t-54 -241v-27q0 -159 54 -261.5t164 -102.5q109 0 163.5 102.5t54.5 261.5v27q0 146 -54.5 241.5t-164.5 95.5z" />
<glyph unicode="&#x432;" horiz-adv-x="1000" d="M129 0v1082h370q180 0 281 -74.5t101 -221.5q0 -78 -43.5 -139t-123.5 -91q100 -23 153.5 -91.5t53.5 -159.5q0 -151 -95 -228t-269 -77h-428zM331 476v-324h226q80 0 121 41.5t41 121.5q0 76 -40.5 118.5t-121.5 42.5h-226zM331 619h181q83 1 125 39.5t42 112.5 q0 79 -45 117.5t-135 38.5h-168v-308z" />
<glyph unicode="&#x433;" horiz-adv-x="743" d="M721 925h-400v-925h-202v1082h602v-157z" />
<glyph unicode="&#x434;" horiz-adv-x="1086" d="M116 154q77 89 111.5 201t42.5 339l9 388h633v-928h125l-16 -474h-186v320h-589v-320h-186l-18 474h74zM472 694q-8 -187 -46.5 -319.5t-100.5 -220.5h385v761h-233z" />
<glyph unicode="&#x435;" horiz-adv-x="930" d="M507 -21q-193 0 -309 134t-116 343v158q0 212 113.5 350t288.5 138q184 0 283 -125.5t99 -337.5v-140h-582v-43q0 -140 61.5 -231.5t174.5 -91.5q84 0 144 26.5t114 77.5l64 -126q-51 -58 -137 -95t-198 -37zM484 946q-88 0 -141 -85.5t-59 -216.5h381v41q0 115 -46 188 t-135 73z" />
<glyph unicode="&#x436;" horiz-adv-x="1424" d="M918 462h-106v-462h-202v462h-105l-220 -462h-257l321 586l-299 496h252l211 -447h97v447h202v-447h100l211 447h251l-299 -496l321 -586h-258z" />
<glyph unicode="&#x437;" horiz-adv-x="901" d="M457 624q78 0 113 41t35 118q0 73 -36.5 120t-115.5 47q-70 0 -116.5 -47.5t-46.5 -121.5h-194l-2 6q-5 139 98 226t254 87q169 0 265.5 -81t96.5 -230q0 -75 -39 -136.5t-108 -96.5q80 -31 122 -96t42 -158q0 -150 -104.5 -235.5t-274.5 -85.5q-151 0 -261 85t-105 244 l2 6h194q0 -79 48 -133t129 -54q83 0 126 49.5t43 128.5q0 89 -40.5 130.5t-124.5 41.5h-143v145h143z" />
<glyph unicode="&#x438;" horiz-adv-x="1006" d="M684 1082h202v-1082h-202v734l-6 1l-356 -735h-203v1082h203v-733l6 -1z" />
<glyph unicode="&#x439;" horiz-adv-x="1006" d="M684 1082h202v-1082h-202v734l-6 1l-356 -735h-203v1082h203v-733l6 -1zM780 1529l2 -6q4 -118 -72.5 -192t-206.5 -74q-131 0 -207.5 74t-71.5 192l2 6h151q0 -66 30.5 -108t95.5 -42q62 0 92.5 42t30.5 108h154z" />
<glyph unicode="&#x43a;" horiz-adv-x="973" d="M432 457h-101v-457h-203v1082h203v-453h96l249 453h253l-336 -507l364 -575h-264z" />
<glyph unicode="&#x43b;" horiz-adv-x="1008" d="M888 1082v-1082h-203v925h-270v-312q0 -319 -76.5 -466t-262.5 -147h-43v162l31 1q87 0 117.5 97t30.5 353v469h676z" />
<glyph unicode="&#x43c;" horiz-adv-x="1317" d="M653 248h6l271 834h254v-1082h-204v706l-6 1l-249 -707h-138l-250 714l-6 -1v-713h-202v1082h255z" />
<glyph unicode="&#x43d;" horiz-adv-x="1006" d="M885 0h-203v462h-360v-462h-203v1082h203v-466h360v466h203v-1082z" />
<glyph unicode="&#x43e;" d="M76 609q0 215 112.5 354t308.5 139q195 0 308 -138.5t113 -354.5v-138q0 -217 -112.5 -354.5t-307.5 -137.5q-197 0 -309.5 137.5t-112.5 354.5v138zM279 471q0 -148 54 -243t165 -95q108 0 162.5 95t54.5 243v138q0 146 -54.5 241.5t-163.5 95.5q-110 0 -164 -95 t-54 -242v-138z" />
<glyph unicode="&#x43f;" horiz-adv-x="1006" d="M886 0h-203v925h-361v-925h-203v1082h767v-1082z" />
<glyph unicode="&#x440;" d="M916 451q0 -214 -94 -343t-261 -129q-79 0 -139 31t-103 91v-517h-203v1498h181l13 -124q43 69 105 106.5t144 37.5q169 0 263 -142t94 -376v-133zM713 584q0 159 -52.5 259.5t-156.5 100.5q-65 0 -111 -37t-74 -101v-547q27 -61 73 -93.5t113 -32.5q105 0 156.5 87.5 t51.5 230.5v133z" />
<glyph unicode="&#x441;" horiz-adv-x="921" d="M492 133q76 0 128 58.5t52 156.5h182l2 -6q4 -153 -103.5 -258t-260.5 -105q-202 0 -309.5 137t-107.5 349v149q0 212 107.5 350t308.5 138q164 0 266.5 -109.5t99.5 -283.5l-3 -6h-182q0 108 -49.5 175.5t-131.5 67.5q-116 0 -164.5 -94t-48.5 -238v-149 q0 -146 48.5 -239t165.5 -93z" />
<glyph unicode="&#x442;" horiz-adv-x="878" d="M837 927h-300v-927h-204v927h-294v155h798v-155z" />
<glyph unicode="&#x443;" horiz-adv-x="892" d="M420 373l15 -71h6l208 780h221l-379 -1250q-38 -112 -103 -190.5t-187 -78.5q-25 0 -53.5 5.5t-56.5 12.5l22 150q11 -2 30 -4t30 -2q59 0 93.5 50.5t53.5 119.5l36 110l-334 1077h220z" />
<glyph unicode="&#x444;" horiz-adv-x="1277" d="M78 528q0 261 87 417.5t249 156.5q32 0 61.5 -6.5t56.5 -17.5v482h204v-485q27 13 59 20t68 7q161 0 248 -156.5t87 -417.5v-21q0 -241 -87.5 -384.5t-246.5 -143.5q-37 0 -69 6.5t-59 18.5v-420h-204v418q-27 -11 -57 -17t-63 -6q-159 0 -246.5 144t-87.5 384v21z M995 528q0 186 -46 302t-142 116q-21 0 -38.5 -3t-32.5 -9v-791q14 -6 32 -8t41 -2q96 0 141 101.5t45 272.5v21zM281 507q0 -172 43 -273t139 -101q19 0 36.5 2t32.5 7v794q-15 4 -32 7t-35 3q-97 0 -140.5 -115t-43.5 -303v-21z" />
<glyph unicode="&#x445;" horiz-adv-x="892" d="M440 687h6l170 395h232l-287 -534l297 -548h-231l-177 408h-6l-178 -408h-231l296 548l-287 534h230z" />
<glyph unicode="&#x446;" horiz-adv-x="1057" d="M119 1082h203v-928h361v928h203v-928h124l-15 -475h-187v321h-689v1082z" />
<glyph unicode="&#x447;" horiz-adv-x="967" d="M846 0h-202v392q-42 -13 -84.5 -19.5t-82.5 -6.5q-188 0 -288.5 99t-100.5 311v306h202v-306q0 -140 44.5 -197.5t142.5 -57.5q43 0 84 7.5t83 21.5v532h202v-1082z" />
<glyph unicode="&#x448;" horiz-adv-x="1434" d="M322 1082v-928h292v928h203v-928h292v928h202v-1082h-1192v1082h203z" />
<glyph unicode="&#x449;" horiz-adv-x="1517" d="M316 1082v-928h292v928h203v-928h292v928h202v-928h158l-16 -475h-186v321h-1148v1082h203z" />
<glyph unicode="&#x44a;" horiz-adv-x="1125" d="M503 717h202q173 0 271.5 -99.5t98.5 -257.5q0 -159 -98.5 -259.5t-271.5 -100.5h-404v927h-266v155h468v-365zM503 561v-407h202q85 0 126 57t41 145q0 85 -41 145t-126 60h-202z" />
<glyph unicode="&#x44b;" horiz-adv-x="1409" d="M331 717h202q173 0 271.5 -99.5t98.5 -257.5q0 -159 -98.5 -259.5t-271.5 -100.5h-404v1082h202v-365zM1262 0h-203v1082h203v-1082zM331 561v-407h202q85 0 126 57t41 145q0 85 -41 145t-126 60h-202z" />
<glyph unicode="&#x44c;" horiz-adv-x="970" d="M331 717h202q173 0 271.5 -99.5t98.5 -257.5q0 -159 -98.5 -259.5t-271.5 -100.5h-404v1082h202v-365zM331 561v-407h202q85 0 126 57t41 145q0 85 -41 145t-126 60h-202z" />
<glyph unicode="&#x44d;" horiz-adv-x="931" d="M441 946q-74 0 -123.5 -58.5t-49.5 -155.5h-184l-3 6q-4 151 103 257.5t257 106.5q193 0 302.5 -154.5t109.5 -388.5v-38q0 -235 -109.5 -388.5t-301.5 -153.5q-163 0 -264 109t-97 284l2 5h185q0 -110 47.5 -177t126.5 -67q98 0 149 97t58 248h-294v139h293 q-9 145 -59.5 237t-147.5 92z" />
<glyph unicode="&#x44e;" horiz-adv-x="1427" d="M333 622h172q3 210 115.5 345t305.5 135q195 0 308 -138.5t113 -354.5v-138q0 -217 -112.5 -354.5t-307.5 -137.5q-196 0 -309 136.5t-113 352.5h-172v-468h-203v1082h203v-460zM708 471q0 -148 54 -243t165 -95q108 0 162.5 95t54.5 243v138q0 146 -54.5 241.5 t-163.5 95.5q-110 0 -164 -95t-54 -242v-138z" />
<glyph unicode="&#x44f;" horiz-adv-x="976" d="M846 1082v-1082h-202v413h-181l-208 -413h-210l225 446q-90 39 -138.5 117.5t-48.5 181.5q0 148 99.5 242.5t270.5 94.5h393zM286 741q0 -75 40 -128.5t116 -53.5h202v368h-191q-82 0 -124.5 -54.5t-42.5 -131.5z" />
<glyph unicode="&#x450;" horiz-adv-x="930" d="M507 -21q-193 0 -309 134t-116 343v158q0 212 113.5 350t288.5 138q184 0 283 -125.5t99 -337.5v-140h-582v-43q0 -140 61.5 -231.5t174.5 -91.5q84 0 144 26.5t114 77.5l64 -126q-51 -58 -137 -95t-198 -37zM484 946q-88 0 -141 -85.5t-59 -216.5h381v41q0 115 -46 188 t-135 73zM575 1240h-170l-228 261l2 5h227z" />
<glyph unicode="&#x451;" horiz-adv-x="930" d="M507 -21q-193 0 -309 134t-116 343v158q0 212 113.5 350t288.5 138q184 0 283 -125.5t99 -337.5v-140h-582v-43q0 -140 61.5 -231.5t174.5 -91.5q84 0 144 26.5t114 77.5l64 -126q-51 -58 -137 -95t-198 -37zM484 946q-88 0 -141 -85.5t-59 -216.5h381v41q0 115 -46 188 t-135 73zM793 1296h-207v185h207v-185zM365 1296h-208v185h208v-185z" />
<glyph unicode="&#x452;" horiz-adv-x="996" d="M535 1213h-219v-276q45 78 111 121.5t147 43.5q146 0 227 -108t81 -332v-211h1v-525q0 -174 -79 -268.5t-219 -94.5q-31 0 -56.5 4.5t-54.5 13.5l12 151q16 -5 41 -9.5t44 -4.5q51 0 80 55t29 153v74h-1v664q0 149 -43.5 214.5t-129.5 65.5q-62 0 -110.5 -35.5 t-79.5 -97.5v-811h-203v1213h-133v141h133v206h203v-206h219v-141z" />
<glyph unicode="&#x453;" horiz-adv-x="743" d="M721 925h-400v-925h-202v1082h602v-157zM440 1481h226l2 -5l-238 -261h-162z" />
<glyph unicode="&#x454;" horiz-adv-x="932" d="M498 133q76 0 128 58.5t52 156.5h182l2 -6q4 -153 -103.5 -258t-260.5 -105q-202 0 -309.5 137t-107.5 349v149q0 212 107.5 350t308.5 138q164 0 266.5 -109.5t99.5 -283.5l-3 -6h-182q0 108 -49.5 175.5t-131.5 67.5q-116 0 -164.5 -94t-48.5 -238v-7h297v-139h-297v-3 q0 -146 48.5 -239t165.5 -93z" />
<glyph unicode="&#x455;" horiz-adv-x="891" d="M620 271q0 63 -41.5 106.5t-156.5 95.5q-167 65 -247.5 138.5t-80.5 190.5q0 125 98.5 212.5t258.5 87.5q167 0 266 -94.5t95 -235.5l-2 -6h-195q0 77 -43.5 132.5t-120.5 55.5q-76 0 -118.5 -43t-42.5 -101q0 -62 36.5 -98t157.5 -94q170 -61 252.5 -138.5t82.5 -198.5 q0 -134 -102 -218t-268 -84q-179 0 -282 101.5t-98 237.5l2 6h189q4 -105 58 -151.5t134 -46.5q79 0 123.5 40.5t44.5 104.5z" />
<glyph unicode="&#x456;" horiz-adv-x="462" d="M332 0h-203v1082h203v-1082zM332 1366h-203v194h203v-194z" />
<glyph unicode="&#x457;" horiz-adv-x="468" d="M332 0h-203v1082h203v-1082zM552 1274h-207v185h207v-185zM124 1274h-208v185h208v-185z" />
<glyph unicode="&#x458;" horiz-adv-x="467" d="M340 1082v-1156q0 -174 -78.5 -268.5t-219.5 -94.5q-30 0 -54 4.5t-52 13.5l11 155q16 -6 36.5 -10t38.5 -4q53 0 84 50.5t31 153.5v1156h203zM340 1366h-203v194h203v-194z" />
<glyph unicode="&#x459;" horiz-adv-x="1495" d="M869 1082v-401h201q173 0 272 -94t99 -244q0 -152 -99 -247.5t-272 -95.5h-404v925h-240v-312q0 -316 -82 -464.5t-269 -148.5h-42v156l30 1q83 0 121.5 106.5t38.5 349.5v469h646zM869 526v-374h201q85 0 126.5 56t41.5 137q0 76 -41.5 128.5t-126.5 52.5h-201z" />
<glyph unicode="&#x45a;" horiz-adv-x="1508" d="M322 662h360v420h203v-401h201q173 0 272 -94t99 -244q0 -152 -99 -247.5t-272 -95.5h-404v508h-360v-508h-203v1082h203v-420zM885 526v-374h201q85 0 126.5 56t41.5 137q0 76 -41.5 128.5t-126.5 52.5h-201z" />
<glyph unicode="&#x45b;" horiz-adv-x="996" d="M549 1222h-233v-285q45 78 111 121.5t147 43.5q146 0 227 -108t81 -332v-662h-203v664q0 149 -43.5 214.5t-129.5 65.5q-62 0 -110.5 -35.5t-79.5 -97.5v-811h-203v1222h-119v141h119v197h203v-197h233v-141z" />
<glyph unicode="&#x45c;" horiz-adv-x="973" d="M432 457h-101v-457h-203v1082h203v-453h96l249 453h253l-336 -507l364 -575h-264zM548 1480h226l2 -5l-238 -261h-162z" />
<glyph unicode="&#x45d;" horiz-adv-x="1006" d="M684 1082h202v-1082h-202v734l-6 1l-356 -735h-203v1082h203v-733l6 -1zM603 1218h-170l-228 261l2 5h227z" />
<glyph unicode="&#x45e;" horiz-adv-x="892" d="M420 373l15 -71h6l208 780h221l-379 -1250q-38 -112 -103 -190.5t-187 -78.5q-25 0 -53.5 5.5t-56.5 12.5l22 150q11 -2 30 -4t30 -2q59 0 93.5 50.5t53.5 119.5l36 110l-334 1077h220zM723 1529l2 -6q4 -118 -72.5 -192t-206.5 -74q-131 0 -207.5 74t-71.5 192l2 6h151 q0 -66 30.5 -108t95.5 -42q62 0 92.5 42t30.5 108h154z" />
<glyph unicode="&#x45f;" horiz-adv-x="1006" d="M322 1082v-928h361v928h203v-1082h-280v-355h-203v355h-284v1082h203z" />
<glyph unicode="&#x460;" horiz-adv-x="1597" d="M1465 1456v-1039q0 -212 -106 -325t-278 -113q-93 0 -167 41.5t-119 122.5q-47 -81 -122.5 -122.5t-170.5 -41.5q-169 0 -272 112.5t-103 325.5v1039h202v-1039q0 -139 47 -211.5t126 -72.5q87 0 138.5 72.5t51.5 211.5v1039h207v-1039q0 -139 49 -211.5t133 -72.5 q83 0 132 72.5t49 211.5v1039h203z" />
<glyph unicode="&#x461;" horiz-adv-x="1400" d="M1305 1082v-692q0 -200 -95.5 -305.5t-252.5 -105.5q-83 0 -147.5 35.5t-104.5 105.5q-44 -70 -110.5 -105.5t-150.5 -35.5q-154 0 -247 105.5t-93 305.5v692h203v-692q0 -127 36.5 -192t100.5 -65q74 0 117.5 65t43.5 192v692h202v-692q0 -127 39.5 -192t110.5 -65 q67 0 105.5 65t38.5 192v692h204z" />
<glyph unicode="&#x462;" horiz-adv-x="1101" d="M531 1108h-195v-246h256q206 0 323 -116.5t117 -310.5q0 -197 -117.5 -316t-322.5 -119h-458v1108h-158v141h158v207h202v-207h195v-141zM336 707v-553h256q117 0 177 80t60 203q0 117 -60 193.5t-177 76.5h-256z" />
<glyph unicode="&#x463;" horiz-adv-x="970" d="M574 1081h-243v-338h201q173 0 271.5 -102.5t98.5 -266.5q0 -166 -98.5 -270t-271.5 -104h-404v1081h-145v141h145v338h203v-338h243v-141zM331 588v-434h201q85 0 126.5 61.5t41.5 154.5q0 90 -42 154t-126 64h-201z" />
<glyph unicode="&#x464;" horiz-adv-x="1566" d="M347 833h162v97q0 258 126.5 403t337.5 145q214 0 329 -117t118 -342l-3 -6h-192q-3 159 -63 234t-189 75q-125 0 -194 -101t-69 -288v-100h416v-155h-416v-152q0 -190 70.5 -291t198.5 -101q126 0 184.5 73.5t60.5 235.5h193l3 -6q-1 -218 -116 -337.5t-325 -119.5 q-214 0 -342 144t-128 402v152h-162v-678h-202v1456h202v-623z" />
<glyph unicode="&#x465;" horiz-adv-x="1318" d="M323 615h139q0 211 107.5 349t308.5 138q164 0 266.5 -109.5t99.5 -283.5l-3 -6h-182q0 108 -49.5 175.5t-131.5 67.5q-116 0 -164.5 -94t-48.5 -237h320v-141h-320v-9q0 -146 48.5 -239t165.5 -93q76 0 128 58.5t52 156.5h182l2 -6q4 -153 -103.5 -258t-260.5 -105 q-202 0 -309.5 137t-107.5 349v9h-139v-474h-203v1082h203v-467z" />
<glyph unicode="&#x466;" horiz-adv-x="1109" d="M769 437h-114v-437h-182v437h-104l-126 -437h-210l440 1456h196l435 -1456h-210zM413 590h312l-152 533h-6z" />
<glyph unicode="&#x467;" horiz-adv-x="965" d="M632 308h-80v-308h-158v308h-78l-92 -308h-207l359 1082h196l361 -1082h-207zM358 451h230l-92 303l-20 86h-6l-21 -86z" />
<glyph unicode="&#x468;" horiz-adv-x="1593" d="M364 590h302l262 866h196l435 -1456h-210l-125 437h-114v-437h-182v437h-104l-126 -437h-210l132 438h-256v-438h-202v1456h202v-866zM868 590h312l-152 533h-6z" />
<glyph unicode="&#x469;" horiz-adv-x="1365" d="M342 451h221l210 631h196l361 -1082h-207l-94 308h-80v-308h-158v308h-78l-92 -308h-207l102 309h-174v-309h-203v1082h203v-631zM755 451h230l-92 303l-20 86h-6l-21 -86z" />
<glyph unicode="&#x46a;" horiz-adv-x="1509" d="M948 797h11q211 0 320.5 -102t109.5 -329v-366h-202v366q0 154 -54.5 214.5t-173.5 60.5h-92l-5 -11v-630h-202v641h-110q-120 0 -174.5 -61t-54.5 -214v-366h-203v366q0 227 109.5 329t322.5 102h30l-341 659h1050zM761 835h6l221 464h-447z" />
<glyph unicode="&#x46b;" horiz-adv-x="1287" d="M827 600q166 -12 254 -112.5t88 -307.5v-180h-203v180q0 151 -44.5 211t-143.5 60h-29l-1 -2v-449h-203v451h-37q-99 0 -144 -60t-45 -211v-180h-202v180q0 211 89.5 311t263.5 110l-250 481h858zM646 633h6l137 305h-281z" />
<glyph unicode="&#x46c;" horiz-adv-x="2001" d="M609 0v366q0 87 16.5 156t49.5 120h-318v-642h-202v1456h202v-658h713l-340 658h1050l-341 -659h11q211 0 320.5 -102t109.5 -329v-366h-202v366q0 154 -54.5 214.5t-173.5 60.5h-92l-5 -11v-630h-202v641h-110q-120 0 -174.5 -61t-54.5 -214v-366h-203zM1252 835h6 l221 464h-447z" />
<glyph unicode="&#x46d;" horiz-adv-x="1734" d="M564 0v180q0 87 15.5 155.5t46.5 118.5h-294v-454h-203v1082h203v-479h584l-249 479h858l-251 -482q166 -12 254 -112.5t88 -307.5v-180h-203v180q0 151 -44.5 211t-143.5 60h-29l-1 -2v-449h-203v451h-37q-99 0 -144 -60t-45 -211v-180h-202zM1093 633h6l137 305h-281z " />
<glyph unicode="&#x46e;" horiz-adv-x="910" d="M349 825q116 0 171 63.5t55 177.5q0 104 -56 168.5t-164 64.5h-239v157h239q191 0 307 -101.5t116 -284.5q0 -110 -56.5 -193.5t-156.5 -127.5q117 -40 179.5 -128.5t62.5 -217.5q0 -197 -115.5 -308t-302.5 -111h-47q-58 0 -84 -29.5t-26 -83.5q0 -65 39 -108.5 t89 -69.5l-66 -124q-112 36 -181 119t-69 199q0 124 77 189t214 65h47q102 0 162 71t60 187q0 135 -65.5 201.5t-192.5 66.5h-120v158h123zM444 1750l112 150h181v-17l-226 -240h-134l-225 239v18h179z" />
<glyph unicode="&#x46f;" horiz-adv-x="872" d="M352 614q98 0 144 43.5t46 122.5q0 68 -48.5 110.5t-142.5 42.5h-237v149h237q178 0 286 -78.5t108 -219.5q0 -78 -44.5 -139.5t-124.5 -97.5q95 -32 146 -94t51 -149q0 -150 -105.5 -235t-276.5 -85h-41q-62 0 -89.5 -29.5t-27.5 -83.5q0 -65 37 -108.5t85 -69.5 l-66 -120q-100 39 -168.5 121.5t-69.5 192.5q0 119 74 182t205 63h41q93 0 146.5 47t53.5 125q0 85 -56.5 127t-165.5 42h-127v141h130zM402 1401l112 150h181v-17l-226 -240h-134l-225 239v18h179z" />
<glyph unicode="&#x470;" horiz-adv-x="1243" d="M716 508l6 -1q111 16 174.5 120t63.5 278v551h203v-551q0 -247 -121.5 -395t-325.5 -171v-339h-202v338q-204 22 -324 170.5t-120 396.5v551h202v-551q0 -171 63.5 -275t172.5 -122l6 1v947h202v-948z" />
<glyph unicode="&#x471;" horiz-adv-x="1269" d="M726 1081v-926l6 -2q134 27 197.5 145t63.5 281q-2 124 -28 249t-71 254h197q47 -104 76 -227t29 -276q0 -245 -112.5 -406.5t-357.5 -188.5v-446h-203v448q-214 28 -330.5 177.5t-116.5 428.5v490h204v-492q0 -197 64 -304t173 -129l6 1v923h203z" />
<glyph unicode="&#x472;" horiz-adv-x="1202" d="M1070 527q0 -259 -134 -403.5t-359 -144.5q-222 0 -353 144.5t-131 403.5v400q0 258 131.5 404t352.5 146q224 0 358.5 -146t134.5 -404v-400zM294 794h574v136q0 190 -76 288.5t-215 98.5q-137 0 -210 -98.5t-73 -288.5v-136zM868 654h-574v-127q0 -192 73.5 -291 t209.5 -99q140 0 215.5 98.5t75.5 291.5v127z" />
<glyph unicode="&#x473;" horiz-adv-x="998" d="M75 609q0 215 112.5 354t308.5 139q195 0 308 -138.5t113 -354.5v-138q0 -217 -112.5 -354.5t-307.5 -137.5q-197 0 -309.5 137.5t-112.5 354.5v138zM497 133q108 0 162.5 95t54.5 243v1h-436v-1q0 -148 54 -243t165 -95zM496 946q-110 0 -164 -94t-54 -239h436 q-1 145 -55.5 239t-162.5 94z" />
<glyph unicode="&#x474;" horiz-adv-x="1118" d="M518 334l20 -86h6l20 85l200 846q42 156 106 226t171 70l37 -1l-2 -163h-17q-42 0 -69 -34t-44 -120l-307 -1157h-196l-421 1456h217z" />
<glyph unicode="&#x475;" horiz-adv-x="893" d="M412 325l15 -78h6l16 78l104 509q38 138 101 202.5t154 64.5q26 0 47.5 -6t41.5 -18l-19 -149q-5 3 -17.5 6.5t-22.5 3.5q-34 0 -59 -29.5t-36 -90.5l-223 -818h-179l-307 1082h210z" />
<glyph unicode="&#x476;" horiz-adv-x="1118" d="M518 334l20 -86h6l20 85l200 846q42 156 106 226t171 70l37 -1l-2 -163h-17q-42 0 -69 -34t-44 -120l-307 -1157h-196l-421 1456h217zM491 1592h-174l-247 260l3 6h209zM747 1592h-164l-208 266h207z" />
<glyph unicode="&#x477;" horiz-adv-x="893" d="M412 325l15 -78h6l16 78l104 509q38 138 101 202.5t154 64.5q26 0 47.5 -6t41.5 -18l-19 -149q-5 3 -17.5 6.5t-22.5 3.5q-34 0 -59 -29.5t-36 -90.5l-223 -818h-179l-307 1082h210zM407 1308h-174l-247 260l3 6h209zM663 1308h-164l-208 266h207z" />
<glyph unicode="&#x478;" horiz-adv-x="2052" d="M1068 527q0 -259 -134 -403.5t-359 -144.5q-222 0 -353 144.5t-131 403.5v400q0 258 131.5 404t352.5 146q224 0 358.5 -146t134.5 -404v-400zM866 930q0 190 -76 288.5t-215 98.5q-137 0 -210 -98.5t-73 -288.5v-403q0 -192 73.5 -291t209.5 -99q140 0 215.5 98.5 t75.5 291.5v403zM1580 373l15 -71h6l208 780h221l-379 -1250q-38 -112 -103 -190.5t-187 -78.5q-25 0 -53.5 5.5t-56.5 12.5l22 150q11 -2 30 -4t30 -2q59 0 93.5 50.5t53.5 119.5l36 110l-334 1077h220z" />
<glyph unicode="&#x479;" horiz-adv-x="1887" d="M76 609q0 215 112.5 354t308.5 139q195 0 308 -138.5t113 -354.5v-138q0 -217 -112.5 -354.5t-307.5 -137.5q-197 0 -309.5 137.5t-112.5 354.5v138zM279 471q0 -148 54 -243t165 -95q108 0 162.5 95t54.5 243v138q0 146 -54.5 241.5t-163.5 95.5q-110 0 -164 -95 t-54 -242v-138zM1415 373l15 -71h6l208 780h221l-379 -1250q-38 -112 -103 -190.5t-187 -78.5q-25 0 -53.5 5.5t-56.5 12.5l22 150q11 -2 30 -4t30 -2q59 0 93.5 50.5t53.5 119.5l36 110l-334 1077h220z" />
<glyph unicode="&#x47a;" horiz-adv-x="1202" d="M1070 527q0 -259 -134 -404q-101 -109 -254 -135v-128h-160v122q-184 16 -298 141q-131 145 -131 404v400q0 258 131 404q115 127 297 143v113h160v-119q153 -27 254 -137q135 -146 135 -404v-400zM868 930q0 190 -76 288q-45 58 -111 82v-104h-160v116q-97 -16 -154 -94 q-73 -98 -73 -288v-403q0 -192 73 -291q58 -78 155 -95v118h160v-105q66 24 110 81q76 99 76 292v403z" />
<glyph unicode="&#x47b;" horiz-adv-x="996" d="M578 -126h-161v112q-140 22 -229 130q-112 138 -112 355v138q0 215 112 354q90 110 232 133v111h160v-112q137 -24 225 -132q113 -138 113 -354v-138q0 -217 -113 -355q-88 -108 -227 -130v-112zM279 471q0 -148 54 -243q32 -56 84 -80v108h161v-107q50 23 82 79 q55 95 55 243v138q0 146 -55 241q-31 55 -80 78v-98h-160v101q-54 -22 -87 -80q-54 -95 -54 -242v-138z" />
<glyph unicode="&#x47c;" horiz-adv-x="1592" d="M1079 1446l6 2q164 5 267.5 -113.5t103.5 -340.5v-555q0 -223 -104 -341.5t-273 -118.5q-93 0 -167.5 39.5t-120.5 117.5q-47 -78 -121.5 -117.5t-167.5 -39.5q-169 0 -272 118.5t-103 341.5v555q0 222 102.5 340.5t266.5 113.5l6 -2v-146q-79 0 -126 -78.5t-47 -227.5 v-555q0 -150 47 -228t126 -78q87 0 138.5 72.5t51.5 211.5v428h197v-428q0 -139 51.5 -211.5t138.5 -72.5q79 0 126.5 78t47.5 228v555q0 149 -47.5 227.5t-126.5 78.5v146zM1171 1714v-112h-28q-109 0 -238 68.5t-166 68.5q-42 0 -67 -32.5t-25 -89.5v-18h-110v34 q0 106 52.5 163t146.5 57q60 0 186.5 -69.5t221.5 -69.5h27zM753 1314l-68 55l50 115v142h152v-129z" />
<glyph unicode="&#x47d;" horiz-adv-x="1385" d="M927 1085l6 2q152 5 247.5 -105t95.5 -317v-257q0 -208 -92.5 -318.5t-243.5 -110.5q-80 0 -144.5 36t-104.5 108q-41 -72 -105 -108t-143 -36q-152 0 -244 110.5t-92 318.5v257q0 207 95 317t248 105l6 -2v-145q-68 0 -107 -70.5t-39 -204.5v-257q0 -136 35.5 -205.5 t97.5 -69.5q67 0 108.5 65.5t41.5 191.5v218h196v-218q0 -126 41 -191.5t110 -65.5q61 0 97.5 70t36.5 205v257q0 134 -40 204.5t-107 70.5v145zM1087 1372v-112h-28q-110 0 -239 68t-165 68q-42 0 -67.5 -32.5t-25.5 -88.5v-18h-110v33q0 106 52.5 163.5t147.5 57.5 q61 0 187.5 -69.5t220.5 -69.5h27zM674 1012l-65 82l42 86l-1 71l146 -31l2 -97z" />
<glyph unicode="&#x47e;" horiz-adv-x="1598" d="M431 1691v99h718l1 -99h-293v-121h-148v121h-278zM1465 1456v-1039q0 -212 -106 -325t-278 -113q-93 0 -167 41.5t-119 122.5q-47 -81 -122.5 -122.5t-170.5 -41.5q-169 0 -272 112.5t-103 325.5v1039h202v-1039q0 -139 47 -211.5t126 -72.5q87 0 138.5 72.5t51.5 211.5 v1039h207v-1039q0 -139 49 -211.5t133 -72.5q83 0 132 72.5t49 211.5v1039h203z" />
<glyph unicode="&#x47f;" horiz-adv-x="1401" d="M363 1358v99h691l4 -99h-283v-128h-147v128h-265zM1305 1082v-692q0 -200 -95.5 -305.5t-252.5 -105.5q-83 0 -147.5 35.5t-104.5 105.5q-44 -70 -110.5 -105.5t-150.5 -35.5q-154 0 -247 105.5t-93 305.5v692h203v-692q0 -127 36.5 -192t100.5 -65q74 0 117.5 65 t43.5 192v692h202v-692q0 -127 39.5 -192t110.5 -65q67 0 105.5 65t38.5 192v692h204z" />
<glyph unicode="&#x480;" horiz-adv-x="1117" d="M697 -370h-203v356q-181 30 -289 197t-108 414v260q0 272 130.5 446t342.5 174q213 0 334 -128t118 -353l-3 -6h-195q0 161 -64 246t-190 85t-198.5 -129.5t-72.5 -332.5v-262q0 -205 72.5 -334.5t198.5 -129.5h127v-503z" />
<glyph unicode="&#x481;" horiz-adv-x="942" d="M622 -370h-202v357q-159 30 -246.5 177.5t-87.5 356.5v38q0 234 109 388.5t303 154.5q161 0 262 -109.5t98 -284.5l-2 -5h-184q0 108 -48.5 175.5t-125.5 67.5q-107 0 -158 -111.5t-51 -275.5v-38q0 -167 50.5 -277.5t158.5 -110.5h124v-503z" />
<glyph unicode="&#x482;" horiz-adv-x="1095" d="M516 441l244 -172l-59 -113l-246 170l-154 -326h-144l190 398l-245 171l59 112l248 -171l172 376l-245 171l60 114l246 -171l158 342h142l-193 -413l247 -171l-62 -112l-244 170z" />
<glyph unicode="&#x483;" horiz-adv-x="16" d="M-619 1323v-125l-145 1l1 222h459l-1 108l144 -1v-205h-458z" />
<glyph unicode="&#x484;" horiz-adv-x="16" d="M-732 1418q96 0 224.5 69.5t189.5 69.5q95 0 148.5 -57.5t53.5 -163.5v-33h-112v18q0 56 -25.5 88.5t-67.5 32.5q-37 0 -167.5 -68t-241.5 -68h-29v112h27z" />
<glyph unicode="&#x485;" horiz-adv-x="16" d="M-533 1500v132h156l-1 -146l50 -115l-66 -59z" />
<glyph unicode="&#x486;" horiz-adv-x="16" d="M-434 1312l-67 59l50 115l-1 146h156v-132z" />
<glyph unicode="&#x488;" horiz-adv-x="0" d="M-672 1267l-3 6q-3 79 44 130.5t129 51.5q81 0 129 -52t44 -130l-3 -6h-87q0 43 -20 72t-63 29q-42 0 -62.5 -29t-20.5 -72h-87zM-173 990l-3 6q-3 79 44 130.5t128 51.5t129 -52t45 -130l-3 -6h-88q0 43 -20.5 72t-62.5 29q-43 0 -62.5 -29t-19.5 -72h-87zM-16 487l-3 6 q-4 78 43.5 130t128.5 52q82 0 129.5 -51.5t44.5 -130.5l-3 -6h-87q0 44 -20.5 72.5t-63.5 28.5q-41 0 -61 -29t-20 -72h-88zM-182 -32l-3 6q-3 78 44 130t128 52q82 0 129 -51.5t44 -130.5l-3 -6h-86q0 44 -20.5 72.5t-63.5 28.5q-42 0 -62 -29t-20 -72h-87zM-668 -316 l-3 6q-3 80 44 131t128 51q83 0 130.5 -51t43.5 -131l-3 -6h-87q0 45 -20 73t-64 28q-41 0 -61 -28.5t-20 -72.5h-88zM-1157 990l-3 6q-3 79 44.5 130.5t128.5 51.5q82 0 130 -52t44 -130l-3 -6h-87q0 44 -20 72.5t-64 28.5q-42 0 -62 -29t-20 -72h-88zM-1306 487l-3 6 q-3 78 44.5 130t127.5 52q83 0 130.5 -51.5t43.5 -130.5l-3 -6h-86q0 43 -20.5 72t-64.5 29q-41 0 -61 -29t-20 -72h-88zM-1166 -32l-3 6q-3 78 45 130t128 52q83 0 130.5 -51.5t43.5 -130.5l-3 -6h-87q0 44 -20 72.5t-64 28.5q-41 0 -61 -29t-20 -72h-89z" />
<glyph unicode="&#x489;" horiz-adv-x="0" d="M-406 -60l9 -14l-103 -339h-82l60 353h116zM-571 1126l-11 14l104 338h81l-59 -352h-115zM0 631l11 12l282 -124v-98l-293 71v139zM-983 433l-11 -12l-281 124v98l292 -71v-139zM-201 1002l2 16l269 153l58 -68q-31 -23 -247 -200zM-779 21l-2 -17l-271 -153l-58 69 l249 200zM-898 860l-14 2l-125 326l54 69l168 -299zM-86 161l15 -2l125 -325l-55 -71l-166 299z" />
<glyph unicode="&#x48a;" horiz-adv-x="1241" d="M897 1456h203v-1456h-203v1062l-6 2l-551 -1064h-203v1456h203v-1061l6 -2zM898 1872l2 -6q4 -118 -72.5 -192t-206.5 -74q-131 0 -207.5 74t-71.5 192l2 6h151q0 -66 30.5 -108t95.5 -42q62 0 92.5 42t30.5 108h154zM1270 -11l-127 -295h-121l59 302v183h189v-190z" />
<glyph unicode="&#x48b;" horiz-adv-x="1006" d="M684 1082h202v-1082h-202v734l-6 1l-356 -735h-203v1082h203v-733l6 -1zM780 1529l2 -6q4 -118 -72.5 -192t-206.5 -74q-131 0 -207.5 74t-71.5 192l2 6h151q0 -66 30.5 -108t95.5 -42q62 0 92.5 42t30.5 108h154zM1056 -11l-127 -295h-121l59 302v183h189v-190z" />
<glyph unicode="&#x48c;" horiz-adv-x="1101" d="M531 1108h-195v-246h256q206 0 323 -116.5t117 -310.5q0 -197 -117.5 -316t-322.5 -119h-458v1108h-158v141h158v207h202v-207h195v-141zM336 707v-553h256q117 0 177 80t60 203q0 117 -60 193.5t-177 76.5h-256z" />
<glyph unicode="&#x48d;" horiz-adv-x="970" d="M574 1314h-243v-571h201q173 0 271.5 -102.5t98.5 -266.5q0 -166 -98.5 -270t-271.5 -104h-404v1314h-145v142h145v177h203v-177h243v-142zM331 588v-434h201q85 0 126.5 61.5t41.5 154.5q0 90 -42 154t-126 64h-201z" />
<glyph unicode="&#x48e;" horiz-adv-x="1114" d="M344 574v-574h-203v1456h478q204 0 320 -121.5t116 -319.5q0 -199 -116 -320l-4 -4l114 -140l-88 -86l-126 154q-92 -45 -216 -45h-275zM344 730h275q61 0 107 23l-106 130l88 86l104 -128q40 72 40 172q0 124 -58.5 205.5t-174.5 81.5h-275v-570z" />
<glyph unicode="&#x48f;" horiz-adv-x="996" d="M916 451q0 -214 -94 -343l-1 -1l86 -110l-90 -86l-86 112q-73 -44 -170 -44q-79 0 -139 31t-103 91v-517h-203v1498h181l13 -124q43 69 105 106.5t144 37.5q169 0 263 -142t94 -376v-133zM713 584q0 159 -52.5 259.5t-156.5 100.5q-65 0 -111 -37t-74 -101v-547 q27 -61 73 -93.5t113 -32.5q68 0 113 36l-103 135l89 85l84 -109q25 72 25 171v133z" />
<glyph unicode="&#x490;" horiz-adv-x="973" d="M920 1301h-8v-1h-576v-1300h-203v1456h585v353h202v-508z" />
<glyph unicode="&#x491;" horiz-adv-x="803" d="M738 927h-22v-2h-400v-925h-202v1082h421v327h203v-482z" />
<glyph unicode="&#x492;" horiz-adv-x="980" d="M557 686h-213v-686h-203v686h-139v141h139v629h779v-156h-576v-473h213v-141z" />
<glyph unicode="&#x493;" horiz-adv-x="743" d="M541 480h-220v-480h-202v480h-133v141h133v461h602v-157h-400v-304h220v-141z" />
<glyph unicode="&#x494;" horiz-adv-x="1026" d="M920 1300h-576v-469h152q237 0 372.5 -148t135.5 -429q0 -245 -107 -398.5t-319 -149.5l-6 2l-1 139q128 0 179 110t51 293q-1 210 -78 315t-227 105h-152v-670h-203v1456h779v-156z" />
<glyph unicode="&#x495;" horiz-adv-x="912" d="M716 925h-400v-282h71q206 0 331.5 -122t125.5 -350q0 -133 -81.5 -269.5t-238.5 -180.5l-73 139q95 37 142.5 119.5t47.5 191.5q0 152 -68.5 232t-185.5 80h-71v-483h-202v1082h602v-157z" />
<glyph unicode="&#x496;" horiz-adv-x="1664" d="M1073 661h-134v-661h-202v661h-139l-318 -661h-253l410 781l-383 675h245l304 -632h134v632h202v-632h130l301 632h245l-380 -673l407 -783h-252zM1720 -356h-203v513h203v-513z" />
<glyph unicode="&#x497;" horiz-adv-x="1424" d="M918 462h-106v-462h-202v462h-105l-220 -462h-257l321 586l-299 496h252l211 -447h97v447h202v-447h100l211 447h251l-299 -496l321 -586h-258zM1441 -356h-203v513h203v-513z" />
<glyph unicode="&#x498;" horiz-adv-x="1064" d="M529 819q117 0 173 65.5t56 182.5q0 112 -61.5 183t-180.5 71q-96 0 -160.5 -70t-64.5 -180h-195l-2 6q-5 178 118.5 289t303.5 111q206 0 325.5 -107t119.5 -305q0 -103 -54.5 -187.5t-149.5 -131.5q108 -41 165.5 -128.5t57.5 -215.5q0 -199 -128.5 -311t-335.5 -112 q-181 0 -312.5 107t-126.5 312l2 6h195q0 -116 67.5 -193.5t174.5 -77.5q122 0 191.5 73t69.5 194q0 136 -62.5 200.5t-185.5 64.5h-145v154h145zM631 -442h-203v513h203v-513z" />
<glyph unicode="&#x499;" horiz-adv-x="901" d="M457 624q78 0 113 41t35 118q0 73 -36.5 120t-115.5 47q-70 0 -116.5 -47.5t-46.5 -121.5h-194l-2 6q-5 139 98 226t254 87q169 0 265.5 -81t96.5 -230q0 -75 -39 -136.5t-108 -96.5q80 -31 122 -96t42 -158q0 -150 -104.5 -235.5t-274.5 -85.5q-151 0 -261 85t-105 244 l2 6h194q0 -79 48 -133t129 -54q83 0 126 49.5t43 128.5q0 89 -40.5 130.5t-124.5 41.5h-143v145h143zM554 -441h-203v513h203v-513z" />
<glyph unicode="&#x49a;" horiz-adv-x="1131" d="M483 653h-139v-653h-203v1456h203v-640h121l385 640h242l-458 -691l493 -765h-248zM1173 -356h-203v513h203v-513z" />
<glyph unicode="&#x49b;" horiz-adv-x="973" d="M432 457h-101v-457h-203v1082h203v-453h96l249 453h253l-336 -507l364 -575h-264zM1010 -356h-203v513h203v-513z" />
<glyph unicode="&#x49c;" horiz-adv-x="1133" d="M1093 1456l-339 -672l375 -784h-257l-269 654h-54v-256h-133v256h-80v-654h-202v1456h202v-639h80v267h133v-267h50l248 639h246z" />
<glyph unicode="&#x49d;" horiz-adv-x="1026" d="M996 1082l-272 -505l294 -577h-259l-188 457h-39v-204h-126v204h-76v-457h-203v1082h203v-453h76v218h126v-218h38l173 453h253z" />
<glyph unicode="&#x49e;" horiz-adv-x="1151" d="M503 653h-139v-653h-203v1160h-184v141h184v155h203v-155h168v-141h-168v-344h121l385 640h242l-458 -691l493 -765h-248z" />
<glyph unicode="&#x49f;" horiz-adv-x="942" d="M425 496h-86v-496h-202v1222h-165v141h165v197h202v-197h188v-141h-188v-571h83l239 431h237l-314 -488l359 -594h-236z" />
<glyph unicode="&#x4a0;" horiz-adv-x="1441" d="M799 653h-139v-653h-203v1301h-405v155h608v-640h121l385 640h242l-458 -691l493 -765h-248z" />
<glyph unicode="&#x4a1;" horiz-adv-x="1234" d="M703 457h-101v-457h-203v927h-340v155h543v-453h96l249 453h253l-336 -507l364 -575h-264z" />
<glyph unicode="&#x4a2;" horiz-adv-x="1246" d="M1104 0h-202v642h-558v-642h-203v1456h203v-659h558v659h202v-1456zM1241 -356h-203v513h203v-513z" />
<glyph unicode="&#x4a3;" horiz-adv-x="1006" d="M885 0h-203v462h-360v-462h-203v1082h203v-466h360v466h203v-1082zM1022 -356h-203v513h203v-513z" />
<glyph unicode="&#x4a4;" horiz-adv-x="1717" d="M344 797h558v659h742v-155h-540v-1301h-202v642h-558v-642h-203v1456h203v-659z" />
<glyph unicode="&#x4a5;" horiz-adv-x="1245" d="M316 616h360v466h505v-155h-302v-927h-203v462h-360v-462h-203v1082h203v-466z" />
<glyph unicode="&#x4a6;" horiz-adv-x="1810" d="M1104 834h118q237 0 372.5 -148t135.5 -429q0 -245 -107 -398.5t-319 -149.5l-6 2l-1 139q128 0 179 110t51 293q-1 210 -78 315t-227 105h-118v-673h-202v1300h-559v-1300h-203v1456h964v-622z" />
<glyph unicode="&#x4a7;" horiz-adv-x="1519" d="M880 645h109q213 0 343 -122.5t130 -349.5q0 -133 -81 -269.5t-238 -180.5l-74 139q96 37 143 119.5t48 191.5q-1 152 -74 232t-197 80h-109v-485h-203v925h-361v-925h-203v1082h767v-437z" />
<glyph unicode="&#x4a8;" horiz-adv-x="1353" d="M1268 -24q-94 0 -179.5 18t-159.5 53q-62 -34 -132 -51t-146 -17q-246 0 -399.5 197.5t-153.5 495.5v194q0 262 113 435t292 167l6 -1v-152q-93 0 -147.5 -127.5t-54.5 -319.5v-196q0 -233 93 -383t251 -150q29 0 57 4t55 13q-109 96 -167 235t-58 306v232 q0 234 97.5 388.5t255.5 154.5q164 0 266 -155.5t102 -400.5v-236q0 -158 -48.5 -292t-136.5 -229q43 -15 91.5 -22t102.5 -7v-154zM734 695q0 -141 44.5 -254.5t129.5 -182.5h6q67 67 104.5 177.5t37.5 244.5v246q0 178 -43.5 281t-118.5 98h-6q-71 5 -112.5 -99.5 t-41.5 -275.5v-235z" />
<glyph unicode="&#x4a9;" horiz-adv-x="1100" d="M1044 -16q-80 0 -150 13t-129 40q-50 -29 -107 -43.5t-118 -14.5q-201 0 -326 162t-125 409v77q0 205 91.5 338.5t234.5 128.5l6 -2v-151q-55 -2 -88.5 -89.5t-33.5 -222.5v-79q0 -179 65 -295t176 -116q16 0 31.5 2t31.5 6q-75 76 -113.5 180.5t-38.5 227.5v119 q0 188 76 308t203 120q128 0 207 -130t79 -326v-116q0 -114 -33 -213t-93 -173q34 -12 72 -17t82 -5v-138zM814 534v120q0 124 -26 204.5t-69 74.5h-6q-43 6 -68 -67.5t-25 -192.5v-123q0 -96 28 -173.5t81 -127.5h6q37 47 58 121.5t21 163.5z" />
<glyph unicode="&#x4aa;" horiz-adv-x="1084" d="M1002 442l3 -6q-1 -218 -116 -337.5t-325 -119.5q-214 0 -342 144t-128 402v404q0 258 126.5 403t337.5 145q214 0 329 -117t118 -342l-3 -6h-192q-3 159 -63 234t-189 75q-125 0 -194 -101t-69 -288v-407q0 -190 70.5 -291t198.5 -101q126 0 184.5 73.5t60.5 235.5h193z M657 -439h-203v513h203v-513z" />
<glyph unicode="&#x4ab;" horiz-adv-x="921" d="M492 133q76 0 128 58.5t52 156.5h182l2 -6q4 -153 -103.5 -258t-260.5 -105q-202 0 -309.5 137t-107.5 349v149q0 212 107.5 350t308.5 138q164 0 266.5 -109.5t99.5 -283.5l-3 -6h-182q0 108 -49.5 175.5t-131.5 67.5q-116 0 -164.5 -94t-48.5 -238v-149 q0 -146 48.5 -239t165.5 -93zM570 -439h-203v513h203v-513z" />
<glyph unicode="&#x4ac;" horiz-adv-x="1018" d="M984 1300h-374v-1300h-203v1300h-372v156h949v-156zM747 -356h-203v513h203v-513z" />
<glyph unicode="&#x4ad;" horiz-adv-x="878" d="M837 927h-300v-927h-204v927h-294v155h798v-155zM674 -356h-203v513h203v-513z" />
<glyph unicode="&#x4ae;" horiz-adv-x="1100" d="M547 749h6l298 707h225l-428 -932v-524h-202v537l-423 919h227z" />
<glyph unicode="&#x4af;" horiz-adv-x="892" d="M654 1082h209l-314 -1049v-449h-202v459l-313 1039h210l186 -757l17 -85h6l17 85z" />
<glyph unicode="&#x4b0;" horiz-adv-x="1100" d="M547 750h6l298 706h225l-361 -785h109v-141h-174l-2 -6v-524h-202v530h-177v141h115l-361 785h227z" />
<glyph unicode="&#x4b1;" horiz-adv-x="892" d="M731 -3h-182v-413h-202v413h-171v141h142l-284 944h210l186 -757l17 -84h6l17 84l184 757h209l-283 -944h151v-141z" />
<glyph unicode="&#x4b2;" horiz-adv-x="1112" d="M553 888h6l260 568h239l-379 -721l395 -735h-243l-269 582h-6l-268 -582h-240l388 735l-378 721h237zM1096 -356h-203v513h203v-513z" />
<glyph unicode="&#x4b3;" horiz-adv-x="892" d="M440 687h6l170 395h232l-287 -534l297 -548h-231l-177 408h-6l-178 -408h-231l296 548l-287 534h230zM891 -356h-203v513h203v-513z" />
<glyph unicode="&#x4b4;" horiz-adv-x="1568" d="M348 1301h-304v155h810v-155h-303v-1147h557v1302h203v-1300h146l-16 -507h-185v351h-908v1301z" />
<glyph unicode="&#x4b5;" horiz-adv-x="1192" d="M247 928h-206v155h599v-155h-190v-774h361v928h203v-928h124l-15 -475h-187v321h-689v928z" />
<glyph unicode="&#x4b6;" horiz-adv-x="1211" d="M1069 1456v-1456h-203v611q-68 -22 -141 -34t-149 -12q-216 0 -330.5 108.5t-114.5 348.5v434h202v-434q0 -168 58 -235t185 -67q69 0 145.5 12.5t144.5 34.5v689h203zM1206 -356h-203v513h203v-513z" />
<glyph unicode="&#x4b7;" horiz-adv-x="967" d="M846 0h-202v392q-42 -13 -84.5 -19.5t-82.5 -6.5q-188 0 -288.5 99t-100.5 311v306h202v-306q0 -140 44.5 -197.5t142.5 -57.5q43 0 84 7.5t83 21.5v532h202v-1082zM983 -356h-203v513h203v-513z" />
<glyph unicode="&#x4b8;" horiz-adv-x="1194" d="M1056 1456v-1456h-203v611q-68 -22 -141 -34l-17 -3v-248h-134v239q-215 0 -329 108q-114 109 -114 349v434h202v-434q0 -168 58 -235q57 -67 183 -67v320h134v-310q6 1 13 2q77 13 145 35v689h203z" />
<glyph unicode="&#x4b9;" horiz-adv-x="981" d="M865 0h-202v392q-42 -13 -85 -20q-9 -1 -17 -2v-152h-134v151q-138 16 -220 96q-100 99 -100 311v306h202v-306q0 -140 44 -198q27 -35 74 -48v275h134v-280q9 2 19 3q41 8 83 22v532h202v-1082z" />
<glyph unicode="&#x4ba;" horiz-adv-x="1211" d="M112 0v1456h203v-612q65 22 139 34.5t151 12.5q215 0 330 -109t115 -348v-434h-202v434q0 167 -58.5 234.5t-184.5 67.5q-70 0 -146.5 -13t-143.5 -34v-689h-203z" />
<glyph unicode="&#x4bb;" d="M316 937q45 78 111 121.5t147 43.5q146 0 227 -108t81 -332v-662h-203v664q0 149 -43.5 214.5t-129.5 65.5q-62 0 -110.5 -35.5t-79.5 -97.5v-811h-203v1560h203v-623z" />
<glyph unicode="&#x4bc;" horiz-adv-x="1342" d="M840 -23q-259 0 -400 169t-141 449v109q-132 20 -201.5 118.5t-69.5 256.5h147q0 -91 30.5 -151t93.5 -81v10q0 269 138 443.5t342 174.5q227 0 348 -176t121 -483v-121h-746v-100q0 -207 81.5 -333t256.5 -126q96 0 169.5 26t129.5 67l41 -145q-38 -39 -126 -73 t-214 -34zM502 839h542v36q0 199 -63.5 319t-201.5 120q-131 0 -204 -130t-73 -327v-18z" />
<glyph unicode="&#x4bd;" horiz-adv-x="1048" d="M617 -21q-193 0 -309 134t-116 343v68q-110 26 -167.5 113.5t-57.5 225.5h140q0 -72 21.5 -122t65.5 -74q15 191 126 313t274 122q184 0 283 -125.5t99 -337.5v-140h-582v-43q0 -140 61.5 -231.5t174.5 -91.5q84 0 144 26.5t114 77.5l64 -126q-51 -58 -137 -95t-198 -37z M594 946q-88 0 -141 -85.5t-59 -216.5h381v41q0 115 -46 188t-135 73z" />
<glyph unicode="&#x4be;" horiz-adv-x="1342" d="M840 -23q-259 0 -400 169t-141 449v109q-132 20 -201.5 118.5t-69.5 256.5h147q0 -91 30.5 -151t93.5 -81v10q0 269 138 443.5t342 174.5q227 0 348 -176t121 -483v-121h-746v-100q0 -207 81.5 -333t256.5 -126q96 0 169.5 26t129.5 67l41 -145q-38 -39 -126 -73 t-214 -34zM502 839h542v36q0 199 -63.5 319t-201.5 120q-131 0 -204 -130t-73 -327v-18zM917 -443h-203v513h203v-513z" />
<glyph unicode="&#x4bf;" horiz-adv-x="1048" d="M617 -21q-193 0 -309 134t-116 343v68q-110 26 -167.5 113.5t-57.5 225.5h140q0 -72 21.5 -122t65.5 -74q15 191 126 313t274 122q184 0 283 -125.5t99 -337.5v-140h-582v-43q0 -140 61.5 -231.5t174.5 -91.5q84 0 144 26.5t114 77.5l64 -126q-51 -58 -137 -95t-198 -37z M594 946q-88 0 -141 -85.5t-59 -216.5h381v41q0 115 -46 188t-135 73zM713 -431h-203v513h203v-513z" />
<glyph unicode="&#x4c0;" horiz-adv-x="513" d="M357 0h-202v1456h202v-1456z" />
<glyph unicode="&#x4c1;" horiz-adv-x="1664" d="M1073 661h-134v-661h-202v661h-139l-318 -661h-253l410 781l-383 675h245l304 -632h134v632h202v-632h130l301 632h245l-380 -673l407 -783h-252zM1114 1872l2 -6q4 -118 -72.5 -192t-206.5 -74q-131 0 -207.5 74t-71.5 192l2 6h151q0 -66 30.5 -108t95.5 -42 q62 0 92.5 42t30.5 108h154z" />
<glyph unicode="&#x4c2;" horiz-adv-x="1424" d="M918 462h-106v-462h-202v462h-105l-220 -462h-257l321 586l-299 496h252l211 -447h97v447h202v-447h100l211 447h251l-299 -496l321 -586h-258zM1013 1529l2 -6q4 -118 -72.5 -192t-206.5 -74q-131 0 -207.5 74t-71.5 192l2 6h151q0 -66 30.5 -108t95.5 -42q62 0 92.5 42 t30.5 108h154z" />
<glyph unicode="&#x4c3;" horiz-adv-x="1123" d="M336 0h-202v1456h202v-628h101l376 628h246l-428 -641q206 -21 322.5 -167.5t116.5 -406.5q0 -244 -107.5 -398t-319.5 -150l-6 2v140q128 0 179 109.5t51 292.5q0 210 -77.5 315.5t-226.5 105.5h-227v-658z" />
<glyph unicode="&#x4c4;" horiz-adv-x="983" d="M595 602q152 -36 239 -146.5t87 -293.5q0 -130 -81.5 -262t-238.5 -174l-73 139q95 36 142.5 114t48.5 183q0 141 -64 214t-178 81h-147v-457h-203v1082h203v-453h76l270 453h252z" />
<glyph unicode="&#x4c5;" horiz-adv-x="1241" d="M1099 1456v-1456h-202v1300h-404l-2 -512q-1 -416 -94.5 -602t-299.5 -186h-51v154h34q117 2 162.5 139.5t46.5 494.5l2 668h808zM1269 -11l-127 -295h-121l59 302v183h189v-190z" />
<glyph unicode="&#x4c6;" horiz-adv-x="1008" d="M888 1082v-1082h-203v925h-270v-312q0 -319 -76.5 -466t-262.5 -147h-43v162l31 1q87 0 117.5 97t30.5 353v469h676zM1058 -11l-127 -295h-121l59 302v183h189v-190z" />
<glyph unicode="&#x4c7;" horiz-adv-x="1246" d="M344 1456v-659h558v659h202v-1530q0 -174 -79.5 -268.5t-219.5 -94.5q-30 0 -55.5 4.5t-53.5 13.5l12 151q15 -5 39.5 -9t43.5 -4q51 0 81 55t30 152v716h-558v-642h-203v1456h203z" />
<glyph unicode="&#x4c8;" d="M317 1082v-466h359v466h203v-1156q0 -174 -79 -268.5t-219 -94.5q-30 0 -55.5 4.5t-53.5 13.5l12 151q15 -5 39 -9t44 -4q51 0 80 54.5t29 152.5v536h-359v-462h-203v1082h203z" />
<glyph unicode="&#x4c9;" horiz-adv-x="1246" d="M1104 0h-202v642h-558v-642h-203v1456h203v-659h558v659h202v-1456zM1274 -11l-127 -295h-121l59 302v183h189v-190z" />
<glyph unicode="&#x4ca;" horiz-adv-x="1006" d="M885 0h-203v462h-360v-462h-203v1082h203v-466h360v466h203v-1082zM1055 -11l-127 -295h-121l59 302v183h189v-190z" />
<glyph unicode="&#x4cb;" horiz-adv-x="1211" d="M1069 1456v-1456h-203v611q-68 -22 -141 -34t-149 -12q-216 0 -330.5 108.5t-114.5 348.5v434h202v-434q0 -168 58 -235t185 -67q69 0 145.5 12.5t144.5 34.5v689h203zM930 -356h-203v513h203v-513z" />
<glyph unicode="&#x4cc;" horiz-adv-x="967" d="M846 0h-202v392q-42 -13 -84.5 -19.5t-82.5 -6.5q-188 0 -288.5 99t-100.5 311v306h202v-306q0 -140 44.5 -197.5t142.5 -57.5q43 0 84 7.5t83 21.5v532h202v-1082zM707 -356h-203v513h203v-513z" />
<glyph unicode="&#x4cd;" horiz-adv-x="1483" d="M397 1456l340 -1188h6l341 1188h262v-1456h-201v559l18 560l-6 1l-350 -1120h-134l-349 1119l-6 -1l19 -559v-559h-201v1456h261zM1515 -11l-127 -295h-121l59 302v183h189v-190z" />
<glyph unicode="&#x4ce;" horiz-adv-x="1317" d="M653 248h6l271 834h254v-1082h-204v706l-6 1l-249 -707h-138l-250 714l-6 -1v-713h-202v1082h255zM1353 -11l-127 -295h-121l59 302v183h189v-190z" />
<glyph unicode="&#x4cf;" horiz-adv-x="513" d="M357 0h-202v1456h202v-1456z" />
<glyph unicode="&#x4d0;" horiz-adv-x="1137" d="M803 368h-464l-106 -368h-206l448 1456h196l444 -1456h-206zM386 529h371l-182 636h-6zM866 1872l2 -6q4 -118 -72.5 -192t-206.5 -74q-131 0 -207.5 74t-71.5 192l2 6h151q0 -66 30.5 -108t95.5 -42q62 0 92.5 42t30.5 108h154z" />
<glyph unicode="&#x4d1;" horiz-adv-x="955" d="M667 0q-11 37 -18 72.5t-9 71.5q-45 -73 -113 -119t-151 -46q-137 0 -214.5 86.5t-77.5 231.5q0 155 105.5 243.5t296.5 88.5h151v111q0 99 -44 154.5t-125 55.5q-73 0 -117.5 -50t-44.5 -125l-193 1l-3 6q-5 125 100 222.5t271 97.5q160 0 259.5 -94.5t99.5 -269.5v-502 q0 -63 7.5 -121.5t24.5 -114.5h-205zM422 135q71 0 129.5 42t85.5 105v221h-154q-93 0 -144.5 -59.5t-51.5 -145.5q0 -73 35 -118t100 -45zM749 1550l2 -6q4 -118 -72.5 -192t-206.5 -74q-131 0 -207.5 74t-71.5 192l2 6h151q0 -66 30.5 -108t95.5 -42q62 0 92.5 42 t30.5 108h154z" />
<glyph unicode="&#x4d2;" horiz-adv-x="1137" d="M803 368h-464l-106 -368h-206l448 1456h196l444 -1456h-206zM386 529h371l-182 636h-6zM907 1617h-207v185h207v-185zM479 1617h-208v185h208v-185z" />
<glyph unicode="&#x4d3;" horiz-adv-x="955" d="M667 0q-11 37 -18 72.5t-9 71.5q-45 -73 -113 -119t-151 -46q-137 0 -214.5 86.5t-77.5 231.5q0 155 105.5 243.5t296.5 88.5h151v111q0 99 -44 154.5t-125 55.5q-73 0 -117.5 -50t-44.5 -125l-193 1l-3 6q-5 125 100 222.5t271 97.5q160 0 259.5 -94.5t99.5 -269.5v-502 q0 -63 7.5 -121.5t24.5 -114.5h-205zM422 135q71 0 129.5 42t85.5 105v221h-154q-93 0 -144.5 -59.5t-51.5 -145.5q0 -73 35 -118t100 -45zM790 1295h-207v185h207v-185zM362 1295h-208v185h208v-185z" />
<glyph unicode="&#x4d4;" horiz-adv-x="1639" d="M1590 0h-752l-13 361h-416l-164 -361h-242l703 1456h832v-157h-544l17 -467h458v-155h-453l18 -522h556v-155zM487 531h332l-24 665l-5 1z" />
<glyph unicode="&#x4d5;" horiz-adv-x="1479" d="M1068 -21q-112 0 -198.5 45t-142.5 129q-49 -75 -139 -124.5t-215 -49.5q-153 0 -236.5 87t-83.5 238q0 158 102.5 246t297.5 88h176v78q0 109 -40 169.5t-114 60.5q-80 0 -126.5 -54.5t-46.5 -134.5l-194 16l-2 6q-5 139 97.5 231t272.5 92q92 0 164.5 -33.5 t119.5 -97.5q53 63 124.5 97t156.5 34q179 0 278.5 -128.5t99.5 -350.5v-124h-583q1 -166 61 -266t185 -100q83 0 139 26.5t119 76.5l59 -132q-47 -48 -133 -86.5t-198 -38.5zM413 127q57 0 119.5 40t96.5 92v242h-174q-94 0 -146.5 -58.5t-52.5 -142.5q0 -80 39 -126.5 t118 -46.5zM1041 946q-91 0 -141.5 -84t-60.5 -223h380v30q0 124 -44 200.5t-134 76.5z" />
<glyph unicode="&#x4d6;" horiz-adv-x="1018" d="M884 676h-540v-522h626v-154h-829v1456h823v-156h-620v-469h540v-155zM806 1872l2 -6q4 -118 -72.5 -192t-206.5 -74q-131 0 -207.5 74t-71.5 192l2 6h151q0 -66 30.5 -108t95.5 -42q62 0 92.5 42t30.5 108h154z" />
<glyph unicode="&#x4d7;" horiz-adv-x="930" d="M507 -21q-193 0 -309 134t-116 343v158q0 212 113.5 350t288.5 138q184 0 283 -125.5t99 -337.5v-140h-582v-43q0 -140 61.5 -231.5t174.5 -91.5q84 0 144 26.5t114 77.5l64 -126q-51 -58 -137 -95t-198 -37zM484 946q-88 0 -141 -85.5t-59 -216.5h381v41q0 115 -46 188 t-135 73zM752 1551l2 -6q4 -118 -72.5 -192t-206.5 -74q-131 0 -207.5 74t-71.5 192l2 6h151q0 -66 30.5 -108t95.5 -42q62 0 92.5 42t30.5 108h154z" />
<glyph unicode="&#x4d8;" horiz-adv-x="1216" d="M542 1477q273 0 424 -182.5t151 -481.5v-165q0 -293 -146.5 -481t-361.5 -188q-256 0 -392 174.5t-136 482.5v126h833v51q0 224 -91 363.5t-281 139.5q-102 0 -180 -26.5t-136 -66.5l-41 145q39 39 132 74t225 35zM609 138q137 0 217.5 135.5t86.5 344.5h-630v-41 q0 -200 78 -319.5t248 -119.5z" />
<glyph unicode="&#x4d9;" horiz-adv-x="934" d="M427 1103q193 0 309 -134t116 -343v-158q0 -212 -113.5 -350t-288.5 -138q-184 0 -283 125.5t-99 337.5v140h582v43q0 140 -61.5 231.5t-174.5 91.5q-84 0 -144 -26.5t-114 -77.5l-64 126q51 58 137 95t198 37zM450 136q88 0 141 85.5t59 216.5h-381v-41q0 -115 46 -188 t135 -73z" />
<glyph unicode="&#x4da;" horiz-adv-x="1216" d="M542 1477q273 0 424 -182.5t151 -481.5v-165q0 -293 -146.5 -481t-361.5 -188q-256 0 -392 174.5t-136 482.5v126h833v51q0 224 -91 363.5t-281 139.5q-102 0 -180 -26.5t-136 -66.5l-41 145q39 39 132 74t225 35zM609 138q137 0 217.5 135.5t86.5 344.5h-630v-41 q0 -200 78 -319.5t248 -119.5zM873 1638h-207v185h207v-185zM445 1638h-208v185h208v-185z" />
<glyph unicode="&#x4db;" horiz-adv-x="934" d="M427 1103q193 0 309 -134t116 -343v-158q0 -212 -113.5 -350t-288.5 -138q-184 0 -283 125.5t-99 337.5v140h582v43q0 140 -61.5 231.5t-174.5 91.5q-84 0 -144 -26.5t-114 -77.5l-64 126q51 58 137 95t198 37zM450 136q88 0 141 85.5t59 216.5h-381v-41q0 -115 46 -188 t135 -73zM806 1295h-207v185h207v-185zM378 1295h-208v185h208v-185z" />
<glyph unicode="&#x4dc;" horiz-adv-x="1664" d="M1073 661h-134v-661h-202v661h-139l-318 -661h-253l410 781l-383 675h245l304 -632h134v632h202v-632h130l301 632h245l-380 -673l407 -783h-252zM1155 1617h-207v185h207v-185zM727 1617h-208v185h208v-185z" />
<glyph unicode="&#x4dd;" horiz-adv-x="1424" d="M918 462h-106v-462h-202v462h-105l-220 -462h-257l321 586l-299 496h252l211 -447h97v447h202v-447h100l211 447h251l-299 -496l321 -586h-258zM1054 1274h-207v185h207v-185zM626 1274h-208v185h208v-185z" />
<glyph unicode="&#x4de;" horiz-adv-x="1064" d="M529 819q117 0 173 65.5t56 182.5q0 112 -61.5 183t-180.5 71q-96 0 -160.5 -70t-64.5 -180h-195l-2 6q-5 178 118.5 289t303.5 111q206 0 325.5 -107t119.5 -305q0 -103 -54.5 -187.5t-149.5 -131.5q108 -41 165.5 -128.5t57.5 -215.5q0 -199 -128.5 -311t-335.5 -112 q-181 0 -312.5 107t-126.5 312l2 6h195q0 -116 67.5 -193.5t174.5 -77.5q122 0 191.5 73t69.5 194q0 136 -62.5 200.5t-185.5 64.5h-145v154h145zM848 1638h-207v185h207v-185zM420 1638h-208v185h208v-185z" />
<glyph unicode="&#x4df;" horiz-adv-x="901" d="M457 624q78 0 113 41t35 118q0 73 -36.5 120t-115.5 47q-70 0 -116.5 -47.5t-46.5 -121.5h-194l-2 6q-5 139 98 226t254 87q169 0 265.5 -81t96.5 -230q0 -75 -39 -136.5t-108 -96.5q80 -31 122 -96t42 -158q0 -150 -104.5 -235.5t-274.5 -85.5q-151 0 -261 85t-105 244 l2 6h194q0 -79 48 -133t129 -54q83 0 126 49.5t43 128.5q0 89 -40.5 130.5t-124.5 41.5h-143v145h143zM773 1294h-207v185h207v-185zM345 1294h-208v185h208v-185z" />
<glyph unicode="&#x4e0;" horiz-adv-x="1021" d="M666 1300h-535v156h769l2 -128l-345 -480q180 -18 277.5 -133t97.5 -313q0 -199 -120 -311t-312 -112q-169 0 -291 107t-118 312l3 6h196q0 -117 57.5 -194t152.5 -77q107 0 168.5 73t61.5 194q0 161 -64.5 236t-191.5 75h-117v141z" />
<glyph unicode="&#x4e1;" horiz-adv-x="1021" d="M656 925h-528v157h772l2 -129l-339 -481q176 -20 272.5 -134.5t96.5 -310.5t-120 -309t-312 -113q-168 0 -290.5 108t-118.5 310l3 6h196q0 -114 57.5 -191t152.5 -77q107 0 168.5 73.5t61.5 190.5q0 162 -65 236.5t-193 74.5h-116v141z" />
<glyph unicode="&#x4e2;" horiz-adv-x="1241" d="M897 1456h203v-1456h-203v1062l-6 2l-551 -1064h-203v1456h203v-1061l6 -2zM940 1652h-635v132h635v-132z" />
<glyph unicode="&#x4e3;" horiz-adv-x="1006" d="M684 1082h202v-1082h-202v734l-6 1l-356 -735h-203v1082h203v-733l6 -1zM822 1311h-635v132h635v-132z" />
<glyph unicode="&#x4e4;" horiz-adv-x="1241" d="M897 1456h203v-1456h-203v1062l-6 2l-551 -1064h-203v1456h203v-1061l6 -2zM939 1617h-207v185h207v-185zM511 1617h-208v185h208v-185z" />
<glyph unicode="&#x4e5;" horiz-adv-x="1006" d="M684 1082h202v-1082h-202v734l-6 1l-356 -735h-203v1082h203v-733l6 -1zM821 1274h-207v185h207v-185zM393 1274h-208v185h208v-185z" />
<glyph unicode="&#x4e6;" horiz-adv-x="1160" d="M1068 527q0 -259 -134 -403.5t-359 -144.5q-222 0 -353 144.5t-131 403.5v400q0 258 131.5 404t352.5 146q224 0 358.5 -146t134.5 -404v-400zM866 930q0 190 -76 288.5t-215 98.5q-137 0 -210 -98.5t-73 -288.5v-403q0 -192 73.5 -291t209.5 -99q140 0 215.5 98.5 t75.5 291.5v403zM898 1638h-207v185h207v-185zM470 1638h-208v185h208v-185z" />
<glyph unicode="&#x4e7;" d="M76 609q0 215 112.5 354t308.5 139q195 0 308 -138.5t113 -354.5v-138q0 -217 -112.5 -354.5t-307.5 -137.5q-197 0 -309.5 137.5t-112.5 354.5v138zM279 471q0 -148 54 -243t165 -95q108 0 162.5 95t54.5 243v138q0 146 -54.5 241.5t-163.5 95.5q-110 0 -164 -95 t-54 -242v-138zM817 1295h-207v185h207v-185zM389 1295h-208v185h208v-185z" />
<glyph unicode="&#x4e8;" horiz-adv-x="1202" d="M1070 527q0 -259 -134 -403.5t-359 -144.5q-222 0 -353 144.5t-131 403.5v400q0 258 131.5 404t352.5 146q224 0 358.5 -146t134.5 -404v-400zM294 794h574v136q0 190 -76 288.5t-215 98.5q-137 0 -210 -98.5t-73 -288.5v-136zM868 654h-574v-127q0 -192 73.5 -291 t209.5 -99q140 0 215.5 98.5t75.5 291.5v127z" />
<glyph unicode="&#x4e9;" horiz-adv-x="998" d="M75 609q0 215 112.5 354t308.5 139q195 0 308 -138.5t113 -354.5v-138q0 -217 -112.5 -354.5t-307.5 -137.5q-197 0 -309.5 137.5t-112.5 354.5v138zM497 133q108 0 162.5 95t54.5 243v1h-436v-1q0 -148 54 -243t165 -95zM496 946q-110 0 -164 -94t-54 -239h436 q-1 145 -55.5 239t-162.5 94z" />
<glyph unicode="&#x4ea;" horiz-adv-x="1202" d="M1070 527q0 -259 -134 -403.5t-359 -144.5q-222 0 -353 144.5t-131 403.5v400q0 258 131.5 404t352.5 146q224 0 358.5 -146t134.5 -404v-400zM294 794h574v136q0 190 -76 288.5t-215 98.5q-137 0 -210 -98.5t-73 -288.5v-136zM868 654h-574v-127q0 -192 73.5 -291 t209.5 -99q140 0 215.5 98.5t75.5 291.5v127zM939 1638h-207v185h207v-185zM511 1638h-208v185h208v-185z" />
<glyph unicode="&#x4eb;" horiz-adv-x="998" d="M75 609q0 215 112.5 354t308.5 139q195 0 308 -138.5t113 -354.5v-138q0 -217 -112.5 -354.5t-307.5 -137.5q-197 0 -309.5 137.5t-112.5 354.5v138zM497 133q108 0 162.5 95t54.5 243v1h-436v-1q0 -148 54 -243t165 -95zM496 946q-110 0 -164 -94t-54 -239h436 q-1 145 -55.5 239t-162.5 94zM800 1323h-207v185h207v-185zM372 1323h-208v185h208v-185z" />
<glyph unicode="&#x4ec;" horiz-adv-x="1142" d="M125 989l-3 6q-4 217 120 350t335 133t340.5 -174t129.5 -446v-260q0 -273 -129.5 -445.5t-340.5 -172.5q-214 0 -337 127t-119 353l3 6h195q0 -161 65.5 -246.5t192.5 -85.5q126 0 196.5 129t70.5 333v77h-444v154h444v31q0 205 -70.5 334.5t-196.5 129.5 q-127 0 -192.5 -85.5t-65.5 -247.5h-194zM890 1638h-207v185h207v-185zM462 1638h-208v185h208v-185z" />
<glyph unicode="&#x4ed;" horiz-adv-x="931" d="M441 946q-74 0 -123.5 -58.5t-49.5 -155.5h-184l-3 6q-4 151 103 257.5t257 106.5q193 0 302.5 -154.5t109.5 -388.5v-38q0 -235 -109.5 -388.5t-301.5 -153.5q-163 0 -264 109t-97 284l2 5h185q0 -110 47.5 -177t126.5 -67q98 0 149 97t58 248h-294v139h293 q-9 145 -59.5 237t-147.5 92zM785 1295h-207v185h207v-185zM357 1295h-208v185h208v-185z" />
<glyph unicode="&#x4ee;" horiz-adv-x="1107" d="M533 737l34 -104h6l265 823h222l-428 -1202q-56 -133 -121.5 -204t-195.5 -71q-21 0 -48.5 3t-37.5 6l1 150q8 -3 33 -4t40 -1q64 0 96 42t59 124l28 78l-429 1079h221zM874 1652h-635v132h635v-132z" />
<glyph unicode="&#x4ef;" horiz-adv-x="892" d="M420 373l15 -71h6l208 780h221l-379 -1250q-38 -112 -103 -190.5t-187 -78.5q-25 0 -53.5 5.5t-56.5 12.5l22 150q11 -2 30 -4t30 -2q59 0 93.5 50.5t53.5 119.5l36 110l-334 1077h220zM765 1311h-635v132h635v-132z" />
<glyph unicode="&#x4f0;" horiz-adv-x="1107" d="M533 737l34 -104h6l265 823h222l-428 -1202q-56 -133 -121.5 -204t-195.5 -71q-21 0 -48.5 3t-37.5 6l1 150q8 -3 33 -4t40 -1q64 0 96 42t59 124l28 78l-429 1079h221zM873 1617h-207v185h207v-185zM445 1617h-208v185h208v-185z" />
<glyph unicode="&#x4f1;" horiz-adv-x="892" d="M420 373l15 -71h6l208 780h221l-379 -1250q-38 -112 -103 -190.5t-187 -78.5q-25 0 -53.5 5.5t-56.5 12.5l22 150q11 -2 30 -4t30 -2q59 0 93.5 50.5t53.5 119.5l36 110l-334 1077h220zM766 1274h-207v185h207v-185zM338 1274h-208v185h208v-185z" />
<glyph unicode="&#x4f2;" horiz-adv-x="1107" d="M533 737l34 -104h6l265 823h222l-428 -1202q-56 -133 -121.5 -204t-195.5 -71q-21 0 -48.5 3t-37.5 6l1 150q8 -3 33 -4t40 -1q64 0 96 42t59 124l28 78l-429 1079h221zM789 1867h209l3 -6l-247 -260h-174zM489 1867h207l-208 -266h-164z" />
<glyph unicode="&#x4f3;" horiz-adv-x="892" d="M420 373l15 -71h6l208 780h221l-379 -1250q-38 -112 -103 -190.5t-187 -78.5q-25 0 -53.5 5.5t-56.5 12.5l22 150q11 -2 30 -4t30 -2q59 0 93.5 50.5t53.5 119.5l36 110l-334 1077h220zM680 1524h209l3 -6l-247 -260h-174zM380 1524h207l-208 -266h-164z" />
<glyph unicode="&#x4f4;" horiz-adv-x="1211" d="M1069 1456v-1456h-203v611q-68 -22 -141 -34t-149 -12q-216 0 -330.5 108.5t-114.5 348.5v434h202v-434q0 -168 58 -235t185 -67q69 0 145.5 12.5t144.5 34.5v689h203zM939 1617h-207v185h207v-185zM511 1617h-208v185h208v-185z" />
<glyph unicode="&#x4f5;" horiz-adv-x="967" d="M846 0h-202v392q-42 -13 -84.5 -19.5t-82.5 -6.5q-188 0 -288.5 99t-100.5 311v306h202v-306q0 -140 44.5 -197.5t142.5 -57.5q43 0 84 7.5t83 21.5v532h202v-1082zM785 1274h-207v185h207v-185zM357 1274h-208v185h208v-185z" />
<glyph unicode="&#x4f6;" horiz-adv-x="980" d="M920 1300h-576v-1300h-203v1456h779v-156zM481 -356h-203v513h203v-513z" />
<glyph unicode="&#x4f7;" horiz-adv-x="743" d="M721 925h-400v-925h-202v1082h602v-157zM427 -356h-203v513h203v-513z" />
<glyph unicode="&#x4f8;" horiz-adv-x="1520" d="M344 862h256q206 0 323 -116.5t117 -310.5q0 -197 -117.5 -316t-322.5 -119h-458v1456h202v-594zM344 707v-553h256q117 0 177 80t60 203q0 117 -60 193.5t-177 76.5h-256zM1376 0h-202v1456h202v-1456zM1081 1617h-207v185h207v-185zM653 1617h-208v185h208v-185z" />
<glyph unicode="&#x4f9;" horiz-adv-x="1409" d="M331 717h202q173 0 271.5 -99.5t98.5 -257.5q0 -159 -98.5 -259.5t-271.5 -100.5h-404v1082h202v-365zM331 561v-407h202q85 0 126 57t41 145q0 85 -41 145t-126 60h-202zM1262 0h-203v1082h203v-1082zM1018 1274h-207v185h207v-185zM590 1274h-208v185h208v-185z" />
<glyph unicode="&#x4fa;" horiz-adv-x="1048" d="M986 1300h-576v-1300h-203v1456h779v-156zM609 716h-555v141h555v-141zM596 174v-248q0 -174 -78.5 -268.5t-219.5 -94.5q-30 0 -54 4.5t-52 13.5l11 157q16 -5 39.5 -9.5t42.5 -4.5q51 0 79.5 52.5t28.5 149.5v248h203z" />
<glyph unicode="&#x4fb;" horiz-adv-x="738" d="M788 925h-400v-925h-202v1082h602v-157zM602 534h-555v141h555v-141zM558 174v-248q0 -174 -78.5 -268.5t-219.5 -94.5q-30 0 -54 4.5t-52 13.5l11 157q16 -5 39.5 -9.5t42.5 -4.5q51 0 79.5 52.5t28.5 149.5v248h203z" />
<glyph unicode="&#x4fc;" horiz-adv-x="1112" d="M553 888h6l260 568h239l-379 -721l395 -735h-243l-269 582h-6l-268 -582h-240l388 735l-378 721h237zM1161 174v-248q0 -174 -78.5 -268.5t-219.5 -94.5q-30 0 -54 4.5t-52 13.5l11 157q16 -5 39.5 -9.5t42.5 -4.5q51 0 79.5 52.5t28.5 149.5v248h203z" />
<glyph unicode="&#x4fd;" horiz-adv-x="892" d="M440 687h6l170 395h232l-287 -534l297 -548h-231l-177 408h-6l-178 -408h-231l296 548l-287 534h230zM956 174v-248q0 -174 -78.5 -268.5t-219.5 -94.5q-30 0 -54 4.5t-52 13.5l11 157q16 -5 39.5 -9.5t42.5 -4.5q51 0 79.5 52.5t28.5 149.5v248h203z" />
<glyph unicode="&#x4fe;" horiz-adv-x="1112" d="M840 674h-128l362 -674h-243l-269 582h-6l-268 -582h-240l356 674h-119v141h109l-336 641h237l258 -568h6l260 568h239l-337 -641h119v-141z" />
<glyph unicode="&#x4ff;" horiz-adv-x="892" d="M721 484h-126l263 -484h-231l-177 408h-6l-178 -408h-231l261 484h-130v141h123l-245 457h230l166 -395h6l170 395h232l-246 -457h119v-141z" />
<glyph unicode="&#x500;" horiz-adv-x="1095" d="M772 884v572h203v-1456h-459q-205 0 -322 123.5t-117 321.5q0 196 117 317.5t322 121.5h256zM772 154v575h-256q-117 0 -176.5 -81.5t-59.5 -200.5q0 -124 59.5 -208.5t176.5 -84.5h256z" />
<glyph unicode="&#x501;" d="M78 528q0 259 93.5 416.5t263.5 157.5q76 0 135.5 -34t102.5 -98v590h202v-1560h-177l-15 124q-43 -71 -105.5 -108t-143.5 -37q-169 0 -262.5 144t-93.5 384v21zM281 507q0 -171 49 -271t155 -100q66 0 112.5 36t75.5 101v526q-29 67 -75.5 106t-110.5 39 q-106 0 -156 -115t-50 -301v-21z" />
<glyph unicode="&#x502;" horiz-adv-x="1512" d="M533 0q-205 0 -322.5 123.5t-117.5 321.5q0 195 117.5 317t322.5 122h256v572h203v-1303h67q84 1 130 70t49 191q1 78 -12 163.5t-38 167.5h197q28 -106 43 -182t13 -149q-3 -200 -113 -307t-269 -107h-526zM789 154v575h-256q-117 0 -177 -81.5t-60 -200.5 q0 -124 60 -208.5t177 -84.5h256z" />
<glyph unicode="&#x503;" horiz-adv-x="1502" d="M88 528q0 259 93.5 416.5t263.5 157.5q70 0 126.5 -30t99.5 -85v573h203v-1207q-2 -102 31 -160.5t91 -58.5q98 1 152.5 106t58.5 289q0 97 -13 198.5t-39 203.5l197 1q28 -124 43 -217.5t14 -185.5q-3 -266 -121 -408t-292 -142q-105 -2 -177.5 40t-109.5 132 q-45 -84 -110.5 -128t-154.5 -44q-168 0 -262 144.5t-94 383.5v21zM671 825q-30 55 -73.5 87t-100.5 32q-106 0 -156 -115t-50 -301v-21q0 -171 49 -271t155 -100q64 0 109.5 33.5t74.5 94.5q-4 18 -6 40t-2 49v472z" />
<glyph unicode="&#x504;" horiz-adv-x="1385" d="M581 378q0 118 -52.5 190t-141.5 72h-182v156h136q131 0 190 64t59 197q0 115 -57 178.5t-178 63.5h-297v157h297q211 0 324 -103t113 -298q0 -119 -57 -205.5t-164 -133.5q114 -35 164 -121.5t50 -214.5v-72q-1 -78 26 -126t73 -48q88 1 138.5 110t54.5 285 q0 97 -13 199t-39 204h198q30 -140 43.5 -226.5t12.5 -176.5q-3 -259 -118.5 -404.5t-283.5 -145.5q-138 -3 -213.5 76.5t-82.5 252.5v70z" />
<glyph unicode="&#x505;" horiz-adv-x="1132" d="M645 764q0 -81 -38.5 -139t-113.5 -94q87 -26 125.5 -86.5t38.5 -148.5v-70q-1 -53 14.5 -81.5t53.5 -28.5q75 2 116 81.5t45 221.5q1 76 -13 158t-40 161h198q28 -100 43.5 -174t13.5 -145q-3 -215 -105 -329.5t-251 -114.5q-136 -3 -203.5 53t-75.5 186v77 q0 68 -33 107t-94 42h-205l-1 151h156q84 0 124.5 42t40.5 117q0 80 -41.5 129t-125.5 49h-222l-5 154h227q176 0 273.5 -84.5t97.5 -233.5z" />
<glyph unicode="&#x506;" horiz-adv-x="991" d="M903 10l-127 -295h-121l55 285h-105q-34 35 -44 102t-10 139v123q0 122 -55 193t-153 71h-206l-1 154h174q123 0 181 67t58 190q0 124 -57 193t-173 69h-245l-3 155h248q206 0 319 -107t113 -307q0 -113 -52.5 -199t-150.5 -133q109 -37 157.5 -125t48.5 -219v-127 q0 -20 1 -39h148v-190z" />
<glyph unicode="&#x507;" horiz-adv-x="941" d="M878 3l-127 -295h-121l57 292h-115q-22 22 -27.5 71t-5.5 98v89q0 84 -43 131t-124 47h-213v145h197q89 0 132 43.5t43 124.5q0 83 -43.5 131.5t-131.5 48.5h-247l-3 153h250q178 0 278.5 -85.5t100.5 -238.5q0 -83 -40 -144t-117 -98q87 -30 125 -95.5t38 -161.5v-66 h137v-190z" />
<glyph unicode="&#x508;" horiz-adv-x="1692" d="M1090 1456v-1103q0 -103 32.5 -161t90.5 -58q98 1 152.5 106t57.5 289q1 97 -12 198t-39 204l198 1q28 -127 42.5 -219.5t13.5 -183.5q-3 -266 -121 -408t-292 -142q-152 -3 -235 87.5t-91 286.5v946h-366v-531q0 -398 -95.5 -583t-316.5 -185h-45v155h35 q116 0 167.5 143t51.5 470v688h772z" />
<glyph unicode="&#x509;" horiz-adv-x="1451" d="M678 924h-223v-302q0 -318 -79 -470t-262 -152h-55l3 166l36 1q83 0 119 107t36 348v460h628v-729q-1 -103 33 -161t94 -58q79 1 122 91.5t46 250.5q1 91 -12.5 187.5t-39.5 193.5l198 1q29 -125 43.5 -211t13.5 -171q-3 -240 -109 -368.5t-262 -128.5q-154 -3 -238 87.5 t-92 286.5v571z" />
<glyph unicode="&#x50a;" horiz-adv-x="1741" d="M1091 1456v-1103q-1 -102 31.5 -160.5t90.5 -58.5q99 1 153.5 105.5t58.5 289.5q1 96 -12.5 197t-39.5 205l197 1q29 -127 44 -219.5t13 -183.5q-4 -266 -122 -408t-292 -142q-151 -3 -234 87.5t-91 286.5v288h-548v-641h-203v1456h203v-660h548v660h203z" />
<glyph unicode="&#x50b;" horiz-adv-x="1448" d="M678 462h-368v-462h-204v1082h204v-465h368v465h203v-729q-2 -102 32 -160.5t95 -58.5q79 1 122 91.5t47 250.5q1 91 -12.5 187.5t-39.5 193.5l197 1q29 -125 43.5 -211t13.5 -171q-4 -240 -109.5 -368.5t-261.5 -128.5q-154 -3 -238 87.5t-92 286.5v109z" />
<glyph unicode="&#x50c;" horiz-adv-x="1101" d="M599 -21q-226 0 -367.5 175t-141.5 443v262q0 267 141.5 442.5t367.5 175.5q94 0 168.5 -21.5t133.5 -62.5l-51 -141q-57 33 -118.5 50.5t-132.5 17.5q-140 0 -223 -132t-83 -327v-264q0 -198 83 -330.5t223 -132.5q107 1 165.5 79t61.5 216q1 81 -10.5 170t-31.5 187 h197q33 -187 40.5 -234t7.5 -123q-3 -218 -126 -334t-304 -116z" />
<glyph unicode="&#x50d;" horiz-adv-x="921" d="M518 134q71 1 100.5 45.5t31.5 129.5q0 56 -4.5 115t-11.5 113h197q11 -72 17 -125t6 -103q-3 -163 -95.5 -246.5t-240.5 -83.5q-204 0 -321 156.5t-117 384.5v42q0 226 112.5 383t307.5 157q79 0 139 -17t99 -48l-38 -148q-39 27 -90.5 41.5t-109.5 14.5 q-108 0 -162.5 -114.5t-54.5 -268.5v-42q0 -158 58.5 -272t176.5 -114z" />
<glyph unicode="&#x50e;" horiz-adv-x="1242" d="M422 1299h-386v157h975v-157h-386v-946q-1 -103 31.5 -161t90.5 -58q99 1 153.5 105.5t57.5 289.5q1 96 -12.5 196.5t-38.5 205.5l196 1q28 -121 43.5 -216t13.5 -187q-4 -266 -122 -408t-291 -142q-151 -3 -234 87.5t-91 286.5v946z" />
<glyph unicode="&#x50f;" horiz-adv-x="1123" d="M340 927h-275v155h767v-155h-289v-574q-1 -102 33.5 -160.5t95.5 -58.5q79 1 122.5 79t46.5 216q1 77 -12.5 161t-39.5 166h197q29 -103 44 -178.5t14 -148.5q-4 -218 -110 -334t-262 -116q-154 -3 -239 87.5t-93 286.5v574z" />
<glyph unicode="&#x510;" horiz-adv-x="1168" d="M119 402q0 128 61.5 215.5t178.5 128.5q-104 46 -162.5 131t-58.5 188q0 198 128 305t350 107q191 0 322 -111t127 -289l-2 -6h-195q0 110 -73 180t-179 70q-137 0 -206.5 -71t-69.5 -183q0 -117 64 -182.5t199 -65.5h162v-154h-162q-140 0 -210.5 -64.5t-70.5 -200.5 q0 -121 78 -194t216 -73q118 0 193.5 77.5t75.5 193.5h195l2 -6q4 -205 -135 -312t-331 -107q-222 0 -359.5 112t-137.5 311z" />
<glyph unicode="&#x511;" horiz-adv-x="966" d="M90 302q0 93 46 157.5t134 96.5q-78 35 -121 96.5t-43 136.5q0 148 105 229.5t284 81.5q159 0 267.5 -87t103.5 -226l-2 -6h-194q0 74 -52 121.5t-130 47.5q-90 0 -134.5 -48t-44.5 -119q0 -75 43.5 -118t131.5 -43h165v-141h-165q-94 0 -142.5 -43t-48.5 -131 q0 -78 51 -128t144 -50q89 0 143 54t54 133h194l2 -6q4 -159 -111.5 -244t-274.5 -85q-179 0 -292 85.5t-113 235.5z" />
<glyph unicode="&#x512;" horiz-adv-x="1241" d="M1099 1456v-1456h-202v1300h-404l-2 -512q-1 -416 -94.5 -602t-299.5 -186h-51v154h34q117 2 162.5 139.5t46.5 494.5l2 668h808zM1301 174v-248q0 -174 -78.5 -268.5t-219.5 -94.5q-30 0 -54 4.5t-52 13.5l11 157q16 -5 39.5 -9.5t42.5 -4.5q51 0 79.5 52.5t28.5 149.5 v248h203z" />
<glyph unicode="&#x513;" horiz-adv-x="1008" d="M888 1082v-1082h-203v925h-270v-312q0 -319 -76.5 -466t-262.5 -147h-43v162l31 1q87 0 117.5 97t30.5 353v469h676zM1090 174v-248q0 -174 -78.5 -268.5t-219.5 -94.5q-30 0 -54 4.5t-52 13.5l11 157q16 -5 39.5 -9.5t42.5 -4.5q51 0 79.5 52.5t28.5 149.5v248h203z" />
<glyph unicode="&#x1e00;" horiz-adv-x="1137" d="M803 368h-464l-106 -368h-206l448 1456h196l444 -1456h-206zM386 529h371l-182 636h-6zM436 -227q0 63 42 105.5t102 42.5q59 0 100 -42.5t41 -105.5t-40.5 -103.5t-100.5 -40.5q-61 0 -102.5 41t-41.5 103zM521 -227q0 -27 17 -46t42 -19q24 0 40 18.5t16 46.5 q0 30 -16 49t-40 19q-25 0 -42 -19t-17 -49z" />
<glyph unicode="&#x1e01;" horiz-adv-x="955" d="M667 0q-11 37 -18 72.5t-9 71.5q-45 -73 -113 -119t-151 -46q-137 0 -214.5 86.5t-77.5 231.5q0 155 105.5 243.5t296.5 88.5h151v111q0 99 -44 154.5t-125 55.5q-73 0 -117.5 -50t-44.5 -125l-193 1l-3 6q-5 125 100 222.5t271 97.5q160 0 259.5 -94.5t99.5 -269.5v-502 q0 -63 7.5 -121.5t24.5 -114.5h-205zM422 135q71 0 129.5 42t85.5 105v221h-154q-93 0 -144.5 -59.5t-51.5 -145.5q0 -73 35 -118t100 -45zM273 -223q0 63 42 105.5t102 42.5q59 0 100 -42.5t41 -105.5t-40.5 -103.5t-100.5 -40.5q-61 0 -102.5 41t-41.5 103zM358 -223 q0 -27 17 -46t42 -19q24 0 40 18.5t16 46.5q0 30 -16 49t-40 19q-25 0 -42 -19t-17 -49z" />
<glyph unicode="&#x1e3e;" horiz-adv-x="1483" d="M397 1456l340 -1188h6l341 1188h262v-1456h-201v559l18 560l-6 1l-350 -1120h-134l-349 1119l-6 -1l19 -559v-559h-201v1456h261zM811 1824h226l2 -5l-238 -261h-162z" />
<glyph unicode="&#x1e3f;" horiz-adv-x="1525" d="M301 1082l11 -147q44 80 112 123.5t159 43.5q89 0 153 -49.5t97 -150.5q42 94 112 147t166 53q138 0 217.5 -113.5t79.5 -345.5v-643h-203v644q0 166 -41 233t-121 67q-69 0 -115.5 -52.5t-67.5 -139.5q-1 8 1 -25.5t2 -48.5v-678h-202v644q0 161 -42 230.5t-122 69.5 q-64 0 -109 -35.5t-70 -98.5v-810h-202v1082h185zM849 1502h226l2 -5l-238 -261h-162z" />
<glyph unicode="&#x1e80;" horiz-adv-x="1551" d="M1103 418h6l196 1038h199l-294 -1456h-187l-247 1034h-6l-249 -1034h-187l-293 1456h199l197 -1038h6l248 1038h161zM873 1561h-170l-228 261l2 5h227z" />
<glyph unicode="&#x1e81;" horiz-adv-x="1308" d="M920 351h6l143 731h194l-248 -1082h-167l-194 719h-6l-191 -719h-168l-248 1082h194l146 -725h6l192 725h146zM752 1218h-170l-228 261l2 5h227z" />
<glyph unicode="&#x1e82;" horiz-adv-x="1551" d="M1103 418h6l196 1038h199l-294 -1456h-187l-247 1034h-6l-249 -1034h-187l-293 1456h199l197 -1038h6l248 1038h161zM842 1824h226l2 -5l-238 -261h-162z" />
<glyph unicode="&#x1e83;" horiz-adv-x="1308" d="M920 351h6l143 731h194l-248 -1082h-167l-194 719h-6l-191 -719h-168l-248 1082h194l146 -725h6l192 725h146zM721 1481h226l2 -5l-238 -261h-162z" />
<glyph unicode="&#x1e84;" horiz-adv-x="1551" d="M1103 418h6l196 1038h199l-294 -1456h-187l-247 1034h-6l-249 -1034h-187l-293 1456h199l197 -1038h6l248 1038h161zM1091 1617h-207v185h207v-185zM663 1617h-208v185h208v-185z" />
<glyph unicode="&#x1e85;" horiz-adv-x="1308" d="M920 351h6l143 731h194l-248 -1082h-167l-194 719h-6l-191 -719h-168l-248 1082h194l146 -725h6l192 725h146zM970 1274h-207v185h207v-185zM542 1274h-208v185h208v-185z" />
<glyph unicode="&#x1ea0;" horiz-adv-x="1137" d="M803 368h-464l-106 -368h-206l448 1456h196l444 -1456h-206zM386 529h371l-182 636h-6zM700 -333h-227v200h227v-200z" />
<glyph unicode="&#x1ea1;" horiz-adv-x="955" d="M667 0q-11 37 -18 72.5t-9 71.5q-45 -73 -113 -119t-151 -46q-137 0 -214.5 86.5t-77.5 231.5q0 155 105.5 243.5t296.5 88.5h151v111q0 99 -44 154.5t-125 55.5q-73 0 -117.5 -50t-44.5 -125l-193 1l-3 6q-5 125 100 222.5t271 97.5q160 0 259.5 -94.5t99.5 -269.5v-502 q0 -63 7.5 -121.5t24.5 -114.5h-205zM422 135q71 0 129.5 42t85.5 105v221h-154q-93 0 -144.5 -59.5t-51.5 -145.5q0 -73 35 -118t100 -45zM537 -329h-227v200h227v-200z" />
<glyph unicode="&#x1ea2;" horiz-adv-x="1137" d="M803 368h-464l-106 -368h-206l448 1456h196l444 -1456h-206zM386 529h371l-182 636h-6zM514 1583l-7 137q65 5 92.5 22.5t27.5 56.5q0 43 -35.5 62.5t-95.5 19.5l6 103q141 0 216 -49.5t75 -134.5q0 -69 -37 -106.5t-92 -45.5v-65h-150z" />
<glyph unicode="&#x1ea3;" horiz-adv-x="955" d="M667 0q-11 37 -18 72.5t-9 71.5q-45 -73 -113 -119t-151 -46q-137 0 -214.5 86.5t-77.5 231.5q0 155 105.5 243.5t296.5 88.5h151v111q0 99 -44 154.5t-125 55.5q-73 0 -117.5 -50t-44.5 -125l-193 1l-3 6q-5 125 100 222.5t271 97.5q160 0 259.5 -94.5t99.5 -269.5v-502 q0 -63 7.5 -121.5t24.5 -114.5h-205zM422 135q71 0 129.5 42t85.5 105v221h-154q-93 0 -144.5 -59.5t-51.5 -145.5q0 -73 35 -118t100 -45zM397 1261l-7 137q65 5 92.5 22.5t27.5 56.5q0 43 -35.5 62.5t-95.5 19.5l6 103q141 0 216 -49.5t75 -134.5q0 -69 -37 -106.5 t-92 -45.5v-65h-150z" />
<glyph unicode="&#x1ea4;" horiz-adv-x="1137" d="M803 368h-464l-106 -368h-206l448 1456h196l444 -1456h-206zM386 529h371l-182 636h-6zM504 1841h166l246 -247l-3 -6h-191l-136 159l-135 -159h-191l-2 6zM972 2003h199l-175 -251h-147z" />
<glyph unicode="&#x1ea5;" horiz-adv-x="955" d="M667 0q-11 37 -18 72.5t-9 71.5q-45 -73 -113 -119t-151 -46q-137 0 -214.5 86.5t-77.5 231.5q0 155 105.5 243.5t296.5 88.5h151v111q0 99 -44 154.5t-125 55.5q-73 0 -117.5 -50t-44.5 -125l-193 1l-3 6q-5 125 100 222.5t271 97.5q160 0 259.5 -94.5t99.5 -269.5v-502 q0 -63 7.5 -121.5t24.5 -114.5h-205zM422 135q71 0 129.5 42t85.5 105v221h-154q-93 0 -144.5 -59.5t-51.5 -145.5q0 -73 35 -118t100 -45zM387 1519h166l246 -247l-3 -6h-191l-136 159l-135 -159h-191l-2 6zM855 1681h199l-175 -251h-147z" />
<glyph unicode="&#x1ea6;" horiz-adv-x="1137" d="M803 368h-464l-106 -368h-206l448 1456h196l444 -1456h-206zM386 529h371l-182 636h-6zM917 1583l-3 -6h-191l-136 159l-136 -159h-191l-2 6l246 247h167zM325 1741h-146l-174 251h197z" />
<glyph unicode="&#x1ea7;" horiz-adv-x="955" d="M667 0q-11 37 -18 72.5t-9 71.5q-45 -73 -113 -119t-151 -46q-137 0 -214.5 86.5t-77.5 231.5q0 155 105.5 243.5t296.5 88.5h151v111q0 99 -44 154.5t-125 55.5q-73 0 -117.5 -50t-44.5 -125l-193 1l-3 6q-5 125 100 222.5t271 97.5q160 0 259.5 -94.5t99.5 -269.5v-502 q0 -63 7.5 -121.5t24.5 -114.5h-205zM422 135q71 0 129.5 42t85.5 105v221h-154q-93 0 -144.5 -59.5t-51.5 -145.5q0 -73 35 -118t100 -45zM800 1261l-3 -6h-191l-136 159l-136 -159h-191l-2 6l246 247h167zM208 1419h-146l-174 251h197z" />
<glyph unicode="&#x1ea8;" horiz-adv-x="1137" d="M803 368h-464l-106 -368h-206l448 1456h196l444 -1456h-206zM386 529h371l-182 636h-6zM913 1570l-3 -6h-177l-150 175l-150 -175h-177l-3 6l237 247h186zM871 1696l-7 119q56 4 79.5 18t23.5 46q0 36 -30 52.5t-81 16.5l5 91q119 0 183.5 -42t64.5 -115 q0 -60 -31.5 -91.5t-78.5 -38.5l-1 -56h-127z" />
<glyph unicode="&#x1ea9;" horiz-adv-x="955" d="M667 0q-11 37 -18 72.5t-9 71.5q-45 -73 -113 -119t-151 -46q-137 0 -214.5 86.5t-77.5 231.5q0 155 105.5 243.5t296.5 88.5h151v111q0 99 -44 154.5t-125 55.5q-73 0 -117.5 -50t-44.5 -125l-193 1l-3 6q-5 125 100 222.5t271 97.5q160 0 259.5 -94.5t99.5 -269.5v-502 q0 -63 7.5 -121.5t24.5 -114.5h-205zM422 135q71 0 129.5 42t85.5 105v221h-154q-93 0 -144.5 -59.5t-51.5 -145.5q0 -73 35 -118t100 -45zM796 1250l-3 -6h-177l-150 175l-150 -175h-177l-3 6l237 247h186zM754 1376l-7 119q56 4 79.5 18t23.5 46q0 36 -30 52.5t-81 16.5 l5 91q119 0 183.5 -42t64.5 -115q0 -60 -31.5 -91.5t-78.5 -38.5l-1 -56h-127z" />
<glyph unicode="&#x1eaa;" horiz-adv-x="1137" d="M803 368h-464l-106 -368h-206l448 1456h196l444 -1456h-206zM386 529h371l-182 636h-6zM908 1560l-2 -6h-175l-150 166l-150 -166h-175l-2 6l245 240h164zM812 2035q0 -68 -37.5 -118t-92.5 -50q-44 0 -99 39t-87 39q-24 0 -41 -29t-17 -66l-80 21q0 68 36.5 120.5 t91.5 52.5q35 0 94 -38t92 -38q23 0 40.5 27.5t17.5 64.5z" />
<glyph unicode="&#x1eab;" horiz-adv-x="955" d="M667 0q-11 37 -18 72.5t-9 71.5q-45 -73 -113 -119t-151 -46q-137 0 -214.5 86.5t-77.5 231.5q0 155 105.5 243.5t296.5 88.5h151v111q0 99 -44 154.5t-125 55.5q-73 0 -117.5 -50t-44.5 -125l-193 1l-3 6q-5 125 100 222.5t271 97.5q160 0 259.5 -94.5t99.5 -269.5v-502 q0 -63 7.5 -121.5t24.5 -114.5h-205zM422 135q71 0 129.5 42t85.5 105v221h-154q-93 0 -144.5 -59.5t-51.5 -145.5q0 -73 35 -118t100 -45zM791 1240l-2 -6h-175l-150 166l-150 -166h-175l-2 6l245 240h164zM695 1715q0 -68 -37.5 -118t-92.5 -50q-44 0 -99 39t-87 39 q-24 0 -41 -29t-17 -66l-80 21q0 68 36.5 120.5t91.5 52.5q35 0 94 -38t92 -38q23 0 40.5 27.5t17.5 64.5z" />
<glyph unicode="&#x1eac;" horiz-adv-x="1137" d="M803 368h-464l-106 -368h-206l448 1456h196l444 -1456h-206zM386 529h371l-182 636h-6zM875 1621v-22h-164l-123 151l-122 -151h-161v23l222 232h122zM700 -333h-227v200h227v-200z" />
<glyph unicode="&#x1ead;" horiz-adv-x="955" d="M667 0q-11 37 -18 72.5t-9 71.5q-45 -73 -113 -119t-151 -46q-137 0 -214.5 86.5t-77.5 231.5q0 155 105.5 243.5t296.5 88.5h151v111q0 99 -44 154.5t-125 55.5q-73 0 -117.5 -50t-44.5 -125l-193 1l-3 6q-5 125 100 222.5t271 97.5q160 0 259.5 -94.5t99.5 -269.5v-502 q0 -63 7.5 -121.5t24.5 -114.5h-205zM422 135q71 0 129.5 42t85.5 105v221h-154q-93 0 -144.5 -59.5t-51.5 -145.5q0 -73 35 -118t100 -45zM758 1299v-22h-164l-123 151l-122 -151h-161v23l222 232h122zM537 -329h-227v200h227v-200z" />
<glyph unicode="&#x1eae;" horiz-adv-x="1137" d="M803 368h-464l-106 -368h-206l448 1456h196l444 -1456h-206zM386 529h371l-182 636h-6zM848 1792l2 -6q5 -94 -69.5 -154t-199.5 -60q-127 0 -201 60t-68 154l2 6h150q0 -54 27.5 -87t89.5 -33q59 0 87.5 33.5t28.5 86.5h151zM622 2005h155l-143 -199h-111z" />
<glyph unicode="&#x1eaf;" horiz-adv-x="955" d="M667 0q-11 37 -18 72.5t-9 71.5q-45 -73 -113 -119t-151 -46q-137 0 -214.5 86.5t-77.5 231.5q0 155 105.5 243.5t296.5 88.5h151v111q0 99 -44 154.5t-125 55.5q-73 0 -117.5 -50t-44.5 -125l-193 1l-3 6q-5 125 100 222.5t271 97.5q160 0 259.5 -94.5t99.5 -269.5v-502 q0 -63 7.5 -121.5t24.5 -114.5h-205zM422 135q71 0 129.5 42t85.5 105v221h-154q-93 0 -144.5 -59.5t-51.5 -145.5q0 -73 35 -118t100 -45zM731 1470l2 -6q5 -94 -69.5 -154t-199.5 -60q-127 0 -201 60t-68 154l2 6h150q0 -54 27.5 -87t89.5 -33q59 0 87.5 33.5t28.5 86.5 h151zM505 1683h155l-143 -199h-111z" />
<glyph unicode="&#x1eb0;" horiz-adv-x="1137" d="M803 368h-464l-106 -368h-206l448 1456h196l444 -1456h-206zM386 529h371l-182 636h-6zM865 1845l2 -6q4 -116 -73 -189t-206 -73q-130 0 -207 73t-72 189l2 6h143q0 -64 32.5 -104t101.5 -40q68 0 100.5 40t32.5 104h144zM681 1880h-161l-172 208l3 5h202z" />
<glyph unicode="&#x1eb1;" horiz-adv-x="955" d="M667 0q-11 37 -18 72.5t-9 71.5q-45 -73 -113 -119t-151 -46q-137 0 -214.5 86.5t-77.5 231.5q0 155 105.5 243.5t296.5 88.5h151v111q0 99 -44 154.5t-125 55.5q-73 0 -117.5 -50t-44.5 -125l-193 1l-3 6q-5 125 100 222.5t271 97.5q160 0 259.5 -94.5t99.5 -269.5v-502 q0 -63 7.5 -121.5t24.5 -114.5h-205zM422 135q71 0 129.5 42t85.5 105v221h-154q-93 0 -144.5 -59.5t-51.5 -145.5q0 -73 35 -118t100 -45zM748 1523l2 -6q4 -116 -73 -189t-206 -73q-130 0 -207 73t-72 189l2 6h143q0 -64 32.5 -104t101.5 -40q68 0 100.5 40t32.5 104h144z M564 1558h-161l-172 208l3 5h202z" />
<glyph unicode="&#x1eb2;" horiz-adv-x="1137" d="M803 368h-464l-106 -368h-206l448 1456h196l444 -1456h-206zM386 529h371l-182 636h-6zM843 1792l2 -6q5 -92 -68 -150.5t-198 -58.5t-198 58.5t-67 150.5l2 6h148q0 -53 28 -85.5t87 -32.5q58 0 86.5 33t28.5 85h149zM513 1829l-7 114q61 3 88.5 17t27.5 46 q0 34 -34.5 49.5t-91.5 15.5l5 80q136 0 209.5 -38.5t73.5 -105.5q0 -56 -35.5 -85t-89.5 -36l-1 -57h-145z" />
<glyph unicode="&#x1eb3;" horiz-adv-x="955" d="M667 0q-11 37 -18 72.5t-9 71.5q-45 -73 -113 -119t-151 -46q-137 0 -214.5 86.5t-77.5 231.5q0 155 105.5 243.5t296.5 88.5h151v111q0 99 -44 154.5t-125 55.5q-73 0 -117.5 -50t-44.5 -125l-193 1l-3 6q-5 125 100 222.5t271 97.5q160 0 259.5 -94.5t99.5 -269.5v-502 q0 -63 7.5 -121.5t24.5 -114.5h-205zM422 135q71 0 129.5 42t85.5 105v221h-154q-93 0 -144.5 -59.5t-51.5 -145.5q0 -73 35 -118t100 -45zM726 1470l2 -6q5 -92 -68 -150.5t-198 -58.5t-198 58.5t-67 150.5l2 6h148q0 -53 28 -85.5t87 -32.5q58 0 86.5 33t28.5 85h149z M396 1507l-7 114q61 3 88.5 17t27.5 46q0 34 -34.5 49.5t-91.5 15.5l5 80q136 0 209.5 -38.5t73.5 -105.5q0 -56 -35.5 -85t-89.5 -36l-1 -57h-145z" />
<glyph unicode="&#x1eb4;" horiz-adv-x="1137" d="M803 368h-464l-106 -368h-206l448 1456h196l444 -1456h-206zM386 529h371l-182 636h-6zM848 1796l2 -6q5 -94 -68.5 -154t-197.5 -60q-125 0 -198.5 60t-67.5 154l2 6h148q0 -54 27.5 -87.5t88.5 -33.5q59 0 87 33.5t28 87.5h149zM829 2061q0 -75 -40 -126.5t-99 -51.5 q-48 0 -104.5 40.5t-90.5 40.5q-27 0 -45 -27t-18 -67l-86 22q0 73 38.5 125.5t99.5 52.5q38 0 98.5 -40.5t96.5 -40.5q25 0 44 27.5t19 68.5z" />
<glyph unicode="&#x1eb5;" horiz-adv-x="955" d="M667 0q-11 37 -18 72.5t-9 71.5q-45 -73 -113 -119t-151 -46q-137 0 -214.5 86.5t-77.5 231.5q0 155 105.5 243.5t296.5 88.5h151v111q0 99 -44 154.5t-125 55.5q-73 0 -117.5 -50t-44.5 -125l-193 1l-3 6q-5 125 100 222.5t271 97.5q160 0 259.5 -94.5t99.5 -269.5v-502 q0 -63 7.5 -121.5t24.5 -114.5h-205zM422 135q71 0 129.5 42t85.5 105v221h-154q-93 0 -144.5 -59.5t-51.5 -145.5q0 -73 35 -118t100 -45zM731 1474l2 -6q5 -94 -68.5 -154t-197.5 -60q-125 0 -198.5 60t-67.5 154l2 6h148q0 -54 27.5 -87.5t88.5 -33.5q59 0 87 33.5 t28 87.5h149zM712 1739q0 -75 -40 -126.5t-99 -51.5q-48 0 -104.5 40.5t-90.5 40.5q-27 0 -45 -27t-18 -67l-86 22q0 73 38.5 125.5t99.5 52.5q38 0 98.5 -40.5t96.5 -40.5q25 0 44 27.5t19 68.5z" />
<glyph unicode="&#x1eb6;" horiz-adv-x="1137" d="M803 368h-464l-106 -368h-206l448 1456h196l444 -1456h-206zM386 529h371l-182 636h-6zM866 1872l2 -6q4 -118 -72.5 -192t-206.5 -74q-131 0 -207.5 74t-71.5 192l2 6h151q0 -66 30.5 -108t95.5 -42q62 0 92.5 42t30.5 108h154zM700 -333h-227v200h227v-200z" />
<glyph unicode="&#x1eb7;" horiz-adv-x="955" d="M667 0q-11 37 -18 72.5t-9 71.5q-45 -73 -113 -119t-151 -46q-137 0 -214.5 86.5t-77.5 231.5q0 155 105.5 243.5t296.5 88.5h151v111q0 99 -44 154.5t-125 55.5q-73 0 -117.5 -50t-44.5 -125l-193 1l-3 6q-5 125 100 222.5t271 97.5q160 0 259.5 -94.5t99.5 -269.5v-502 q0 -63 7.5 -121.5t24.5 -114.5h-205zM422 135q71 0 129.5 42t85.5 105v221h-154q-93 0 -144.5 -59.5t-51.5 -145.5q0 -73 35 -118t100 -45zM749 1550l2 -6q4 -118 -72.5 -192t-206.5 -74q-131 0 -207.5 74t-71.5 192l2 6h151q0 -66 30.5 -108t95.5 -42q62 0 92.5 42 t30.5 108h154zM537 -329h-227v200h227v-200z" />
<glyph unicode="&#x1eb8;" horiz-adv-x="1018" d="M884 676h-540v-522h626v-154h-829v1456h823v-156h-620v-469h540v-155zM642 -323h-227v200h227v-200z" />
<glyph unicode="&#x1eb9;" horiz-adv-x="930" d="M507 -21q-193 0 -309 134t-116 343v158q0 212 113.5 350t288.5 138q184 0 283 -125.5t99 -337.5v-140h-582v-43q0 -140 61.5 -231.5t174.5 -91.5q84 0 144 26.5t114 77.5l64 -126q-51 -58 -137 -95t-198 -37zM484 946q-88 0 -141 -85.5t-59 -216.5h381v41q0 115 -46 188 t-135 73zM606 -333h-227v200h227v-200z" />
<glyph unicode="&#x1eba;" horiz-adv-x="1018" d="M884 676h-540v-522h626v-154h-829v1456h823v-156h-620v-469h540v-155zM454 1583l-7 137q65 5 92.5 22.5t27.5 56.5q0 43 -35.5 62.5t-95.5 19.5l6 103q141 0 216 -49.5t75 -134.5q0 -69 -37 -106.5t-92 -45.5v-65h-150z" />
<glyph unicode="&#x1ebb;" horiz-adv-x="930" d="M507 -21q-193 0 -309 134t-116 343v158q0 212 113.5 350t288.5 138q184 0 283 -125.5t99 -337.5v-140h-582v-43q0 -140 61.5 -231.5t174.5 -91.5q84 0 144 26.5t114 77.5l64 -126q-51 -58 -137 -95t-198 -37zM484 946q-88 0 -141 -85.5t-59 -216.5h381v41q0 115 -46 188 t-135 73zM400 1262l-7 137q65 5 92.5 22.5t27.5 56.5q0 43 -35.5 62.5t-95.5 19.5l6 103q141 0 216 -49.5t75 -134.5q0 -69 -37 -106.5t-92 -45.5v-65h-150z" />
<glyph unicode="&#x1ebc;" horiz-adv-x="1018" d="M884 676h-540v-522h626v-154h-829v1456h823v-156h-620v-469h540v-155zM832 1838q0 -92 -50 -155t-126 -63q-61 0 -131 49t-113 49q-33 0 -56 -33.5t-23 -82.5l-111 28q0 90 50 155t126 65q48 0 124 -49.5t120 -49.5q33 0 56.5 34t23.5 84z" />
<glyph unicode="&#x1ebd;" horiz-adv-x="930" d="M507 -21q-193 0 -309 134t-116 343v158q0 212 113.5 350t288.5 138q184 0 283 -125.5t99 -337.5v-140h-582v-43q0 -140 61.5 -231.5t174.5 -91.5q84 0 144 26.5t114 77.5l64 -126q-51 -58 -137 -95t-198 -37zM484 946q-88 0 -141 -85.5t-59 -216.5h381v41q0 115 -46 188 t-135 73zM778 1517q0 -92 -50 -155t-126 -63q-61 0 -131 49t-113 49q-33 0 -56 -33.5t-23 -82.5l-111 28q0 90 50 155t126 65q48 0 124 -49.5t120 -49.5q33 0 56.5 34t23.5 84z" />
<glyph unicode="&#x1ebe;" horiz-adv-x="1018" d="M884 676h-540v-522h626v-154h-829v1456h823v-156h-620v-469h540v-155zM444 1841h166l246 -247l-3 -6h-191l-136 159l-135 -159h-191l-2 6zM912 2003h199l-175 -251h-147z" />
<glyph unicode="&#x1ebf;" horiz-adv-x="930" d="M507 -21q-193 0 -309 134t-116 343v158q0 212 113.5 350t288.5 138q184 0 283 -125.5t99 -337.5v-140h-582v-43q0 -140 61.5 -231.5t174.5 -91.5q84 0 144 26.5t114 77.5l64 -126q-51 -58 -137 -95t-198 -37zM484 946q-88 0 -141 -85.5t-59 -216.5h381v41q0 115 -46 188 t-135 73zM390 1520h166l246 -247l-3 -6h-191l-136 159l-135 -159h-191l-2 6zM858 1682h199l-175 -251h-147z" />
<glyph unicode="&#x1ec0;" horiz-adv-x="1018" d="M884 676h-540v-522h626v-154h-829v1456h823v-156h-620v-469h540v-155zM857 1583l-3 -6h-191l-136 159l-136 -159h-191l-2 6l246 247h167zM265 1741h-146l-174 251h197z" />
<glyph unicode="&#x1ec1;" horiz-adv-x="930" d="M507 -21q-193 0 -309 134t-116 343v158q0 212 113.5 350t288.5 138q184 0 283 -125.5t99 -337.5v-140h-582v-43q0 -140 61.5 -231.5t174.5 -91.5q84 0 144 26.5t114 77.5l64 -126q-51 -58 -137 -95t-198 -37zM484 946q-88 0 -141 -85.5t-59 -216.5h381v41q0 115 -46 188 t-135 73zM803 1262l-3 -6h-191l-136 159l-136 -159h-191l-2 6l246 247h167zM211 1420h-146l-174 251h197z" />
<glyph unicode="&#x1ec2;" horiz-adv-x="1018" d="M884 676h-540v-522h626v-154h-829v1456h823v-156h-620v-469h540v-155zM853 1570l-3 -6h-177l-150 175l-150 -175h-177l-3 6l237 247h186zM811 1696l-7 119q56 4 79.5 18t23.5 46q0 36 -30 52.5t-81 16.5l5 91q119 0 183.5 -42t64.5 -115q0 -60 -31.5 -91.5t-78.5 -38.5 l-1 -56h-127z" />
</font>
</defs>
</svg>
