<?xml version="1.0" standalone="no"?>
<!DOCTYPE svg PUBLIC "-//W3C//DTD SVG 1.1//EN" "http://www.w3.org/Graphics/SVG/1.1/DTD/svg11.dtd" >
<svg xmlns="http://www.w3.org/2000/svg">
<metadata></metadata>
<defs>
<font id="roboto_condensedlight_italic" horiz-adv-x="934" >
<font-face units-per-em="2048" ascent="1638" descent="-410" />
<missing-glyph horiz-adv-x="424" />
<glyph unicode="fi" horiz-adv-x="908" d="M100 0l196 981h-140l20 101h140l28 136q36 185 131 274t237 89q51 0 104 -15.5t104 -44.5l-40 -105q-38 24 -82 38t-99 14q-89 0 -151.5 -65t-85.5 -185l-27 -136h186l-20 -101h-187l-196 -981h-118zM678 0h-119l216 1082h119z" />
<glyph horiz-adv-x="28" />
<glyph unicode="&#x9;" horiz-adv-x="28" />
<glyph unicode=" "  horiz-adv-x="424" />
<glyph unicode="&#x09;" horiz-adv-x="424" />
<glyph unicode="&#xa0;" horiz-adv-x="424" />
<glyph unicode="!" horiz-adv-x="415" d="M276 478h-117l195 978h117zM187 0h-129l34 168h129z" />
<glyph unicode="&#x22;" horiz-adv-x="538" d="M359 1341l-78 -261h-66l42 254l37 226h100zM576 1341l-77 -261h-66l43 258l36 222h99z" />
<glyph unicode="#" horiz-adv-x="1031" d="M585 410h-230l-144 -410h-94l143 410h-196l19 96h211l152 435h-216l20 99h231l146 416h95l-146 -416h230l146 416h94l-146 -416h171l-20 -99h-186l-153 -435h194l-19 -96h-208l-144 -410h-94zM388 506h230l153 435h-230z" />
<glyph unicode="$" horiz-adv-x="929" d="M696 359q18 113 -23.5 180.5t-167.5 132.5q-154 66 -218 159t-37 262q26 167 119 266t230 115l32 203h99l-32 -204q128 -20 186 -136.5t27 -310.5h-118q25 157 -17 249t-146 92q-102 0 -173 -77.5t-89 -193.5q-19 -117 21.5 -183.5t173.5 -131.5q152 -68 214.5 -160 t36.5 -260q-28 -171 -123.5 -267t-239.5 -112l-30 -190h-98l30 190q-134 16 -210.5 121.5t-42.5 315.5h117q-30 -184 30.5 -258t166.5 -74q105 0 184 78t98 194z" />
<glyph unicode="%" horiz-adv-x="1282" d="M253 1176q27 135 109 218t193 83q101 0 153 -88.5t28 -212.5l-15 -77q-28 -135 -109.5 -217t-190.5 -82q-102 0 -155 88t-28 211zM333 1099q-19 -92 7 -151t99 -59q65 0 117.5 62t70.5 148l15 77q19 92 -7 152t-97 60q-66 0 -119.5 -63.5t-70.5 -148.5zM691 357 q27 134 109 217t192 83q101 0 153 -88t28 -212l-15 -78q-28 -136 -109 -218t-190 -82q-102 0 -155 88t-28 212zM770 279q-19 -93 7.5 -152t99.5 -59q65 0 117.5 62.5t70.5 148.5l15 78q19 95 -7 153t-98 58q-66 0 -119.5 -62t-70.5 -149zM332 120l-60 49l787 1138l61 -49z " />
<glyph unicode="&#x26;" horiz-adv-x="1079" d="M387 790q-54 103 -74.5 185.5t-5.5 169.5q27 165 115.5 248.5t222.5 83.5q119 0 183 -82.5t45 -203.5q-16 -96 -65 -158.5t-136 -128.5l-144 -116l253 -462l6 1q46 65 80 148t50 177h110q-22 -132 -69.5 -237t-121.5 -191l123 -224h-144l-71 130q-81 -73 -170.5 -112 t-182.5 -39q-169 0 -258.5 108.5t-60.5 284.5q20 126 95.5 218.5t213.5 194.5zM407 83q70 0 145.5 35t143.5 100l-259 481l-6 10l-39 -31q-105 -93 -148 -167.5t-52 -138.5q-21 -129 32.5 -209t182.5 -80zM429 1147q-11 -66 3 -134t53 -145l156 125q55 44 82.5 93t37.5 105 q12 80 -23 130t-110 50q-76 0 -130.5 -65t-68.5 -159z" />
<glyph unicode="'" horiz-adv-x="320" d="M359 1363l-82 -275h-67l48 266l33 206h100z" />
<glyph unicode="(" horiz-adv-x="545" d="M146 588q60 375 219.5 654.5t313.5 382.5l5 -1l12 -75q-127 -104 -252.5 -366t-177.5 -592l-4 -20q-55 -343 -13 -597t137 -364l-35 -72l-6 1q-120 101 -190.5 383.5t-10.5 650.5z" />
<glyph unicode=")" horiz-adv-x="553" d="M443 573q-62 -384 -220 -657.5t-313 -377.5l-6 1l-12 71q125 104 252 367.5t180 593.5l4 20q54 340 9.5 597t-134.5 366l35 71l6 -1q118 -100 188 -388t13 -648z" />
<glyph unicode="*" horiz-adv-x="754" d="M418 999l-244 106l52 104l241 -122l70 369h101l-81 -372l287 126l9 -104l-292 -114l121 -293l-97 -64l-107 304l-224 -302l-70 63z" />
<glyph unicode="+" horiz-adv-x="990" d="M613 742h357l-23 -116h-357l-96 -480h-120l96 480h-353l23 116h353l93 464h120z" />
<glyph unicode="," horiz-adv-x="341" d="M161 19l-154 -277h-75l110 280l34 168h119z" />
<glyph unicode="-" horiz-adv-x="483" d="M458 568h-380l20 104h380z" />
<glyph unicode="." horiz-adv-x="432" d="M186 0h-127l33 166h127z" />
<glyph unicode="/" horiz-adv-x="680" d="M27 -125h-104l796 1581h104z" />
<glyph unicode="0" horiz-adv-x="941" d="M859 564q-60 -300 -182.5 -442.5t-293.5 -142.5q-158 0 -230 155t-16 430l65 326q59 298 182.5 442.5t295.5 144.5q157 0 228 -156t16 -431zM810 911q47 236 8 348t-159 112q-111 0 -201 -121.5t-133 -338.5l-73 -366q-47 -234 -7.5 -348t159.5 -114q109 0 199 123 t134 339z" />
<glyph unicode="1" horiz-adv-x="929" d="M470 -6h-118l266 1332l-291 -41l17 86l419 88z" />
<glyph unicode="2" horiz-adv-x="929" d="M772 0h-726l15 94l462 540q126 146 182.5 245.5t72.5 194.5q21 139 -22 218t-144 79q-120 0 -201.5 -92t-104.5 -243h-110l-2 6q26 190 143.5 312.5t291.5 122.5q146 0 220.5 -109.5t46.5 -289.5q-20 -126 -95.5 -245.5t-206.5 -272.5l-383 -451l2 -5h576z" />
<glyph unicode="3" horiz-adv-x="929" d="M380 770l4 24h120q112 0 183 79t91 203q22 141 -21.5 218t-154.5 77q-99 0 -178.5 -81.5t-100.5 -214.5h-108l-2 6q24 178 137.5 287t268.5 109q150 0 228 -108t49 -297q-19 -108 -81 -196.5t-160 -131.5q99 -40 135.5 -132t17.5 -216q-32 -203 -148.5 -310t-276.5 -107 q-149 0 -240.5 109.5t-59.5 305.5h118q-24 -144 30.5 -227.5t167.5 -83.5q109 0 187.5 81t102.5 228q25 158 -26 227.5t-176 69.5h-120z" />
<glyph unicode="4" horiz-adv-x="929" d="M720 470h171l-21 -104h-171l-73 -366h-117l73 366h-530l14 71l725 1019h126zM205 470h398l158 795l-5 2l-45 -79z" />
<glyph unicode="5" horiz-adv-x="929" d="M194 659l193 797h564l-18 -115h-464l-125 -513q49 48 103 75.5t131 30.5q152 3 222 -125t35 -345q-37 -229 -145.5 -357t-286.5 -128q-138 0 -220.5 102.5t-50.5 301.5h114q-24 -152 23.5 -226t149.5 -74q113 0 190.5 99t107.5 280q27 168 -18 262.5t-154 94.5 q-99 0 -159.5 -44.5t-97.5 -132.5z" />
<glyph unicode="6" horiz-adv-x="929" d="M699 1477q58 0 114.5 -17.5t92.5 -48.5l-44 -100q-36 30 -77.5 45t-102.5 15q-122 0 -225 -126.5t-135 -328.5l-16 -98q60 67 136.5 105t159.5 38q149 0 220 -137t38 -350q-37 -224 -154.5 -359.5t-276.5 -135.5q-156 0 -241 151.5t-43 410.5l58 363q42 264 182 418.5 t314 154.5zM562 861q-87 0 -162.5 -56t-119.5 -146l-20 -127q-35 -216 18.5 -333t166.5 -117q104 0 187 115t109 277q28 179 -17.5 283t-161.5 104z" />
<glyph unicode="7" horiz-adv-x="929" d="M983 1350q-236 -268 -370.5 -550.5t-230.5 -676.5l-31 -123h-116l29 123q92 370 241 668t359 559h-643l17 106h762z" />
<glyph unicode="8" horiz-adv-x="929" d="M936 1081q-26 -128 -97.5 -214.5t-171.5 -123.5q93 -44 138.5 -138.5t21.5 -218.5q-43 -210 -163 -308.5t-288 -98.5q-156 0 -243 106.5t-48 300.5q27 138 108.5 231.5t196.5 131.5q-81 42 -119 129.5t-15 202.5q40 201 151.5 298.5t266.5 97.5q140 0 219.5 -106 t42.5 -290zM709 386q29 146 -25.5 227t-165.5 81q-105 0 -196 -86.5t-118 -221.5q-31 -152 22.5 -227.5t170.5 -75.5q104 0 194 82t118 221zM816 1081q27 134 -19.5 212t-143.5 78q-92 0 -172 -80t-106 -210q-27 -137 19 -209.5t146 -72.5q90 0 170.5 78t105.5 204z" />
<glyph unicode="9" horiz-adv-x="929" d="M360 83q119 0 213.5 112t127.5 316l19 118l-5 3q-50 -82 -122 -126t-153 -44q-154 0 -232 139t-43 357q36 229 161 374t275 145q165 0 247 -139t41 -399l-68 -426q-42 -264 -171 -399t-306 -135q-57 0 -119 15.5t-111 44.5l37 104q46 -32 95 -46t114 -14zM457 566 q93 0 169.5 67t119.5 163l25 152q34 215 -15 319t-168 104q-97 0 -186 -122t-116 -291q-28 -174 17 -283t154 -109z" />
<glyph unicode=":" horiz-adv-x="395" d="M180 0h-127l33 166h127zM361 914h-127l33 166h127z" />
<glyph unicode=";" horiz-adv-x="400" d="M364 916h-127l33 166h127zM188 19l-154 -277h-75l110 280l34 168h119z" />
<glyph unicode="&#x3c;" horiz-adv-x="852" d="M285 578l-97 -27v-6l84 -28l415 -266l-26 -130l-573 379l15 73l5 26l718 375l5 -4l-24 -122z" />
<glyph unicode="=" d="M872 832h-658l22 109h658zM790 421h-658l22 109h658z" />
<glyph unicode="&#x3e;" horiz-adv-x="869" d="M198 847l26 127l594 -378l-5 -25l-10 -49l-5 -26l-746 -379l26 128l543 272l97 27v6l-84 29z" />
<glyph unicode="?" horiz-adv-x="775" d="M300 404q27 130 55.5 182.5t120.5 138.5q108 119 158 190.5t73 185.5q27 134 -9.5 200t-130.5 66q-79 0 -149.5 -69t-94.5 -182h-110l-2 6q32 165 137.5 260t240.5 95q136 0 203.5 -103t34.5 -271q-30 -144 -97.5 -236.5t-197.5 -221.5q-56 -53 -75 -99t-38 -142h-119z M347 0h-130l31 157h130z" />
<glyph unicode="@" horiz-adv-x="1573" d="M1481 512q-50 -217 -171.5 -375t-296.5 -158q-61 0 -96.5 50t-33.5 139q-63 -95 -135.5 -142t-155.5 -47q-100 0 -135.5 122t17.5 315q70 254 198 408t267 154q75 0 123.5 -28t93.5 -80l-2 -2h3l-157 -575q-34 -132 -13 -180t64 -40l6 -1q102 -5 196.5 121t141.5 319 q93 388 -1.5 604t-389.5 216q-247 0 -471 -238.5t-313 -615.5q-92 -379 9 -611.5t375 -232.5q68 0 150 22t141 57l11 -77q-62 -41 -152.5 -65t-170.5 -24q-296 0 -427 254t-31 677q99 424 344 683.5t557 259.5q301 0 426.5 -247.5t28.5 -661.5zM583 416q-42 -155 -28 -246 t88 -91q62 0 125 39.5t126 141.5l8 33l150 548q-21 20 -49 32t-63 12q-103 0 -198.5 -120t-158.5 -349z" />
<glyph unicode="A" horiz-adv-x="1057" d="M776 404h-502l-199 -404h-121l730 1456h106l143 -1456h-121zM328 514h438l-66 741l-6 1z" />
<glyph unicode="B" horiz-adv-x="1041" d="M76 0l291 1456h351q168 0 254.5 -97.5t49.5 -286.5q-24 -117 -91 -197t-161 -112q103 -23 147.5 -123.5t18.5 -234.5q-42 -209 -160.5 -307t-292.5 -98h-407zM334 701l-119 -597h289q111 0 198.5 79.5t115.5 219.5q27 139 -16 218.5t-160 79.5h-308zM355 804h269 q100 3 177 73.5t103 198.5q29 145 -23.5 209.5t-183.5 64.5h-233z" />
<glyph unicode="C" horiz-adv-x="1059" d="M962 446l2 -6q-59 -223 -177 -342t-301 -119q-184 0 -287 182t-49 451l48 239q60 299 197 462.5t331 163.5q179 0 280.5 -130t73.5 -351h-117q17 178 -47.5 276.5t-204.5 98.5q-132 0 -240.5 -144.5t-153.5 -373.5l-49 -241q-49 -243 18 -386t216 -143q126 0 210.5 88.5 t140.5 274.5h109z" />
<glyph unicode="D" horiz-adv-x="1090" d="M676 1456q205 0 327 -184.5t68 -454.5l-37 -189q-61 -302 -214 -465t-371 -163h-373l291 1456h309zM464 1350l-249 -1246h255q152 0 275.5 146.5t170.5 377.5l38 192q48 240 -38.5 385t-260.5 145h-191z" />
<glyph unicode="E" horiz-adv-x="964" d="M878 703h-544l-119 -599h624l-21 -104h-742l291 1456h736l-21 -106h-618l-109 -543h543z" />
<glyph unicode="F" horiz-adv-x="963" d="M875 679h-546l-135 -679h-118l291 1456h744l-21 -106h-626l-114 -565h546z" />
<glyph unicode="G" horiz-adv-x="1146" d="M941 198q-55 -82 -171 -150.5t-274 -68.5q-196 0 -302 141t-55 397l87 433q54 272 197 399.5t350 127.5q184 0 276.5 -109.5t59.5 -298.5l-3 -5h-111q24 146 -35.5 226.5t-207.5 80.5q-141 0 -254.5 -109t-153.5 -310l-87 -435q-46 -226 25.5 -330t234.5 -104 q107 0 190.5 45t121.5 106l75 378h-284l21 105h403z" />
<glyph unicode="H" horiz-adv-x="1173" d="M927 0h-116l133 669h-617l-133 -669h-118l291 1456h118l-137 -683h617l137 683h116z" />
<glyph unicode="I" horiz-adv-x="473" d="M210 0h-119l291 1456h119z" />
<glyph unicode="J" horiz-adv-x="918" d="M852 1456h118l-209 -1044q-43 -213 -157.5 -323t-269.5 -110q-153 0 -232.5 109t-38.5 313h119q-34 -167 11.5 -242.5t161.5 -75.5q91 0 175 90.5t113 238.5z" />
<glyph unicode="K" horiz-adv-x="981" d="M449 689h-137l-137 -689h-118l291 1456h118l-132 -658h148l519 658h145l3 -5l-597 -722l329 -729h-136z" />
<glyph unicode="L" horiz-adv-x="888" d="M216 104h558l-21 -104h-677l291 1456h119z" />
<glyph unicode="M" horiz-adv-x="1383" d="M512 1456l126 -1273l6 -1l637 1274h152l-291 -1456h-117l128 639l128 584l-6 2l-631 -1225h-78l-141 1223h-6l-105 -584l-128 -639h-116l291 1456h151z" />
<glyph unicode="N" horiz-adv-x="1177" d="M931 0h-118l-370 1212h-6l-242 -1212h-119l291 1456h119l369 -1211h6l243 1211h118z" />
<glyph unicode="O" horiz-adv-x="1120" d="M1048 603q-61 -302 -204.5 -463t-351.5 -161q-191 0 -296 180.5t-50 452.5l48 239q60 303 200 464.5t344 161.5q195 0 303 -182t54 -453zM978 844q48 244 -24.5 384t-236.5 140q-141 0 -249.5 -141t-154.5 -374l-49 -241q-49 -246 20.5 -386t228.5 -140q146 0 257.5 141 t159.5 376z" />
<glyph unicode="P" horiz-adv-x="1041" d="M314 603l-120 -603h-118l291 1456h413q169 0 251.5 -119t45.5 -307q-42 -206 -162 -316.5t-305 -110.5h-296zM335 708h296q122 0 210.5 93t116.5 227q29 147 -18 234.5t-181 87.5h-295z" />
<glyph unicode="Q" horiz-adv-x="1121" d="M1048 603q-36 -179 -102 -309.5t-158 -207.5l145 -222l-96 -77l-152 233q-45 -20 -93.5 -30.5t-99.5 -10.5q-191 0 -296 180.5t-50 452.5l48 239q60 303 200 464.5t344 161.5q195 0 303 -182t54 -453zM978 844q48 244 -24.5 384t-236.5 140q-141 0 -249.5 -141 t-154.5 -374l-49 -241q-49 -246 20.5 -386t228.5 -140q146 0 257.5 141t159.5 376z" />
<glyph unicode="R" horiz-adv-x="1093" d="M323 657l-131 -657h-118l291 1455h400q174 0 258 -105t46 -298q-25 -125 -95.5 -213t-176.5 -129q94 -36 125.5 -124.5t7.5 -214.5l-27 -137q-15 -72 -13 -123.5t25 -86.5l-5 -24h-121q-23 36 -21 99.5t17 136.5l27 133q28 141 -19.5 214.5t-159.5 73.5h-310zM344 761 h268q135 0 223.5 80.5t115.5 211.5q30 152 -20 224.5t-187 72.5h-282z" />
<glyph unicode="S" horiz-adv-x="1003" d="M791 318q26 133 -24 206.5t-209 149.5q-177 76 -251 174.5t-36 286.5q32 165 145.5 253.5t270.5 88.5q174 0 268.5 -118t53.5 -323h-119q30 154 -30.5 244.5t-193.5 90.5q-98 0 -177.5 -69t-98.5 -165q-27 -136 19 -207.5t209 -148.5q178 -77 253 -178t39 -283 q-34 -170 -152 -255.5t-284 -85.5q-173 0 -286.5 106t-65.5 329l3 5h112q-38 -189 42.5 -262.5t215.5 -73.5q101 0 188.5 68.5t107.5 166.5z" />
<glyph unicode="T" horiz-adv-x="981" d="M1119 1350h-386l-270 -1350h-117l270 1350h-385l21 106h888z" />
<glyph unicode="U" horiz-adv-x="1074" d="M1149 1456l-204 -1019q-47 -238 -180 -348t-320 -110q-168 0 -260 119.5t-48 338.5l204 1019h115l-204 -1019q-37 -183 23.5 -268.5t190.5 -85.5q125 0 226 89t136 265l204 1019h117z" />
<glyph unicode="V" horiz-adv-x="1038" d="M464 252l9 -86l6 -1l37 87l519 1204h127l-660 -1456h-106l-194 1456h127z" />
<glyph unicode="W" horiz-adv-x="1467" d="M370 417l-2 -192l6 -1l69 193l396 1039h108l66 -1039l5 -194l6 -1l63 195l359 1039h119l-521 -1456h-109l-67 1111l-5 130l-6 1l-45 -131l-428 -1111h-108l-54 1456h118z" />
<glyph unicode="X" horiz-adv-x="1030" d="M579 843l6 -1l397 614h142l-490 -718l269 -738h-141l-209 632l-6 1l-412 -633h-143l505 738l-261 718h142z" />
<glyph unicode="Y" horiz-adv-x="1017" d="M558 692l6 -1l484 765h135l-596 -924l-107 -532h-117l108 541l-226 915h136z" />
<glyph unicode="Z" horiz-adv-x="919" d="M155 104h632l-21 -104h-750l7 95l805 1256h-571l21 105h706l-18 -90z" />
<glyph unicode="[" horiz-adv-x="452" d="M612 1558h-168l-282 -1764h168l-17 -106h-289l316 1976h289z" />
<glyph unicode="\" horiz-adv-x="676" d="M255 1456h113l165 -1581h-115z" />
<glyph unicode="]" horiz-adv-x="452" d="M213 1664h290l-316 -1976h-290l17 106h169l282 1764h-169z" />
<glyph unicode="^" horiz-adv-x="701" d="M243 729h-113l381 727h85l90 -727h-111l-50 481l-2 83l-6 2l-35 -85z" />
<glyph unicode="_" horiz-adv-x="740" d="M618 -104h-708l21 104h708z" />
<glyph unicode="`" horiz-adv-x="530" d="M524 1210h-109l-165 266h155z" />
<glyph unicode="a" horiz-adv-x="905" d="M583 0q2 53 5.5 89.5t10.5 74.5q-61 -80 -146 -132.5t-176 -52.5q-120 0 -176.5 85.5t-28.5 223.5q31 160 148 245t292 85h177l27 133q24 122 -17 183.5t-141 61.5q-85 0 -159.5 -62.5t-91.5 -151.5l-108 1l-2 6q21 130 130.5 221.5t257.5 91.5q134 0 208 -93t41 -260 l-106 -531q-13 -60 -18.5 -112t-3.5 -106h-123zM313 87q88 0 175.5 59t136.5 147l46 232h-181q-108 0 -195 -70.5t-106 -170.5q-19 -92 13 -144.5t111 -52.5z" />
<glyph unicode="b" d="M852 495q-52 -259 -156 -387.5t-261 -128.5q-81 0 -144.5 47.5t-97.5 128.5l-43 -155h-101l312 1560h118l-121 -601l5 -4q49 69 116.5 108t147.5 39q146 0 212.5 -166.5t16.5 -419.5zM737 516q43 217 3.5 347.5t-161.5 130.5q-80 0 -144.5 -62t-113.5 -159l-102 -511 q17 -81 70.5 -128.5t141.5 -47.5q109 0 186 109t116 300z" />
<glyph unicode="c" horiz-adv-x="872" d="M404 83q86 0 165.5 67.5t98.5 186.5h103l2 -6q-22 -157 -135.5 -254.5t-249.5 -97.5q-171 0 -249.5 135.5t-44.5 341.5l27 168q34 216 150.5 347t296.5 131q139 0 219 -107t52 -281h-111q21 134 -30 208t-147 74q-127 0 -207 -107t-105 -265l-27 -168q-28 -169 15 -271 t177 -102z" />
<glyph unicode="d" d="M122 551q55 277 160.5 414t264.5 137q80 0 141.5 -41t94.5 -115l123 614h118l-312 -1560h-104l17 126q-55 -71 -124 -109t-149 -38q-144 0 -212.5 157.5t-21.5 393.5zM238 530q-41 -206 -0.5 -325t162.5 -119q75 0 137.5 51.5t112.5 141.5l106 530q-18 81 -68.5 133 t-135.5 52q-111 0 -190.5 -120t-119.5 -323z" />
<glyph unicode="e" horiz-adv-x="869" d="M395 -21q-161 0 -249 132.5t-55 334.5l29 180q34 213 160 344.5t277 131.5q157 0 230 -122.5t41 -325.5l-19 -119h-588l-14 -89q-26 -162 28 -262.5t176 -100.5q81 0 150 31.5t120 87.5l35 -85q-57 -64 -136.5 -101t-184.5 -37zM540 996q-101 0 -187.5 -103t-109.5 -249 l2 -5h462l8 46q21 139 -23.5 225t-151.5 86z" />
<glyph unicode="f" horiz-adv-x="570" d="M119 0l196 981h-139l20 101h139l32 156q35 175 117.5 259t206.5 84q25 0 52 -5.5t52 -14.5l-34 -101q-17 6 -36 9.5t-43 3.5q-70 0 -122.5 -62t-74.5 -173l-32 -156h193l-20 -101h-193l-196 -981h-118z" />
<glyph unicode="g" horiz-adv-x="935" d="M122 551q55 276 162 413.5t267 137.5q83 0 145.5 -44t94.5 -122l41 146h100l-213 -1068q-45 -223 -159 -337t-287 -114q-57 0 -126 19.5t-115 51.5l53 105q39 -31 93 -48.5t115 -17.5q112 0 193.5 91.5t113.5 249.5l19 95l-5 4q-49 -64 -115 -99t-143 -35 q-145 0 -215 157.5t-23 393.5zM237 530q-41 -205 1.5 -324.5t164.5 -119.5q75 0 137.5 52t112.5 143l105 526q-18 83 -67.5 135t-135.5 52q-111 0 -192.5 -120.5t-121.5 -322.5z" />
<glyph unicode="h" d="M353 932l5 -3q55 83 131.5 128t165.5 45q128 0 184 -107.5t13 -326.5l-134 -668h-119l134 670q37 186 2 255t-132 69q-79 0 -153 -60t-128 -158l-155 -776h-118l312 1560h118z" />
<glyph unicode="i" horiz-adv-x="410" d="M179 0h-118l216 1082h118zM457 1390h-118l34 170h118z" />
<glyph unicode="j" horiz-adv-x="424" d="M402 1082l-234 -1171q-36 -178 -115.5 -263t-198.5 -85q-21 0 -41.5 5t-42.5 14l32 105q12 -6 32 -11t33 -5q60 0 110.5 62t73.5 178l234 1171h117zM460 1390h-118l34 170h118z" />
<glyph unicode="k" horiz-adv-x="835" d="M380 525h-108l-105 -525h-117l312 1560h117l-186 -929h100l375 451h135l2 -5l-422 -488l250 -589h-141z" />
<glyph unicode="l" horiz-adv-x="410" d="M179 0h-118l312 1560h118z" />
<glyph unicode="m" horiz-adv-x="1452" d="M345 926q58 86 133.5 131t168.5 45q85 0 138 -57t63 -170q59 108 141 167.5t183 59.5q126 0 181.5 -117.5t8.5 -352.5l-126 -632h-119l127 634q42 213 8 287t-132 74q-94 0 -172 -98.5t-117 -239.5q-1 -2 -1 -3v-3l-130 -651h-118l127 633q41 208 6 284.5t-131 76.5 q-85 0 -152 -61.5t-114 -164.5l-154 -768h-117l216 1082h104z" />
<glyph unicode="n" d="M347 921l5 -3q54 89 130.5 136.5t168.5 47.5q130 0 186 -109.5t12 -332.5l-132 -660h-119l132 659q39 197 4 266t-136 69q-81 0 -153.5 -63.5t-125.5 -166.5l-152 -764h-118l216 1082h105z" />
<glyph unicode="o" d="M117 620q35 219 158 350.5t298 131.5q166 0 251 -137t52 -345l-25 -159q-36 -221 -158.5 -351.5t-297.5 -130.5q-168 0 -252.5 136t-50.5 346zM210 461q-27 -167 23.5 -272.5t177.5 -105.5q118 0 206.5 109.5t114.5 268.5l25 159q26 164 -25 270t-176 106 q-120 0 -208 -109.5t-113 -266.5z" />
<glyph unicode="p" d="M850 490q-52 -258 -155 -384.5t-260 -126.5q-82 0 -145 37t-99 106l-107 -538h-118l299 1498h100l-15 -133q56 73 125.5 113t149.5 40q147 0 213 -168.5t16 -422.5zM734 511q43 217 2 350t-163 133q-75 0 -137.5 -56t-110.5 -146l-109 -545q19 -77 71.5 -120.5 t136.5 -43.5q111 0 189.5 108.5t116.5 298.5z" />
<glyph unicode="q" d="M122 551q55 277 160.5 414t264.5 137q80 0 142 -40t95 -113l36 133h103l-299 -1498h-119l105 524q-54 -62 -119 -95.5t-139 -33.5q-144 0 -212.5 157.5t-21.5 393.5zM238 530q-41 -206 -0.5 -326.5t162.5 -120.5q71 0 131.5 48.5t109.5 132.5l112 561q-20 76 -70 123.5 t-131 47.5q-111 0 -190.5 -121t-119.5 -324z" />
<glyph unicode="r" horiz-adv-x="584" d="M644 974l-75 6q-75 0 -139.5 -59.5t-111.5 -161.5l-151 -759h-118l216 1082h104l-20 -162l5 -3q49 88 117 136.5t149 48.5q17 0 35 -3.5t28 -7.5z" />
<glyph unicode="s" horiz-adv-x="834" d="M599 259q12 76 -24.5 128t-149.5 112q-147 68 -209 138.5t-43 184.5q18 121 117.5 200.5t239.5 79.5q141 0 215 -92t49 -227l-3 -5h-111q14 91 -30 154.5t-137 63.5q-91 0 -151.5 -52t-70.5 -118q-12 -75 20.5 -116.5t152.5 -108.5q144 -65 208 -141.5t46 -193.5 q-22 -133 -121.5 -210t-245.5 -77q-153 0 -231.5 95.5t-52.5 224.5l2 5h111q-14 -117 43 -169t144 -52q90 0 155.5 52t76.5 124z" />
<glyph unicode="t" horiz-adv-x="576" d="M493 1358l-56 -276h178l-20 -101h-178l-140 -702q-23 -112 -3.5 -152.5t67.5 -40.5q21 0 45.5 3t51.5 9l-4 -92q-25 -12 -63.5 -19.5t-75.5 -7.5q-87 0 -128 73.5t-9 226.5l140 702h-142l20 101h142l56 276h119z" />
<glyph unicode="u" d="M610 0l23 150l-5 3q-53 -85 -128 -129.5t-167 -44.5q-129 0 -187 117.5t-9 357.5l125 628h118l-126 -630q-42 -210 -10.5 -288t126.5 -78q92 0 165.5 58.5t122.5 157.5l156 780h118l-216 -1082h-106z" />
<glyph unicode="v" horiz-adv-x="827" d="M367 273l5 -99l6 -1l40 100l348 809h121l-494 -1082h-92l-149 1082h122z" />
<glyph unicode="w" horiz-adv-x="1250" d="M316 353l-5 -164l5 -1l66 165l323 729h98l31 -729l-1 -172l6 -1l66 173l292 729h120l-465 -1082h-97l-33 735l-3 170l-6 1l-69 -171l-324 -735h-98l-31 1082h118z" />
<glyph unicode="x" horiz-adv-x="827" d="M441 649l6 -1l279 434h138l-369 -532l207 -550h-137l-148 451l-6 1l-291 -452h-138l384 550l-200 532h137z" />
<glyph unicode="y" horiz-adv-x="827" d="M359 298l5 -104l6 -1l418 889h131l-618 -1255q-53 -107 -124 -185.5t-173 -78.5q-16 0 -42 5t-38 9l34 103q9 -2 31 -4.5t32 -2.5q54 0 103 58.5t87 139.5l72 144l-113 1067h131z" />
<glyph unicode="z" horiz-adv-x="797" d="M148 104h520l-21 -104h-649l18 90l661 885h-474l21 107h607l-18 -91z" />
<glyph unicode="{" horiz-adv-x="567" d="M383 -396l-6 1q-138 50 -181 168t-15 287l36 225q20 126 -12 192t-122 66l13 83l4 23q86 0 141 67.5t75 188.5l36 227q28 177 108 292.5t235 165.5h6l11 -75q-102 -40 -160 -139.5t-81 -243.5l-36 -227q-19 -116 -69.5 -196t-133.5 -116q68 -40 94 -121t10 -187l-36 -225 q-25 -148 2 -243t118 -137z" />
<glyph unicode="|" horiz-adv-x="402" d="M137 -270h-97l276 1726h97z" />
<glyph unicode="}" horiz-adv-x="567" d="M-96 -320q101 42 160.5 140t82.5 240l36 225q18 116 69.5 196.5t139.5 115.5q-74 36 -101 117t-9 191l36 227q23 149 -4 245.5t-116 137.5l36 75h6q136 -50 179 -168.5t16 -289.5l-36 -227q-21 -127 11.5 -191.5t123.5 -64.5l-13 -79l-4 -27q-87 0 -142.5 -69t-74.5 -189 l-36 -225q-29 -175 -109 -290t-233 -166l-6 2z" />
<glyph unicode="~" horiz-adv-x="1131" d="M1056 740q-22 -134 -102 -226.5t-178 -92.5q-68 0 -121 36t-111 114q-39 53 -76 80t-80 27q-56 0 -107 -61t-66 -159l-86 16q21 137 98.5 225.5t178.5 88.5q66 0 121.5 -38.5t109.5 -110.5q39 -57 75.5 -82.5t81.5 -25.5q54 0 105.5 64t67.5 160z" />
<glyph unicode="&#xa1;" horiz-adv-x="402" d="M91 -374h-118l196 978h118zM351 896h-129l37 186h129z" />
<glyph unicode="&#xa2;" horiz-adv-x="910" d="M420 83q86 0 165.5 67.5t98.5 186.5h103l2 -6q-21 -146 -121.5 -240.5t-227.5 -109.5l-45 -226h-119l47 234q-130 31 -186.5 159.5t-26.5 307.5l27 168q31 204 137 332.5t271 143.5l44 218h119l-46 -227q106 -29 161 -129.5t32 -247.5h-111q21 134 -30 208t-147 74 q-127 0 -207 -107t-105 -265l-27 -168q-28 -169 15 -271t177 -102z" />
<glyph unicode="&#xa3;" horiz-adv-x="958" d="M379 641l-30 -175q-23 -115 -59 -208t-82 -154h599l-21 -104h-752l21 104h6q52 14 98.5 128t70.5 234l30 175h-150l21 104h147l51 295q43 217 148.5 327t252.5 110q141 0 205 -106.5t30 -280.5h-119q31 156 -7.5 218.5t-129.5 62.5q-85 0 -158 -88t-104 -243l-51 -295 h345l-21 -104h-341z" />
<glyph unicode="&#xa4;" horiz-adv-x="1252" d="M889 120q-80 -68 -170 -104t-181 -36q-84 0 -157 38.5t-126 110.5l-156 -155l-69 88l169 165q-35 80 -43.5 177t13.5 204q23 119 70.5 220.5t114.5 181.5l-101 164l104 90l95 -157q76 61 162 94t175 33q80 0 151.5 -36.5t124.5 -102.5l172 170l69 -91l-181 -178 q36 -82 45 -181t-12 -207q-23 -114 -68 -212t-106 -176l99 -158l-104 -89zM282 608q-46 -227 36 -370.5t243 -143.5q147 0 294.5 152.5t189.5 361.5q44 225 -37.5 368t-241.5 143q-148 0 -295.5 -152t-188.5 -359z" />
<glyph unicode="&#xa5;" horiz-adv-x="999" d="M562 773l6 -1l448 684h136l-503 -749h279l-20 -104h-319l-37 -173h320l-20 -104h-319l-65 -326h-119l65 326h-314l20 104h313l37 173h-314l20 104h279l-204 749h136z" />
<glyph unicode="&#xa6;" horiz-adv-x="395" d="M-4 -270l154 772h118l-154 -772h-118zM308 698h-118l151 758h118z" />
<glyph unicode="&#xa7;" horiz-adv-x="1011" d="M906 431q-22 -105 -82.5 -174t-152.5 -100q62 -50 84.5 -120t1.5 -175q-36 -177 -153.5 -267t-293.5 -90q-161 0 -261.5 105t-56.5 326l119 2q-37 -183 30.5 -255t189.5 -72q112 0 199 71t109 178q22 111 -24.5 166.5t-202.5 117.5q-179 62 -253 150.5t-40 256.5 q20 104 79.5 173.5t150.5 101.5q-60 49 -80.5 119.5t0.5 173.5q34 172 154 265t295 93q168 0 251 -114.5t43 -316.5h-118q29 148 -21.5 236.5t-175.5 88.5q-120 0 -204 -71.5t-105 -177.5q-24 -120 19.5 -174t207.5 -119q182 -66 253 -149.5t38 -248.5zM546 727 q-33 11 -57.5 20.5t-45.5 20.5q-79 -16 -133.5 -75t-70.5 -140q-25 -122 20.5 -176.5t219.5 -123.5l47.5 -19t43.5 -18q81 14 141 72.5t77 139.5q22 113 -28 172t-214 127z" />
<glyph unicode="&#xa8;" horiz-adv-x="842" d="M835 1296h-156l26 160h156zM445 1296h-157l26 160h157z" />
<glyph unicode="&#xa9;" horiz-adv-x="1379" d="M962 596l2 -6q-22 -156 -103 -232t-208 -76q-123 0 -185 107.5t-34 279.5l19 119q28 179 121 283t222 104q121 0 181.5 -80.5t36.5 -232.5h-96q18 116 -17 168t-120 52q-84 0 -147.5 -83t-83.5 -210l-19 -120q-22 -136 13.5 -215.5t123.5 -79.5q81 0 134 54t72 168h88z M225 729q-47 -289 71.5 -476t332.5 -187q202 0 386 194t229 469q45 287 -73 472.5t-331 185.5q-204 0 -388 -193t-227 -465zM144 729q52 327 256.5 537t453.5 210q235 0 377 -217.5t93 -529.5q-53 -328 -257.5 -539t-451.5 -211q-237 0 -379.5 218.5t-91.5 531.5z" />
<glyph unicode="&#xaa;" horiz-adv-x="746" d="M570 706q-1 26 0 52.5t5 54.5q-39 -53 -92.5 -87t-117.5 -34q-87 0 -129.5 62.5t-21.5 165.5q22 112 96 166.5t199 54.5h130l12 61q17 89 -2 132.5t-76 43.5q-61 0 -106.5 -38t-58.5 -107l-94 10l-2 6q17 104 93.5 166t186.5 62q94 0 142.5 -72.5t22.5 -203.5l-63 -314 q-11 -54 -15 -96.5t-1 -84.5h-108zM407 789q46 0 102.5 37.5t82.5 82.5l29 146h-129q-65 0 -113 -38.5t-58 -92.5q-14 -69 7 -102t79 -33z" />
<glyph unicode="&#xab;" horiz-adv-x="774" d="M242 521l133 -389h-96l-157 380l1 6l3 13l309 379h96zM492 521l133 -389h-96l-157 380l1 6l3 13l309 379h96z" />
<glyph unicode="&#xac;" horiz-adv-x="915" d="M809 668h-1l-56 -283h-117l56 283h-530l21 109h648z" />
<glyph unicode="&#xad;" horiz-adv-x="483" d="M458 568h-380l20 104h380z" />
<glyph unicode="&#xae;" horiz-adv-x="1383" d="M142 729q52 327 256.5 537t453.5 210q236 0 378 -218t93 -529q-53 -328 -257.5 -539t-452.5 -211q-237 0 -379.5 218.5t-91.5 531.5zM222 729q-47 -289 71 -476t334 -187q202 0 385.5 194t228.5 469q45 287 -72.5 472.5t-330.5 185.5q-205 0 -389 -192.5t-227 -465.5z M592 670l-56 -354h-96l136 850h221q119 0 178.5 -64.5t40.5 -184.5q-12 -70 -50.5 -118.5t-101.5 -78.5q53 -25 71.5 -78.5t7.5 -126.5l-9 -56q-7 -41 -8.5 -73.5t2.5 -53.5l-2 -16h-99q-4 22 0.5 63.5t11.5 80.5l8 54q14 86 -10.5 121t-95.5 35h-149zM607 764h143 q62 0 110.5 40t59.5 111q14 88 -16 123t-122 35h-125z" />
<glyph unicode="&#xaf;" horiz-adv-x="775" d="M824 1356h-570l16 100h570z" />
<glyph unicode="&#xb0;" horiz-adv-x="668" d="M289 1226q22 109 96 180t161 71q78 0 126 -75.5t28 -175.5q-22 -111 -95 -179.5t-158 -68.5q-80 0 -129.5 73t-28.5 175zM375 1226q-14 -72 11.5 -113t78.5 -41q46 0 90 44t58 110q14 72 -10 114.5t-75 42.5q-48 0 -94 -46t-59 -111z" />
<glyph unicode="&#xb1;" d="M597 831h316l-17 -105h-316l-70 -437h-110l70 437h-335l17 105h335l70 436h110zM760 46h-658l21 104h658z" />
<glyph unicode="&#xb2;" horiz-adv-x="697" d="M612 667h-456l18 92l301 281q72 69 101 113t39 92q13 68 -6.5 104t-76.5 36q-58 0 -103 -42t-57 -106h-97l-2 6q16 104 92 170t185 66q95 0 143 -62t26 -173q-17 -81 -64.5 -139.5t-151.5 -154.5l-190 -185l2 -6h315z" />
<glyph unicode="&#xb3;" horiz-adv-x="708" d="M737 1252q-13 -62 -50.5 -108t-92.5 -70q51 -24 72.5 -72t8.5 -116q-24 -116 -101.5 -173.5t-188.5 -57.5q-92 0 -153 59t-36 169l3 5h99q-13 -66 15 -103.5t90 -37.5q61 0 107.5 38t59.5 101q15 79 -10.5 111t-94.5 32h-100l4 23l14 68h100q59 0 97.5 35t51.5 98 q12 62 -12.5 96.5t-88.5 34.5q-51 0 -95 -35t-55 -91h-94l-2 6q16 102 90.5 158t173.5 56q101 0 155 -60t33 -166z" />
<glyph unicode="&#xb4;" horiz-adv-x="528" d="M447 1478h142l3 -6l-253 -260h-100z" />
<glyph unicode="&#xb5;" d="M387 1082q-127 -635 -131 -667q-39 -190 -3 -261t128 -71q91 0 158 55.5t112 157.5l157 786h119l-216 -1082h-104l18 127q-52 -74 -116.5 -111t-143.5 -37q-61 0 -106.5 28t-68.5 91l-102 -514h-117l299 1498h117z" />
<glyph unicode="&#xb6;" horiz-adv-x="805" d="M452 0l104 520h-76q-173 0 -254.5 132t-40.5 336q43 220 168.5 344t313.5 124h195l-291 -1456h-119z" />
<glyph unicode="&#xb7;" horiz-adv-x="437" d="M318 624h-135l36 181h135z" />
<glyph unicode="&#xb8;" horiz-adv-x="424" d="M137 0l-22 -63q57 -9 85 -49t12 -122q-20 -97 -91 -148t-184 -49l-5 4l10 72q61 0 112 30.5t63 88.5q12 60 -13.5 80.5t-102.5 28.5l48 127h88z" />
<glyph unicode="&#xb9;" horiz-adv-x="445" d="M349 665h-107l140 700l-110 -7l19 96l220 23z" />
<glyph unicode="&#xba;" horiz-adv-x="758" d="M258 1142q32 158 119.5 246.5t209.5 88.5q112 0 168 -95t27 -240l-23 -117q-32 -157 -119 -245t-208 -88q-113 0 -170 94t-27 239zM341 1025q-23 -111 4 -173.5t107 -62.5q69 0 125.5 67t77.5 169l23 117q22 108 -5.5 172t-104.5 64q-70 0 -127.5 -68.5t-76.5 -167.5z " />
<glyph unicode="&#xbb;" horiz-adv-x="772" d="M305 949l156 -384l-2 -6h1l-3 -13l-309 -380h-96l288 389l-131 394h96zM563 949l156 -384l-2 -6h1l-3 -13l-309 -380h-96l288 389l-131 394h96z" />
<glyph unicode="&#xbc;" horiz-adv-x="1270" d="M412 664h-107l140 700l-110 -7l19 96l220 23zM286 128l-60 49l787 1138l61 -49zM1037 261h113l-18 -93h-114l-33 -168h-104l33 168h-334l9 69l448 564h108zM711 261h222l76 383l-5 3l-21 -30z" />
<glyph unicode="&#xbd;" horiz-adv-x="1307" d="M295 128l-60 49l787 1138l61 -49zM412 664h-107l140 700l-110 -7l19 96l220 23zM1111 0h-456l18 92l301 281q72 69 101 113t39 92q13 68 -6.5 104t-76.5 36q-58 0 -103 -42t-57 -106h-97l-2 6q16 104 92 170t185 66q95 0 143 -62t26 -173q-17 -81 -64.5 -139.5 t-151.5 -154.5l-190 -185l2 -6h315z" />
<glyph unicode="&#xbe;" horiz-adv-x="1400" d="M443 128l-60 49l787 1138l61 -49zM1196 261h113l-18 -93h-114l-33 -168h-104l33 168h-334l9 69l448 564h108zM870 261h222l76 383l-5 3l-21 -30zM754 1253q-13 -62 -50.5 -108t-92.5 -70q51 -24 72.5 -72t8.5 -116q-24 -116 -101.5 -173.5t-188.5 -57.5q-92 0 -153 59 t-36 169l3 5h99q-13 -66 15 -103.5t90 -37.5q61 0 107.5 38t59.5 101q15 79 -10.5 111t-94.5 32h-100l4 23l14 68h100q59 0 97.5 35t51.5 98q12 62 -12.5 96.5t-88.5 34.5q-51 0 -95 -35t-55 -91h-94l-2 6q16 102 90.5 158t173.5 56q101 0 155 -60t33 -166z" />
<glyph unicode="&#xbf;" horiz-adv-x="801" d="M538 677q-28 -131 -56.5 -183.5t-119.5 -137.5q-107 -117 -158.5 -189.5t-73.5 -184.5q-27 -134 9 -200t131 -66q78 0 149.5 69t94.5 182h111l2 -6q-31 -165 -137.5 -260t-241.5 -95q-137 0 -203 103t-32 271q28 142 96 236.5t196 220.5q57 52 76 98t38 142h119z M491 1083h130l-32 -158h-130z" />
<glyph unicode="&#xc0;" horiz-adv-x="1057" d="M776 404h-502l-199 -404h-121l730 1456h106l143 -1456h-121zM328 514h438l-66 741l-6 1zM841 1561h-109l-165 266h155z" />
<glyph unicode="&#xc1;" horiz-adv-x="1057" d="M776 404h-502l-199 -404h-121l730 1456h106l143 -1456h-121zM328 514h438l-66 741l-6 1zM921 1823h142l3 -6l-253 -260h-100z" />
<glyph unicode="&#xc2;" horiz-adv-x="1057" d="M776 404h-502l-199 -404h-121l730 1456h106l143 -1456h-121zM328 514h438l-66 741l-6 1zM1018 1620l-4 -19h-104l-92 166l-159 -166h-101l5 21l229 222h83z" />
<glyph unicode="&#xc3;" horiz-adv-x="1057" d="M776 404h-502l-199 -404h-121l730 1456h106l143 -1456h-121zM328 514h438l-66 741l-6 1zM1083 1823q-15 -92 -68.5 -148.5t-121.5 -56.5q-54 0 -107 54.5t-95 54.5q-35 0 -66 -35t-39 -88l-69 18q14 90 67.5 147.5t122.5 57.5q45 0 102.5 -55t99.5 -55q34 0 65.5 36.5 t40.5 90.5z" />
<glyph unicode="&#xc4;" horiz-adv-x="1057" d="M776 404h-502l-199 -404h-121l730 1456h106l143 -1456h-121zM328 514h438l-66 741l-6 1zM1067 1638h-156l26 160h156zM677 1638h-157l26 160h157z" />
<glyph unicode="&#xc5;" horiz-adv-x="1057" d="M776 404h-502l-199 -404h-121l730 1456h106l143 -1456h-121zM328 514h438l-66 741l-6 1zM660 1731q14 75 67 121.5t117 46.5q57 0 93 -49.5t23 -118.5q-16 -77 -67.5 -121t-114.5 -44q-59 0 -96 47t-22 118zM732 1731q-9 -43 8.5 -67.5t51.5 -24.5q30 0 58 26.5t37 65.5 q8 43 -8.5 68.5t-49.5 25.5q-31 0 -60.5 -27.5t-36.5 -66.5z" />
<glyph unicode="&#xc6;" horiz-adv-x="1516" d="M1387 0h-669l65 387h-452l-256 -387h-144l986 1456h713l-21 -106h-547l-90 -540h464l-21 -104h-460l-101 -602h554zM407 503h395l135 806l-4 -11z" />
<glyph unicode="&#xc7;" horiz-adv-x="1019" d="M962 446l2 -6q-59 -223 -177 -342t-301 -119q-184 0 -287 182t-49 451l48 239q60 299 197 462.5t331 163.5q179 0 280.5 -130t73.5 -351h-117q17 178 -47.5 276.5t-204.5 98.5q-132 0 -240.5 -144.5t-153.5 -373.5l-49 -241q-49 -243 18 -386t216 -143q126 0 210.5 88.5 t140.5 274.5h109zM489 -8l-22 -63q57 -9 85 -49t12 -122q-20 -97 -91 -148t-184 -49l-5 4l10 72q61 0 112 30.5t63 88.5q12 60 -13.5 80.5t-102.5 28.5l48 127h88z" />
<glyph unicode="&#xc8;" horiz-adv-x="964" d="M878 703h-544l-119 -599h624l-21 -104h-742l291 1456h736l-21 -106h-618l-109 -543h543zM797 1561h-109l-165 266h155z" />
<glyph unicode="&#xc9;" horiz-adv-x="964" d="M878 703h-544l-119 -599h624l-21 -104h-742l291 1456h736l-21 -106h-618l-109 -543h543zM877 1823h142l3 -6l-253 -260h-100z" />
<glyph unicode="&#xca;" horiz-adv-x="964" d="M878 703h-544l-119 -599h624l-21 -104h-742l291 1456h736l-21 -106h-618l-109 -543h543zM974 1620l-4 -19h-104l-92 166l-159 -166h-101l5 21l229 222h83z" />
<glyph unicode="&#xcb;" horiz-adv-x="964" d="M878 703h-544l-119 -599h624l-21 -104h-742l291 1456h736l-21 -106h-618l-109 -543h543zM1023 1638h-156l26 160h156zM633 1638h-157l26 160h157z" />
<glyph unicode="&#xcc;" horiz-adv-x="473" d="M210 0h-119l291 1456h119zM527 1561h-109l-165 266h155z" />
<glyph unicode="&#xcd;" horiz-adv-x="473" d="M210 0h-119l291 1456h119zM607 1823h142l3 -6l-253 -260h-100z" />
<glyph unicode="&#xce;" horiz-adv-x="473" d="M210 0h-119l291 1456h119zM706 1620l-4 -19h-104l-92 166l-159 -166h-101l5 21l229 222h83z" />
<glyph unicode="&#xcf;" horiz-adv-x="473" d="M210 0h-119l291 1456h119zM755 1638h-156l26 160h156zM365 1638h-157l26 160h157z" />
<glyph unicode="&#xd0;" horiz-adv-x="1120" d="M106 0l137 688h-124l21 104h124l133 664h309q205 0 327 -184.5t68 -454.5l-37 -189q-61 -302 -214 -465t-371 -163h-373zM610 688h-249l-116 -584h255q152 0 275.5 146.5t170.5 377.5l38 192q48 240 -38.5 385t-260.5 145h-191l-112 -558h249z" />
<glyph unicode="&#xd1;" horiz-adv-x="1177" d="M931 0h-118l-370 1212h-6l-242 -1212h-119l291 1456h119l369 -1211h6l243 1211h118zM1121 1823q-15 -92 -68.5 -148.5t-121.5 -56.5q-54 0 -107 54.5t-95 54.5q-35 0 -66 -35t-39 -88l-69 18q14 90 67.5 147.5t122.5 57.5q45 0 102.5 -55t99.5 -55q34 0 65.5 36.5 t40.5 90.5z" />
<glyph unicode="&#xd2;" horiz-adv-x="1079" d="M1048 603q-61 -302 -204.5 -463t-351.5 -161q-191 0 -296 180.5t-50 452.5l48 239q60 303 200 464.5t344 161.5q195 0 303 -182t54 -453zM978 844q48 244 -24.5 384t-236.5 140q-141 0 -249.5 -141t-154.5 -374l-49 -241q-49 -246 20.5 -386t228.5 -140q146 0 257.5 141 t159.5 376zM834 1582h-109l-165 266h155z" />
<glyph unicode="&#xd3;" horiz-adv-x="1079" d="M1048 603q-61 -302 -204.5 -463t-351.5 -161q-191 0 -296 180.5t-50 452.5l48 239q60 303 200 464.5t344 161.5q195 0 303 -182t54 -453zM978 844q48 244 -24.5 384t-236.5 140q-141 0 -249.5 -141t-154.5 -374l-49 -241q-49 -246 20.5 -386t228.5 -140q146 0 257.5 141 t159.5 376zM914 1844h142l3 -6l-253 -260h-100z" />
<glyph unicode="&#xd4;" horiz-adv-x="1079" d="M1048 603q-61 -302 -204.5 -463t-351.5 -161q-191 0 -296 180.5t-50 452.5l48 239q60 303 200 464.5t344 161.5q195 0 303 -182t54 -453zM978 844q48 244 -24.5 384t-236.5 140q-141 0 -249.5 -141t-154.5 -374l-49 -241q-49 -246 20.5 -386t228.5 -140q146 0 257.5 141 t159.5 376zM1011 1641l-4 -19h-104l-92 166l-159 -166h-101l5 21l229 222h83z" />
<glyph unicode="&#xd5;" horiz-adv-x="1079" d="M1048 603q-61 -302 -204.5 -463t-351.5 -161q-191 0 -296 180.5t-50 452.5l48 239q60 303 200 464.5t344 161.5q195 0 303 -182t54 -453zM978 844q48 244 -24.5 384t-236.5 140q-141 0 -249.5 -141t-154.5 -374l-49 -241q-49 -246 20.5 -386t228.5 -140q146 0 257.5 141 t159.5 376zM1076 1844q-15 -92 -68.5 -148.5t-121.5 -56.5q-54 0 -107 54.5t-95 54.5q-35 0 -66 -35t-39 -88l-69 18q14 90 67.5 147.5t122.5 57.5q45 0 102.5 -55t99.5 -55q34 0 65.5 36.5t40.5 90.5z" />
<glyph unicode="&#xd6;" horiz-adv-x="1079" d="M1048 603q-61 -302 -204.5 -463t-351.5 -161q-191 0 -296 180.5t-50 452.5l48 239q60 303 200 464.5t344 161.5q195 0 303 -182t54 -453zM978 844q48 244 -24.5 384t-236.5 140q-141 0 -249.5 -141t-154.5 -374l-49 -241q-49 -246 20.5 -386t228.5 -140q146 0 257.5 141 t159.5 376zM1060 1659h-156l26 160h156zM670 1659h-157l26 160h157z" />
<glyph unicode="&#xd7;" horiz-adv-x="925" d="M69 320l366 361l-216 351l95 82l212 -344l349 344l61 -82l-356 -351l223 -361l-94 -82l-219 354l-359 -354z" />
<glyph unicode="&#xd8;" horiz-adv-x="1121" d="M995 523q-57 -282 -198 -413t-351 -131q-66 0 -121.5 17.5t-97.5 53.5l-92 -135h-96l133 196q-48 70 -61.5 173.5t14.5 238.5l81 408q56 282 194.5 414t343.5 132q87 0 157 -32t117 -92l104 153h96l-157 -230q26 -68 30.5 -154.5t-15.5 -190.5zM240 523 q-22 -105 -21.5 -181t22.5 -120l6 -2l703 1034q-29 58 -86 86t-141 28q-142 0 -251 -111.5t-150 -322.5zM960 934q12 64 16 117t0 89l-6 2l-681 -1001q31 -29 75.5 -42t102.5 -13q146 0 256.5 111t154.5 326z" />
<glyph unicode="&#xd9;" horiz-adv-x="1074" d="M1149 1456l-204 -1019q-47 -238 -180 -348t-320 -110q-168 0 -260 119.5t-48 338.5l204 1019h115l-204 -1019q-37 -183 23.5 -268.5t190.5 -85.5q125 0 226 89t136 265l204 1019h117zM833 1561h-109l-165 266h155z" />
<glyph unicode="&#xda;" horiz-adv-x="1074" d="M1149 1456l-204 -1019q-47 -238 -180 -348t-320 -110q-168 0 -260 119.5t-48 338.5l204 1019h115l-204 -1019q-37 -183 23.5 -268.5t190.5 -85.5q125 0 226 89t136 265l204 1019h117zM913 1823h142l3 -6l-253 -260h-100z" />
<glyph unicode="&#xdb;" horiz-adv-x="1074" d="M1149 1456l-204 -1019q-47 -238 -180 -348t-320 -110q-168 0 -260 119.5t-48 338.5l204 1019h115l-204 -1019q-37 -183 23.5 -268.5t190.5 -85.5q125 0 226 89t136 265l204 1019h117zM1010 1620l-4 -19h-104l-92 166l-159 -166h-101l5 21l229 222h83z" />
<glyph unicode="&#xdc;" horiz-adv-x="1074" d="M1149 1456l-204 -1019q-47 -238 -180 -348t-320 -110q-168 0 -260 119.5t-48 338.5l204 1019h115l-204 -1019q-37 -183 23.5 -268.5t190.5 -85.5q125 0 226 89t136 265l204 1019h117zM1059 1638h-156l26 160h156zM669 1638h-157l26 160h157z" />
<glyph unicode="&#xdd;" horiz-adv-x="1017" d="M558 692l6 -1l484 765h135l-596 -924l-107 -532h-117l108 541l-226 915h136zM878 1816h142l3 -6l-253 -260h-100z" />
<glyph unicode="&#xde;" horiz-adv-x="983" d="M476 1456l-61 -303h240q165 0 247 -118t47 -297q-40 -197 -159.5 -306t-300.5 -109h-240l-64 -323h-118l291 1456h118zM394 1048l-124 -621h239q119 0 207 93t113 216q27 136 -19 224t-176 88h-240z" />
<glyph unicode="&#xdf;" horiz-adv-x="981" d="M161 0h-117l216 1082q43 218 148 325t248 107q109 0 172 -81t35 -223q-24 -120 -94 -222.5t-85 -177.5q-19 -95 95 -233t86 -281q-33 -165 -131.5 -241t-232.5 -76q-62 0 -130 23.5t-92 56.5l49 103q27 -31 78 -55.5t103 -24.5q87 0 153 60.5t85 153.5 q22 109 -93.5 245.5t-88.5 270.5q20 102 93 206.5t90 184.5q19 99 -13.5 153t-91.5 54q-85 0 -160 -86.5t-106 -241.5z" />
<glyph unicode="&#xe0;" horiz-adv-x="905" d="M583 0q2 53 5.5 89.5t10.5 74.5q-61 -80 -146 -132.5t-176 -52.5q-120 0 -176.5 85.5t-28.5 223.5q31 160 148 245t292 85h177l27 133q24 122 -17 183.5t-141 61.5q-85 0 -159.5 -62.5t-91.5 -151.5l-108 1l-2 6q21 130 130.5 221.5t257.5 91.5q134 0 208 -93t41 -260 l-106 -531q-13 -60 -18.5 -112t-3.5 -106h-123zM313 87q88 0 175.5 59t136.5 147l46 232h-181q-108 0 -195 -70.5t-106 -170.5q-19 -92 13 -144.5t111 -52.5zM673 1239h-109l-165 266h155z" />
<glyph unicode="&#xe1;" horiz-adv-x="905" d="M583 0q2 53 5.5 89.5t10.5 74.5q-61 -80 -146 -132.5t-176 -52.5q-120 0 -176.5 85.5t-28.5 223.5q31 160 148 245t292 85h177l27 133q24 122 -17 183.5t-141 61.5q-85 0 -159.5 -62.5t-91.5 -151.5l-108 1l-2 6q21 130 130.5 221.5t257.5 91.5q134 0 208 -93t41 -260 l-106 -531q-13 -60 -18.5 -112t-3.5 -106h-123zM313 87q88 0 175.5 59t136.5 147l46 232h-181q-108 0 -195 -70.5t-106 -170.5q-19 -92 13 -144.5t111 -52.5zM753 1501h142l3 -6l-253 -260h-100z" />
<glyph unicode="&#xe2;" horiz-adv-x="905" d="M583 0q2 53 5.5 89.5t10.5 74.5q-61 -80 -146 -132.5t-176 -52.5q-120 0 -176.5 85.5t-28.5 223.5q31 160 148 245t292 85h177l27 133q24 122 -17 183.5t-141 61.5q-85 0 -159.5 -62.5t-91.5 -151.5l-108 1l-2 6q21 130 130.5 221.5t257.5 91.5q134 0 208 -93t41 -260 l-106 -531q-13 -60 -18.5 -112t-3.5 -106h-123zM313 87q88 0 175.5 59t136.5 147l46 232h-181q-108 0 -195 -70.5t-106 -170.5q-19 -92 13 -144.5t111 -52.5zM850 1298l-4 -19h-104l-92 166l-159 -166h-101l5 21l229 222h83z" />
<glyph unicode="&#xe3;" horiz-adv-x="905" d="M583 0q2 53 5.5 89.5t10.5 74.5q-61 -80 -146 -132.5t-176 -52.5q-120 0 -176.5 85.5t-28.5 223.5q31 160 148 245t292 85h177l27 133q24 122 -17 183.5t-141 61.5q-85 0 -159.5 -62.5t-91.5 -151.5l-108 1l-2 6q21 130 130.5 221.5t257.5 91.5q134 0 208 -93t41 -260 l-106 -531q-13 -60 -18.5 -112t-3.5 -106h-123zM313 87q88 0 175.5 59t136.5 147l46 232h-181q-108 0 -195 -70.5t-106 -170.5q-19 -92 13 -144.5t111 -52.5zM915 1501q-15 -92 -68.5 -148.5t-121.5 -56.5q-54 0 -107 54.5t-95 54.5q-35 0 -66 -35t-39 -88l-69 18 q14 90 67.5 147.5t122.5 57.5q45 0 102.5 -55t99.5 -55q34 0 65.5 36.5t40.5 90.5z" />
<glyph unicode="&#xe4;" horiz-adv-x="905" d="M583 0q2 53 5.5 89.5t10.5 74.5q-61 -80 -146 -132.5t-176 -52.5q-120 0 -176.5 85.5t-28.5 223.5q31 160 148 245t292 85h177l27 133q24 122 -17 183.5t-141 61.5q-85 0 -159.5 -62.5t-91.5 -151.5l-108 1l-2 6q21 130 130.5 221.5t257.5 91.5q134 0 208 -93t41 -260 l-106 -531q-13 -60 -18.5 -112t-3.5 -106h-123zM313 87q88 0 175.5 59t136.5 147l46 232h-181q-108 0 -195 -70.5t-106 -170.5q-19 -92 13 -144.5t111 -52.5zM899 1316h-156l26 160h156zM509 1316h-157l26 160h157z" />
<glyph unicode="&#xe5;" horiz-adv-x="905" d="M583 0q2 53 5.5 89.5t10.5 74.5q-61 -80 -146 -132.5t-176 -52.5q-120 0 -176.5 85.5t-28.5 223.5q31 160 148 245t292 85h177l27 133q24 122 -17 183.5t-141 61.5q-85 0 -159.5 -62.5t-91.5 -151.5l-108 1l-2 6q21 130 130.5 221.5t257.5 91.5q134 0 208 -93t41 -260 l-106 -531q-13 -60 -18.5 -112t-3.5 -106h-123zM313 87q88 0 175.5 59t136.5 147l46 232h-181q-108 0 -195 -70.5t-106 -170.5q-19 -92 13 -144.5t111 -52.5zM492 1409q14 75 67 121.5t117 46.5q57 0 93 -49.5t23 -118.5q-16 -77 -67.5 -121t-114.5 -44q-59 0 -96 47 t-22 118zM564 1409q-9 -43 8.5 -67.5t51.5 -24.5q30 0 58 26.5t37 65.5q8 43 -8.5 68.5t-49.5 25.5q-31 0 -60.5 -27.5t-36.5 -66.5z" />
<glyph unicode="&#xe6;" horiz-adv-x="1394" d="M921 -21q-101 0 -172.5 54.5t-103.5 153.5q-58 -86 -158 -147t-228 -61q-125 0 -185.5 86t-31.5 229q33 168 138.5 253t278.5 85h197l18 88q28 140 -4 208t-123 68t-164 -67t-92 -165l-106 13l-2 6q25 147 129.5 233t255.5 86q86 0 147 -47.5t81 -135.5q66 88 149 135.5 t172 47.5q152 0 221 -126.5t26 -339.5l-20 -101h-583l-5 -25q-41 -202 3 -314.5t183 -112.5q77 0 147.5 33t128.5 85l25 -90q-48 -52 -129.5 -92t-192.5 -40zM301 82q66 0 149 50t128 109l58 292h-195q-104 0 -182.5 -71.5t-98.5 -171.5q-21 -103 14 -155.5t127 -52.5z M1096 996q-95 0 -180.5 -101.5t-126.5 -253.5l2 -5h455l6 31q31 154 -5.5 241.5t-150.5 87.5z" />
<glyph unicode="&#xe7;" horiz-adv-x="872" d="M404 83q86 0 165.5 67.5t98.5 186.5h103l2 -6q-22 -157 -135.5 -254.5t-249.5 -97.5q-171 0 -249.5 135.5t-44.5 341.5l27 168q34 216 150.5 347t296.5 131q139 0 219 -107t52 -281h-111q21 134 -30 208t-147 74q-127 0 -207 -107t-105 -265l-27 -168q-28 -169 15 -271 t177 -102zM415 -8l-22 -63q57 -9 85 -49t12 -122q-20 -97 -91 -148t-184 -49l-5 4l10 72q61 0 112 30.5t63 88.5q12 60 -13.5 80.5t-102.5 28.5l48 127h88z" />
<glyph unicode="&#xe8;" horiz-adv-x="869" d="M395 -21q-161 0 -249 132.5t-55 334.5l29 180q34 213 160 344.5t277 131.5q157 0 230 -122.5t41 -325.5l-19 -119h-588l-14 -89q-26 -162 28 -262.5t176 -100.5q81 0 150 31.5t120 87.5l35 -85q-57 -64 -136.5 -101t-184.5 -37zM540 996q-101 0 -187.5 -103t-109.5 -249 l2 -5h462l8 46q21 139 -23.5 225t-151.5 86zM646 1240h-109l-165 266h155z" />
<glyph unicode="&#xe9;" horiz-adv-x="869" d="M395 -21q-161 0 -249 132.5t-55 334.5l29 180q34 213 160 344.5t277 131.5q157 0 230 -122.5t41 -325.5l-19 -119h-588l-14 -89q-26 -162 28 -262.5t176 -100.5q81 0 150 31.5t120 87.5l35 -85q-57 -64 -136.5 -101t-184.5 -37zM540 996q-101 0 -187.5 -103t-109.5 -249 l2 -5h462l8 46q21 139 -23.5 225t-151.5 86zM726 1502h142l3 -6l-253 -260h-100z" />
<glyph unicode="&#xea;" horiz-adv-x="869" d="M395 -21q-161 0 -249 132.5t-55 334.5l29 180q34 213 160 344.5t277 131.5q157 0 230 -122.5t41 -325.5l-19 -119h-588l-14 -89q-26 -162 28 -262.5t176 -100.5q81 0 150 31.5t120 87.5l35 -85q-57 -64 -136.5 -101t-184.5 -37zM540 996q-101 0 -187.5 -103t-109.5 -249 l2 -5h462l8 46q21 139 -23.5 225t-151.5 86zM823 1299l-4 -19h-104l-92 166l-159 -166h-101l5 21l229 222h83z" />
<glyph unicode="&#xeb;" horiz-adv-x="869" d="M395 -21q-161 0 -249 132.5t-55 334.5l29 180q34 213 160 344.5t277 131.5q157 0 230 -122.5t41 -325.5l-19 -119h-588l-14 -89q-26 -162 28 -262.5t176 -100.5q81 0 150 31.5t120 87.5l35 -85q-57 -64 -136.5 -101t-184.5 -37zM540 996q-101 0 -187.5 -103t-109.5 -249 l2 -5h462l8 46q21 139 -23.5 225t-151.5 86zM872 1317h-156l26 160h156zM482 1317h-157l26 160h157z" />
<glyph unicode="&#xec;" horiz-adv-x="406" d="M175 0h-118l216 1082h118zM426 1218h-109l-165 266h155z" />
<glyph unicode="&#xed;" horiz-adv-x="406" d="M175 0h-118l216 1082h118zM504 1480h142l3 -6l-253 -260h-100z" />
<glyph unicode="&#xee;" horiz-adv-x="406" d="M175 0h-118l216 1082h118zM603 1277l-4 -19h-104l-92 166l-159 -166h-101l5 21l229 222h83z" />
<glyph unicode="&#xef;" horiz-adv-x="406" d="M175 0h-118l216 1082h118zM652 1296h-156l26 160h156zM262 1296h-157l26 160h157z" />
<glyph unicode="&#xf0;" horiz-adv-x="971" d="M842 1297q65 -121 78.5 -289.5t-29.5 -384.5l-18 -88q-52 -261 -189.5 -408.5t-307.5 -147.5q-156 0 -241 139.5t-45 337.5q50 249 179 379t303 130q73 0 133.5 -39.5t90.5 -104.5l5 3q13 136 -3 236.5t-56 174.5l-275 -174l-33 76l261 165q-28 31 -61.5 57t-72.5 50 l57 108q53 -29 98 -66.5t81 -83.5l228 144l34 -76zM784 686q-15 74 -73 123t-160 49q-115 0 -211.5 -116.5t-130.5 -285.5q-32 -157 17.5 -264t173.5 -107q110 0 213 128.5t142 321.5l18 90z" />
<glyph unicode="&#xf1;" d="M347 921l5 -3q54 89 130.5 136.5t168.5 47.5q130 0 186 -109.5t12 -332.5l-132 -660h-119l132 659q39 197 4 266t-136 69q-81 0 -153.5 -63.5t-125.5 -166.5l-152 -764h-118l216 1082h105zM938 1501q-15 -92 -68.5 -148.5t-121.5 -56.5q-54 0 -107 54.5t-95 54.5 q-35 0 -66 -35t-39 -88l-69 18q14 90 67.5 147.5t122.5 57.5q45 0 102.5 -55t99.5 -55q34 0 65.5 36.5t40.5 90.5z" />
<glyph unicode="&#xf2;" d="M117 620q35 219 158 350.5t298 131.5q166 0 251 -137t52 -345l-25 -159q-36 -221 -158.5 -351.5t-297.5 -130.5q-168 0 -252.5 136t-50.5 346zM210 461q-27 -167 23.5 -272.5t177.5 -105.5q118 0 206.5 109.5t114.5 268.5l25 159q26 164 -25 270t-176 106 q-120 0 -208 -109.5t-113 -266.5zM662 1239h-109l-165 266h155z" />
<glyph unicode="&#xf3;" d="M117 620q35 219 158 350.5t298 131.5q166 0 251 -137t52 -345l-25 -159q-36 -221 -158.5 -351.5t-297.5 -130.5q-168 0 -252.5 136t-50.5 346zM210 461q-27 -167 23.5 -272.5t177.5 -105.5q118 0 206.5 109.5t114.5 268.5l25 159q26 164 -25 270t-176 106 q-120 0 -208 -109.5t-113 -266.5zM742 1501h142l3 -6l-253 -260h-100z" />
<glyph unicode="&#xf4;" d="M117 620q35 219 158 350.5t298 131.5q166 0 251 -137t52 -345l-25 -159q-36 -221 -158.5 -351.5t-297.5 -130.5q-168 0 -252.5 136t-50.5 346zM210 461q-27 -167 23.5 -272.5t177.5 -105.5q118 0 206.5 109.5t114.5 268.5l25 159q26 164 -25 270t-176 106 q-120 0 -208 -109.5t-113 -266.5zM839 1298l-4 -19h-104l-92 166l-159 -166h-101l5 21l229 222h83z" />
<glyph unicode="&#xf5;" d="M117 620q35 219 158 350.5t298 131.5q166 0 251 -137t52 -345l-25 -159q-36 -221 -158.5 -351.5t-297.5 -130.5q-168 0 -252.5 136t-50.5 346zM210 461q-27 -167 23.5 -272.5t177.5 -105.5q118 0 206.5 109.5t114.5 268.5l25 159q26 164 -25 270t-176 106 q-120 0 -208 -109.5t-113 -266.5zM904 1501q-15 -92 -68.5 -148.5t-121.5 -56.5q-54 0 -107 54.5t-95 54.5q-35 0 -66 -35t-39 -88l-69 18q14 90 67.5 147.5t122.5 57.5q45 0 102.5 -55t99.5 -55q34 0 65.5 36.5t40.5 90.5z" />
<glyph unicode="&#xf6;" d="M117 620q35 219 158 350.5t298 131.5q166 0 251 -137t52 -345l-25 -159q-36 -221 -158.5 -351.5t-297.5 -130.5q-168 0 -252.5 136t-50.5 346zM210 461q-27 -167 23.5 -272.5t177.5 -105.5q118 0 206.5 109.5t114.5 268.5l25 159q26 164 -25 270t-176 106 q-120 0 -208 -109.5t-113 -266.5zM888 1316h-156l26 160h156zM498 1316h-157l26 160h157z" />
<glyph unicode="&#xf7;" horiz-adv-x="948" d="M900 641h-787l24 120h787zM649 1009h-129l32 162h129zM489 210h-129l33 163h129z" />
<glyph unicode="&#xf8;" horiz-adv-x="935" d="M117 620q35 219 158 350.5t298 131.5q52 0 97 -15t83 -43l99 170h85l-131 -223q50 -66 68.5 -162t1.5 -209l-25 -159q-36 -221 -158.5 -351.5t-297.5 -130.5q-46 0 -85.5 10.5t-73.5 31.5l-94 -161h-83l121 207q-62 64 -85.5 166.5t-2.5 227.5zM210 461q-15 -89 -7 -162 t38 -117l6 -1l447 763q-27 25 -61.5 38.5t-76.5 13.5q-120 0 -208 -109.5t-113 -266.5zM757 620q12 74 7.5 138.5t-24.5 107.5l-6 1l-441 -750q23 -17 52.5 -25.5t65.5 -8.5q118 0 206.5 109.5t114.5 268.5z" />
<glyph unicode="&#xf9;" d="M610 0l23 150l-5 3q-53 -85 -128 -129.5t-167 -44.5q-129 0 -187 117.5t-9 357.5l125 628h118l-126 -630q-42 -210 -10.5 -288t126.5 -78q92 0 165.5 58.5t122.5 157.5l156 780h118l-216 -1082h-106zM694 1218h-109l-165 266h155z" />
<glyph unicode="&#xfa;" d="M610 0l23 150l-5 3q-53 -85 -128 -129.5t-167 -44.5q-129 0 -187 117.5t-9 357.5l125 628h118l-126 -630q-42 -210 -10.5 -288t126.5 -78q92 0 165.5 58.5t122.5 157.5l156 780h118l-216 -1082h-106zM774 1480h142l3 -6l-253 -260h-100z" />
<glyph unicode="&#xfb;" d="M610 0l23 150l-5 3q-53 -85 -128 -129.5t-167 -44.5q-129 0 -187 117.5t-9 357.5l125 628h118l-126 -630q-42 -210 -10.5 -288t126.5 -78q92 0 165.5 58.5t122.5 157.5l156 780h118l-216 -1082h-106zM871 1277l-4 -19h-104l-92 166l-159 -166h-101l5 21l229 222h83z" />
<glyph unicode="&#xfc;" d="M610 0l23 150l-5 3q-53 -85 -128 -129.5t-167 -44.5q-129 0 -187 117.5t-9 357.5l125 628h118l-126 -630q-42 -210 -10.5 -288t126.5 -78q92 0 165.5 58.5t122.5 157.5l156 780h118l-216 -1082h-106zM920 1296h-156l26 160h156zM530 1296h-157l26 160h157z" />
<glyph unicode="&#xfd;" horiz-adv-x="827" d="M359 298l5 -104l6 -1l418 889h131l-618 -1255q-53 -107 -124 -185.5t-173 -78.5q-16 0 -42 5t-38 9l34 103q9 -2 31 -4.5t32 -2.5q54 0 103 58.5t87 139.5l72 144l-113 1067h131zM721 1480h142l3 -6l-253 -260h-100z" />
<glyph unicode="&#xfe;" horiz-adv-x="947" d="M855 490q-52 -258 -155 -384.5t-260 -126.5q-82 0 -145 37t-99 106l-24 -122l-83 -416h-118l83 416l16 83l200 999l96 478h118l-119 -593l5 -4q49 66 115.5 102.5t144.5 36.5q147 0 213 -168.5t16 -422.5zM739 511q43 217 2 350t-163 133q-76 0 -137.5 -56.5 t-110.5 -146.5l-109 -544q19 -77 71.5 -120.5t136.5 -43.5q111 0 189.5 108.5t116.5 298.5z" />
<glyph unicode="&#xff;" horiz-adv-x="827" d="M359 298l5 -104l6 -1l418 889h131l-618 -1255q-53 -107 -124 -185.5t-173 -78.5q-16 0 -42 5t-38 9l34 103q9 -2 31 -4.5t32 -2.5q54 0 103 58.5t87 139.5l72 144l-113 1067h131zM867 1296h-156l26 160h156zM477 1296h-157l26 160h157z" />
<glyph unicode="&#x100;" horiz-adv-x="1057" d="M776 404h-502l-199 -404h-121l730 1456h106l143 -1456h-121zM328 514h438l-66 741l-6 1zM1086 1686h-570l16 100h570z" />
<glyph unicode="&#x101;" horiz-adv-x="905" d="M583 0q2 53 5.5 89.5t10.5 74.5q-61 -80 -146 -132.5t-176 -52.5q-120 0 -176.5 85.5t-28.5 223.5q31 160 148 245t292 85h177l27 133q24 122 -17 183.5t-141 61.5q-85 0 -159.5 -62.5t-91.5 -151.5l-108 1l-2 6q21 130 130.5 221.5t257.5 91.5q134 0 208 -93t41 -260 l-106 -531q-13 -60 -18.5 -112t-3.5 -106h-123zM313 87q88 0 175.5 59t136.5 147l46 232h-181q-108 0 -195 -70.5t-106 -170.5q-19 -92 13 -144.5t111 -52.5zM918 1364h-570l16 100h570z" />
<glyph unicode="&#x102;" horiz-adv-x="1057" d="M776 404h-502l-199 -404h-121l730 1456h106l143 -1456h-121zM328 514h438l-66 741l-6 1zM1062 1855l2 -6q-16 -117 -91 -185t-188 -68q-108 0 -165 72t-38 187h100q-13 -79 14.5 -125t102.5 -46q68 0 112 48.5t57 122.5h94z" />
<glyph unicode="&#x103;" horiz-adv-x="905" d="M583 0q2 53 5.5 89.5t10.5 74.5q-61 -80 -146 -132.5t-176 -52.5q-120 0 -176.5 85.5t-28.5 223.5q31 160 148 245t292 85h177l27 133q24 122 -17 183.5t-141 61.5q-85 0 -159.5 -62.5t-91.5 -151.5l-108 1l-2 6q21 130 130.5 221.5t257.5 91.5q134 0 208 -93t41 -260 l-106 -531q-13 -60 -18.5 -112t-3.5 -106h-123zM313 87q88 0 175.5 59t136.5 147l46 232h-181q-108 0 -195 -70.5t-106 -170.5q-19 -92 13 -144.5t111 -52.5zM894 1533l2 -6q-16 -117 -91 -185t-188 -68q-108 0 -165 72t-38 187h100q-13 -79 14.5 -125t102.5 -46 q68 0 112 48.5t57 122.5h94z" />
<glyph unicode="&#x104;" horiz-adv-x="1057" d="M776 404h-502l-199 -404h-121l730 1456h106l143 -1456h-121zM328 514h438l-66 741l-6 1zM918 0q-69 -60 -108.5 -107.5t-49.5 -103.5q-7 -32 4.5 -58.5t50.5 -26.5q22 0 45 9.5t43 21.5l4 -85q-29 -19 -62.5 -31.5t-75.5 -12.5q-62 0 -96 45.5t-19 125.5 q16 77 71.5 142.5t151.5 118.5z" />
<glyph unicode="&#x105;" horiz-adv-x="905" d="M583 0q2 53 5.5 89.5t10.5 74.5q-61 -80 -146 -132.5t-176 -52.5q-120 0 -176.5 85.5t-28.5 223.5q31 160 148 245t292 85h177l27 133q24 122 -17 183.5t-141 61.5q-85 0 -159.5 -62.5t-91.5 -151.5l-108 1l-2 6q21 130 130.5 221.5t257.5 91.5q134 0 208 -93t41 -260 l-106 -531q-13 -60 -18.5 -112t-3.5 -106h-123zM313 87q88 0 175.5 59t136.5 147l46 232h-181q-108 0 -195 -70.5t-106 -170.5q-19 -92 13 -144.5t111 -52.5zM691 0q-69 -60 -108.5 -107.5t-49.5 -103.5q-7 -32 4.5 -58.5t50.5 -26.5q22 0 45 9.5t43 21.5l4 -85 q-29 -19 -62.5 -31.5t-75.5 -12.5q-62 0 -96 45.5t-19 125.5q16 77 71.5 142.5t151.5 118.5z" />
<glyph unicode="&#x106;" horiz-adv-x="1019" d="M962 446l2 -6q-59 -223 -177 -342t-301 -119q-184 0 -287 182t-49 451l48 239q60 299 197 462.5t331 163.5q179 0 280.5 -130t73.5 -351h-117q17 178 -47.5 276.5t-204.5 98.5q-132 0 -240.5 -144.5t-153.5 -373.5l-49 -241q-49 -243 18 -386t216 -143q126 0 210.5 88.5 t140.5 274.5h109zM904 1844h142l3 -6l-253 -260h-100z" />
<glyph unicode="&#x107;" horiz-adv-x="872" d="M404 83q86 0 165.5 67.5t98.5 186.5h103l2 -6q-22 -157 -135.5 -254.5t-249.5 -97.5q-171 0 -249.5 135.5t-44.5 341.5l27 168q34 216 150.5 347t296.5 131q139 0 219 -107t52 -281h-111q21 134 -30 208t-147 74q-127 0 -207 -107t-105 -265l-27 -168q-28 -169 15 -271 t177 -102zM709 1501h142l3 -6l-253 -260h-100z" />
<glyph unicode="&#x108;" horiz-adv-x="1019" d="M962 446l2 -6q-59 -223 -177 -342t-301 -119q-184 0 -287 182t-49 451l48 239q60 299 197 462.5t331 163.5q179 0 280.5 -130t73.5 -351h-117q17 178 -47.5 276.5t-204.5 98.5q-132 0 -240.5 -144.5t-153.5 -373.5l-49 -241q-49 -243 18 -386t216 -143q126 0 210.5 88.5 t140.5 274.5h109zM1001 1641l-4 -19h-104l-92 166l-159 -166h-101l5 21l229 222h83z" />
<glyph unicode="&#x109;" horiz-adv-x="872" d="M404 83q86 0 165.5 67.5t98.5 186.5h103l2 -6q-22 -157 -135.5 -254.5t-249.5 -97.5q-171 0 -249.5 135.5t-44.5 341.5l27 168q34 216 150.5 347t296.5 131q139 0 219 -107t52 -281h-111q21 134 -30 208t-147 74q-127 0 -207 -107t-105 -265l-27 -168q-28 -169 15 -271 t177 -102zM806 1298l-4 -19h-104l-92 166l-159 -166h-101l5 21l229 222h83z" />
<glyph unicode="&#x10a;" horiz-adv-x="1019" d="M962 446l2 -6q-59 -223 -177 -342t-301 -119q-184 0 -287 182t-49 451l48 239q60 299 197 462.5t331 163.5q179 0 280.5 -130t73.5 -351h-117q17 178 -47.5 276.5t-204.5 98.5q-132 0 -240.5 -144.5t-153.5 -373.5l-49 -241q-49 -243 18 -386t216 -143q126 0 210.5 88.5 t140.5 274.5h109zM843 1656h-139l34 170h139z" />
<glyph unicode="&#x10b;" horiz-adv-x="872" d="M404 83q86 0 165.5 67.5t98.5 186.5h103l2 -6q-22 -157 -135.5 -254.5t-249.5 -97.5q-171 0 -249.5 135.5t-44.5 341.5l27 168q34 216 150.5 347t296.5 131q139 0 219 -107t52 -281h-111q21 134 -30 208t-147 74q-127 0 -207 -107t-105 -265l-27 -168q-28 -169 15 -271 t177 -102zM648 1313h-139l34 170h139z" />
<glyph unicode="&#x10c;" horiz-adv-x="1019" d="M962 446l2 -6q-59 -223 -177 -342t-301 -119q-184 0 -287 182t-49 451l48 239q60 299 197 462.5t331 163.5q179 0 280.5 -130t73.5 -351h-117q17 178 -47.5 276.5t-204.5 98.5q-132 0 -240.5 -144.5t-153.5 -373.5l-49 -241q-49 -243 18 -386t216 -143q126 0 210.5 88.5 t140.5 274.5h109zM783 1699l159 168h108l-3 -17l-238 -226h-83l-143 226l3 17h106z" />
<glyph unicode="&#x10d;" horiz-adv-x="872" d="M404 83q86 0 165.5 67.5t98.5 186.5h103l2 -6q-22 -157 -135.5 -254.5t-249.5 -97.5q-171 0 -249.5 135.5t-44.5 341.5l27 168q34 216 150.5 347t296.5 131q139 0 219 -107t52 -281h-111q21 134 -30 208t-147 74q-127 0 -207 -107t-105 -265l-27 -168q-28 -169 15 -271 t177 -102zM588 1356l159 168h108l-3 -17l-238 -226h-83l-143 226l3 17h106z" />
<glyph unicode="&#x10e;" horiz-adv-x="1090" d="M676 1456q205 0 327 -184.5t68 -454.5l-37 -189q-61 -302 -214 -465t-371 -163h-373l291 1456h309zM464 1350l-249 -1246h255q152 0 275.5 146.5t170.5 377.5l38 192q48 240 -38.5 385t-260.5 145h-191zM745 1678l159 168h108l-3 -17l-238 -226h-83l-143 226l3 17h106z " />
<glyph unicode="&#x10f;" horiz-adv-x="1084" d="M122 551q55 277 160.5 414t264.5 137q80 0 141.5 -41t94.5 -115l123 614h118l-312 -1560h-104l17 126q-55 -71 -124 -109t-149 -38q-144 0 -212.5 157.5t-21.5 393.5zM238 530q-41 -206 -0.5 -325t162.5 -119q75 0 137.5 51.5t112.5 141.5l106 530q-18 81 -68.5 133 t-135.5 52q-111 0 -190.5 -120t-119.5 -323zM1224 1436l-119 -209h-65l88 212l24 120h97z" />
<glyph unicode="&#x110;" horiz-adv-x="1120" d="M106 0l137 688h-124l21 104h124l133 664h309q205 0 327 -184.5t68 -454.5l-37 -189q-61 -302 -214 -465t-371 -163h-373zM610 688h-249l-116 -584h255q152 0 275.5 146.5t170.5 377.5l38 192q48 240 -38.5 385t-260.5 145h-191l-112 -558h249z" />
<glyph unicode="&#x111;" horiz-adv-x="964" d="M1107 1256h-144l-251 -1256h-104l17 126q-55 -71 -124 -109t-149 -38q-144 0 -212.5 157.5t-21.5 393.5l4 21q55 277 160.5 414t264.5 137q80 0 141.5 -41t94.5 -115l62 310h-229l21 104h229l40 200h118l-40 -200h144zM238 530q-41 -206 -0.5 -325t162.5 -119 q75 0 137.5 51.5t112.5 141.5l106 530q-18 81 -68.5 133t-135.5 52q-111 0 -190.5 -120t-119.5 -323z" />
<glyph unicode="&#x112;" horiz-adv-x="964" d="M878 703h-544l-119 -599h624l-21 -104h-742l291 1456h736l-21 -106h-618l-109 -543h543zM1042 1686h-570l16 100h570z" />
<glyph unicode="&#x113;" horiz-adv-x="869" d="M395 -21q-161 0 -249 132.5t-55 334.5l29 180q34 213 160 344.5t277 131.5q157 0 230 -122.5t41 -325.5l-19 -119h-588l-14 -89q-26 -162 28 -262.5t176 -100.5q81 0 150 31.5t120 87.5l35 -85q-57 -64 -136.5 -101t-184.5 -37zM540 996q-101 0 -187.5 -103t-109.5 -249 l2 -5h462l8 46q21 139 -23.5 225t-151.5 86zM891 1365h-570l16 100h570z" />
<glyph unicode="&#x114;" horiz-adv-x="964" d="M878 703h-544l-119 -599h624l-21 -104h-742l291 1456h736l-21 -106h-618l-109 -543h543zM1018 1855l2 -6q-16 -117 -91 -185t-188 -68q-108 0 -165 72t-38 187h100q-13 -79 14.5 -125t102.5 -46q68 0 112 48.5t57 122.5h94z" />
<glyph unicode="&#x115;" horiz-adv-x="869" d="M395 -21q-161 0 -249 132.5t-55 334.5l29 180q34 213 160 344.5t277 131.5q157 0 230 -122.5t41 -325.5l-19 -119h-588l-14 -89q-26 -162 28 -262.5t176 -100.5q81 0 150 31.5t120 87.5l35 -85q-57 -64 -136.5 -101t-184.5 -37zM540 996q-101 0 -187.5 -103t-109.5 -249 l2 -5h462l8 46q21 139 -23.5 225t-151.5 86zM867 1534l2 -6q-16 -117 -91 -185t-188 -68q-108 0 -165 72t-38 187h100q-13 -79 14.5 -125t102.5 -46q68 0 112 48.5t57 122.5h94z" />
<glyph unicode="&#x116;" horiz-adv-x="964" d="M878 703h-544l-119 -599h624l-21 -104h-742l291 1456h736l-21 -106h-618l-109 -543h543zM816 1635h-139l34 170h139z" />
<glyph unicode="&#x117;" horiz-adv-x="869" d="M395 -21q-161 0 -249 132.5t-55 334.5l29 180q34 213 160 344.5t277 131.5q157 0 230 -122.5t41 -325.5l-19 -119h-588l-14 -89q-26 -162 28 -262.5t176 -100.5q81 0 150 31.5t120 87.5l35 -85q-57 -64 -136.5 -101t-184.5 -37zM540 996q-101 0 -187.5 -103t-109.5 -249 l2 -5h462l8 46q21 139 -23.5 225t-151.5 86zM665 1314h-139l34 170h139z" />
<glyph unicode="&#x118;" horiz-adv-x="964" d="M878 703h-544l-119 -599h624l-21 -104h-742l291 1456h736l-21 -106h-618l-109 -543h543zM625 0q-69 -60 -108.5 -107.5t-49.5 -103.5q-7 -32 4.5 -58.5t50.5 -26.5q22 0 45 9.5t43 21.5l4 -85q-29 -19 -62.5 -31.5t-75.5 -12.5q-62 0 -96 45.5t-19 125.5 q16 77 71.5 142.5t151.5 118.5z" />
<glyph unicode="&#x119;" horiz-adv-x="869" d="M395 -21q-161 0 -249 132.5t-55 334.5l29 180q34 213 160 344.5t277 131.5q157 0 230 -122.5t41 -325.5l-19 -119h-588l-14 -89q-26 -162 28 -262.5t176 -100.5q81 0 150 31.5t120 87.5l35 -85q-57 -64 -136.5 -101t-184.5 -37zM540 996q-101 0 -187.5 -103t-109.5 -249 l2 -5h462l8 46q21 139 -23.5 225t-151.5 86zM633 60q-69 -60 -108.5 -107.5t-49.5 -103.5q-7 -32 4.5 -58.5t50.5 -26.5q22 0 45 9.5t43 21.5l4 -85q-29 -19 -62.5 -31.5t-75.5 -12.5q-62 0 -96 45.5t-19 125.5q16 77 71.5 142.5t151.5 118.5z" />
<glyph unicode="&#x11a;" horiz-adv-x="964" d="M878 703h-544l-119 -599h624l-21 -104h-742l291 1456h736l-21 -106h-618l-109 -543h543zM756 1678l159 168h108l-3 -17l-238 -226h-83l-143 226l3 17h106z" />
<glyph unicode="&#x11b;" horiz-adv-x="869" d="M395 -21q-161 0 -249 132.5t-55 334.5l29 180q34 213 160 344.5t277 131.5q157 0 230 -122.5t41 -325.5l-19 -119h-588l-14 -89q-26 -162 28 -262.5t176 -100.5q81 0 150 31.5t120 87.5l35 -85q-57 -64 -136.5 -101t-184.5 -37zM540 996q-101 0 -187.5 -103t-109.5 -249 l2 -5h462l8 46q21 139 -23.5 225t-151.5 86zM605 1357l159 168h108l-3 -17l-238 -226h-83l-143 226l3 17h106z" />
<glyph unicode="&#x11c;" horiz-adv-x="1146" d="M941 198q-55 -82 -171 -150.5t-274 -68.5q-196 0 -302 141t-55 397l87 433q54 272 197 399.5t350 127.5q184 0 276.5 -109.5t59.5 -298.5l-3 -5h-111q24 146 -35.5 226.5t-207.5 80.5q-141 0 -254.5 -109t-153.5 -310l-87 -435q-46 -226 25.5 -330t234.5 -104 q107 0 190.5 45t121.5 106l75 378h-284l21 105h403zM1023 1641l-4 -19h-104l-92 166l-159 -166h-101l5 21l229 222h83z" />
<glyph unicode="&#x11d;" d="M122 551q55 276 162 413.5t267 137.5q83 0 145.5 -44t94.5 -122l41 146h100l-213 -1068q-45 -223 -159 -337t-287 -114q-57 0 -126 19.5t-115 51.5l53 105q39 -31 93 -48.5t115 -17.5q112 0 193.5 91.5t113.5 249.5l19 95l-5 4q-49 -64 -115 -99t-143 -35 q-145 0 -215 157.5t-23 393.5zM237 530q-41 -205 1.5 -324.5t164.5 -119.5q75 0 137.5 52t112.5 143l105 526q-18 83 -67.5 135t-135.5 52q-111 0 -192.5 -120.5t-121.5 -322.5zM862 1298l-4 -19h-104l-92 166l-159 -166h-101l5 21l229 222h83z" />
<glyph unicode="&#x11e;" horiz-adv-x="1146" d="M941 198q-55 -82 -171 -150.5t-274 -68.5q-196 0 -302 141t-55 397l87 433q54 272 197 399.5t350 127.5q184 0 276.5 -109.5t59.5 -298.5l-3 -5h-111q24 146 -35.5 226.5t-207.5 80.5q-141 0 -254.5 -109t-153.5 -310l-87 -435q-46 -226 25.5 -330t234.5 -104 q107 0 190.5 45t121.5 106l75 378h-284l21 105h403zM1067 1876l2 -6q-16 -117 -91 -185t-188 -68q-108 0 -165 72t-38 187h100q-13 -79 14.5 -125t102.5 -46q68 0 112 48.5t57 122.5h94z" />
<glyph unicode="&#x11f;" d="M122 551q55 276 162 413.5t267 137.5q83 0 145.5 -44t94.5 -122l41 146h100l-213 -1068q-45 -223 -159 -337t-287 -114q-57 0 -126 19.5t-115 51.5l53 105q39 -31 93 -48.5t115 -17.5q112 0 193.5 91.5t113.5 249.5l19 95l-5 4q-49 -64 -115 -99t-143 -35 q-145 0 -215 157.5t-23 393.5zM237 530q-41 -205 1.5 -324.5t164.5 -119.5q75 0 137.5 52t112.5 143l105 526q-18 83 -67.5 135t-135.5 52q-111 0 -192.5 -120.5t-121.5 -322.5zM906 1533l2 -6q-16 -117 -91 -185t-188 -68q-108 0 -165 72t-38 187h100q-13 -79 14.5 -125 t102.5 -46q68 0 112 48.5t57 122.5h94z" />
<glyph unicode="&#x120;" horiz-adv-x="1146" d="M941 198q-55 -82 -171 -150.5t-274 -68.5q-196 0 -302 141t-55 397l87 433q54 272 197 399.5t350 127.5q184 0 276.5 -109.5t59.5 -298.5l-3 -5h-111q24 146 -35.5 226.5t-207.5 80.5q-141 0 -254.5 -109t-153.5 -310l-87 -435q-46 -226 25.5 -330t234.5 -104 q107 0 190.5 45t121.5 106l75 378h-284l21 105h403zM865 1656h-139l34 170h139z" />
<glyph unicode="&#x121;" d="M122 551q55 276 162 413.5t267 137.5q83 0 145.5 -44t94.5 -122l41 146h100l-213 -1068q-45 -223 -159 -337t-287 -114q-57 0 -126 19.5t-115 51.5l53 105q39 -31 93 -48.5t115 -17.5q112 0 193.5 91.5t113.5 249.5l19 95l-5 4q-49 -64 -115 -99t-143 -35 q-145 0 -215 157.5t-23 393.5zM237 530q-41 -205 1.5 -324.5t164.5 -119.5q75 0 137.5 52t112.5 143l105 526q-18 83 -67.5 135t-135.5 52q-111 0 -192.5 -120.5t-121.5 -322.5zM704 1313h-139l34 170h139z" />
<glyph unicode="&#x122;" horiz-adv-x="1146" d="M941 198q-55 -82 -171 -150.5t-274 -68.5q-196 0 -302 141t-55 397l87 433q54 272 197 399.5t350 127.5q184 0 276.5 -109.5t59.5 -298.5l-3 -5h-111q24 146 -35.5 226.5t-207.5 80.5q-141 0 -254.5 -109t-153.5 -310l-87 -435q-46 -226 25.5 -330t234.5 -104 q107 0 190.5 45t121.5 106l75 378h-284l21 105h403zM465 -253l-119 -209h-65l88 212l24 120h97z" />
<glyph unicode="&#x123;" d="M122 551q55 276 162 413.5t267 137.5q83 0 145.5 -44t94.5 -122l41 146h100l-213 -1068q-45 -223 -159 -337t-287 -114q-57 0 -126 19.5t-115 51.5l53 105q39 -31 93 -48.5t115 -17.5q112 0 193.5 91.5t113.5 249.5l19 95l-5 4q-49 -64 -115 -99t-143 -35 q-145 0 -215 157.5t-23 393.5zM237 530q-41 -205 1.5 -324.5t164.5 -119.5q75 0 137.5 52t112.5 143l105 526q-18 83 -67.5 135t-135.5 52q-111 0 -192.5 -120.5t-121.5 -322.5zM592 1401l123 218h65l-70 -220l-27 -136h-118z" />
<glyph unicode="&#x124;" horiz-adv-x="1173" d="M927 0h-116l133 669h-617l-133 -669h-118l291 1456h118l-137 -683h617l137 683h116zM1049 1620l-4 -19h-104l-92 166l-159 -166h-101l5 21l229 222h83z" />
<glyph unicode="&#x125;" d="M353 932l5 -3q55 83 131.5 128t165.5 45q128 0 184 -107.5t13 -326.5l-134 -668h-119l134 670q37 186 2 255t-132 69q-79 0 -153 -60t-128 -158l-155 -776h-118l312 1560h118zM873 1619l-4 -19h-104l-92 166l-159 -166h-101l5 21l229 222h83z" />
<glyph unicode="&#x126;" horiz-adv-x="1150" d="M1140 1125h119l-20 -99h-119l-205 -1026h-116l133 669h-617l-133 -669h-118l205 1026h-113l20 99h113l66 331h118l-66 -331h617l66 331h116zM336 773h617l51 253h-617z" />
<glyph unicode="&#x127;" horiz-adv-x="964" d="M694 1256h-246l-65 -324l5 -3q55 83 131.5 128t165.5 45q128 0 184 -107.5t13 -326.5l-134 -668h-119l134 670q37 186 2 255t-132 69q-79 0 -153 -60t-128 -158l-155 -776h-118l251 1256h-127l21 104h127l40 200h118l-40 -200h246z" />
<glyph unicode="&#x128;" horiz-adv-x="473" d="M210 0h-119l291 1456h119zM771 1823q-15 -92 -68.5 -148.5t-121.5 -56.5q-54 0 -107 54.5t-95 54.5q-35 0 -66 -35t-39 -88l-69 18q14 90 67.5 147.5t122.5 57.5q45 0 102.5 -55t99.5 -55q34 0 65.5 36.5t40.5 90.5z" />
<glyph unicode="&#x129;" horiz-adv-x="406" d="M175 0h-118l216 1082h118zM668 1481q-15 -92 -68.5 -148.5t-121.5 -56.5q-54 0 -107 54.5t-95 54.5q-35 0 -66 -35t-39 -88l-69 18q14 90 67.5 147.5t122.5 57.5q45 0 102.5 -55t99.5 -55q34 0 65.5 36.5t40.5 90.5z" />
<glyph unicode="&#x12a;" horiz-adv-x="473" d="M210 0h-119l291 1456h119zM774 1686h-570l16 100h570z" />
<glyph unicode="&#x12b;" horiz-adv-x="406" d="M175 0h-118l216 1082h118zM671 1345h-570l16 100h570z" />
<glyph unicode="&#x12c;" horiz-adv-x="473" d="M210 0h-119l291 1456h119zM750 1855l2 -6q-16 -117 -91 -185t-188 -68q-108 0 -165 72t-38 187h100q-13 -79 14.5 -125t102.5 -46q68 0 112 48.5t57 122.5h94z" />
<glyph unicode="&#x12d;" horiz-adv-x="406" d="M175 0h-118l216 1082h118zM647 1512l2 -6q-16 -117 -91 -185t-188 -68q-108 0 -165 72t-38 187h100q-13 -79 14.5 -125t102.5 -46q68 0 112 48.5t57 122.5h94z" />
<glyph unicode="&#x12e;" horiz-adv-x="473" d="M210 0h-119l291 1456h119zM197 0q-69 -60 -108.5 -107.5t-49.5 -103.5q-7 -32 4.5 -58.5t50.5 -26.5q22 0 45 9.5t43 21.5l4 -85q-29 -19 -62.5 -31.5t-75.5 -12.5q-62 0 -96 45.5t-19 125.5q16 77 71.5 142.5t151.5 118.5z" />
<glyph unicode="&#x12f;" horiz-adv-x="410" d="M179 0h-118l216 1082h118zM457 1390h-118l34 170h118zM165 0q-69 -60 -108.5 -107.5t-49.5 -103.5q-7 -32 4.5 -58.5t50.5 -26.5q22 0 45 9.5t43 21.5l4 -85q-29 -19 -62.5 -31.5t-75.5 -12.5q-62 0 -96 45.5t-19 125.5q16 77 71.5 142.5t151.5 118.5z" />
<glyph unicode="&#x130;" horiz-adv-x="473" d="M210 0h-119l291 1456h119zM546 1635h-139l34 170h139z" />
<glyph unicode="&#x131;" horiz-adv-x="406" d="M175 0h-118l216 1082h118z" />
<glyph unicode="&#x132;" horiz-adv-x="1391" d="M210 0h-119l291 1456h119zM1325 1456h118l-209 -1044q-43 -213 -157.5 -323t-269.5 -110q-153 0 -232.5 109t-38.5 313h119q-34 -167 11.5 -242.5t161.5 -75.5q91 0 175 90.5t113 238.5z" />
<glyph unicode="&#x133;" horiz-adv-x="834" d="M179 0h-118l216 1082h118zM457 1390h-118l34 170h118zM812 1082l-234 -1171q-36 -178 -115.5 -263t-198.5 -85q-21 0 -41.5 5t-42.5 14l32 105q12 -6 32 -11t33 -5q60 0 110.5 62t73.5 178l234 1171h117zM870 1390h-118l34 170h118z" />
<glyph unicode="&#x134;" horiz-adv-x="918" d="M852 1456h118l-209 -1044q-43 -213 -157.5 -323t-269.5 -110q-153 0 -232.5 109t-38.5 313h119q-34 -167 11.5 -242.5t161.5 -75.5q91 0 175 90.5t113 238.5zM1165 1598l-4 -19h-104l-92 166l-159 -166h-101l5 21l229 222h83z" />
<glyph unicode="&#x135;" horiz-adv-x="414" d="M401 1082l-234 -1171q-36 -178 -115.5 -263t-198.5 -85q-21 0 -42 5t-42 14l32 102q10 -5 34 -10t39 -5q57 0 105.5 65t70.5 177l234 1171h117zM609 1259l-4 -19h-104l-92 166l-159 -166h-101l5 21l229 222h83z" />
<glyph unicode="&#x136;" horiz-adv-x="1062" d="M449 689h-137l-137 -689h-118l291 1456h118l-132 -658h148l519 658h145l3 -5l-597 -722l329 -729h-136zM422 -253l-119 -209h-65l88 212l24 120h97z" />
<glyph unicode="&#x137;" horiz-adv-x="835" d="M380 525h-108l-105 -525h-117l312 1560h117l-186 -929h100l375 451h135l2 -5l-422 -488l250 -589h-141zM347 -253l-119 -209h-65l88 212l24 120h97z" />
<glyph unicode="&#x138;" horiz-adv-x="915" d="M366 493h-95l-98 -493h-119l216 1082h119l-96 -479h91l427 479h138l2 -5l-477 -517l299 -560h-150z" />
<glyph unicode="&#x139;" horiz-adv-x="888" d="M216 104h558l-21 -104h-677l291 1456h119zM578 1760h142l3 -6l-253 -260h-100z" />
<glyph unicode="&#x13a;" horiz-adv-x="410" d="M179 0h-118l312 1560h118zM589 1884h142l3 -6l-253 -260h-100z" />
<glyph unicode="&#x13b;" horiz-adv-x="888" d="M216 104h558l-21 -104h-677l291 1456h119zM419 -253l-119 -209h-65l88 212l24 120h97z" />
<glyph unicode="&#x13c;" horiz-adv-x="410" d="M179 0h-118l312 1560h118zM118 -253l-119 -209h-65l88 212l24 120h97z" />
<glyph unicode="&#x13d;" horiz-adv-x="888" d="M216 104h558l-21 -104h-677l291 1456h119zM791 1333l-119 -209h-65l88 212l24 120h97z" />
<glyph unicode="&#x13e;" horiz-adv-x="560" d="M179 0h-118l312 1560h118zM704 1436l-119 -209h-65l88 212l24 120h97z" />
<glyph unicode="&#x13f;" horiz-adv-x="888" d="M216 104h558l-21 -104h-677l291 1456h119zM686 687h-139l34 170h139z" />
<glyph unicode="&#x140;" horiz-adv-x="630" d="M179 0h-118l312 1560h118zM566 698h-139l34 170h139z" />
<glyph unicode="&#x141;" horiz-adv-x="874" d="M348 821l252 94l-22 -111l-252 -94l-121 -606h558l-21 -104h-677l132 662l-121 -45l23 111l120 45l137 683h119z" />
<glyph unicode="&#x142;" horiz-adv-x="455" d="M375 865l146 65l-22 -112l-147 -66l-150 -752h-118l139 695l-144 -64l23 112l143 64l151 753h118z" />
<glyph unicode="&#x143;" horiz-adv-x="1177" d="M931 0h-118l-370 1212h-6l-242 -1212h-119l291 1456h119l369 -1211h6l243 1211h118zM959 1823h142l3 -6l-253 -260h-100z" />
<glyph unicode="&#x144;" d="M347 921l5 -3q54 89 130.5 136.5t168.5 47.5q130 0 186 -109.5t12 -332.5l-132 -660h-119l132 659q39 197 4 266t-136 69q-81 0 -153.5 -63.5t-125.5 -166.5l-152 -764h-118l216 1082h105zM776 1501h142l3 -6l-253 -260h-100z" />
<glyph unicode="&#x145;" horiz-adv-x="1177" d="M931 0h-118l-370 1212h-6l-242 -1212h-119l291 1456h119l369 -1211h6l243 1211h118zM499 -253l-119 -209h-65l88 212l24 120h97z" />
<glyph unicode="&#x146;" d="M347 921l5 -3q54 89 130.5 136.5t168.5 47.5q130 0 186 -109.5t12 -332.5l-132 -660h-119l132 659q39 197 4 266t-136 69q-81 0 -153.5 -63.5t-125.5 -166.5l-152 -764h-118l216 1082h105zM380 -253l-119 -209h-65l88 212l24 120h97z" />
<glyph unicode="&#x147;" horiz-adv-x="1177" d="M931 0h-118l-370 1212h-6l-242 -1212h-119l291 1456h119l369 -1211h6l243 1211h118zM838 1678l159 168h108l-3 -17l-238 -226h-83l-143 226l3 17h106z" />
<glyph unicode="&#x148;" d="M347 921l5 -3q54 89 130.5 136.5t168.5 47.5q130 0 186 -109.5t12 -332.5l-132 -660h-119l132 659q39 197 4 266t-136 69q-81 0 -153.5 -63.5t-125.5 -166.5l-152 -764h-118l216 1082h105zM655 1356l159 168h108l-3 -17l-238 -226h-83l-143 226l3 17h106z" />
<glyph unicode="&#x149;" d="M347 921l5 -3q54 89 130.5 136.5t168.5 47.5q130 0 186 -109.5t12 -332.5l-132 -660h-119l132 659q39 197 4 266t-136 69q-81 0 -153.5 -63.5t-125.5 -166.5l-152 -764h-118l216 1082h105zM338 1434l-119 -209h-65l88 212l24 120h97z" />
<glyph unicode="&#x14a;" horiz-adv-x="1154" d="M1213 1456l-309 -1545q-36 -178 -117 -263t-200 -85q-22 0 -43 5t-42 14l32 102q10 -5 34.5 -10t39.5 -5q57 0 105.5 65t71.5 177l18 89l-371 1203h-6l-241 -1203h-119l291 1456h119l371 -1204h6l241 1204h119z" />
<glyph unicode="&#x14b;" d="M348 929l5 -3q54 85 129.5 130.5t164.5 45.5q130 0 186 -109.5t12 -332.5l-150 -749q-36 -178 -116.5 -263t-199.5 -85q-24 0 -46.5 5t-44.5 14l33 107q10 -5 37 -10.5t43 -5.5q56 0 105 63.5t71 174.5l150 748q39 197 3.5 266t-136.5 69q-81 0 -150 -55.5t-119 -147.5 l-158 -791h-118l216 1082h105z" />
<glyph unicode="&#x14c;" horiz-adv-x="1079" d="M1048 603q-61 -302 -204.5 -463t-351.5 -161q-191 0 -296 180.5t-50 452.5l48 239q60 303 200 464.5t344 161.5q195 0 303 -182t54 -453zM978 844q48 244 -24.5 384t-236.5 140q-141 0 -249.5 -141t-154.5 -374l-49 -241q-49 -246 20.5 -386t228.5 -140q146 0 257.5 141 t159.5 376zM1079 1707h-570l16 100h570z" />
<glyph unicode="&#x14d;" d="M117 620q35 219 158 350.5t298 131.5q166 0 251 -137t52 -345l-25 -159q-36 -221 -158.5 -351.5t-297.5 -130.5q-168 0 -252.5 136t-50.5 346zM210 461q-27 -167 23.5 -272.5t177.5 -105.5q118 0 206.5 109.5t114.5 268.5l25 159q26 164 -25 270t-176 106 q-120 0 -208 -109.5t-113 -266.5zM907 1364h-570l16 100h570z" />
<glyph unicode="&#x14e;" horiz-adv-x="1079" d="M1048 603q-61 -302 -204.5 -463t-351.5 -161q-191 0 -296 180.5t-50 452.5l48 239q60 303 200 464.5t344 161.5q195 0 303 -182t54 -453zM978 844q48 244 -24.5 384t-236.5 140q-141 0 -249.5 -141t-154.5 -374l-49 -241q-49 -246 20.5 -386t228.5 -140q146 0 257.5 141 t159.5 376zM1055 1876l2 -6q-16 -117 -91 -185t-188 -68q-108 0 -165 72t-38 187h100q-13 -79 14.5 -125t102.5 -46q68 0 112 48.5t57 122.5h94z" />
<glyph unicode="&#x14f;" d="M117 620q35 219 158 350.5t298 131.5q166 0 251 -137t52 -345l-25 -159q-36 -221 -158.5 -351.5t-297.5 -130.5q-168 0 -252.5 136t-50.5 346zM210 461q-27 -167 23.5 -272.5t177.5 -105.5q118 0 206.5 109.5t114.5 268.5l25 159q26 164 -25 270t-176 106 q-120 0 -208 -109.5t-113 -266.5zM883 1533l2 -6q-16 -117 -91 -185t-188 -68q-108 0 -165 72t-38 187h100q-13 -79 14.5 -125t102.5 -46q68 0 112 48.5t57 122.5h94z" />
<glyph unicode="&#x150;" horiz-adv-x="1079" d="M1048 603q-61 -302 -204.5 -463t-351.5 -161q-191 0 -296 180.5t-50 452.5l48 239q60 303 200 464.5t344 161.5q195 0 303 -182t54 -453zM978 844q48 244 -24.5 384t-236.5 140q-141 0 -249.5 -141t-154.5 -374l-49 -241q-49 -246 20.5 -386t228.5 -140q146 0 257.5 141 t159.5 376zM1063 1888h139l2 -6l-288 -260h-105l-3 6zM821 1888h127l3 -6l-245 -260h-94l-3 5z" />
<glyph unicode="&#x151;" d="M117 620q35 219 158 350.5t298 131.5q166 0 251 -137t52 -345l-25 -159q-36 -221 -158.5 -351.5t-297.5 -130.5q-168 0 -252.5 136t-50.5 346zM210 461q-27 -167 23.5 -272.5t177.5 -105.5q118 0 206.5 109.5t114.5 268.5l25 159q26 164 -25 270t-176 106 q-120 0 -208 -109.5t-113 -266.5zM891 1545h139l2 -6l-288 -260h-105l-3 6zM649 1545h127l3 -6l-245 -260h-94l-3 5z" />
<glyph unicode="&#x152;" horiz-adv-x="1551" d="M1377 0h-693q-78 -10 -133 -15.5t-110 -5.5q-180 0 -272 168.5t-40 428.5l61 304q56 282 204 439.5t345 157.5q52 0 113.5 -6t122.5 -15h687l-21 -106h-618l-109 -543h543l-20 -104h-544l-119 -599h624zM462 83q45 0 95 3.5t97 11.5l252 1260q-43 7 -90.5 11t-96.5 4 q-135 0 -251 -133.5t-161 -357.5l-61 -306q-49 -242 10 -367.5t206 -125.5z" />
<glyph unicode="&#x153;" horiz-adv-x="1508" d="M115 556q51 255 181 400.5t306 145.5q102 0 172.5 -65t99.5 -179q71 116 165.5 180t193.5 64q153 0 222.5 -128t28.5 -336l-21 -103h-587l-5 -25q-39 -195 7.5 -311t168.5 -116q79 0 150 31.5t125 87.5l30 -85q-58 -63 -139.5 -100.5t-186.5 -37.5q-98 0 -170 64 t-101 175q-70 -116 -166 -177.5t-209 -61.5q-163 0 -241 154.5t-30 390.5zM227 524q-40 -200 3 -320.5t171 -120.5q115 0 213 129t135 312l6 32q39 196 -4.5 318t-169.5 122q-115 0 -213.5 -130t-134.5 -310zM1212 996q-88 0 -176 -102t-130 -250l2 -5h458l6 30 q29 149 -11.5 238t-148.5 89z" />
<glyph unicode="&#x154;" horiz-adv-x="1093" d="M323 657l-131 -657h-118l291 1455h400q174 0 258 -105t46 -298q-25 -125 -95.5 -213t-176.5 -129q94 -36 125.5 -124.5t7.5 -214.5l-27 -137q-15 -72 -13 -123.5t25 -86.5l-5 -24h-121q-23 36 -21 99.5t17 136.5l27 133q28 141 -19.5 214.5t-159.5 73.5h-310zM344 761 h268q135 0 223.5 80.5t115.5 211.5q30 152 -20 224.5t-187 72.5h-282zM870 1823h142l3 -6l-253 -260h-100z" />
<glyph unicode="&#x155;" horiz-adv-x="584" d="M644 974l-75 6q-75 0 -139.5 -59.5t-111.5 -161.5l-151 -759h-118l216 1082h104l-20 -162l5 -3q49 88 117 136.5t149 48.5q17 0 35 -3.5t28 -7.5zM646 1501h142l3 -6l-253 -260h-100z" />
<glyph unicode="&#x156;" horiz-adv-x="1093" d="M323 657l-131 -657h-118l291 1455h400q174 0 258 -105t46 -298q-25 -125 -95.5 -213t-176.5 -129q94 -36 125.5 -124.5t7.5 -214.5l-27 -137q-15 -72 -13 -123.5t25 -86.5l-5 -24h-121q-23 36 -21 99.5t17 136.5l27 133q28 141 -19.5 214.5t-159.5 73.5h-310zM344 761 h268q135 0 223.5 80.5t115.5 211.5q30 152 -20 224.5t-187 72.5h-282zM410 -253l-119 -209h-65l88 212l24 120h97z" />
<glyph unicode="&#x157;" horiz-adv-x="584" d="M644 974l-75 6q-75 0 -139.5 -59.5t-111.5 -161.5l-151 -759h-118l216 1082h104l-20 -162l5 -3q49 88 117 136.5t149 48.5q17 0 35 -3.5t28 -7.5zM115 -253l-119 -209h-65l88 212l24 120h97z" />
<glyph unicode="&#x158;" horiz-adv-x="1093" d="M323 657l-131 -657h-118l291 1455h400q174 0 258 -105t46 -298q-25 -125 -95.5 -213t-176.5 -129q94 -36 125.5 -124.5t7.5 -214.5l-27 -137q-15 -72 -13 -123.5t25 -86.5l-5 -24h-121q-23 36 -21 99.5t17 136.5l27 133q28 141 -19.5 214.5t-159.5 73.5h-310zM344 761 h268q135 0 223.5 80.5t115.5 211.5q30 152 -20 224.5t-187 72.5h-282zM749 1678l159 168h108l-3 -17l-238 -226h-83l-143 226l3 17h106z" />
<glyph unicode="&#x159;" horiz-adv-x="584" d="M644 974l-75 6q-75 0 -139.5 -59.5t-111.5 -161.5l-151 -759h-118l216 1082h104l-20 -162l5 -3q49 88 117 136.5t149 48.5q17 0 35 -3.5t28 -7.5zM527 1356l159 168h108l-3 -17l-238 -226h-83l-143 226l3 17h106z" />
<glyph unicode="&#x15a;" horiz-adv-x="1006" d="M791 318q26 133 -24 206.5t-209 149.5q-177 76 -251 174.5t-36 286.5q32 165 145.5 253.5t270.5 88.5q174 0 268.5 -118t53.5 -323h-119q30 154 -30.5 244.5t-193.5 90.5q-98 0 -177.5 -69t-98.5 -165q-27 -136 19 -207.5t209 -148.5q178 -77 253 -178t39 -283 q-34 -170 -152 -255.5t-284 -85.5q-173 0 -286.5 106t-65.5 329l3 5h112q-38 -189 42.5 -262.5t215.5 -73.5q101 0 188.5 68.5t107.5 166.5zM875 1844h142l3 -6l-253 -260h-100z" />
<glyph unicode="&#x15b;" horiz-adv-x="834" d="M599 259q12 76 -24.5 128t-149.5 112q-147 68 -209 138.5t-43 184.5q18 121 117.5 200.5t239.5 79.5q141 0 215 -92t49 -227l-3 -5h-111q14 91 -30 154.5t-137 63.5q-91 0 -151.5 -52t-70.5 -118q-12 -75 20.5 -116.5t152.5 -108.5q144 -65 208 -141.5t46 -193.5 q-22 -133 -121.5 -210t-245.5 -77q-153 0 -231.5 95.5t-52.5 224.5l2 5h111q-14 -117 43 -169t144 -52q90 0 155.5 52t76.5 124zM699 1501h142l3 -6l-253 -260h-100z" />
<glyph unicode="&#x15c;" horiz-adv-x="1006" d="M791 318q26 133 -24 206.5t-209 149.5q-177 76 -251 174.5t-36 286.5q32 165 145.5 253.5t270.5 88.5q174 0 268.5 -118t53.5 -323h-119q30 154 -30.5 244.5t-193.5 90.5q-98 0 -177.5 -69t-98.5 -165q-27 -136 19 -207.5t209 -148.5q178 -77 253 -178t39 -283 q-34 -170 -152 -255.5t-284 -85.5q-173 0 -286.5 106t-65.5 329l3 5h112q-38 -189 42.5 -262.5t215.5 -73.5q101 0 188.5 68.5t107.5 166.5zM972 1641l-4 -19h-104l-92 166l-159 -166h-101l5 21l229 222h83z" />
<glyph unicode="&#x15d;" horiz-adv-x="834" d="M599 259q12 76 -24.5 128t-149.5 112q-147 68 -209 138.5t-43 184.5q18 121 117.5 200.5t239.5 79.5q141 0 215 -92t49 -227l-3 -5h-111q14 91 -30 154.5t-137 63.5q-91 0 -151.5 -52t-70.5 -118q-12 -75 20.5 -116.5t152.5 -108.5q144 -65 208 -141.5t46 -193.5 q-22 -133 -121.5 -210t-245.5 -77q-153 0 -231.5 95.5t-52.5 224.5l2 5h111q-14 -117 43 -169t144 -52q90 0 155.5 52t76.5 124zM796 1298l-4 -19h-104l-92 166l-159 -166h-101l5 21l229 222h83z" />
<glyph unicode="&#x15e;" horiz-adv-x="1006" d="M791 318q26 133 -24 206.5t-209 149.5q-177 76 -251 174.5t-36 286.5q32 165 145.5 253.5t270.5 88.5q174 0 268.5 -118t53.5 -323h-119q30 154 -30.5 244.5t-193.5 90.5q-98 0 -177.5 -69t-98.5 -165q-27 -136 19 -207.5t209 -148.5q178 -77 253 -178t39 -283 q-34 -170 -152 -255.5t-284 -85.5q-173 0 -286.5 106t-65.5 329l3 5h112q-38 -189 42.5 -262.5t215.5 -73.5q101 0 188.5 68.5t107.5 166.5zM460 -8l-22 -63q57 -9 85 -49t12 -122q-20 -97 -91 -148t-184 -49l-5 4l10 72q61 0 112 30.5t63 88.5q12 60 -13.5 80.5 t-102.5 28.5l48 127h88z" />
<glyph unicode="&#x15f;" horiz-adv-x="834" d="M599 259q12 76 -24.5 128t-149.5 112q-147 68 -209 138.5t-43 184.5q18 121 117.5 200.5t239.5 79.5q141 0 215 -92t49 -227l-3 -5h-111q14 91 -30 154.5t-137 63.5q-91 0 -151.5 -52t-70.5 -118q-12 -75 20.5 -116.5t152.5 -108.5q144 -65 208 -141.5t46 -193.5 q-22 -133 -121.5 -210t-245.5 -77q-153 0 -231.5 95.5t-52.5 224.5l2 5h111q-14 -117 43 -169t144 -52q90 0 155.5 52t76.5 124zM406 -5l-22 -63q57 -9 85 -49t12 -122q-20 -97 -91 -148t-184 -49l-5 4l10 72q61 0 112 30.5t63 88.5q12 60 -13.5 80.5t-102.5 28.5l48 127h88 z" />
<glyph unicode="&#x160;" horiz-adv-x="1006" d="M791 318q26 133 -24 206.5t-209 149.5q-177 76 -251 174.5t-36 286.5q32 165 145.5 253.5t270.5 88.5q174 0 268.5 -118t53.5 -323h-119q30 154 -30.5 244.5t-193.5 90.5q-98 0 -177.5 -69t-98.5 -165q-27 -136 19 -207.5t209 -148.5q178 -77 253 -178t39 -283 q-34 -170 -152 -255.5t-284 -85.5q-173 0 -286.5 106t-65.5 329l3 5h112q-38 -189 42.5 -262.5t215.5 -73.5q101 0 188.5 68.5t107.5 166.5zM754 1699l159 168h108l-3 -17l-238 -226h-83l-143 226l3 17h106z" />
<glyph unicode="&#x161;" horiz-adv-x="834" d="M599 259q12 76 -24.5 128t-149.5 112q-147 68 -209 138.5t-43 184.5q18 121 117.5 200.5t239.5 79.5q141 0 215 -92t49 -227l-3 -5h-111q14 91 -30 154.5t-137 63.5q-91 0 -151.5 -52t-70.5 -118q-12 -75 20.5 -116.5t152.5 -108.5q144 -65 208 -141.5t46 -193.5 q-22 -133 -121.5 -210t-245.5 -77q-153 0 -231.5 95.5t-52.5 224.5l2 5h111q-14 -117 43 -169t144 -52q90 0 155.5 52t76.5 124zM578 1356l159 168h108l-3 -17l-238 -226h-83l-143 226l3 17h106z" />
<glyph unicode="&#x162;" horiz-adv-x="981" d="M1119 1350h-386l-270 -1350h-117l270 1350h-385l21 106h888zM402 -253l-119 -209h-65l88 212l24 120h97z" />
<glyph unicode="&#x163;" horiz-adv-x="576" d="M493 1358l-56 -276h178l-20 -101h-178l-140 -702q-23 -112 -3.5 -152.5t67.5 -40.5q21 0 45.5 3t51.5 9l-4 -92q-25 -12 -63.5 -19.5t-75.5 -7.5q-87 0 -128 73.5t-9 226.5l140 702h-142l20 101h142l56 276h119zM286 -253l-119 -209h-65l88 212l24 120h97z" />
<glyph unicode="&#x164;" horiz-adv-x="981" d="M1119 1350h-386l-270 -1350h-117l270 1350h-385l21 106h888zM740 1673l159 168h108l-3 -17l-238 -226h-83l-143 226l3 17h106z" />
<glyph unicode="&#x165;" horiz-adv-x="616" d="M493 1358l-56 -276h178l-20 -101h-178l-140 -702q-23 -112 -3.5 -152.5t67.5 -40.5q21 0 45.5 3t51.5 9l-4 -92q-25 -12 -63.5 -19.5t-75.5 -7.5q-87 0 -128 73.5t-9 226.5l140 702h-142l20 101h142l56 276h119zM764 1440l-119 -209h-65l88 212l24 120h97z" />
<glyph unicode="&#x166;" horiz-adv-x="981" d="M810 833h-181l-166 -833h-117l166 833h-193l21 104h193l83 413h-385l21 106h888l-21 -106h-386l-83 -413h181z" />
<glyph unicode="&#x167;" horiz-adv-x="576" d="M493 1358l-56 -276h178l-20 -101h-178l-52 -261h208l-21 -104h-208l-67 -337q-23 -112 -3.5 -152.5t67.5 -40.5q21 0 45.5 3t51.5 9l-4 -92q-25 -12 -63.5 -19.5t-75.5 -7.5q-87 0 -128 73.5t-9 226.5l67 337h-164l21 104h164l52 261h-142l20 101h142l56 276h119z" />
<glyph unicode="&#x168;" horiz-adv-x="1074" d="M1149 1456l-204 -1019q-47 -238 -180 -348t-320 -110q-168 0 -260 119.5t-48 338.5l204 1019h115l-204 -1019q-37 -183 23.5 -268.5t190.5 -85.5q125 0 226 89t136 265l204 1019h117zM1075 1823q-15 -92 -68.5 -148.5t-121.5 -56.5q-54 0 -107 54.5t-95 54.5 q-35 0 -66 -35t-39 -88l-69 18q14 90 67.5 147.5t122.5 57.5q45 0 102.5 -55t99.5 -55q34 0 65.5 36.5t40.5 90.5z" />
<glyph unicode="&#x169;" d="M610 0l23 150l-5 3q-53 -85 -128 -129.5t-167 -44.5q-129 0 -187 117.5t-9 357.5l125 628h118l-126 -630q-42 -210 -10.5 -288t126.5 -78q92 0 165.5 58.5t122.5 157.5l156 780h118l-216 -1082h-106zM936 1481q-15 -92 -68.5 -148.5t-121.5 -56.5q-54 0 -107 54.5 t-95 54.5q-35 0 -66 -35t-39 -88l-69 18q14 90 67.5 147.5t122.5 57.5q45 0 102.5 -55t99.5 -55q34 0 65.5 36.5t40.5 90.5z" />
<glyph unicode="&#x16a;" horiz-adv-x="1074" d="M1149 1456l-204 -1019q-47 -238 -180 -348t-320 -110q-168 0 -260 119.5t-48 338.5l204 1019h115l-204 -1019q-37 -183 23.5 -268.5t190.5 -85.5q125 0 226 89t136 265l204 1019h117zM1078 1686h-570l16 100h570z" />
<glyph unicode="&#x16b;" d="M610 0l23 150l-5 3q-53 -85 -128 -129.5t-167 -44.5q-129 0 -187 117.5t-9 357.5l125 628h118l-126 -630q-42 -210 -10.5 -288t126.5 -78q92 0 165.5 58.5t122.5 157.5l156 780h118l-216 -1082h-106zM939 1345h-570l16 100h570z" />
<glyph unicode="&#x16c;" horiz-adv-x="1074" d="M1149 1456l-204 -1019q-47 -238 -180 -348t-320 -110q-168 0 -260 119.5t-48 338.5l204 1019h115l-204 -1019q-37 -183 23.5 -268.5t190.5 -85.5q125 0 226 89t136 265l204 1019h117zM1054 1855l2 -6q-16 -117 -91 -185t-188 -68q-108 0 -165 72t-38 187h100 q-13 -79 14.5 -125t102.5 -46q68 0 112 48.5t57 122.5h94z" />
<glyph unicode="&#x16d;" d="M610 0l23 150l-5 3q-53 -85 -128 -129.5t-167 -44.5q-129 0 -187 117.5t-9 357.5l125 628h118l-126 -630q-42 -210 -10.5 -288t126.5 -78q92 0 165.5 58.5t122.5 157.5l156 780h118l-216 -1082h-106zM915 1512l2 -6q-16 -117 -91 -185t-188 -68q-108 0 -165 72t-38 187 h100q-13 -79 14.5 -125t102.5 -46q68 0 112 48.5t57 122.5h94z" />
<glyph unicode="&#x16e;" horiz-adv-x="1074" d="M1149 1456l-204 -1019q-47 -238 -180 -348t-320 -110q-168 0 -260 119.5t-48 338.5l204 1019h115l-204 -1019q-37 -183 23.5 -268.5t190.5 -85.5q125 0 226 89t136 265l204 1019h117zM652 1731q14 75 67 121.5t117 46.5q57 0 93 -49.5t23 -118.5q-16 -77 -67.5 -121 t-114.5 -44q-59 0 -96 47t-22 118zM724 1731q-9 -43 8.5 -67.5t51.5 -24.5q30 0 58 26.5t37 65.5q8 43 -8.5 68.5t-49.5 25.5q-31 0 -60.5 -27.5t-36.5 -66.5z" />
<glyph unicode="&#x16f;" d="M610 0l23 150l-5 3q-53 -85 -128 -129.5t-167 -44.5q-129 0 -187 117.5t-9 357.5l125 628h118l-126 -630q-42 -210 -10.5 -288t126.5 -78q92 0 165.5 58.5t122.5 157.5l156 780h118l-216 -1082h-106zM513 1388q14 75 67 121.5t117 46.5q57 0 93 -49.5t23 -118.5 q-16 -77 -67.5 -121t-114.5 -44q-59 0 -96 47t-22 118zM585 1388q-9 -43 8.5 -67.5t51.5 -24.5q30 0 58 26.5t37 65.5q8 43 -8.5 68.5t-49.5 25.5q-31 0 -60.5 -27.5t-36.5 -66.5z" />
<glyph unicode="&#x170;" horiz-adv-x="1074" d="M1149 1456l-204 -1019q-47 -238 -180 -348t-320 -110q-168 0 -260 119.5t-48 338.5l204 1019h115l-204 -1019q-37 -183 23.5 -268.5t190.5 -85.5q125 0 226 89t136 265l204 1019h117zM1062 1867h139l2 -6l-288 -260h-105l-3 6zM820 1867h127l3 -6l-245 -260h-94l-3 5z " />
<glyph unicode="&#x171;" d="M610 0l23 150l-5 3q-53 -85 -128 -129.5t-167 -44.5q-129 0 -187 117.5t-9 357.5l125 628h118l-126 -630q-42 -210 -10.5 -288t126.5 -78q92 0 165.5 58.5t122.5 157.5l156 780h118l-216 -1082h-106zM923 1524h139l2 -6l-288 -260h-105l-3 6zM681 1524h127l3 -6 l-245 -260h-94l-3 5z" />
<glyph unicode="&#x172;" horiz-adv-x="1074" d="M1149 1456l-204 -1019q-47 -238 -180 -348t-320 -110q-168 0 -260 119.5t-48 338.5l204 1019h115l-204 -1019q-37 -183 23.5 -268.5t190.5 -85.5q125 0 226 89t136 265l204 1019h117zM680 0q-69 -60 -108.5 -107.5t-49.5 -103.5q-7 -32 4.5 -58.5t50.5 -26.5q22 0 45 9.5 t43 21.5l4 -85q-29 -19 -62.5 -31.5t-75.5 -12.5q-62 0 -96 45.5t-19 125.5q16 77 71.5 142.5t151.5 118.5z" />
<glyph unicode="&#x173;" d="M610 0l23 150l-5 3q-53 -85 -128 -129.5t-167 -44.5q-129 0 -187 117.5t-9 357.5l125 628h118l-126 -630q-42 -210 -10.5 -288t126.5 -78q92 0 165.5 58.5t122.5 157.5l156 780h118l-216 -1082h-106zM699 0q-69 -60 -108.5 -107.5t-49.5 -103.5q-7 -32 4.5 -58.5 t50.5 -26.5q22 0 45 9.5t43 21.5l4 -85q-29 -19 -62.5 -31.5t-75.5 -12.5q-62 0 -96 45.5t-19 125.5q16 77 71.5 142.5t151.5 118.5z" />
<glyph unicode="&#x174;" horiz-adv-x="1467" d="M370 417l-2 -192l6 -1l69 193l396 1039h108l66 -1039l5 -194l6 -1l63 195l359 1039h119l-521 -1456h-109l-67 1111l-5 130l-6 1l-45 -131l-428 -1111h-108l-54 1456h118zM1149 1620l-4 -19h-104l-92 166l-159 -166h-101l5 21l229 222h83z" />
<glyph unicode="&#x175;" horiz-adv-x="1250" d="M316 353l-5 -164l5 -1l66 165l323 729h98l31 -729l-1 -172l6 -1l66 173l292 729h120l-465 -1082h-97l-33 735l-3 170l-6 1l-69 -171l-324 -735h-98l-31 1082h118zM1022 1277l-4 -19h-104l-92 166l-159 -166h-101l5 21l229 222h83z" />
<glyph unicode="&#x176;" horiz-adv-x="1017" d="M558 692l6 -1l484 765h135l-596 -924l-107 -532h-117l108 541l-226 915h136zM975 1613l-4 -19h-104l-92 166l-159 -166h-101l5 21l229 222h83z" />
<glyph unicode="&#x177;" horiz-adv-x="827" d="M359 298l5 -104l6 -1l418 889h131l-618 -1255q-53 -107 -124 -185.5t-173 -78.5q-16 0 -42 5t-38 9l34 103q9 -2 31 -4.5t32 -2.5q54 0 103 58.5t87 139.5l72 144l-113 1067h131zM818 1277l-4 -19h-104l-92 166l-159 -166h-101l5 21l229 222h83z" />
<glyph unicode="&#x178;" horiz-adv-x="1017" d="M558 692l6 -1l484 765h135l-596 -924l-107 -532h-117l108 541l-226 915h136zM1024 1631h-156l26 160h156zM634 1631h-157l26 160h157z" />
<glyph unicode="&#x179;" horiz-adv-x="956" d="M155 104h632l-21 -104h-750l7 95l805 1256h-571l21 105h706l-18 -90zM846 1823h142l3 -6l-253 -260h-100z" />
<glyph unicode="&#x17a;" horiz-adv-x="797" d="M148 104h520l-21 -104h-649l18 90l661 885h-474l21 107h607l-18 -91zM714 1480h142l3 -6l-253 -260h-100z" />
<glyph unicode="&#x17b;" horiz-adv-x="956" d="M155 104h632l-21 -104h-750l7 95l805 1256h-571l21 105h706l-18 -90zM785 1635h-139l34 170h139z" />
<glyph unicode="&#x17c;" horiz-adv-x="797" d="M148 104h520l-21 -104h-649l18 90l661 885h-474l21 107h607l-18 -91zM653 1292h-139l34 170h139z" />
<glyph unicode="&#x17d;" horiz-adv-x="956" d="M155 104h632l-21 -104h-750l7 95l805 1256h-571l21 105h706l-18 -90zM725 1678l159 168h108l-3 -17l-238 -226h-83l-143 226l3 17h106z" />
<glyph unicode="&#x17e;" horiz-adv-x="797" d="M148 104h520l-21 -104h-649l18 90l661 885h-474l21 107h607l-18 -91zM593 1335l159 168h108l-3 -17l-238 -226h-83l-143 226l3 17h106z" />
<glyph unicode="&#x17f;" horiz-adv-x="410" d="M58 0l248 1238q35 175 117.5 259t206.5 84q24 0 52.5 -5.5t53.5 -14.5l-35 -98q-19 6 -35.5 9t-40.5 3q-70 0 -124 -63.5t-76 -173.5l-248 -1238h-119z" />
<glyph unicode="&#x192;" horiz-adv-x="566" d="M577 981h-178l-171 -1070q-28 -173 -106.5 -260.5t-195.5 -87.5q-22 0 -43 5t-40 14l26 102q10 -5 35 -10t39 -5q58 0 103 64.5t64 177.5l171 1070h-138l16 101h138l25 156q27 170 107.5 256.5t202.5 86.5q25 0 52.5 -5.5t53.5 -14.5l-29 -101q-18 6 -37.5 9.5t-42.5 3.5 q-72 0 -122 -61.5t-67 -173.5l-25 -156h178z" />
<glyph unicode="&#x1a0;" horiz-adv-x="1147" d="M1001 523q-57 -282 -198 -413t-351 -131q-189 0 -281.5 142t-39.5 402l81 408q56 282 194.5 414t343.5 132q110 0 192 -50t123 -145q100 11 174.5 101t105.5 244h112l2 -5q-38 -202 -131 -311t-235 -131q8 -54 5.5 -116.5t-16.5 -132.5zM966 934q45 230 -16.5 332 t-220.5 102q-142 0 -251 -111.5t-150 -322.5l-82 -411q-48 -233 11.5 -335t215.5 -102q146 0 256.5 111t154.5 326z" />
<glyph unicode="&#x1a1;" horiz-adv-x="941" d="M117 620q35 219 158 350.5t298 131.5q83 0 148 -37.5t106 -104.5q82 10 141 83t84 196h102l3 -5q-30 -158 -104.5 -246.5t-189.5 -109.5q17 -56 20.5 -121.5t-7.5 -136.5l-25 -159q-36 -221 -158.5 -351.5t-297.5 -130.5q-168 0 -252.5 136t-50.5 346zM210 461 q-27 -167 23.5 -272.5t177.5 -105.5q118 0 206.5 109.5t114.5 268.5l25 159q26 164 -25 270t-176 106q-120 0 -208 -109.5t-113 -266.5z" />
<glyph unicode="&#x1af;" horiz-adv-x="1139" d="M1149 1456l-42 -206l6 -2q98 9 173.5 99.5t106.5 242.5h111l3 -6q-40 -213 -147.5 -322t-274.5 -122l-140 -703q-47 -238 -180 -348t-320 -110q-168 0 -260 119.5t-48 338.5l204 1019h115l-204 -1019q-37 -183 23.5 -268.5t190.5 -85.5q125 0 226 89t136 265l204 1019 h117z" />
<glyph unicode="&#x1b0;" horiz-adv-x="1009" d="M1188 1210l2 -5q-29 -162 -103 -243.5t-198 -94.5l-173 -867h-106l23 150l-5 3q-53 -85 -128 -129.5t-167 -44.5q-129 0 -187 117.5t-9 357.5l125 628h118l-126 -630q-42 -210 -10.5 -288t126.5 -78q92 0 165.5 58.5t122.5 157.5l156 780h118l-24 -118l5 -3 q66 9 113 73.5t70 175.5h92z" />
<glyph unicode="&#x1f0;" horiz-adv-x="414" d="M401 1082l-234 -1171q-36 -178 -115.5 -263t-198.5 -85q-21 0 -42 5t-42 14l32 102q10 -5 34 -10t39 -5q57 0 105.5 65t70.5 177l234 1171h117zM391 1317l159 168h108l-3 -17l-238 -226h-83l-143 226l3 17h106z" />
<glyph unicode="&#x1fa;" horiz-adv-x="1057" d="M776 404h-502l-199 -404h-121l730 1456h106l143 -1456h-121zM328 514h438l-66 741l-6 1zM973 2082h122l2 -6l-201 -197h-78l-3 5zM672 1673q13 69 59 112t101 43q48 0 77.5 -45.5t17.5 -109.5q-14 -69 -58.5 -110t-97.5 -41q-50 0 -81.5 43.5t-17.5 107.5zM732 1673 q-9 -39 6.5 -62.5t45.5 -23.5q26 0 50.5 24.5t32.5 61.5q8 41 -6 65.5t-42 24.5t-54 -26.5t-33 -63.5z" />
<glyph unicode="&#x1fb;" horiz-adv-x="905" d="M583 0q2 53 5.5 89.5t10.5 74.5q-61 -80 -146 -132.5t-176 -52.5q-120 0 -176.5 85.5t-28.5 223.5q31 160 148 245t292 85h177l27 133q24 122 -17 183.5t-141 61.5q-85 0 -159.5 -62.5t-91.5 -151.5l-108 1l-2 6q21 130 130.5 221.5t257.5 91.5q134 0 208 -93t41 -260 l-106 -531q-13 -60 -18.5 -112t-3.5 -106h-123zM313 87q88 0 175.5 59t136.5 147l46 232h-181q-108 0 -195 -70.5t-106 -170.5q-19 -92 13 -144.5t111 -52.5zM805 1760h122l2 -6l-201 -197h-78l-3 5zM504 1351q13 69 59 112t101 43q48 0 77.5 -45.5t17.5 -109.5 q-14 -69 -58.5 -110t-97.5 -41q-50 0 -81.5 43.5t-17.5 107.5zM564 1351q-9 -39 6.5 -62.5t45.5 -23.5q26 0 50.5 24.5t32.5 61.5q8 41 -6 65.5t-42 24.5t-54 -26.5t-33 -63.5z" />
<glyph unicode="&#x1fc;" horiz-adv-x="1516" d="M1387 0h-669l65 387h-452l-256 -387h-144l986 1456h713l-21 -106h-547l-90 -540h464l-21 -104h-460l-101 -602h554zM407 503h395l135 806l-4 -11zM1131 1823h142l3 -6l-253 -260h-100z" />
<glyph unicode="&#x1fd;" horiz-adv-x="1394" d="M921 -21q-101 0 -172.5 54.5t-103.5 153.5q-58 -86 -158 -147t-228 -61q-125 0 -185.5 86t-31.5 229q33 168 138.5 253t278.5 85h197l18 88q28 140 -4 208t-123 68t-164 -67t-92 -165l-106 13l-2 6q25 147 129.5 233t255.5 86q86 0 147 -47.5t81 -135.5q66 88 149 135.5 t172 47.5q152 0 221 -126.5t26 -339.5l-20 -101h-583l-5 -25q-41 -202 3 -314.5t183 -112.5q77 0 147.5 33t128.5 85l25 -90q-48 -52 -129.5 -92t-192.5 -40zM301 82q66 0 149 50t128 109l58 292h-195q-104 0 -182.5 -71.5t-98.5 -171.5q-21 -103 14 -155.5t127 -52.5z M1096 996q-95 0 -180.5 -101.5t-126.5 -253.5l2 -5h455l6 31q31 154 -5.5 241.5t-150.5 87.5zM999 1502h142l3 -6l-253 -260h-100z" />
<glyph unicode="&#x1fe;" horiz-adv-x="1121" d="M995 523q-57 -282 -198 -413t-351 -131q-66 0 -121.5 17.5t-97.5 53.5l-92 -135h-96l133 196q-48 70 -61.5 173.5t14.5 238.5l81 408q56 282 194.5 414t343.5 132q87 0 157 -32t117 -92l104 153h96l-157 -230q26 -68 30.5 -154.5t-15.5 -190.5zM240 523 q-22 -105 -21.5 -181t22.5 -120l6 -2l703 1034q-29 58 -86 86t-141 28q-142 0 -251 -111.5t-150 -322.5zM960 934q12 64 16 117t0 89l-6 2l-681 -1001q31 -29 75.5 -42t102.5 -13q146 0 256.5 111t154.5 326zM953 1885h142l3 -6l-253 -260h-100z" />
<glyph unicode="&#x1ff;" horiz-adv-x="935" d="M117 620q35 219 158 350.5t298 131.5q52 0 97 -15t83 -43l99 170h85l-131 -223q50 -66 68.5 -162t1.5 -209l-25 -159q-36 -221 -158.5 -351.5t-297.5 -130.5q-46 0 -85.5 10.5t-73.5 31.5l-94 -161h-83l121 207q-62 64 -85.5 166.5t-2.5 227.5zM210 461q-15 -89 -7 -162 t38 -117l6 -1l447 763q-27 25 -61.5 38.5t-76.5 13.5q-120 0 -208 -109.5t-113 -266.5zM757 620q12 74 7.5 138.5t-24.5 107.5l-6 1l-441 -750q23 -17 52.5 -25.5t65.5 -8.5q118 0 206.5 109.5t114.5 268.5zM739 1500h142l3 -6l-253 -260h-100z" />
<glyph unicode="&#x218;" horiz-adv-x="1006" d="M791 318q26 133 -24 206.5t-209 149.5q-177 76 -251 174.5t-36 286.5q32 165 145.5 253.5t270.5 88.5q174 0 268.5 -118t53.5 -323h-119q30 154 -30.5 244.5t-193.5 90.5q-98 0 -177.5 -69t-98.5 -165q-27 -136 19 -207.5t209 -148.5q178 -77 253 -178t39 -283 q-34 -170 -152 -255.5t-284 -85.5q-173 0 -286.5 106t-65.5 329l3 5h112q-38 -189 42.5 -262.5t215.5 -73.5q101 0 188.5 68.5t107.5 166.5zM406 -253l-119 -209h-65l88 212l24 120h97z" />
<glyph unicode="&#x219;" horiz-adv-x="834" d="M599 259q12 76 -24.5 128t-149.5 112q-147 68 -209 138.5t-43 184.5q18 121 117.5 200.5t239.5 79.5q141 0 215 -92t49 -227l-3 -5h-111q14 91 -30 154.5t-137 63.5q-91 0 -151.5 -52t-70.5 -118q-12 -75 20.5 -116.5t152.5 -108.5q144 -65 208 -141.5t46 -193.5 q-22 -133 -121.5 -210t-245.5 -77q-153 0 -231.5 95.5t-52.5 224.5l2 5h111q-14 -117 43 -169t144 -52q90 0 155.5 52t76.5 124zM352 -253l-119 -209h-65l88 212l24 120h97z" />
<glyph unicode="&#x21a;" horiz-adv-x="981" d="M1119 1350h-386l-270 -1350h-117l270 1350h-385l21 106h888zM456 4l-22 -63q57 -9 85 -49t12 -122q-20 -97 -91 -148t-184 -49l-5 4l10 72q61 0 112 30.5t63 88.5q12 60 -13.5 80.5t-102.5 28.5l48 127h88z" />
<glyph unicode="&#x21b;" horiz-adv-x="576" d="M493 1358l-56 -276h178l-20 -101h-178l-140 -702q-23 -112 -3.5 -152.5t67.5 -40.5q21 0 45.5 3t51.5 9l-4 -92q-25 -12 -63.5 -19.5t-75.5 -7.5q-87 0 -128 73.5t-9 226.5l140 702h-142l20 101h142l56 276h119zM340 0l-22 -63q57 -9 85 -49t12 -122q-20 -97 -91 -148 t-184 -49l-5 4l10 72q61 0 112 30.5t63 88.5q12 60 -13.5 80.5t-102.5 28.5l48 127h88z" />
<glyph unicode="&#x237;" horiz-adv-x="414" d="M401 1082l-234 -1171q-36 -178 -115.5 -263t-198.5 -85q-21 0 -42 5t-42 14l32 102q10 -5 34 -10t39 -5q57 0 105.5 65t70.5 177l234 1171h117z" />
<glyph unicode="&#x259;" horiz-adv-x="869" d="M548 1102q156 0 237.5 -152t36.5 -379l-11 -54q-50 -249 -183.5 -393t-285.5 -143q-153 0 -222 126t-27 335l21 103h584l6 26q38 194 -8 310.5t-168 116.5q-79 0 -150 -32.5t-123 -87.5l-32 86q58 62 139 100t186 38zM363 84q87 0 175 101t131 251l-2 5h-458l-6 -29 q-30 -151 10.5 -239.5t149.5 -88.5z" />
<glyph unicode="&#x2bc;" horiz-adv-x="332" d="M440 1380l-165 -309h-64l109 306l37 183h119z" />
<glyph unicode="&#x2c6;" horiz-adv-x="752" d="M769 1271l-4 -19h-104l-92 166l-159 -166h-101l5 21l229 222h83z" />
<glyph unicode="&#x2c7;" horiz-adv-x="713" d="M534 1327l159 168h108l-3 -17l-238 -226h-83l-143 226l3 17h106z" />
<glyph unicode="&#x2d8;" horiz-adv-x="751" d="M769 1456l2 -6q-16 -117 -91 -185t-188 -68q-108 0 -165 72t-38 187h100q-13 -79 14.5 -125t102.5 -46q68 0 112 48.5t57 122.5h94z" />
<glyph unicode="&#x2d9;" horiz-adv-x="433" d="M450 1286h-139l34 170h139z" />
<glyph unicode="&#x2da;" horiz-adv-x="595" d="M326 1323q14 75 67 121.5t117 46.5q57 0 93 -49.5t23 -118.5q-16 -77 -67.5 -121t-114.5 -44q-59 0 -96 47t-22 118zM398 1323q-9 -43 8.5 -67.5t51.5 -24.5q30 0 58 26.5t37 65.5q8 43 -8.5 68.5t-49.5 25.5q-31 0 -60.5 -27.5t-36.5 -66.5z" />
<glyph unicode="&#x2db;" horiz-adv-x="447" d="M214 0q-69 -60 -108.5 -107.5t-49.5 -103.5q-7 -32 4.5 -58.5t50.5 -26.5q22 0 45 9.5t43 21.5l4 -85q-29 -19 -62.5 -31.5t-75.5 -12.5q-62 0 -96 45.5t-19 125.5q16 77 71.5 142.5t151.5 118.5z" />
<glyph unicode="&#x2dc;" horiz-adv-x="758" d="M805 1481q-15 -92 -68.5 -148.5t-121.5 -56.5q-54 0 -107 54.5t-95 54.5q-35 0 -66 -35t-39 -88l-69 18q14 90 67.5 147.5t122.5 57.5q45 0 102.5 -55t99.5 -55q34 0 65.5 36.5t40.5 90.5z" />
<glyph unicode="&#x2dd;" horiz-adv-x="635" d="M730 1518h139l2 -6l-288 -260h-105l-3 6zM488 1518h127l3 -6l-245 -260h-94l-3 5z" />
<glyph unicode="&#x2f3;" horiz-adv-x="550" d="M28 -226q11 61 53 98t93 37q45 0 72.5 -39.5t16.5 -95.5q-13 -59 -53 -94.5t-89 -35.5q-47 0 -75.5 37.5t-17.5 92.5zM90 -226q-6 -27 7 -44.5t37 -17.5q21 0 41 18t26 44q5 30 -7 47.5t-34 17.5t-43.5 -19t-26.5 -46z" />
<glyph unicode="&#x300;" horiz-adv-x="28" d="M-218 1213h-87l-72 320h117z" />
<glyph unicode="&#x301;" horiz-adv-x="28" d="M-151 1534h114l-205 -319h-79z" />
<glyph unicode="&#x303;" horiz-adv-x="29" d="M36 1481q-15 -92 -68.5 -148.5t-121.5 -56.5q-54 0 -107 54.5t-95 54.5q-35 0 -66 -35t-39 -88l-69 18q14 90 67.5 147.5t122.5 57.5q45 0 102.5 -55t99.5 -55q34 0 65.5 36.5t40.5 90.5z" />
<glyph unicode="&#x309;" horiz-adv-x="28" d="M-325 1234l24 126q70 7 101 26t41 68q10 48 -28.5 70.5t-99.5 22.5l22 79q114 0 166 -44.5t34 -129.5q-13 -73 -57.5 -110.5t-104.5 -45.5l-12 -62h-86z" />
<glyph unicode="&#x30f;" horiz-adv-x="28" d="M-241 1252h-113l-186 266h148zM-43 1252h-101l-142 266h136z" />
<glyph unicode="&#x323;" horiz-adv-x="28" d="M-531 -316h-139l34 170h139z" />
<glyph unicode="&#x384;" horiz-adv-x="439" d="M462 1618h137l-198 -331h-64z" />
<glyph unicode="&#x385;" horiz-adv-x="822" d="M848 1301h-137l31 155h137zM454 1301h-138l31 155h138zM651 1693h151l-142 -221h-86z" />
<glyph unicode="&#x386;" horiz-adv-x="1057" d="M776 404h-502l-199 -404h-121l730 1456h106l143 -1456h-121zM328 514h438l-66 741l-6 1zM483 1618h137l-198 -331h-64z" />
<glyph unicode="&#x387;" horiz-adv-x="437" d="M318 624h-135l36 181h135z" />
<glyph unicode="&#x388;" horiz-adv-x="1064" d="M978 703h-544l-119 -599h624l-21 -104h-742l291 1456h736l-21 -106h-618l-109 -543h543zM318 1620h137l-198 -331h-64z" />
<glyph unicode="&#x389;" horiz-adv-x="1273" d="M1027 0h-116l133 669h-617l-133 -669h-118l291 1456h118l-137 -683h617l137 683h116zM346 1620h137l-198 -331h-64z" />
<glyph unicode="&#x38a;" horiz-adv-x="573" d="M310 0h-119l291 1456h119zM356 1618h137l-198 -331h-64z" />
<glyph unicode="&#x38c;" horiz-adv-x="1099" d="M1068 603q-61 -302 -204.5 -463t-351.5 -161q-191 0 -296 180.5t-50 452.5l48 239q60 303 200 464.5t344 161.5q195 0 303 -182t54 -453zM998 844q48 244 -24.5 384t-236.5 140q-141 0 -249.5 -141t-154.5 -374l-49 -241q-49 -246 20.5 -386t228.5 -140q146 0 257.5 141 t159.5 376zM360 1618h137l-198 -331h-64z" />
<glyph unicode="&#x38e;" horiz-adv-x="1117" d="M658 692l6 -1l484 765h135l-596 -924l-107 -532h-117l108 541l-226 915h136zM246 1618h137l-198 -331h-64z" />
<glyph unicode="&#x38f;" horiz-adv-x="1113" d="M541 26l11 54l5 24l3 14q122 47 220 196.5t151 412.5l24 118q50 254 -6 390t-201 136q-135 0 -252.5 -146t-164.5 -380l-24 -118q-56 -282 -15.5 -421.5t150.5 -187.5l-3 -14l-16 -78l-5 -26h-376l21 104h233q-88 90 -118.5 252t11.5 371l24 116q60 302 209.5 468 t346.5 166q179 0 269.5 -178t35.5 -456l-24 -116q-45 -221 -137 -379t-213 -244h231l-21 -104h-374zM376 1618h137l-198 -331h-64z" />
<glyph unicode="&#x390;" horiz-adv-x="530" d="M411 1081l-161 -808q-23 -111 -4.5 -149t67.5 -38q19 0 39.5 4.5t39.5 12.5l7 -91q-34 -18 -66 -25.5t-69 -7.5q-90 0 -126.5 72t-4.5 228l160 802h118zM650 1229h-137l31 155h137zM256 1229h-138l31 155h138zM453 1621h151l-142 -221h-86z" />
<glyph unicode="&#x391;" horiz-adv-x="1057" d="M776 404h-502l-199 -404h-121l730 1456h106l143 -1456h-121zM328 514h438l-66 741l-6 1z" />
<glyph unicode="&#x392;" horiz-adv-x="1041" d="M76 0l291 1456h351q168 0 254.5 -97.5t49.5 -286.5q-24 -117 -91 -197t-161 -112q103 -23 147.5 -123.5t18.5 -234.5q-42 -209 -160.5 -307t-292.5 -98h-407zM334 701l-119 -597h289q111 0 198.5 79.5t115.5 219.5q27 139 -16 218.5t-160 79.5h-308zM355 804h269 q100 3 177 73.5t103 198.5q29 145 -23.5 209.5t-183.5 64.5h-233z" />
<glyph unicode="&#x393;" horiz-adv-x="923" d="M1041 1350h-579l-270 -1350h-118l291 1456h697z" />
<glyph unicode="&#x394;" horiz-adv-x="1160" d="M843 1456l175 -1456h-1058l777 1456h106zM136 104h748l-130 1162l-6 1z" />
<glyph unicode="&#x395;" horiz-adv-x="964" d="M878 703h-544l-119 -599h624l-21 -104h-742l291 1456h736l-21 -106h-618l-109 -543h543z" />
<glyph unicode="&#x396;" horiz-adv-x="956" d="M155 104h632l-21 -104h-750l7 95l805 1256h-571l21 105h706l-18 -90z" />
<glyph unicode="&#x397;" horiz-adv-x="1173" d="M927 0h-116l133 669h-617l-133 -669h-118l291 1456h118l-137 -683h617l137 683h116z" />
<glyph unicode="&#x398;" horiz-adv-x="1121" d="M824 675h-423l21 104h423zM1048 603q-61 -302 -204.5 -463t-351.5 -161q-191 0 -296 180.5t-50 452.5l48 239q60 303 200 464.5t344 161.5q195 0 303 -182t54 -453zM978 844q48 244 -24.5 384t-236.5 140q-141 0 -249.5 -141t-154.5 -374l-49 -241q-49 -246 20.5 -386 t228.5 -140q146 0 257.5 141t159.5 376z" />
<glyph unicode="&#x399;" horiz-adv-x="473" d="M210 0h-119l291 1456h119z" />
<glyph unicode="&#x39a;" horiz-adv-x="1062" d="M449 689h-137l-137 -689h-118l291 1456h118l-132 -658h148l519 658h145l3 -5l-597 -722l329 -729h-136z" />
<glyph unicode="&#x39b;" horiz-adv-x="1080" d="M702 1238l-6 1l-597 -1239h-121l711 1456h108l129 -1456h-120z" />
<glyph unicode="&#x39c;" horiz-adv-x="1383" d="M512 1456l126 -1273l6 -1l637 1274h152l-291 -1456h-117l128 639l128 584l-6 2l-631 -1225h-78l-141 1223h-6l-105 -584l-128 -639h-116l291 1456h151z" />
<glyph unicode="&#x39d;" horiz-adv-x="1177" d="M931 0h-118l-370 1212h-6l-242 -1212h-119l291 1456h119l369 -1211h6l243 1211h118z" />
<glyph unicode="&#x39e;" horiz-adv-x="939" d="M44 104h730l-21 -104h-730zM252 786h580l-21 -104h-580zM320 1456h709l-21 -105h-709z" />
<glyph unicode="&#x39f;" horiz-adv-x="1079" d="M1048 603q-61 -302 -204.5 -463t-351.5 -161q-191 0 -296 180.5t-50 452.5l48 239q60 303 200 464.5t344 161.5q195 0 303 -182t54 -453zM978 844q48 244 -24.5 384t-236.5 140q-141 0 -249.5 -141t-154.5 -374l-49 -241q-49 -246 20.5 -386t228.5 -140q146 0 257.5 141 t159.5 376z" />
<glyph unicode="&#x3a0;" horiz-adv-x="1175" d="M929 0h-118l270 1350h-617l-270 -1350h-118l291 1456h853z" />
<glyph unicode="&#x3a1;" horiz-adv-x="1041" d="M314 603l-120 -603h-118l291 1456h413q169 0 251.5 -119t45.5 -307q-42 -206 -162 -316.5t-305 -110.5h-296zM335 708h296q122 0 210.5 93t116.5 227q29 147 -18 234.5t-181 87.5h-295z" />
<glyph unicode="&#x3a3;" horiz-adv-x="939" d="M649 741l-511 -632l3 -5h661l-21 -104h-800l19 95l527 662l-274 603l19 96h758l-21 -105h-620l267 -575z" />
<glyph unicode="&#x3a4;" horiz-adv-x="981" d="M1119 1350h-386l-270 -1350h-117l270 1350h-385l21 106h888z" />
<glyph unicode="&#x3a5;" horiz-adv-x="1017" d="M558 692l6 -1l484 765h135l-596 -924l-107 -532h-117l108 541l-226 915h136z" />
<glyph unicode="&#x3a6;" horiz-adv-x="1184" d="M819 1268h3q183 0 285 -155.5t57 -381.5q-50 -248 -204.5 -394t-353.5 -146h-2l-38 -191h-118l38 191h-5q-183 0 -284.5 155t-55.5 383q48 246 202 392.5t354 146.5h4l38 188h118zM676 1163q-145 0 -263 -122.5t-155 -311.5q-42 -208 21.5 -320.5t222.5 -112.5h5l173 867 h-4zM798 1163l-173 -867h4q143 0 260.5 122t156.5 313q41 204 -23 318t-220 114h-5z" />
<glyph unicode="&#x3a7;" horiz-adv-x="1030" d="M579 843l6 -1l397 614h142l-490 -718l269 -738h-141l-209 632l-6 1l-412 -633h-143l505 738l-261 718h142z" />
<glyph unicode="&#x3a8;" horiz-adv-x="1147" d="M630 465l6 -2q125 14 232 131t144 301l112 561h118l-112 -561q-52 -259 -191.5 -396t-332.5 -152l-69 -347h-117l69 348q-170 20 -255.5 165.5t-38.5 381.5l112 561h118l-112 -561q-41 -201 13 -311.5t180 -121.5l6 1l199 993h117z" />
<glyph unicode="&#x3a9;" horiz-adv-x="1093" d="M521 26l11 54l5 24l3 14q122 47 220 196.5t151 412.5l24 118q50 254 -6 390t-201 136q-135 0 -252.5 -146t-164.5 -380l-24 -118q-56 -282 -15.5 -421.5t150.5 -187.5l-3 -14l-16 -78l-5 -26h-376l21 104h233q-88 90 -118.5 252t11.5 371l24 116q60 302 209.5 468 t346.5 166q179 0 269.5 -178t35.5 -456l-24 -116q-45 -221 -137 -379t-213 -244h231l-21 -104h-374z" />
<glyph unicode="&#x3aa;" horiz-adv-x="473" d="M210 0h-119l291 1456h119zM755 1638h-156l26 160h156zM365 1638h-157l26 160h157z" />
<glyph unicode="&#x3ab;" horiz-adv-x="1017" d="M558 692l6 -1l484 765h135l-596 -924l-107 -532h-117l108 541l-226 915h136zM1024 1631h-156l26 160h156zM634 1631h-157l26 160h157z" />
<glyph unicode="&#x3ac;" horiz-adv-x="939" d="M927 1082l-161 -807q-23 -109 -12 -147t46 -38q7 0 15 1.5t20 5.5l-2 -94q-24 -13 -46 -18.5t-46 -5.5q-56 0 -85 42t-25 132q-59 -84 -133.5 -129t-160.5 -45q-145 0 -207.5 147t-15.5 384l4 21q55 276 170 423.5t274 147.5q81 0 136 -49t82 -139l47 168h100zM234 510 q-42 -208 -7 -317.5t157 -109.5q77 0 144.5 58t123.5 158l93 466q-13 104 -55 167.5t-122 63.5q-112 0 -201 -131.5t-129 -333.5zM747 1582h137l-198 -331h-64z" />
<glyph unicode="&#x3ad;" horiz-adv-x="903" d="M614 523l-4 -22h-153q-106 0 -177 -51.5t-92 -154.5q-21 -100 29.5 -155.5t163.5 -55.5q98 0 180.5 66t101.5 160h109l2 -6q-30 -167 -148 -244.5t-266 -77.5t-234 85.5t-57 229.5q21 104 79 168.5t152 92.5q-68 34 -99.5 97t-15.5 138q31 156 134.5 231t264.5 75 q134 0 219 -86t55 -219l-2 -5h-111q18 96 -34 151t-148 55q-102 0 -172.5 -57.5t-87.5 -142.5q-20 -97 21.5 -144.5t153.5 -47.5h153l-16 -80h-1zM689 1581h137l-198 -331h-64z" />
<glyph unicode="&#x3ae;" d="M348 929l5 -3q54 85 129.5 130.5t164.5 45.5q131 0 187 -107t11 -335l-215 -1075h-118l215 1074q39 197 3.5 267t-136.5 70q-81 0 -150 -55.5t-119 -149.5l-158 -791h-118l216 1082h105zM710 1582h137l-198 -331h-64z" />
<glyph unicode="&#x3af;" horiz-adv-x="530" d="M411 1081l-161 -808q-23 -111 -4.5 -149t67.5 -38q19 0 39.5 4.5t39.5 12.5l7 -91q-34 -18 -66 -25.5t-69 -7.5q-90 0 -126.5 72t-4.5 228l160 802h118zM462 1561h137l-198 -331h-64z" />
<glyph unicode="&#x3b0;" d="M381 1082l-121 -605q-43 -217 -2 -305.5t148 -88.5q113 0 199.5 132t123.5 316q27 142 29 277.5t-13 273.5h127q15 -124 12.5 -252t-36.5 -298q-53 -263 -164.5 -408t-293.5 -145q-155 0 -226 124.5t-21 375.5l120 603h118zM898 1229h-137l31 155h137zM504 1229h-138 l31 155h138zM701 1621h151l-142 -221h-86z" />
<glyph unicode="&#x3b1;" horiz-adv-x="939" d="M927 1082l-161 -807q-23 -109 -12 -147t46 -38q7 0 15 1.5t20 5.5l-2 -94q-24 -13 -46 -18.5t-46 -5.5q-56 0 -85 42t-25 132q-59 -84 -133.5 -129t-160.5 -45q-145 0 -207.5 147t-15.5 384l4 21q55 276 170 423.5t274 147.5q81 0 136 -49t82 -139l47 168h100zM234 510 q-42 -208 -7 -317.5t157 -109.5q77 0 144.5 58t123.5 158l93 466q-13 104 -55 167.5t-122 63.5q-112 0 -201 -131.5t-129 -333.5z" />
<glyph unicode="&#x3b2;" horiz-adv-x="984" d="M697 1477q138 0 211.5 -109.5t40.5 -275.5q-22 -107 -80 -189t-142 -124q93 -42 133 -142.5t14 -231.5q-43 -213 -161 -319.5t-280 -106.5q-68 0 -131.5 29t-101.5 86l-99 -492h-119l293 1461q37 186 157.5 300t264.5 114zM493 825h71q102 0 172.5 73t95.5 199 q23 118 -16 196t-140 78q-88 0 -172.5 -89t-109.5 -219l-170 -846q23 -64 80.5 -99t138.5 -35q109 0 195.5 87.5t115.5 230.5q29 147 -14 233t-155 86h-113l14 69l3 15z" />
<glyph unicode="&#x3b3;" horiz-adv-x="827" d="M794 1082h121l-517 -1040l-91 -457h-117l92 457l-102 1040h122l61 -809l2 -100l6 -1l43 101z" />
<glyph unicode="&#x3b4;" d="M967 1456l-20 -103h-400q187 -183 278 -383.5t48 -413.5l-6 -32q-52 -256 -182 -400.5t-306 -144.5q-163 0 -241 154.5t-30 390.5l6 32q47 235 168.5 374.5t290.5 153.5q8 0 18.5 -2t16.5 -6l3 5q-39 64 -100.5 136t-131.5 143l19 96h569zM226 524q-40 -200 3 -320.5 t171 -120.5q115 0 213 129t135 312l6 32q31 155 1 260t-88 163q-18 6 -43 11.5t-43 5.5q-117 0 -215 -129.5t-134 -310.5z" />
<glyph unicode="&#x3b5;" horiz-adv-x="903" d="M614 523l-4 -22h-153q-106 0 -177 -51.5t-92 -154.5q-21 -100 29.5 -155.5t163.5 -55.5q98 0 180.5 66t101.5 160h109l2 -6q-30 -167 -148 -244.5t-266 -77.5t-234 85.5t-57 229.5q21 104 79 168.5t152 92.5q-68 34 -99.5 97t-15.5 138q31 156 134.5 231t264.5 75 q134 0 219 -86t55 -219l-2 -5h-111q18 96 -34 151t-148 55q-102 0 -172.5 -57.5t-87.5 -142.5q-20 -97 21.5 -144.5t153.5 -47.5h153l-16 -80h-1z" />
<glyph unicode="&#x3b6;" horiz-adv-x="848" d="M964 1456l-15 -75l-398 -505q-130 -160 -196 -276t-90 -236q-25 -124 12 -192.5t137 -68.5h43q103 0 156 -57t34 -157q-21 -100 -97 -177.5t-160 -112.5l-27 89q53 26 104 77.5t66 119.5q11 59 -14 87t-93 28h-55q-136 0 -195.5 105.5t-29.5 255.5q24 121 101.5 261 t224.5 313l342 411l-2 5h-543l21 105h674z" />
<glyph unicode="&#x3b7;" d="M348 929l5 -3q54 85 129.5 130.5t164.5 45.5q131 0 187 -107t11 -335l-215 -1075h-118l215 1074q39 197 3.5 267t-136.5 70q-81 0 -150 -55.5t-119 -149.5l-158 -791h-118l216 1082h105z" />
<glyph unicode="&#x3b8;" horiz-adv-x="952" d="M864 564q-60 -300 -182.5 -442.5t-293.5 -142.5q-158 0 -230 155t-16 430l65 326q59 298 182.5 442.5t295.5 144.5q157 0 228 -156t16 -431zM303 776h485l27 135q47 236 8 348t-159 112q-111 0 -201 -121.5t-133 -338.5zM767 672h-485l-25 -127q-47 -234 -7.5 -348 t159.5 -114q109 0 199 123t134 339z" />
<glyph unicode="&#x3b9;" horiz-adv-x="530" d="M411 1081l-161 -808q-23 -111 -4.5 -149t67.5 -38q19 0 39.5 4.5t39.5 12.5l7 -91q-34 -18 -66 -25.5t-69 -7.5q-90 0 -126.5 72t-4.5 228l160 802h118z" />
<glyph unicode="&#x3ba;" horiz-adv-x="915" d="M366 493h-95l-98 -493h-119l216 1082h119l-96 -479h91l427 479h138l2 -5l-477 -517l299 -560h-150z" />
<glyph unicode="&#x3bb;" d="M103 0h-131l529 1047l-14 164q-6 93 -29.5 147t-75.5 54q-9 0 -25.5 -2t-29.5 -3l18 98q14 4 38 8.5t41 4.5q89 0 131 -81.5t52 -183.5l92 -963q3 -87 22 -140t57 -53q9 0 18.5 1t25.5 5l-21 -102q-9 -4 -25.5 -8t-26.5 -4q-78 0 -118.5 73t-54.5 190l-59 613l-6 1 l-39 -88z" />
<glyph unicode="&#x3bc;" d="M387 1082q-127 -635 -131 -667q-39 -190 -3 -261t128 -71q91 0 158 55.5t112 157.5l157 786h119l-216 -1082h-104l18 127q-52 -74 -116.5 -111t-143.5 -37q-61 0 -106.5 28t-68.5 91l-102 -514h-117l299 1498h117z" />
<glyph unicode="&#x3bd;" horiz-adv-x="827" d="M367 273l5 -99l6 -1l40 100l348 809h121l-494 -1082h-92l-149 1082h122z" />
<glyph unicode="&#x3be;" horiz-adv-x="852" d="M941 1456l-21 -106h-219q-110 -9 -186 -79t-96 -174q-23 -116 28 -172.5t190 -56.5h107l-21 -105h-107q-145 0 -254.5 -88.5t-143.5 -261.5q-32 -155 29 -237t199 -82h43q109 0 163.5 -60t34.5 -165q-21 -96 -95.5 -171t-157.5 -108l-27 89q52 24 102.5 72t64.5 113 q13 66 -11 96.5t-91 30.5h-47q-170 0 -267 115t-58 311q33 165 120 265t221 139q-81 39 -119.5 111.5t-20.5 160.5q17 90 56 153.5t99 103.5h-182l21 106h646z" />
<glyph unicode="&#x3bf;" d="M117 620q35 219 158 350.5t298 131.5q166 0 251 -137t52 -345l-25 -159q-36 -221 -158.5 -351.5t-297.5 -130.5q-168 0 -252.5 136t-50.5 346zM210 461q-27 -167 23.5 -272.5t177.5 -105.5q118 0 206.5 109.5t114.5 268.5l25 159q26 164 -25 270t-176 106 q-120 0 -208 -109.5t-113 -266.5z" />
<glyph unicode="&#x3c0;" horiz-adv-x="990" d="M1005 977h-114l-140 -704q-23 -111 -4.5 -149t67.5 -38q19 0 39.5 4.5t39.5 12.5l7 -91q-34 -18 -66 -25.5t-69 -7.5q-90 0 -126.5 72t-4.5 228l139 698h-357l-195 -977h-118l195 977h-110l21 105h817z" />
<glyph unicode="&#x3c1;" d="M851 510q-52 -258 -163.5 -394.5t-267.5 -136.5q-80 0 -138 36.5t-91 105.5l-107 -537h-118l202 1013h1l1 9q50 250 171 373t274 123q158 0 224.5 -158t15.5 -413zM736 531q44 220 11.5 342.5t-153.5 122.5q-105 0 -191.5 -124.5t-116.5 -276.5l-68 -340 q16 -81 62 -126.5t128 -45.5q111 0 198.5 118.5t125.5 308.5z" />
<glyph unicode="&#x3c2;" horiz-adv-x="893" d="M601 1102q133 0 207.5 -104t39.5 -284h-111q27 141 -15 211.5t-142 70.5q-114 0 -207 -128t-129 -306l-8 -42q-38 -189 10.5 -299t189.5 -130q122 -18 172.5 -68.5t30.5 -154.5q-20 -96 -95 -170t-158 -109l-29 89q52 25 103 73t65 112q11 62 -17.5 89.5t-105.5 37.5 q-185 24 -258.5 163.5t-27.5 366.5l8 42q50 248 176.5 394t300.5 146z" />
<glyph unicode="&#x3c3;" d="M1021 975h-237q68 -69 91 -182t-5 -255l-7 -33q-48 -240 -178.5 -383t-305.5 -143q-163 0 -241 154.5t-30 390.5l6 32q49 245 178 385.5t306 140.5h444zM226 524q-40 -200 3 -320.5t171 -120.5q115 0 213 129t135 312l6 32q37 187 -7 303t-170 116q-117 0 -214 -123.5 t-131 -295.5z" />
<glyph unicode="&#x3c4;" horiz-adv-x="862" d="M894 977h-299l-195 -977h-119l195 977h-290l21 105h708z" />
<glyph unicode="&#x3c5;" d="M381 1082l-121 -605q-43 -217 -2 -305.5t148 -88.5q113 0 199.5 132t123.5 316q27 142 29 277.5t-13 273.5h127q15 -124 12.5 -252t-36.5 -298q-53 -263 -164.5 -408t-293.5 -145q-155 0 -226 124.5t-21 375.5l120 603h118z" />
<glyph unicode="&#x3c6;" horiz-adv-x="1149" d="M759 1082q169 0 267.5 -161t51.5 -397q-47 -232 -183 -378t-356 -164l-92 -460h-118l92 461q-196 21 -272 179.5t-29 391.5q34 176 83 289t125 239h125q-76 -130 -131.5 -261t-83.5 -267q-39 -192 5.5 -317.5t194.5 -140.5l6 1l197 985h118zM562 98l6 -3 q144 17 251 142.5t140 286.5q35 185 -22.5 317t-194.5 127l-6 -1z" />
<glyph unicode="&#x3c7;" horiz-adv-x="904" d="M283 1093q86 0 128 -77t57 -178l39 -289l6 -1l321 534h123l-426 -712l67 -496q15 -100 29.5 -144t50.5 -44q11 0 21 1.5t23 3.5l-20 -106q-11 -5 -27 -8.5t-27 -3.5q-76 0 -115 64t-55 200l-48 354l-6 1l-363 -606h-126l471 784l-57 425q-13 94 -34.5 142t-72.5 48 q-8 0 -26.5 -2.5t-28.5 -3.5l17 102q14 4 38 8t41 4z" />
<glyph unicode="&#x3c8;" horiz-adv-x="1144" d="M754 1081l-197 -982l6 -3q151 18 258 157.5t143 323.5q24 129 21.5 254.5t-25.5 250.5h126q22 -113 25 -231t-27 -273q-56 -272 -188.5 -426t-361.5 -171l-85 -425h-118l85 427q-179 23 -259.5 175t-23.5 434l98 490h119l-98 -492q-51 -252 0.5 -368t180.5 -125l6 1 l197 983h118z" />
<glyph unicode="&#x3c9;" horiz-adv-x="1410" d="M486 1082q-84 -134 -144.5 -270.5t-92.5 -280.5q-41 -203 -14.5 -325t132.5 -116l6 -1q86 -5 164 91t118 297l59 293h118l-59 -293q-43 -217 -6 -305.5t136 -88.5q98 0 179 130t119 318q26 143 20 279.5t-36 271.5h127q30 -123 35.5 -251t-28.5 -299 q-52 -261 -159.5 -407t-271.5 -146q-94 0 -151.5 63t-68.5 187q-57 -131 -138 -190.5t-187 -59.5q-152 0 -205.5 157t-5.5 396q37 184 91 304t137 246h126z" />
<glyph unicode="&#x3ca;" horiz-adv-x="530" d="M411 1081l-161 -808q-23 -111 -4.5 -149t67.5 -38q19 0 39.5 4.5t39.5 12.5l7 -91q-34 -18 -66 -25.5t-69 -7.5q-90 0 -126.5 72t-4.5 228l160 802h118zM674 1296h-156l26 160h156zM284 1296h-157l26 160h157z" />
<glyph unicode="&#x3cb;" d="M381 1082l-121 -605q-43 -217 -2 -305.5t148 -88.5q113 0 199.5 132t123.5 316q27 142 29 277.5t-13 273.5h127q15 -124 12.5 -252t-36.5 -298q-53 -263 -164.5 -408t-293.5 -145q-155 0 -226 124.5t-21 375.5l120 603h118zM922 1296h-156l26 160h156zM532 1296h-157 l26 160h157z" />
<glyph unicode="&#x3cc;" d="M117 620q35 219 158 350.5t298 131.5q166 0 251 -137t52 -345l-25 -159q-36 -221 -158.5 -351.5t-297.5 -130.5q-168 0 -252.5 136t-50.5 346zM210 461q-27 -167 23.5 -272.5t177.5 -105.5q118 0 206.5 109.5t114.5 268.5l25 159q26 164 -25 270t-176 106 q-120 0 -208 -109.5t-113 -266.5zM676 1582h137l-198 -331h-64z" />
<glyph unicode="&#x3cd;" d="M381 1082l-121 -605q-43 -217 -2 -305.5t148 -88.5q113 0 199.5 132t123.5 316q27 142 29 277.5t-13 273.5h127q15 -124 12.5 -252t-36.5 -298q-53 -263 -164.5 -408t-293.5 -145q-155 0 -226 124.5t-21 375.5l120 603h118zM710 1561h137l-198 -331h-64z" />
<glyph unicode="&#x3ce;" horiz-adv-x="1410" d="M486 1082q-84 -134 -144.5 -270.5t-92.5 -280.5q-41 -203 -14.5 -325t132.5 -116l6 -1q86 -5 164 91t118 297l59 293h118l-59 -293q-43 -217 -6 -305.5t136 -88.5q98 0 179 130t119 318q26 143 20 279.5t-36 271.5h127q30 -123 35.5 -251t-28.5 -299 q-52 -261 -159.5 -407t-271.5 -146q-94 0 -151.5 63t-68.5 187q-57 -131 -138 -190.5t-187 -59.5q-152 0 -205.5 157t-5.5 396q37 184 91 304t137 246h126zM936 1561h137l-198 -331h-64z" />
<glyph unicode="&#x3d1;" horiz-adv-x="1024" d="M449 86q134 0 243.5 123t153.5 342l7 34q-161 9 -247 136t-49 315l13 62q36 184 124 281.5t202 97.5q110 0 160 -102.5t16 -276.5l-110 -547q-57 -285 -198 -428.5t-336 -143.5q-170 0 -255 161.5t-35 410.5l140 701l119 2l-141 -703q-45 -225 6.5 -345t186.5 -120z M675 1034q-31 -152 20.5 -242.5t174.5 -92.5l6 1l80 398q27 142 7 205t-86 58l-6 1q-54 4 -105.5 -64t-77.5 -200z" />
<glyph unicode="&#x3d2;" horiz-adv-x="891" d="M781 1239q66 123 123.5 175.5t123.5 52.5q22 0 43.5 -7t36.5 -19l-37 -97q-7 6 -16.5 10.5t-23.5 4.5q-32 0 -66 -29t-72 -111l-353 -618l-120 -601h-117l120 601l-106 618q-7 83 -28 111.5t-54 28.5q-13 0 -26 -5t-20 -10l2 97q20 12 42 19t46 7q61 0 101.5 -53.5 t57.5 -174.5l60 -425l5 -86l6 -1l40 87z" />
<glyph unicode="&#x3d6;" horiz-adv-x="1298" d="M1362 976h-128q12 -97 8.5 -204.5t-29.5 -239.5q-52 -260 -151 -406.5t-243 -146.5q-89 0 -142.5 61.5t-62.5 182.5q-57 -128 -134 -186t-174 -58q-134 0 -178 157t4 396q28 141 66.5 246.5t88.5 197.5h-113l21 106h1188zM1094 531q22 114 23.5 224.5t-12.5 220.5h-690 q-58 -111 -100 -221.5t-66 -223.5q-41 -204 -23 -325t106 -115l5 -2q79 -5 152 91t113 297l54 269h119l-54 -269q-43 -217 -10.5 -305t121.5 -82h6q77 -6 147.5 123.5t108.5 317.5z" />
<glyph unicode="&#x400;" horiz-adv-x="964" d="M878 703h-544l-119 -599h624l-21 -104h-742l291 1456h736l-21 -106h-618l-109 -543h543zM797 1561h-109l-165 266h155z" />
<glyph unicode="&#x401;" horiz-adv-x="964" d="M878 703h-544l-119 -599h624l-21 -104h-742l291 1456h736l-21 -106h-618l-109 -543h543zM1023 1638h-156l26 160h156zM633 1638h-157l26 160h157z" />
<glyph unicode="&#x402;" horiz-adv-x="1234" d="M1126 1350h-433l-107 -531q73 29 142.5 48t118.5 19q176 0 264.5 -118t43.5 -345q-40 -197 -160.5 -314.5t-300.5 -112.5l-5 2l17 90q124 0 212.5 95.5t117.5 239.5q37 190 -17.5 271.5t-193.5 81.5q-51 0 -121.5 -18.5t-138.5 -46.5l-142 -711h-119l270 1350h-337 l21 106h889z" />
<glyph unicode="&#x403;" horiz-adv-x="923" d="M1041 1350h-579l-270 -1350h-118l291 1456h697zM874 1823h142l3 -6l-253 -260h-100z" />
<glyph unicode="&#x404;" horiz-adv-x="1106" d="M971 447l2 -6q-59 -223 -177 -342t-301 -119q-184 0 -287 182t-49 451l48 239q60 299 197 462.5t331 163.5q179 0 280.5 -130t73.5 -351h-117q17 178 -47.5 276.5t-204.5 98.5q-132 0 -240.5 -144.5t-153.5 -373.5l-13 -64h466l-21 -105h-467l-14 -72q-49 -243 18 -386 t216 -143q126 0 210.5 88.5t140.5 274.5h109z" />
<glyph unicode="&#x405;" horiz-adv-x="1006" d="M791 318q26 133 -24 206.5t-209 149.5q-177 76 -251 174.5t-36 286.5q32 165 145.5 253.5t270.5 88.5q174 0 268.5 -118t53.5 -323h-119q30 154 -30.5 244.5t-193.5 90.5q-98 0 -177.5 -69t-98.5 -165q-27 -136 19 -207.5t209 -148.5q178 -77 253 -178t39 -283 q-34 -170 -152 -255.5t-284 -85.5q-173 0 -286.5 106t-65.5 329l3 5h112q-38 -189 42.5 -262.5t215.5 -73.5q101 0 188.5 68.5t107.5 166.5z" />
<glyph unicode="&#x406;" horiz-adv-x="473" d="M210 0h-119l291 1456h119z" />
<glyph unicode="&#x407;" horiz-adv-x="473" d="M210 0h-119l291 1456h119zM755 1638h-156l26 160h156zM365 1638h-157l26 160h157z" />
<glyph unicode="&#x408;" horiz-adv-x="918" d="M852 1456h118l-209 -1044q-43 -213 -157.5 -323t-269.5 -110q-153 0 -232.5 109t-38.5 313h119q-34 -167 11.5 -242.5t161.5 -75.5q91 0 175 90.5t113 238.5z" />
<glyph unicode="&#x409;" horiz-adv-x="1767" d="M1213 1456l-122 -608h287q169 0 251 -120t45 -304q-41 -201 -161.5 -312.5t-304.5 -111.5h-404l270 1350h-427l-120 -554q-95 -432 -210.5 -614t-311.5 -182h-36l21 104h30q123 0 213 152t177 540l143 660h660zM1071 744l-128 -640h286q122 0 211.5 94.5t116.5 227.5 q28 140 -20 229t-180 89h-286z" />
<glyph unicode="&#x40a;" horiz-adv-x="1773" d="M349 787h618l134 669h118l-126 -632h286q169 0 252.5 -115t47.5 -295q-40 -196 -160.5 -305t-304.5 -109h-404l136 683h-618l-136 -683h-118l291 1456h118zM1072 720l-122 -612h286q122 0 210.5 90t114.5 218q27 136 -21.5 220t-181.5 84h-286z" />
<glyph unicode="&#x40b;" horiz-adv-x="1334" d="M1135 1350h-433l-107 -535q74 23 143.5 35t150.5 12q177 0 258.5 -107.5t35.5 -339.5l-83 -415h-118l83 415q39 197 -9.5 269.5t-187.5 72.5q-69 0 -144 -12.5t-150 -34.5l-142 -710h-119l270 1350h-337l21 106h889z" />
<glyph unicode="&#x40c;" horiz-adv-x="1062" d="M449 689h-137l-137 -689h-118l291 1456h118l-132 -658h148l519 658h145l3 -5l-597 -722l329 -729h-136zM849 1823h142l3 -6l-253 -260h-100z" />
<glyph unicode="&#x40d;" horiz-adv-x="1177" d="M1104 1456h118l-291 -1456h-118l240 1202l-5 2l-854 -1204h-118l291 1456h118l-241 -1203l5 -2zM884 1561h-109l-165 266h155z" />
<glyph unicode="&#x40e;" horiz-adv-x="1042" d="M532 665l23 -128l6 -1l488 920h138l-666 -1208q-75 -127 -145 -198t-185 -71q-18 0 -43 3.5t-32 7.5l26 99q8 -3 30.5 -4.5t39.5 -1.5q59 0 107 51.5t96 140.5l59 104l-200 1077h134zM1034 1855l2 -6q-16 -117 -91 -185t-188 -68q-108 0 -165 72t-38 187h100 q-13 -79 14.5 -125t102.5 -46q68 0 112 48.5t57 122.5h94z" />
<glyph unicode="&#x40f;" horiz-adv-x="1172" d="M365 1456h118l-270 -1352h618l270 1352h118l-291 -1456h-364l-70 -353h-119l70 353h-371z" />
<glyph unicode="&#x410;" horiz-adv-x="1057" d="M776 404h-502l-199 -404h-121l730 1456h106l143 -1456h-121zM328 514h438l-66 741l-6 1z" />
<glyph unicode="&#x411;" horiz-adv-x="1044" d="M1032 1350h-579l-105 -526h286q171 0 254.5 -113.5t47.5 -296.5q-40 -200 -160.5 -307t-306.5 -107h-404l291 1456h697zM327 719l-123 -615h286q124 0 211.5 90t114.5 222q27 138 -20.5 220.5t-182.5 82.5h-286z" />
<glyph unicode="&#x412;" horiz-adv-x="1041" d="M76 0l291 1456h351q168 0 254.5 -97.5t49.5 -286.5q-24 -117 -91 -197t-161 -112q103 -23 147.5 -123.5t18.5 -234.5q-42 -209 -160.5 -307t-292.5 -98h-407zM334 701l-119 -597h289q111 0 198.5 79.5t115.5 219.5q27 139 -16 218.5t-160 79.5h-308zM355 804h269 q100 3 177 73.5t103 198.5q29 145 -23.5 209.5t-183.5 64.5h-233z" />
<glyph unicode="&#x413;" horiz-adv-x="923" d="M1041 1350h-579l-270 -1350h-118l291 1456h697z" />
<glyph unicode="&#x414;" horiz-adv-x="1218" d="M954 104h137l-102 -457h-109l71 353h-855l-71 -353h-102l76 457h86q77 78 176.5 277.5t178.5 547.5l128 527h656zM560 929q-68 -285 -162.5 -497.5t-191.5 -327.5h630l249 1246h-425z" />
<glyph unicode="&#x415;" horiz-adv-x="964" d="M878 703h-544l-119 -599h624l-21 -104h-742l291 1456h736l-21 -106h-618l-109 -543h543z" />
<glyph unicode="&#x416;" horiz-adv-x="1470" d="M972 694h-124l-138 -694h-118l138 694h-129l-504 -694h-149l568 756l-245 700h139l207 -658h134l132 658h118l-132 -658h133l469 658h138l-525 -700l265 -756h-148z" />
<glyph unicode="&#x417;" horiz-adv-x="988" d="M430 795h134q131 0 217.5 75.5t113.5 205.5q27 140 -26.5 217.5t-196.5 77.5q-106 0 -203 -84t-123 -212h-110l-2 6q33 188 163 292t296 104q174 0 266 -107t54 -298q-24 -116 -94.5 -202t-176.5 -128q97 -41 137.5 -129.5t15.5 -216.5q-42 -209 -176 -313t-325 -104 q-153 0 -255 110t-61 315h118q-30 -147 30.5 -234t188.5 -87q132 0 232.5 84.5t128.5 224.5q33 163 -25.5 230t-207.5 67h-134l4 19l13 66z" />
<glyph unicode="&#x418;" horiz-adv-x="1177" d="M1104 1456h118l-291 -1456h-118l240 1202l-5 2l-854 -1204h-118l291 1456h118l-241 -1203l5 -2z" />
<glyph unicode="&#x419;" horiz-adv-x="1177" d="M1104 1456h118l-291 -1456h-118l240 1202l-5 2l-854 -1204h-118l291 1456h118l-241 -1203l5 -2zM1105 1855l2 -6q-16 -117 -91 -185t-188 -68q-108 0 -165 72t-38 187h100q-13 -79 14.5 -125t102.5 -46q68 0 112 48.5t57 122.5h94z" />
<glyph unicode="&#x41a;" horiz-adv-x="1062" d="M449 689h-137l-137 -689h-118l291 1456h118l-132 -658h148l519 658h145l3 -5l-597 -722l329 -729h-136z" />
<glyph unicode="&#x41b;" horiz-adv-x="1166" d="M1213 1456l-291 -1456h-118l270 1350h-464l-120 -554q-93 -430 -202.5 -613t-288.5 -183h-35l21 104h30q108 0 190 152t167 540l143 660h698z" />
<glyph unicode="&#x41c;" horiz-adv-x="1383" d="M512 1456l126 -1273l6 -1l637 1274h152l-291 -1456h-117l128 639l128 584l-6 2l-631 -1225h-78l-141 1223h-6l-105 -584l-128 -639h-116l291 1456h151z" />
<glyph unicode="&#x41d;" horiz-adv-x="1173" d="M927 0h-116l133 669h-617l-133 -669h-118l291 1456h118l-137 -683h617l137 683h116z" />
<glyph unicode="&#x41e;" horiz-adv-x="1079" d="M1048 603q-61 -302 -204.5 -463t-351.5 -161q-191 0 -296 180.5t-50 452.5l48 239q60 303 200 464.5t344 161.5q195 0 303 -182t54 -453zM978 844q48 244 -24.5 384t-236.5 140q-141 0 -249.5 -141t-154.5 -374l-49 -241q-49 -246 20.5 -386t228.5 -140q146 0 257.5 141 t159.5 376z" />
<glyph unicode="&#x41f;" horiz-adv-x="1175" d="M929 0h-118l270 1350h-617l-270 -1350h-118l291 1456h853z" />
<glyph unicode="&#x420;" horiz-adv-x="1041" d="M314 603l-120 -603h-118l291 1456h413q169 0 251.5 -119t45.5 -307q-42 -206 -162 -316.5t-305 -110.5h-296zM335 708h296q122 0 210.5 93t116.5 227q29 147 -18 234.5t-181 87.5h-295z" />
<glyph unicode="&#x421;" horiz-adv-x="1019" d="M962 446l2 -6q-59 -223 -177 -342t-301 -119q-184 0 -287 182t-49 451l48 239q60 299 197 462.5t331 163.5q179 0 280.5 -130t73.5 -351h-117q17 178 -47.5 276.5t-204.5 98.5q-132 0 -240.5 -144.5t-153.5 -373.5l-49 -241q-49 -243 18 -386t216 -143q126 0 210.5 88.5 t140.5 274.5h109z" />
<glyph unicode="&#x422;" horiz-adv-x="981" d="M1119 1350h-386l-270 -1350h-117l270 1350h-385l21 106h888z" />
<glyph unicode="&#x423;" horiz-adv-x="1042" d="M532 665l23 -128l6 -1l488 920h138l-666 -1208q-75 -127 -145 -198t-185 -71q-18 0 -43 3.5t-32 7.5l26 99q8 -3 30.5 -4.5t39.5 -1.5q59 0 107 51.5t96 140.5l59 104l-200 1077h134z" />
<glyph unicode="&#x424;" horiz-adv-x="1251" d="M863 1308h22q191 0 297 -166.5t58 -409.5q-53 -266 -216 -423t-371 -157h-21l-42 -212h-118l42 212h-22q-192 0 -297.5 166.5t-56.5 411.5q53 264 215 421t371 157h21l42 208h118zM703 1204q-154 0 -280.5 -134t-167.5 -340q-45 -226 22 -349.5t236 -123.5h22l189 947 h-21zM842 1204l-189 -947h23q153 0 278.5 133.5t167.5 341.5q45 223 -22.5 347.5t-233.5 124.5h-24z" />
<glyph unicode="&#x425;" horiz-adv-x="1030" d="M579 843l6 -1l397 614h142l-490 -718l269 -738h-141l-209 632l-6 1l-412 -633h-143l505 738l-261 718h142z" />
<glyph unicode="&#x426;" horiz-adv-x="1194" d="M363 1456h118l-270 -1352h616l270 1352h118l-270 -1350h115l-102 -457h-106l70 351h-850z" />
<glyph unicode="&#x427;" horiz-adv-x="1117" d="M1163 1456l-291 -1456h-118l132 659q-88 -29 -162.5 -43t-162.5 -14q-178 0 -259.5 107t-34.5 341l81 406h118l-81 -406q-40 -198 8.5 -270.5t188.5 -72.5q74 0 156.5 14.5t168.5 42.5l138 692h118z" />
<glyph unicode="&#x428;" horiz-adv-x="1534" d="M482 1456l-270 -1352h434l270 1352h118l-270 -1352h430l270 1352h119l-291 -1456h-1219l291 1456h118z" />
<glyph unicode="&#x429;" horiz-adv-x="1571" d="M482 1456l-270 -1352h434l270 1352h118l-270 -1352h430l270 1352h119l-270 -1352h116l-102 -455h-107l70 351h-1217l291 1456h118z" />
<glyph unicode="&#x42a;" horiz-adv-x="1267" d="M222 1456h476l-126 -632h286q171 0 254.5 -113.5t47.5 -296.5q-40 -200 -160.5 -307t-306.5 -107h-403l270 1352h-359zM551 719l-123 -615h286q124 0 211.5 90t114.5 222q27 138 -20.5 220.5t-182.5 82.5h-286z" />
<glyph unicode="&#x42b;" horiz-adv-x="1399" d="M357 824h286q171 0 254.5 -113.5t47.5 -296.5q-40 -200 -160.5 -307t-306.5 -107h-403l291 1456h117zM336 719l-123 -615h286q124 0 211.5 90t114.5 222q27 138 -20.5 220.5t-182.5 82.5h-286zM1152 0h-119l291 1456h119z" />
<glyph unicode="&#x42c;" horiz-adv-x="1028" d="M348 824h286q171 0 254.5 -113.5t47.5 -296.5q-40 -200 -160.5 -307t-306.5 -107h-403l291 1456h117zM327 719l-123 -615h286q124 0 211.5 90t114.5 222q27 138 -20.5 220.5t-182.5 82.5h-286z" />
<glyph unicode="&#x42d;" horiz-adv-x="1105" d="M268 1000l-2 6q42 228 179 350t331 122q180 0 270 -179.5t36 -450.5l-48 -239q-60 -296 -211 -462.5t-347 -166.5q-180 0 -275 127t-50 348h119q-38 -188 21.5 -279.5t205.5 -91.5q133 0 253 148.5t165 374.5l19 97h-471l21 104h472l8 40q49 245 -8 384.5t-202 139.5 q-134 0 -237 -97.5t-138 -274.5h-111z" />
<glyph unicode="&#x42e;" horiz-adv-x="1486" d="M1428 603q-61 -302 -204.5 -463t-351.5 -161q-191 0 -296 180.5t-50 452.5l10 50h-195l-132 -662h-119l291 1456h119l-138 -690h195l17 85q60 303 200 464.5t344 161.5q195 0 303 -182t54 -453zM1358 844q48 244 -24.5 384t-236.5 140q-141 0 -249.5 -141t-154.5 -374 l-49 -241q-49 -246 20.5 -386t228.5 -140q146 0 257.5 141t159.5 376z" />
<glyph unicode="&#x42f;" horiz-adv-x="1034" d="M133 0h-127l401 633q-107 48 -147 141.5t-9 243.5q40 204 175 321t308 117h357l-291 -1456h-118l118 593h-299zM952 1350h-239q-139 0 -224.5 -82t-117.5 -248q-28 -141 26 -231t170 -90h254z" />
<glyph unicode="&#x430;" horiz-adv-x="905" d="M583 0q2 53 5.5 89.5t10.5 74.5q-61 -80 -146 -132.5t-176 -52.5q-120 0 -176.5 85.5t-28.5 223.5q31 160 148 245t292 85h177l27 133q24 122 -17 183.5t-141 61.5q-85 0 -159.5 -62.5t-91.5 -151.5l-108 1l-2 6q21 130 130.5 221.5t257.5 91.5q134 0 208 -93t41 -260 l-106 -531q-13 -60 -18.5 -112t-3.5 -106h-123zM313 87q88 0 175.5 59t136.5 147l46 232h-181q-108 0 -195 -70.5t-106 -170.5q-19 -92 13 -144.5t111 -52.5z" />
<glyph unicode="&#x431;" horiz-adv-x="919" d="M582 1010q157 0 235.5 -137t45.5 -347l-5 -33q-38 -236 -162 -375t-299 -139q-167 0 -250.5 145t-46.5 369l5 33l3 18l17 105q52 325 185 510.5t317 221.5q114 24 168.5 62t65.5 110h90l2 -6q-19 -143 -97 -197t-223 -78q-116 -20 -214 -124t-144 -281l4 -4 q55 67 135 107t168 40zM544 906q-119 0 -207.5 -111.5t-113.5 -268.5l-5 -33q-30 -181 19.5 -295.5t175.5 -114.5q119 0 208.5 119t117.5 291l5 33q26 166 -24 273t-176 107z" />
<glyph unicode="&#x432;" horiz-adv-x="940" d="M58 0l216 1082h322q153 0 234 -74t53 -215q-19 -88 -70.5 -149.5t-131.5 -87.5q81 -21 117 -92t18 -164q-32 -157 -130 -228.5t-252 -71.5h-376zM275 497l-79 -395h258q92 0 158.5 52.5t85.5 147.5q19 96 -23.5 145.5t-141.5 49.5h-258zM296 600h210q101 0 170 48.5 t88 140.5q20 101 -27 144.5t-162 43.5h-204z" />
<glyph unicode="&#x433;" horiz-adv-x="707" d="M782 975h-414l-195 -975h-119l216 1082h533z" />
<glyph unicode="&#x434;" horiz-adv-x="976" d="M53 104q84 97 147.5 218t122.5 368l93 392h524l-195 -978h99l-96 -422h-108l64 318h-620l-64 -318h-105l75 422h63zM441 690q-51 -211 -118 -353t-146 -233h450l172 863h-293z" />
<glyph unicode="&#x435;" horiz-adv-x="869" d="M395 -21q-161 0 -249 132.5t-55 334.5l29 180q34 213 160 344.5t277 131.5q157 0 230 -122.5t41 -325.5l-19 -119h-588l-14 -89q-26 -162 28 -262.5t176 -100.5q81 0 150 31.5t120 87.5l35 -85q-57 -64 -136.5 -101t-184.5 -37zM540 996q-101 0 -187.5 -103t-109.5 -249 l2 -5h462l8 46q21 139 -23.5 225t-151.5 86z" />
<glyph unicode="&#x436;" horiz-adv-x="1266" d="M809 498h-107l-99 -498h-118l99 498h-106l-382 -498h-142l-3 5l450 561l-205 516h144l160 -474h106l95 474h118l-95 -474h109l348 474h136l3 -5l-407 -512l229 -565h-149z" />
<glyph unicode="&#x437;" horiz-adv-x="848" d="M327 605h136q94 0 152 50t76 140q19 94 -17.5 147t-138.5 53q-80 0 -152.5 -59t-89.5 -147h-109l-2 6q24 144 130.5 224t243.5 80q139 0 210.5 -80.5t43.5 -225.5q-18 -84 -68.5 -146.5t-127.5 -94.5q71 -32 101 -97.5t11 -157.5q-32 -157 -136.5 -236t-257.5 -79 q-127 0 -212 84.5t-51 238.5l3 5h110q-21 -102 27 -164t144 -62q95 0 164.5 58.5t88.5 152.5q22 113 -17.5 158t-146.5 45h-136l5 25l11 56z" />
<glyph unicode="&#x438;" horiz-adv-x="947" d="M818 1082h119l-216 -1082h-119l168 842l-5 2l-592 -844h-118l216 1082h118l-169 -845l5 -2z" />
<glyph unicode="&#x439;" horiz-adv-x="947" d="M818 1082h119l-216 -1082h-119l168 842l-5 2l-592 -844h-118l216 1082h118l-169 -845l5 -2zM915 1512l2 -6q-16 -117 -91 -185t-188 -68q-108 0 -165 72t-38 187h100q-13 -79 14.5 -125t102.5 -46q68 0 112 48.5t57 122.5h94z" />
<glyph unicode="&#x43a;" horiz-adv-x="881" d="M390 493h-119l-98 -493h-118l216 1082h118l-96 -479h117l394 479h139l2 -5l-449 -516l272 -561h-152z" />
<glyph unicode="&#x43b;" horiz-adv-x="949" d="M939 1082l-216 -1082h-119l194 975h-333l-73 -371q-68 -338 -154.5 -471t-238.5 -133h-38l24 110l31 1q80 0 142 112t116 381l95 478h570z" />
<glyph unicode="&#x43c;" horiz-adv-x="1217" d="M559 175l6 -1l494 908h148l-216 -1082h-119l164 822l-5 2l-463 -824h-82l-136 843h-6l-168 -843h-118l216 1082h154z" />
<glyph unicode="&#x43d;" horiz-adv-x="946" d="M721 0h-119l98 494h-429l-98 -494h-118l216 1082h118l-97 -484h429l97 484h119z" />
<glyph unicode="&#x43e;" d="M117 620q35 219 158 350.5t298 131.5q166 0 251 -137t52 -345l-25 -159q-36 -221 -158.5 -351.5t-297.5 -130.5q-168 0 -252.5 136t-50.5 346zM210 461q-27 -167 23.5 -272.5t177.5 -105.5q118 0 206.5 109.5t114.5 268.5l25 159q26 164 -25 270t-176 106 q-120 0 -208 -109.5t-113 -266.5z" />
<glyph unicode="&#x43f;" horiz-adv-x="947" d="M721 0h-119l194 975h-429l-194 -975h-118l216 1082h666z" />
<glyph unicode="&#x440;" d="M850 490q-52 -258 -155 -384.5t-260 -126.5q-82 0 -145 37t-99 106l-107 -538h-118l299 1498h100l-15 -133q56 73 125.5 113t149.5 40q147 0 213 -168.5t16 -422.5zM734 511q43 217 2 350t-163 133q-75 0 -137.5 -56t-110.5 -146l-109 -545q19 -77 71.5 -120.5 t136.5 -43.5q111 0 189.5 108.5t116.5 298.5z" />
<glyph unicode="&#x441;" horiz-adv-x="872" d="M404 83q86 0 165.5 67.5t98.5 186.5h103l2 -6q-22 -157 -135.5 -254.5t-249.5 -97.5q-171 0 -249.5 135.5t-44.5 341.5l27 168q34 216 150.5 347t296.5 131q139 0 219 -107t52 -281h-111q21 134 -30 208t-147 74q-127 0 -207 -107t-105 -265l-27 -168q-28 -169 15 -271 t177 -102z" />
<glyph unicode="&#x442;" horiz-adv-x="808" d="M869 977h-299l-195 -977h-120l195 977h-290l21 105h709z" />
<glyph unicode="&#x443;" horiz-adv-x="827" d="M359 298l5 -104l6 -1l418 889h131l-618 -1255q-53 -107 -124 -185.5t-173 -78.5q-16 0 -42 5t-38 9l34 103q9 -2 31 -4.5t32 -2.5q54 0 103 58.5t87 139.5l72 144l-113 1067h131z" />
<glyph unicode="&#x444;" horiz-adv-x="1200" d="M118 531q55 277 163.5 424t260.5 147q36 0 66 -10t55 -27l99 495h119l-99 -496q31 18 67 28t78 10q138 0 191.5 -158t3.5 -413l-4 -21q-52 -259 -158.5 -395t-255.5 -136q-40 0 -73 10.5t-58 28.5l-87 -434h-119l85 427q-31 -15 -65 -23.5t-71 -8.5q-137 0 -193.5 147 t-8.5 384zM1004 531q43 219 13 342t-143 123q-33 0 -61 -9.5t-52 -25.5l-169 -849q17 -14 42 -21.5t60 -7.5q103 0 185.5 118.5t120.5 308.5zM234 510q-42 -209 -12.5 -318t141.5 -109q30 0 57.5 8t52.5 22l170 854q-17 13 -40.5 21t-55.5 8q-104 0 -186.5 -131t-122.5 -334 z" />
<glyph unicode="&#x445;" horiz-adv-x="827" d="M441 649l6 -1l279 434h138l-369 -532l207 -550h-137l-148 451l-6 1l-291 -452h-138l384 550l-200 532h137z" />
<glyph unicode="&#x446;" horiz-adv-x="964" d="M271 1082h118l-195 -978h429l195 978h119l-195 -978h94l-96 -425h-106l64 321h-643z" />
<glyph unicode="&#x447;" horiz-adv-x="896" d="M670 0h-118l89 445q-56 -22 -111.5 -34t-109.5 -12q-153 0 -221.5 96t-25.5 311l55 276h119l-55 -276q-36 -179 0.5 -240.5t148.5 -61.5q55 1 110.5 13.5t110.5 33.5l106 531h118z" />
<glyph unicode="&#x448;" horiz-adv-x="1321" d="M389 1082l-195 -978h349l195 978h119l-195 -978h347l195 978h118l-216 -1082h-1051l216 1082h118z" />
<glyph unicode="&#x449;" horiz-adv-x="1343" d="M383 1082l-195 -978h349l195 978h119l-195 -978h347l195 978h118l-195 -978h110l-95 -425h-107l64 321h-1044l216 1082h118z" />
<glyph unicode="&#x44a;" horiz-adv-x="1040" d="M171 1082h381l-78 -392h232q139 0 207.5 -97.5t38.5 -245.5q-33 -164 -133 -255.5t-251 -91.5h-350l195 978h-262zM453 585l-96 -481h232q92 0 157.5 70t86.5 170q20 105 -14.5 173t-133.5 68h-232z" />
<glyph unicode="&#x44b;" horiz-adv-x="1261" d="M314 690h232q139 0 207.5 -97.5t38.5 -245.5q-33 -164 -133 -255.5t-251 -91.5h-350l216 1082h118zM293 585l-96 -481h232q92 0 157.5 70t86.5 170q20 105 -14.5 173t-133.5 68h-232zM1019 0h-118l216 1082h118z" />
<glyph unicode="&#x44c;" horiz-adv-x="898" d="M314 690h232q139 0 207.5 -97.5t38.5 -245.5q-33 -164 -133 -255.5t-251 -91.5h-350l216 1082h118zM293 585l-96 -481h232q92 0 157.5 70t86.5 170q20 105 -14.5 173t-133.5 68h-232z" />
<glyph unicode="&#x44d;" horiz-adv-x="893" d="M536 996q-80 0 -159 -68t-102 -185h-106l-2 6q28 160 142.5 256.5t247.5 96.5q159 0 232.5 -156t27.5 -384l-8 -42q-51 -251 -176.5 -396t-298.5 -145q-133 0 -208.5 107t-40.5 280h114q-28 -139 17 -211t139 -72q109 0 199.5 119t127.5 287l-3 5h-349l21 105h356 q30 180 -11.5 288.5t-159.5 108.5z" />
<glyph unicode="&#x44e;" horiz-adv-x="1345" d="M497 487h-224l-97 -487h-118l216 1082h118l-98 -491h219l5 29q35 219 158 350.5t298 131.5q166 0 251 -137t52 -345l-25 -159q-36 -221 -158.5 -351.5t-297.5 -130.5q-168 0 -252.5 136t-50.5 346zM611 461q-27 -167 23.5 -272.5t177.5 -105.5q118 0 206.5 109.5 t114.5 268.5l25 159q26 164 -25 270t-176 106q-120 0 -208 -109.5t-113 -266.5z" />
<glyph unicode="&#x44f;" horiz-adv-x="909" d="M898 1082l-216 -1082h-118l87 435h-239l-298 -435h-129l312 455q-78 34 -111.5 115t-10.5 188q30 151 129 237.5t249 86.5h345zM291 756q-19 -96 12.5 -156.5t119.5 -60.5h248l88 438h-227q-91 0 -157 -65.5t-84 -155.5z" />
<glyph unicode="&#x450;" horiz-adv-x="869" d="M395 -21q-161 0 -249 132.5t-55 334.5l29 180q34 213 160 344.5t277 131.5q157 0 230 -122.5t41 -325.5l-19 -119h-588l-14 -89q-26 -162 28 -262.5t176 -100.5q81 0 150 31.5t120 87.5l35 -85q-57 -64 -136.5 -101t-184.5 -37zM540 996q-101 0 -187.5 -103t-109.5 -249 l2 -5h462l8 46q21 139 -23.5 225t-151.5 86zM646 1240h-109l-165 266h155z" />
<glyph unicode="&#x451;" horiz-adv-x="869" d="M395 -21q-161 0 -249 132.5t-55 334.5l29 180q34 213 160 344.5t277 131.5q157 0 230 -122.5t41 -325.5l-19 -119h-588l-14 -89q-26 -162 28 -262.5t176 -100.5q81 0 150 31.5t120 87.5l35 -85q-57 -64 -136.5 -101t-184.5 -37zM540 996q-101 0 -187.5 -103t-109.5 -249 l2 -5h462l8 46q21 139 -23.5 225t-151.5 86zM872 1317h-156l26 160h156zM482 1317h-157l26 160h157z" />
<glyph unicode="&#x452;" horiz-adv-x="935" d="M648 1245h-232l-63 -313l5 -3q55 83 131.5 128t165.5 45q128 0 184 -107.5t13 -326.5l-47 -233h1l-105 -524q-36 -178 -116.5 -263t-198.5 -85q-24 0 -46.5 5t-44.5 14l32 101q10 -5 36 -10.5t43 -5.5q56 0 104.5 65.5t71.5 178.5l18 89h-1l134 670q37 186 2 255t-132 69 q-79 0 -153 -60t-128 -158l-155 -776h-118l249 1245h-141l21 104h140l43 211h118l-43 -211h233z" />
<glyph unicode="&#x453;" horiz-adv-x="707" d="M782 975h-414l-195 -975h-119l216 1082h533zM654 1480h142l3 -6l-253 -260h-100z" />
<glyph unicode="&#x454;" horiz-adv-x="894" d="M413 83q86 0 165.5 67.5t98.5 186.5h103l2 -6q-22 -157 -135.5 -254.5t-249.5 -97.5q-171 0 -249.5 135.5t-44.5 341.5l27 168q34 216 150.5 347t296.5 131q139 0 219 -107t52 -281h-111q21 134 -30 208t-147 74q-127 0 -207 -107t-105 -265l-5 -30h365l-21 -105h-361 l-5 -33q-28 -169 15 -271t177 -102z" />
<glyph unicode="&#x455;" horiz-adv-x="834" d="M599 259q12 76 -24.5 128t-149.5 112q-147 68 -209 138.5t-43 184.5q18 121 117.5 200.5t239.5 79.5q141 0 215 -92t49 -227l-3 -5h-111q14 91 -30 154.5t-137 63.5q-91 0 -151.5 -52t-70.5 -118q-12 -75 20.5 -116.5t152.5 -108.5q144 -65 208 -141.5t46 -193.5 q-22 -133 -121.5 -210t-245.5 -77q-153 0 -231.5 95.5t-52.5 224.5l2 5h111q-14 -117 43 -169t144 -52q90 0 155.5 52t76.5 124z" />
<glyph unicode="&#x456;" horiz-adv-x="410" d="M179 0h-118l216 1082h118zM457 1390h-118l34 170h118z" />
<glyph unicode="&#x457;" horiz-adv-x="406" d="M175 0h-118l216 1082h118zM652 1296h-156l26 160h156zM262 1296h-157l26 160h157z" />
<glyph unicode="&#x458;" horiz-adv-x="424" d="M402 1082l-234 -1171q-36 -178 -115.5 -263t-198.5 -85q-21 0 -41.5 5t-42.5 14l32 105q12 -6 32 -11t33 -5q60 0 110.5 62t73.5 178l234 1171h117zM460 1390h-118l34 170h118z" />
<glyph unicode="&#x459;" horiz-adv-x="1403" d="M918 1082l-86 -432h231q139 0 209 -91.5t42 -231.5q-31 -154 -130.5 -240.5t-250.5 -86.5h-350l194 975h-310l-73 -371q-68 -336 -157 -470t-241 -134h-37l23 105l30 1q81 0 145.5 115t118.5 383l95 478h547zM811 546l-89 -444h231q92 0 158 67t85 160q18 96 -17.5 156.5 t-136.5 60.5h-231z" />
<glyph unicode="&#x45a;" horiz-adv-x="1418" d="M303 653h429l86 429h119l-86 -432h231q140 0 209.5 -91.5t41.5 -231.5q-31 -154 -130 -240.5t-251 -86.5h-350l109 549h-429l-109 -549h-118l216 1082h118zM830 546l-89 -444h231q93 0 158.5 67t84.5 160q18 96 -17.5 156.5t-136.5 60.5h-231z" />
<glyph unicode="&#x45b;" horiz-adv-x="935" d="M660 1245h-244l-63 -313l5 -3q55 83 131.5 128t165.5 45q128 0 184 -107.5t13 -326.5l-134 -668h-119l134 670q37 186 2 255t-132 69q-79 0 -153 -60t-128 -158l-155 -776h-118l249 1245h-129l21 104h129l42 211h118l-42 -211h244z" />
<glyph unicode="&#x45c;" horiz-adv-x="881" d="M390 493h-119l-98 -493h-118l216 1082h118l-96 -479h117l394 479h139l2 -5l-449 -516l272 -561h-152zM742 1479h142l3 -6l-253 -260h-100z" />
<glyph unicode="&#x45d;" horiz-adv-x="947" d="M818 1082h119l-216 -1082h-119l168 842l-5 2l-592 -844h-118l216 1082h118l-169 -845l5 -2zM694 1218h-109l-165 266h155z" />
<glyph unicode="&#x45e;" horiz-adv-x="827" d="M359 298l5 -104l6 -1l418 889h131l-618 -1255q-53 -107 -124 -185.5t-173 -78.5q-16 0 -42 5t-38 9l34 103q9 -2 31 -4.5t32 -2.5q54 0 103 58.5t87 139.5l72 144l-113 1067h131zM862 1512l2 -6q-16 -117 -91 -185t-188 -68q-108 0 -165 72t-38 187h100 q-13 -79 14.5 -125t102.5 -46q68 0 112 48.5t57 122.5h94z" />
<glyph unicode="&#x45f;" horiz-adv-x="947" d="M389 1082l-195 -978h429l195 978h119l-216 -1082h-272l-70 -352h-117l70 352h-277l216 1082h118z" />
<glyph unicode="&#x460;" horiz-adv-x="1456" d="M1514 1456l-209 -1047q-45 -223 -152 -326.5t-253 -103.5q-83 0 -142.5 50.5t-77.5 147.5q-57 -102 -137.5 -150t-177.5 -48q-131 0 -198 112t-25 318l209 1047h117l-209 -1047q-34 -166 2.5 -246t124.5 -80t167 86t110 240l209 1047h121l-209 -1047q-34 -166 5 -246 t132 -80q84 0 160 86t107 240l209 1047h117z" />
<glyph unicode="&#x461;" horiz-adv-x="1319" d="M1315 1082l-140 -702q-43 -209 -141 -305t-233 -96q-74 0 -126.5 43t-71.5 128q-52 -89 -124 -130t-157 -41q-120 0 -181 104t-22 297l140 702h117l-140 -702q-31 -152 -0.5 -224.5t107.5 -72.5q76 0 146 78.5t98 218.5l140 702h118l-140 -702q-31 -152 2.5 -224.5 t114.5 -72.5q73 0 139.5 78.5t94.5 218.5l140 702h119z" />
<glyph unicode="&#x462;" horiz-adv-x="1028" d="M627 1126h-219l-60 -302h286q171 0 254.5 -113.5t47.5 -296.5q-40 -200 -160.5 -307t-306.5 -107h-403l225 1126h-155l21 104h155l45 226h117l-45 -226h219zM327 719l-123 -615h286q124 0 211.5 90t114.5 222q27 138 -20.5 220.5t-182.5 82.5h-286z" />
<glyph unicode="&#x463;" horiz-adv-x="898" d="M646 1082h-255l-74 -373h231q139 0 207 -100t37 -253q-34 -168 -134.5 -262t-251.5 -94h-349l216 1082h-153l21 104h153l75 374h118l-75 -374h255zM296 604l-100 -500h231q93 0 159.5 73t87.5 177q21 108 -13 179t-134 71h-231z" />
<glyph unicode="&#x464;" horiz-adv-x="1474" d="M373 814h185l8 38q60 299 197 462.5t331 163.5q179 0 280.5 -130t73.5 -351h-117q17 178 -47.5 276.5t-204.5 98.5q-132 0 -240.5 -144.5t-153.5 -373.5l-8 -40h422l-21 -104h-423l-19 -97q-49 -243 18 -386t216 -143q126 0 210.5 88.5t140.5 274.5h109l2 -6 q-59 -223 -177 -342t-301 -119q-184 0 -287 182t-49 451l19 97h-185l-142 -710h-119l291 1456h119z" />
<glyph unicode="&#x465;" horiz-adv-x="1232" d="M293 602h169l4 22q34 216 150.5 347t296.5 131q139 0 219 -107t52 -281h-111q21 134 -30 208t-147 74q-127 0 -207 -107t-105 -265l-4 -22h368l-20 -104h-365l-6 -42q-28 -169 15 -271t177 -102q86 0 165.5 67.5t98.5 186.5h103l2 -6q-22 -157 -135.5 -254.5 t-249.5 -97.5q-171 0 -249.5 135.5t-44.5 341.5l6 42h-173l-99 -498h-118l216 1082h118z" />
<glyph unicode="&#x466;" horiz-adv-x="999" d="M742 472h-163l-94 -472h-118l94 472h-152l-227 -472h-121l709 1456h106l123 -1456h-121zM362 582h371l-50 654l-6 2z" />
<glyph unicode="&#x467;" horiz-adv-x="885" d="M591 343h-112l-69 -343h-117l69 343h-118l-177 -343h-122l568 1082h103l139 -1082h-121zM298 449h280l-44 357l-3 93l-6 1l-42 -94z" />
<glyph unicode="&#x468;" horiz-adv-x="1449" d="M340 582h322l426 874h106l123 -1456h-121l-36 472h-163l-94 -472h-118l94 472h-152l-227 -472h-121l230 473h-291l-94 -473h-119l291 1456h119zM780 582h371l-50 654l-6 2z" />
<glyph unicode="&#x469;" horiz-adv-x="1247" d="M291 449h242l333 633h103l139 -1082h-121l-43 343h-112l-69 -343h-117l69 343h-118l-177 -343h-122l180 344h-208l-68 -344h-118l216 1082h118zM651 449h280l-44 357l-3 93l-6 1l-42 -94z" />
<glyph unicode="&#x46a;" horiz-adv-x="1372" d="M878 781h65q168 0 246.5 -96.5t37.5 -304.5l-76 -380h-119l76 380q35 175 -9.5 236t-176.5 61h-117l-12 -16l-132 -661h-118l134 669l-3 8h-124q-121 0 -197 -68t-108 -229l-76 -380h-119l76 380q44 225 152 313t293 88h72l-206 675h917zM761 803l6 -1l378 548h-541z" />
<glyph unicode="&#x46b;" horiz-adv-x="1190" d="M50 0l39 193q44 226 147 313.5t277 87.5h1l-154 488h740l-350 -488q154 -2 226 -98.5t32 -302.5l-39 -193h-119l39 193q34 175 -5 235.5t-160 60.5h-49l-7 -11l-96 -478h-119l96 482l-2 7h-55q-111 0 -181.5 -67.5t-102.5 -228.5l-39 -193h-119zM632 610l6 -1l254 367 h-368z" />
<glyph unicode="&#x46c;" horiz-adv-x="1809" d="M365 782h689v-1h24l-205 675h917l-476 -675h65q168 0 246.5 -96.5t37.5 -304.5l-76 -380h-119l76 380q35 175 -9.5 236t-176.5 61h-117l-12 -16l-132 -661h-118l134 669l-3 8h-135q-116 -4 -189.5 -72.5t-104.5 -224.5l-76 -380h-119l76 380q20 103 53.5 176t81.5 121 h-353l-135 -677h-119l291 1456h119zM1197 803l6 -1l378 548h-541z" />
<glyph unicode="&#x46d;" horiz-adv-x="1563" d="M423 0l39 193q20 103 52.5 176t77.5 121h-319l-98 -490h-118l216 1082h118l-97 -487h593l-154 487h740l-350 -488q154 -2 226 -98.5t32 -302.5l-39 -193h-119l39 193q34 175 -5 235.5t-160 60.5h-49l-7 -11l-96 -478h-119l97 483l-2 6h-56q-111 0 -181.5 -67.5 t-102.5 -228.5l-39 -193h-119zM1005 610l6 -1l254 367h-368z" />
<glyph unicode="&#x46e;" horiz-adv-x="862" d="M327 798h107q131 0 217.5 75t112.5 204q26 130 -24 202.5t-179 72.5h-247l21 104h247q159 0 247.5 -103t53.5 -280q-24 -118 -97 -203.5t-182 -125.5q100 -40 142.5 -129t17.5 -219q-41 -202 -168.5 -303.5t-301.5 -101.5h-48q-63 0 -102 -33.5t-50 -93.5 q-14 -70 16.5 -115.5t77.5 -70.5l-65 -89q-70 34 -114.5 108.5t-26.5 170.5q22 115 95.5 170.5t193.5 55.5h44q115 0 209 82.5t120 215.5q33 164 -25 232.5t-206 68.5h-107l16 81zM711 1718l159 168h108l-3 -17l-238 -226h-83l-143 226l3 17h106z" />
<glyph unicode="&#x46f;" horiz-adv-x="808" d="M485 1082q142 0 224.5 -78t56.5 -211q-18 -85 -74.5 -147.5t-142.5 -96.5q81 -32 117 -94.5t19 -150.5q-31 -155 -144.5 -234t-269.5 -79h-36q-63 0 -102 -33.5t-50 -93.5q-14 -70 16.5 -115.5t77.5 -70.5l-64 -89q-71 33 -115.5 108t-26.5 171q23 115 96 170.5t193 55.5 h32q100 0 178 57t97 149q21 107 -33 151.5t-183 44.5h-107l4 20l17 86h107q114 0 185.5 52t89.5 143q17 85 -28 132.5t-155 47.5h-234l21 105h234zM564 1388l159 168h108l-3 -17l-238 -226h-83l-143 226l3 17h106z" />
<glyph unicode="&#x470;" horiz-adv-x="1147" d="M630 465l6 -2q125 14 232 131t144 301l112 561h118l-112 -561q-52 -259 -191.5 -396t-332.5 -152l-69 -347h-117l69 348q-170 20 -255.5 165.5t-38.5 381.5l112 561h118l-112 -561q-41 -201 13 -311.5t180 -121.5l6 1l199 993h117z" />
<glyph unicode="&#x471;" horiz-adv-x="1144" d="M754 1081l-197 -982l6 -3q151 18 258 157.5t143 323.5q24 129 21.5 254.5t-25.5 250.5h126q22 -113 25 -231t-27 -273q-56 -272 -188.5 -426t-361.5 -171l-85 -425h-118l85 427q-179 23 -259.5 175t-23.5 434l98 490h119l-98 -492q-51 -252 0.5 -368t180.5 -125l6 1 l197 983h118z" />
<glyph unicode="&#x472;" horiz-adv-x="1121" d="M995 523q-57 -282 -198 -413t-351 -131q-189 0 -281.5 142t-39.5 402l81 408q56 282 194.5 414t343.5 132q191 0 287 -143.5t45 -402.5zM290 775h638l32 159q45 230 -16.5 332t-220.5 102q-142 0 -251 -111.5t-150 -322.5zM907 671h-638l-29 -148q-48 -233 11.5 -335 t215.5 -102q146 0 256.5 111t154.5 326z" />
<glyph unicode="&#x473;" horiz-adv-x="944" d="M117 620q35 219 158 350.5t298 131.5q166 0 251 -137t52 -345l-25 -159q-36 -221 -158.5 -351.5t-297.5 -130.5q-168 0 -252.5 136t-50.5 346zM411 83q118 0 206.5 109.5t114.5 268.5l4 30h-522l-4 -30q-27 -167 23.5 -272.5t177.5 -105.5zM231 596h522l4 24 q26 164 -25 270t-176 106q-120 0 -208 -109.5t-113 -266.5z" />
<glyph unicode="&#x474;" horiz-adv-x="1034" d="M422 262l4 -88l6 -1l41 89l415 944q66 147 131.5 208.5t151.5 61.5l28 -1l-23 -108h-8q-46 0 -87 -37.5t-88 -147.5l-545 -1182h-106l-102 1456h128z" />
<glyph unicode="&#x475;" horiz-adv-x="830" d="M341 273l2 -99l6 -1l43 100l254 590q57 125 118.5 181.5t128.5 56.5q21 0 42 -7t37 -20l-36 -96q-8 6 -18 10.5t-23 4.5q-33 0 -68 -32t-70 -117l-401 -844h-92l-84 1082h122z" />
<glyph unicode="&#x476;" horiz-adv-x="1034" d="M422 262l4 -88l6 -1l41 89l415 944q66 147 131.5 208.5t151.5 61.5l28 -1l-23 -108h-8q-46 0 -87 -37.5t-88 -147.5l-545 -1182h-106l-102 1456h128zM673 1588h-113l-186 266h148zM871 1588h-101l-142 266h136z" />
<glyph unicode="&#x477;" horiz-adv-x="830" d="M341 273l2 -99l6 -1l43 100l254 590q57 125 118.5 181.5t128.5 56.5q21 0 42 -7t37 -20l-36 -96q-8 6 -18 10.5t-23 4.5q-33 0 -68 -32t-70 -117l-401 -844h-92l-84 1082h122zM536 1292h-113l-186 266h148zM734 1292h-101l-142 266h136z" />
<glyph unicode="&#x478;" horiz-adv-x="1906" d="M1048 603q-61 -302 -204.5 -463t-351.5 -161q-191 0 -296 180.5t-50 452.5l48 239q60 303 200 464.5t344 161.5q195 0 303 -182t54 -453zM978 844q48 244 -24.5 384t-236.5 140q-141 0 -249.5 -141t-154.5 -374l-49 -241q-49 -246 20.5 -386t228.5 -140q146 0 257.5 141 t159.5 376zM1438 298l5 -104l6 -1l418 889h131l-618 -1255q-53 -107 -124 -185.5t-173 -78.5q-16 0 -42 5t-38 9l34 103q9 -2 31 -4.5t32 -2.5q54 0 103 58.5t87 139.5l72 144l-113 1067h131z" />
<glyph unicode="&#x479;" horiz-adv-x="1761" d="M117 620q35 219 158 350.5t298 131.5q166 0 251 -137t52 -345l-25 -159q-36 -221 -158.5 -351.5t-297.5 -130.5q-168 0 -252.5 136t-50.5 346zM210 461q-27 -167 23.5 -272.5t177.5 -105.5q118 0 206.5 109.5t114.5 268.5l25 159q26 164 -25 270t-176 106 q-120 0 -208 -109.5t-113 -266.5zM1293 298l5 -104l6 -1l418 889h131l-618 -1255q-53 -107 -124 -185.5t-173 -78.5q-16 0 -42 5t-38 9l34 103q9 -2 31 -4.5t32 -2.5q54 0 103 58.5t87 139.5l72 144l-113 1067h131z" />
<glyph unicode="&#x47a;" horiz-adv-x="1121" d="M1048 603q-61 -302 -205 -463q-129 -145 -311 -159l-25 -124h-119l26 130q-136 30 -218 172q-105 181 -50 453l48 239q60 303 200 464q131 151 318 161l24 117h119l-26 -128q131 -33 212 -170q108 -182 54 -453zM978 844q48 244 -25 384q-51 98 -146 127l-22 -110h-119 l24 121q-125 -12 -223 -139q-108 -141 -154 -374l-49 -241q-49 -246 20 -386q52 -104 152 -131l23 115h119l-25 -122q121 18 217 139q112 141 160 376z" />
<glyph unicode="&#x47b;" horiz-adv-x="935" d="M416 -132h-117l23 118q-115 24 -180 129q-84 136 -50 346l25 159q35 219 158 350q113 121 270 131l22 110h117l-24 -120q103 -28 164 -126q85 -137 52 -345l-25 -159q-36 -221 -159 -352q-107 -113 -254 -128zM210 461q-27 -167 23 -273q36 -75 110 -96l23 114h117 l-24 -118q88 18 158 104q89 110 115 269l25 159q26 164 -25 270q-32 66 -94 91l-21 -108h-117l24 121q-100 -13 -176 -108q-88 -109 -113 -266z" />
<glyph unicode="&#x47c;" horiz-adv-x="1448" d="M1199 1445l6 1q127 6 192.5 -110.5t23.5 -331.5l-115 -575q-48 -234 -152.5 -342t-247.5 -108q-86 0 -146.5 50t-81.5 146q-57 -101 -137 -148.5t-176 -47.5q-131 0 -196.5 117.5t-22.5 332.5l115 575q46 233 150 340.5t241 100.5l6 -2l-19 -93q-81 0 -155 -92t-106 -254 l-115 -575q-36 -177 -0.5 -261.5t123.5 -84.5t167 86t110 240l94 471h118l-94 -471q-34 -166 7.5 -246t138.5 -80q81 0 155 91t107 255l115 575q35 176 -0.5 261t-123.5 85zM1334 1686l-17 -87h-30q-92 0 -191.5 78t-141.5 78q-46 0 -84 -41t-50 -104l-4 -18h-85l7 31 q21 109 81 166t149 57q54 0 151.5 -80t186.5 -80h28zM870 1329l-44 47l71 121l28 140h126l-26 -133z" />
<glyph unicode="&#x47d;" horiz-adv-x="1295" d="M1023 1085h6q116 7 176 -102t20 -310l-55 -274q-44 -219 -140.5 -319.5t-227.5 -100.5q-77 0 -132 43.5t-75 128.5q-52 -89 -123.5 -130.5t-158.5 -41.5q-120 0 -179.5 109t-18.5 311l55 274q43 218 138 318.5t220 93.5l6 -2l-19 -94q-70 0 -134 -83.5t-93 -232.5 l-55 -274q-33 -163 -4.5 -239.5t105.5 -76.5t146.5 78.5t97.5 218.5l49 244h119l-49 -244q-31 -152 5 -224.5t121 -72.5q69 0 133.5 83t95.5 233l55 274q32 161 2.5 238.5t-105.5 77.5zM1204 1357l-17 -87h-29q-92 0 -191.5 77.5t-142.5 77.5q-46 0 -84 -41t-50 -103l-3 -18 h-85l6 30q21 110 81 167t150 57q54 0 151 -80t186 -80h28zM734 967l-44 47l71 121l28 140h126l-26 -133z" />
<glyph unicode="&#x47e;" horiz-adv-x="1457" d="M663 1696l17 83h616l-16 -83h-260l-23 -114h-109l23 114h-248zM1514 1456l-209 -1047q-45 -223 -152 -326.5t-253 -103.5q-83 0 -142.5 50.5t-77.5 147.5q-57 -102 -137.5 -150t-177.5 -48q-131 0 -198 112t-25 318l209 1047h117l-209 -1047q-34 -166 2.5 -246t124.5 -80 t167 86t110 240l209 1047h121l-209 -1047q-34 -166 5 -246t132 -80q84 0 160 86t107 240l209 1047h117z" />
<glyph unicode="&#x47f;" horiz-adv-x="1320" d="M541 1374l16 82h617l-14 -82h-263l-26 -130h-109l26 130h-247zM1315 1082l-140 -702q-43 -209 -141 -305t-233 -96q-74 0 -126.5 43t-71.5 128q-52 -89 -124 -130t-157 -41q-120 0 -181 104t-22 297l140 702h117l-140 -702q-31 -152 -0.5 -224.5t107.5 -72.5 q76 0 146 78.5t98 218.5l140 702h118l-140 -702q-31 -152 2.5 -224.5t114.5 -72.5q73 0 139.5 78.5t94.5 218.5l140 702h119z" />
<glyph unicode="&#x480;" horiz-adv-x="1063" d="M460 -366h-117l70 349q-161 22 -238 196.5t-25 428.5l47 239q59 294 210.5 462t348.5 168q178 0 272.5 -128t50.5 -348h-118q37 187 -22 278.5t-204 91.5q-134 0 -254.5 -149t-164.5 -373l-48 -241q-50 -247 7 -386t203 -139h72z" />
<glyph unicode="&#x481;" horiz-adv-x="882" d="M376 -366h-118l70 350q-136 24 -195.5 174.5t-16.5 361.5l8 42q50 248 176.5 394t300.5 146q131 0 206 -107.5t41 -280.5h-111q27 138 -18.5 210t-138.5 72q-114 0 -207 -128t-129 -306l-8 -42q-40 -199 -2 -318t164 -119h68z" />
<glyph unicode="&#x482;" horiz-adv-x="1023" d="M479 432l194 -172l-68 -96l-196 170l-211 -334h-118l257 398l-194 171l65 95l198 -171l246 393l-194 171l68 97l195 -171l227 359h116l-270 -422l196 -171l-69 -95l-194 170z" />
<glyph unicode="&#x483;" horiz-adv-x="28" d="M-395 1338l-25 -124l-109 1l42 203h414l20 108h107l-37 -188h-412z" />
<glyph unicode="&#x484;" horiz-adv-x="28" d="M-477 1397q89 0 218.5 80t183.5 80q88 0 126 -57.5t17 -166.5l-6 -30h-85l3 18q13 62 -8.5 103t-67.5 41q-44 0 -173.5 -77.5t-221.5 -77.5h-31l17 87h28z" />
<glyph unicode="&#x485;" horiz-adv-x="28" d="M-290 1500l26 132h125l-29 -140l24 -120l-60 -47z" />
<glyph unicode="&#x486;" horiz-adv-x="28" d="M-229 1325l-42 47l71 120l27 140h125l-26 -132z" />
<glyph unicode="&#x488;" horiz-adv-x="0" d="M-477 1267l-2 6q14 84 66.5 133t131.5 49q69 0 105.5 -53.5t20.5 -134.5h-87q9 46 -3.5 73.5t-52.5 27.5q-38 0 -63.5 -29.5t-34.5 -71.5h-81zM-67 990l-2 6q13 84 66 133t131 49q71 0 108 -53.5t21 -134.5h-89q9 46 -4.5 73.5t-53.5 27.5q-37 0 -62.5 -29.5t-33.5 -71.5 h-81zM-21 487l-2 6q13 84 66.5 133t130.5 49q72 0 108 -53t20 -135h-87q9 46 -4 73.5t-54 27.5q-36 0 -62 -29.5t-34 -71.5h-82zM-280 -32l-2 6q12 84 65.5 133t131.5 49q71 0 108 -53.5t21 -134.5h-87q8 46 -5 73.5t-54 27.5q-37 0 -63 -29.5t-33 -71.5h-82zM-789 -316 l-2 6q14 85 67 133.5t129 48.5q72 0 108.5 -53t19.5 -135h-86q9 47 -4 74t-55 27q-35 0 -61 -29.5t-34 -71.5h-82zM-985 990l-2 6q14 84 68 133t131 49q72 0 108.5 -53.5t19.5 -134.5h-87q10 46 -3.5 73.5t-55.5 27.5q-36 0 -61.5 -29.5t-34.5 -71.5h-83zM-1224 487l-2 6 q14 84 67.5 133t130.5 49q72 0 108 -53t19 -135h-87q10 46 -3 73.5t-54 27.5q-35 0 -61.5 -29.5t-35.5 -71.5h-82zM-1196 -32l-2 6q13 84 66.5 133t129.5 49q72 0 109.5 -53.5t20.5 -134.5h-89q9 47 -3.5 74t-54.5 27q-35 0 -61 -29.5t-34 -71.5h-82z" />
<glyph unicode="&#x489;" horiz-adv-x="0" d="M-505 -60l4 -14l-163 -339h-75l125 353h109zM-421 1126l-7 14l163 338h75l-125 -352h-106zM12 631l13 12l238 -124l-20 -98l-259 71zM-944 433l-12 -12l-238 124l20 98l257 -71zM-103 1002l6 16l283 153l39 -68q-33 -23 -271 -200zM-837 21l-4 -17l-285 -153l-40 69 l272 200zM-780 860l-13 2l-50 326l63 69l97 -299zM-162 161l13 -2l52 -325l-65 -71l-98 299z" />
<glyph unicode="&#x48a;" horiz-adv-x="1177" d="M1104 1456h118l-291 -1456h-118l240 1202l-5 2l-854 -1204h-118l291 1456h118l-241 -1203l5 -2zM1105 1855l2 -6q-16 -117 -91 -185t-188 -68q-108 0 -165 72t-38 187h100q-13 -79 14.5 -125t102.5 -46q68 0 112 48.5t57 122.5h94zM1030 -11l-154 -277h-75l110 280 l34 168h119z" />
<glyph unicode="&#x48b;" horiz-adv-x="947" d="M818 1082h119l-216 -1082h-119l168 842l-5 2l-592 -844h-118l216 1082h118l-169 -845l5 -2zM915 1512l2 -6q-16 -117 -91 -185t-188 -68q-108 0 -165 72t-38 187h100q-13 -79 14.5 -125t102.5 -46q68 0 112 48.5t57 122.5h94zM820 -11l-154 -277h-75l110 280l34 168h119z " />
<glyph unicode="&#x48c;" horiz-adv-x="1028" d="M627 1126h-219l-60 -302h286q171 0 254.5 -113.5t47.5 -296.5q-40 -200 -160.5 -307t-306.5 -107h-403l225 1126h-155l21 104h155l45 226h117l-45 -226h219zM327 719l-123 -615h286q124 0 211.5 90t114.5 222q27 138 -20.5 220.5t-182.5 82.5h-286z" />
<glyph unicode="&#x48d;" horiz-adv-x="898" d="M700 1350h-255l-128 -641h231q139 0 207 -100t37 -253q-34 -168 -134.5 -262t-251.5 -94h-349l270 1350h-153l21 106h153l36 179h118l-36 -179h255zM296 604l-100 -500h231q93 0 159.5 73t87.5 177q21 108 -13 179t-134 71h-231z" />
<glyph unicode="&#x48e;" horiz-adv-x="1054" d="M312 603l-120 -603h-118l291 1456h413q169 0 251.5 -119t45.5 -307q-42 -206 -162 -317q-3 -2 -6 -5l79 -149l-86 -70l-83 158q-92 -44 -209 -44h-296zM333 708h296q75 0 137 35l-65 126l86 69l65 -124q78 89 104 214q29 147 -18 234.5t-181 87.5h-295z" />
<glyph unicode="&#x48f;" horiz-adv-x="942" d="M850 490q-52 -258 -155 -385l-11 -13l55 -115l-86 -69l-54 113q-73 -42 -164 -42q-82 0 -145 37t-99 106l-107 -538h-118l299 1498h100l-15 -133q56 73 125.5 113t149.5 40q147 0 213 -168.5t16 -422.5zM734 511q43 217 2 350t-163 133q-75 0 -137.5 -56t-110.5 -146 l-109 -545q19 -77 71.5 -120.5t136.5 -43.5q69 0 126 42l-68 144l86 68l59 -125q68 105 103 278z" />
<glyph unicode="&#x490;" horiz-adv-x="915" d="M1034 1351h-2v-1h-579l-270 -1350h-118l291 1456h581l71 353h118z" />
<glyph unicode="&#x491;" horiz-adv-x="742" d="M781 977h-4v-2h-414l-195 -975h-119l216 1082h418l69 343h119z" />
<glyph unicode="&#x492;" horiz-adv-x="923" d="M580 706h-247l-141 -706h-118l141 706h-126l21 104h126l129 646h697l-21 -106h-579l-108 -540h247z" />
<glyph unicode="&#x493;" horiz-adv-x="707" d="M519 501h-246l-100 -501h-119l100 501h-126l21 104h126l95 477h533l-21 -107h-414l-74 -370h246z" />
<glyph unicode="&#x494;" horiz-adv-x="982" d="M1041 1350h-579l-105 -522h158q205 0 305.5 -146t44.5 -425q-49 -241 -172.5 -389t-295.5 -142l-5 2l17 90q117 0 208.5 126t129.5 313q45 232 -21 346.5t-233 114.5h-158l-143 -718h-118l291 1456h697z" />
<glyph unicode="&#x495;" horiz-adv-x="837" d="M777 975h-414l-70 -349h103q171 0 264 -119t49 -341q-26 -132 -125.5 -264.5t-254.5 -166.5l-6 2l-12 89q119 34 188 128t92 212q36 173 -25 262t-192 89h-103l-103 -517h-119l216 1082h533z" />
<glyph unicode="&#x496;" horiz-adv-x="1470" d="M972 694h-124l-138 -694h-118l138 694h-129l-504 -694h-149l568 756l-245 700h139l207 -658h134l132 658h118l-132 -658h133l469 658h138l-525 -700l265 -756h-148zM1319 -355h-119l96 481h119z" />
<glyph unicode="&#x497;" horiz-adv-x="1266" d="M809 498h-107l-99 -498h-118l99 498h-106l-382 -498h-142l-3 5l450 561l-205 516h144l160 -474h106l95 474h118l-95 -474h109l348 474h136l3 -5l-407 -512l229 -565h-149zM1090 -355h-119l96 481h119z" />
<glyph unicode="&#x498;" horiz-adv-x="988" d="M430 795h134q131 0 217.5 75.5t113.5 205.5q27 140 -26.5 217.5t-196.5 77.5q-106 0 -203 -84t-123 -212h-110l-2 6q33 188 163 292t296 104q174 0 266 -107t54 -298q-24 -116 -94.5 -202t-176.5 -128q97 -41 137.5 -129.5t15.5 -216.5q-42 -209 -176 -313t-325 -104 q-153 0 -255 110t-61 315h118q-30 -147 30.5 -234t188.5 -87q132 0 232.5 84.5t128.5 224.5q33 163 -25.5 230t-207.5 67h-134l4 19l13 66zM385 -429h-119l96 481h119z" />
<glyph unicode="&#x499;" horiz-adv-x="848" d="M327 605h136q94 0 152 50t76 140q19 94 -17.5 147t-138.5 53q-80 0 -152.5 -59t-89.5 -147h-109l-2 6q24 144 130.5 224t243.5 80q139 0 210.5 -80.5t43.5 -225.5q-18 -84 -68.5 -146.5t-127.5 -94.5q71 -32 101 -97.5t11 -157.5q-32 -157 -136.5 -236t-257.5 -79 q-127 0 -212 84.5t-51 238.5l3 5h110q-21 -102 27 -164t144 -62q95 0 164.5 58.5t88.5 152.5q22 113 -17.5 158t-146.5 45h-136l5 25l11 56zM308 -428h-119l96 481h119z" />
<glyph unicode="&#x49a;" horiz-adv-x="1062" d="M449 689h-137l-137 -689h-118l291 1456h118l-132 -658h148l519 658h145l3 -5l-597 -722l329 -729h-136zM912 -355h-119l96 481h119z" />
<glyph unicode="&#x49b;" horiz-adv-x="881" d="M390 493h-119l-98 -493h-118l216 1082h118l-96 -479h117l394 479h139l2 -5l-449 -516l272 -561h-152zM721 -355h-119l96 481h119z" />
<glyph unicode="&#x49c;" horiz-adv-x="1030" d="M1164 1456l-476 -700l227 -756h-148l-182 689h-66l-57 -284h-96l57 284h-102l-137 -689h-118l291 1456h118l-133 -663h102l56 281h96l-56 -281h72l413 663h139z" />
<glyph unicode="&#x49d;" horiz-adv-x="916" d="M992 1082l-378 -516l196 -566h-153l-145 493h-49l-47 -235h-97l47 235h-95l-98 -493h-119l216 1082h119l-96 -479h95l48 240h97l-48 -240h48l313 479h146z" />
<glyph unicode="&#x49e;" horiz-adv-x="1082" d="M469 689h-137l-137 -689h-118l235 1179h-151l21 104h151l35 173h118l-35 -173h222l-21 -104h-222l-76 -381h148l519 658h145l3 -5l-597 -722l329 -729h-136z" />
<glyph unicode="&#x49f;" horiz-adv-x="855" d="M400 525h-108l-105 -525h-117l248 1239h-147l21 104h146l44 217h117l-44 -217h228l-21 -104h-228l-121 -608h100l375 451h135l2 -5l-422 -488l250 -589h-141z" />
<glyph unicode="&#x4a0;" horiz-adv-x="1341" d="M743 689h-137l-137 -689h-118l270 1352h-363l21 104h481l-132 -658h148l519 658h145l3 -5l-597 -722l329 -729h-136z" />
<glyph unicode="&#x4a1;" horiz-adv-x="1115" d="M628 493h-119l-98 -493h-118l195 977h-320l21 105h438l-96 -479h117l394 479h139l-447 -521l272 -561h-152z" />
<glyph unicode="&#x4a2;" horiz-adv-x="1173" d="M927 0h-116l133 669h-617l-133 -669h-118l291 1456h118l-137 -683h617l137 683h116zM948 -355h-119l96 481h119z" />
<glyph unicode="&#x4a3;" horiz-adv-x="946" d="M721 0h-119l98 494h-429l-98 -494h-118l216 1082h118l-97 -484h429l97 484h119zM741 -355h-119l96 481h119z" />
<glyph unicode="&#x4a4;" horiz-adv-x="1633" d="M346 773h617l137 683h664l-21 -104h-547l-1 1l-270 -1353h-116l133 669h-617l-133 -669h-118l291 1456h118z" />
<glyph unicode="&#x4a5;" horiz-adv-x="1189" d="M286 598h429l97 484h437l-21 -105h-318l-195 -977h-119l98 494h-429l-98 -494h-118l216 1082h118z" />
<glyph unicode="&#x4a6;" horiz-adv-x="1679" d="M1091 835h116q205 0 305.5 -146t44.5 -425q-49 -241 -172.5 -389t-295.5 -142l-5 2l17 90q117 0 208.5 126t129.5 313q45 232 -21 346.5t-233 114.5h-116l-145 -725h-118l270 1350h-617l-270 -1350h-118l291 1456h853z" />
<glyph unicode="&#x4a7;" horiz-adv-x="1418" d="M840 626h132q176 0 272.5 -119t52.5 -341q-28 -139 -126.5 -268t-255.5 -163l-6 2l-11 89q119 34 187 127.5t93 212.5q35 173 -29 262t-199 89h-132l-103 -517h-119l194 975h-429l-194 -975h-118l216 1082h666z" />
<glyph unicode="&#x4a8;" horiz-adv-x="1228" d="M1053 -26q-77 0 -146.5 18t-127.5 53q-64 -33 -133.5 -49.5t-141.5 -16.5q-205 0 -304.5 201.5t-40.5 496.5l41 203q54 273 183 433.5t286 153.5l6 -2l-18 -97q-102 0 -200.5 -143t-138.5 -343l-41 -205q-55 -273 11.5 -432t236.5 -159q40 0 79.5 8.5t78.5 26.5 q-96 96 -132.5 240.5t-1.5 315.5l51 255q49 248 164 392t260 144q133 0 195 -152.5t16 -383.5l-53 -267q-37 -185 -115 -325t-188 -228q41 -16 90 -24t105 -8zM668 675q-35 -172 -8.5 -298.5t111.5 -194.5l6 -1q101 71 177.5 199.5t108.5 284.5l54 268q39 201 9.5 313.5 t-122.5 107.5l-6 1q-82 4 -162.5 -119t-115.5 -303z" />
<glyph unicode="&#x4a9;" horiz-adv-x="994" d="M846 -12q-72 0 -133 13.5t-110 41.5q-50 -32 -101.5 -48t-102.5 -16q-174 0 -248.5 154.5t-21.5 417.5l15 76q40 201 146.5 336.5t213.5 128.5l6 -3l-19 -95q-69 0 -132 -99t-96 -266l-16 -78q-40 -198 9 -331.5t164 -133.5q26 0 51.5 4.5t50.5 14.5q-71 74 -94 189.5 t8 264.5l21 106q37 189 132.5 313t199.5 124q111 0 152.5 -124t0.5 -334l-21 -104q-25 -121 -80 -227t-131 -183q33 -18 72.5 -26.5t84.5 -8.5zM803 540l21 107q29 145 13 244.5t-68 93.5l-5 1q-58 5 -107 -80t-80 -239l-22 -110q-25 -120 -3 -215t82 -150l6 -1 q55 53 97 143t66 206z" />
<glyph unicode="&#x4aa;" horiz-adv-x="1019" d="M962 446l2 -6q-59 -223 -177 -342t-301 -119q-184 0 -287 182t-49 451l48 239q60 299 197 462.5t331 163.5q179 0 280.5 -130t73.5 -351h-117q17 178 -47.5 276.5t-204.5 98.5q-132 0 -240.5 -144.5t-153.5 -373.5l-49 -241q-49 -243 18 -386t216 -143q126 0 210.5 88.5 t140.5 274.5h109zM417 -429h-119l96 481h119z" />
<glyph unicode="&#x4ab;" horiz-adv-x="872" d="M404 83q86 0 165.5 67.5t98.5 186.5h103l2 -6q-22 -157 -135.5 -254.5t-249.5 -97.5q-171 0 -249.5 135.5t-44.5 341.5l27 168q34 216 150.5 347t296.5 131q139 0 219 -107t52 -281h-111q21 134 -30 208t-147 74q-127 0 -207 -107t-105 -265l-27 -168q-28 -169 15 -271 t177 -102zM343 -429h-119l96 481h119z" />
<glyph unicode="&#x4ac;" horiz-adv-x="981" d="M1119 1350h-386l-270 -1350h-117l270 1350h-385l21 106h888zM484 -355h-119l96 481h119z" />
<glyph unicode="&#x4ad;" horiz-adv-x="808" d="M869 977h-299l-195 -977h-120l195 977h-290l21 105h709zM395 -355h-119l96 481h119z" />
<glyph unicode="&#x4ae;" horiz-adv-x="1017" d="M558 692l6 -1l484 765h135l-596 -924l-107 -532h-117l108 541l-226 915h136z" />
<glyph unicode="&#x4af;" horiz-adv-x="827" d="M794 1082h121l-517 -1040l-91 -457h-117l92 457l-102 1040h122l61 -809l2 -100l6 -1l43 101z" />
<glyph unicode="&#x4b0;" horiz-adv-x="1017" d="M558 692l6 -1l484 765h135l-523 -810h128l-21 -104h-174l-7 -10l-106 -532h-117l108 542h-195l21 104h148l-200 810h136z" />
<glyph unicode="&#x4b1;" horiz-adv-x="827" d="M578 -4h-189l-82 -411h-117l82 411h-185l21 104h168l-96 982h122l61 -809l2 -100l6 -1l43 101l380 809h121l-488 -982h172z" />
<glyph unicode="&#x4b2;" horiz-adv-x="1030" d="M579 843l6 -1l397 614h142l-490 -718l269 -738h-141l-209 632l-6 1l-412 -633h-143l505 738l-261 718h142zM846 -355h-119l96 481h119z" />
<glyph unicode="&#x4b3;" horiz-adv-x="827" d="M441 649l6 -1l279 434h138l-369 -532l207 -550h-137l-148 451l-6 1l-291 -452h-138l384 550l-200 532h137zM666 -355h-119l96 481h119z" />
<glyph unicode="&#x4b4;" horiz-adv-x="1452" d="M542 1351h-309l21 104h750l-21 -104h-323l-249 -1247h616l270 1352h118l-270 -1350h115l-102 -457h-106l70 351h-850z" />
<glyph unicode="&#x4b5;" horiz-adv-x="1096" d="M374 978h-225l20 104h559l-20 -104h-216l-174 -874h429l195 978h119l-195 -978h94l-96 -425h-106l64 321h-643z" />
<glyph unicode="&#x4b6;" horiz-adv-x="1117" d="M1163 1456l-291 -1456h-118l132 659q-88 -29 -162.5 -43t-162.5 -14q-178 0 -259.5 107t-34.5 341l81 406h118l-81 -406q-40 -198 8.5 -270.5t188.5 -72.5q74 0 156.5 14.5t168.5 42.5l138 692h118zM893 -355h-119l96 481h119z" />
<glyph unicode="&#x4b7;" horiz-adv-x="896" d="M670 0h-118l89 445q-56 -22 -111.5 -34t-109.5 -12q-153 0 -221.5 96t-25.5 311l55 276h119l-55 -276q-36 -179 0.5 -240.5t148.5 -61.5q55 1 110.5 13.5t110.5 33.5l106 531h118zM690 -355h-119l96 481h119z" />
<glyph unicode="&#x4b8;" horiz-adv-x="1112" d="M1163 1456l-291 -1456h-118l132 659q-88 -29 -163 -43q-31 -6 -65 -10l-49 -248h-98l48 244q-177 0 -258 107t-34 341l81 406h118l-81 -406q-40 -198 8 -271q48 -72 187 -72l69 343h98l-68 -338q29 4 59 9q83 15 169 43l138 692h118z" />
<glyph unicode="&#x4b9;" horiz-adv-x="919" d="M698 0h-118l89 445q-56 -22 -112 -34q-19 -4 -39 -7l-33 -168h-98l32 164q-131 8 -193 95q-68 96 -25 311l55 276h119l-55 -276q-36 -179 0 -241q32 -53 120 -60l59 292h98l-58 -287q20 3 40 7q56 13 111 34l106 531h118z" />
<glyph unicode="&#x4ba;" horiz-adv-x="1112" d="M194 0l291 1456h118l-132 -659q87 28 161.5 42.5t163.5 14.5q177 0 258.5 -107.5t35.5 -340.5l-81 -406h-118l81 406q39 197 -9.5 270t-187.5 73q-75 0 -157.5 -15t-167.5 -42l-138 -692h-118z" />
<glyph unicode="&#x4bb;" d="M353 932l5 -3q55 83 131.5 128t165.5 45q128 0 184 -107.5t13 -326.5l-134 -668h-119l134 670q37 186 2 255t-132 69q-79 0 -153 -60t-128 -158l-155 -776h-118l312 1560h118z" />
<glyph unicode="&#x4bc;" horiz-adv-x="1262" d="M692 -23q-212 0 -311 168.5t-45 435.5l31 153q-112 18 -160.5 108t-19.5 235h97q-22 -109 2 -169t96 -68l6 1l4 19q56 285 209 450t338 165q190 0 273.5 -174t25.5 -464l-21 -106h-734l-30 -150q-48 -235 13.5 -367.5t246.5 -132.5q87 0 168 33t145 85l17 -91 q-55 -53 -143 -92t-208 -39zM502 826h614l8 41q47 238 -1 370t-205 132q-133 0 -250 -148t-159 -361z" />
<glyph unicode="&#x4bd;" horiz-adv-x="984" d="M489 -21q-161 0 -249 132.5t-55 334.5l18 116q-77 27 -108 104.5t-8 193.5h98q-16 -75 -7 -123.5t43 -71.5q42 197 164.5 317t265.5 120q157 0 230 -122.5t41 -325.5l-19 -119h-588l-14 -89q-26 -162 28 -262.5t176 -100.5q81 0 150 31.5t120 87.5l35 -85 q-57 -64 -136.5 -101t-184.5 -37zM634 996q-101 0 -187.5 -103t-109.5 -249l2 -5h462l8 46q21 139 -23.5 225t-151.5 86z" />
<glyph unicode="&#x4be;" horiz-adv-x="1262" d="M692 -23q-212 0 -311 168.5t-45 435.5l31 153q-112 18 -160.5 108t-19.5 235h97q-22 -109 2 -169t96 -68l6 1l4 19q56 285 209 450t338 165q190 0 273.5 -174t25.5 -464l-21 -106h-734l-30 -150q-48 -235 13.5 -367.5t246.5 -132.5q87 0 168 33t145 85l17 -91 q-55 -53 -143 -92t-208 -39zM502 826h614l8 41q47 238 -1 370t-205 132q-133 0 -250 -148t-159 -361zM647 -443h-119l96 481h119z" />
<glyph unicode="&#x4bf;" horiz-adv-x="984" d="M489 -21q-161 0 -249 132.5t-55 334.5l18 116q-77 27 -108 104.5t-8 193.5h98q-16 -75 -7 -123.5t43 -71.5q42 197 164.5 317t265.5 120q157 0 230 -122.5t41 -325.5l-19 -119h-588l-14 -89q-26 -162 28 -262.5t176 -100.5q81 0 150 31.5t120 87.5l35 -85 q-57 -64 -136.5 -101t-184.5 -37zM634 996q-101 0 -187.5 -103t-109.5 -249l2 -5h462l8 46q21 139 -23.5 225t-151.5 86zM459 -420h-119l96 481h119z" />
<glyph unicode="&#x4c0;" horiz-adv-x="473" d="M210 0h-119l291 1456h119z" />
<glyph unicode="&#x4c1;" horiz-adv-x="1470" d="M972 694h-124l-138 -694h-118l138 694h-129l-504 -694h-149l568 756l-245 700h139l207 -658h134l132 658h118l-132 -658h133l469 658h138l-525 -700l265 -756h-148zM1246 1855l2 -6q-16 -117 -91 -185t-188 -68q-108 0 -165 72t-38 187h100q-13 -79 14.5 -125t102.5 -46 q68 0 112 48.5t57 122.5h94z" />
<glyph unicode="&#x4c2;" horiz-adv-x="1266" d="M809 498h-107l-99 -498h-118l99 498h-106l-382 -498h-142l-3 5l450 561l-205 516h144l160 -474h106l95 474h118l-95 -474h109l348 474h136l3 -5l-407 -512l229 -565h-149zM1097 1512l2 -6q-16 -117 -91 -185t-188 -68q-108 0 -165 72t-38 187h100q-13 -79 14.5 -125 t102.5 -46q68 0 112 48.5t57 122.5h94z" />
<glyph unicode="&#x4c3;" horiz-adv-x="1030" d="M184 0h-118l291 1456h118l-131 -655h125l556 655h132l2 -5l-566 -651q197 -6 291.5 -151t40.5 -419q-48 -239 -171 -387.5t-295 -142.5l-6 2l17 89q118 0 209.5 126.5t128.5 312.5q45 232 -21 347t-232 115h-233z" />
<glyph unicode="&#x4c4;" horiz-adv-x="892" d="M508 598q147 -22 220.5 -133t34.5 -309q-28 -136 -125.5 -261t-254.5 -158l-6 2l-10 89q118 33 186 123t92 205q35 172 -29.5 255t-199.5 83h-3l-1 -1h-141l-98 -493h-119l216 1082h119l-96 -479h91l419 479h139l2 -5z" />
<glyph unicode="&#x4c5;" horiz-adv-x="1166" d="M1213 1456l-291 -1456h-118l270 1350h-464l-120 -554q-93 -430 -202.5 -613t-288.5 -183h-35l21 104h30q108 0 190 152t167 540l143 660h698zM1020 -11l-154 -277h-75l110 280l34 168h119z" />
<glyph unicode="&#x4c6;" horiz-adv-x="949" d="M939 1082l-216 -1082h-119l194 975h-333l-73 -371q-68 -338 -154.5 -471t-238.5 -133h-38l24 110l31 1q80 0 142 112t116 381l95 478h570zM821 -11l-154 -277h-75l110 280l34 168h119z" />
<glyph unicode="&#x4c7;" horiz-adv-x="1172" d="M483 1456l-136 -683h617l136 683h118l-309 -1545q-36 -178 -116.5 -263t-199.5 -85q-22 0 -43.5 5t-41.5 14l32 102q9 -5 34 -10t40 -5q56 0 105.5 65t71.5 177l152 758h-617l-134 -669h-118l291 1456h118z" />
<glyph unicode="&#x4c8;" d="M383 1082l-96 -484h429l96 484h118l-234 -1171q-36 -178 -116.5 -263t-198.5 -85q-22 0 -43.5 5t-41.5 14l32 102q9 -5 34 -10t40 -5q57 0 105 65t71 177l117 583h-429l-99 -494h-118l216 1082h118z" />
<glyph unicode="&#x4c9;" horiz-adv-x="1173" d="M927 0h-116l133 669h-617l-133 -669h-118l291 1456h118l-137 -683h617l137 683h116zM1026 -11l-154 -277h-75l110 280l34 168h119z" />
<glyph unicode="&#x4ca;" horiz-adv-x="946" d="M721 0h-119l98 494h-429l-98 -494h-118l216 1082h118l-97 -484h429l97 484h119zM819 -11l-154 -277h-75l110 280l34 168h119z" />
<glyph unicode="&#x4cb;" horiz-adv-x="1117" d="M1163 1456l-291 -1456h-118l132 659q-88 -29 -162.5 -43t-162.5 -14q-178 0 -259.5 107t-34.5 341l81 406h118l-81 -406q-40 -198 8.5 -270.5t188.5 -72.5q74 0 156.5 14.5t168.5 42.5l138 692h118zM710 -355h-119l96 481h119z" />
<glyph unicode="&#x4cc;" horiz-adv-x="896" d="M670 0h-118l89 445q-56 -22 -111.5 -34t-109.5 -12q-153 0 -221.5 96t-25.5 311l55 276h119l-55 -276q-36 -179 0.5 -240.5t148.5 -61.5q55 1 110.5 13.5t110.5 33.5l106 531h118zM508 -355h-119l96 481h119z" />
<glyph unicode="&#x4cd;" horiz-adv-x="1383" d="M512 1456l126 -1273l6 -1l637 1274h152l-291 -1456h-117l128 639l128 584l-6 2l-631 -1225h-78l-141 1223h-6l-105 -584l-128 -639h-116l291 1456h151zM1240 -11l-154 -277h-75l110 280l34 168h119z" />
<glyph unicode="&#x4ce;" horiz-adv-x="1217" d="M559 175l6 -1l494 908h148l-216 -1082h-119l164 822l-5 2l-463 -824h-82l-136 843h-6l-168 -843h-118l216 1082h154zM1089 -11l-154 -277h-75l110 280l34 168h119z" />
<glyph unicode="&#x4cf;" horiz-adv-x="473" d="M210 0h-119l291 1456h119z" />
<glyph unicode="&#x4d0;" horiz-adv-x="1057" d="M776 404h-502l-199 -404h-121l730 1456h106l143 -1456h-121zM328 514h438l-66 741l-6 1zM1062 1855l2 -6q-16 -117 -91 -185t-188 -68q-108 0 -165 72t-38 187h100q-13 -79 14.5 -125t102.5 -46q68 0 112 48.5t57 122.5h94z" />
<glyph unicode="&#x4d1;" horiz-adv-x="905" d="M583 0q2 53 5.5 89.5t10.5 74.5q-61 -80 -146 -132.5t-176 -52.5q-120 0 -176.5 85.5t-28.5 223.5q31 160 148 245t292 85h177l27 133q24 122 -17 183.5t-141 61.5q-85 0 -159.5 -62.5t-91.5 -151.5l-108 1l-2 6q21 130 130.5 221.5t257.5 91.5q134 0 208 -93t41 -260 l-106 -531q-13 -60 -18.5 -112t-3.5 -106h-123zM313 87q88 0 175.5 59t136.5 147l46 232h-181q-108 0 -195 -70.5t-106 -170.5q-19 -92 13 -144.5t111 -52.5zM894 1533l2 -6q-16 -117 -91 -185t-188 -68q-108 0 -165 72t-38 187h100q-13 -79 14.5 -125t102.5 -46 q68 0 112 48.5t57 122.5h94z" />
<glyph unicode="&#x4d2;" horiz-adv-x="1057" d="M776 404h-502l-199 -404h-121l730 1456h106l143 -1456h-121zM328 514h438l-66 741l-6 1zM1067 1638h-156l26 160h156zM677 1638h-157l26 160h157z" />
<glyph unicode="&#x4d3;" horiz-adv-x="905" d="M583 0q2 53 5.5 89.5t10.5 74.5q-61 -80 -146 -132.5t-176 -52.5q-120 0 -176.5 85.5t-28.5 223.5q31 160 148 245t292 85h177l27 133q24 122 -17 183.5t-141 61.5q-85 0 -159.5 -62.5t-91.5 -151.5l-108 1l-2 6q21 130 130.5 221.5t257.5 91.5q134 0 208 -93t41 -260 l-106 -531q-13 -60 -18.5 -112t-3.5 -106h-123zM313 87q88 0 175.5 59t136.5 147l46 232h-181q-108 0 -195 -70.5t-106 -170.5q-19 -92 13 -144.5t111 -52.5zM899 1316h-156l26 160h156zM509 1316h-157l26 160h157z" />
<glyph unicode="&#x4d4;" horiz-adv-x="1516" d="M1387 0h-669l65 387h-452l-256 -387h-144l986 1456h713l-21 -106h-547l-90 -540h464l-21 -104h-460l-101 -602h554zM407 503h395l135 806l-4 -11z" />
<glyph unicode="&#x4d5;" horiz-adv-x="1394" d="M921 -21q-101 0 -172.5 54.5t-103.5 153.5q-58 -86 -158 -147t-228 -61q-125 0 -185.5 86t-31.5 229q33 168 138.5 253t278.5 85h197l18 88q28 140 -4 208t-123 68t-164 -67t-92 -165l-106 13l-2 6q25 147 129.5 233t255.5 86q86 0 147 -47.5t81 -135.5q66 88 149 135.5 t172 47.5q152 0 221 -126.5t26 -339.5l-20 -101h-583l-5 -25q-41 -202 3 -314.5t183 -112.5q77 0 147.5 33t128.5 85l25 -90q-48 -52 -129.5 -92t-192.5 -40zM301 82q66 0 149 50t128 109l58 292h-195q-104 0 -182.5 -71.5t-98.5 -171.5q-21 -103 14 -155.5t127 -52.5z M1096 996q-95 0 -180.5 -101.5t-126.5 -253.5l2 -5h455l6 31q31 154 -5.5 241.5t-150.5 87.5z" />
<glyph unicode="&#x4d6;" horiz-adv-x="964" d="M878 703h-544l-119 -599h624l-21 -104h-742l291 1456h736l-21 -106h-618l-109 -543h543zM1018 1855l2 -6q-16 -117 -91 -185t-188 -68q-108 0 -165 72t-38 187h100q-13 -79 14.5 -125t102.5 -46q68 0 112 48.5t57 122.5h94z" />
<glyph unicode="&#x4d7;" horiz-adv-x="869" d="M395 -21q-161 0 -249 132.5t-55 334.5l29 180q34 213 160 344.5t277 131.5q157 0 230 -122.5t41 -325.5l-19 -119h-588l-14 -89q-26 -162 28 -262.5t176 -100.5q81 0 150 31.5t120 87.5l35 -85q-57 -64 -136.5 -101t-184.5 -37zM540 996q-101 0 -187.5 -103t-109.5 -249 l2 -5h462l8 46q21 139 -23.5 225t-151.5 86zM867 1534l2 -6q-16 -117 -91 -185t-188 -68q-108 0 -165 72t-38 187h100q-13 -79 14.5 -125t102.5 -46q68 0 112 48.5t57 122.5h94z" />
<glyph unicode="&#x4d8;" horiz-adv-x="1152" d="M748 1477q221 0 326 -184.5t48 -471.5l-33 -167q-64 -315 -229 -495t-363 -180q-216 0 -315.5 173t-41.5 463l23 117h822l18 89q51 258 -14 404t-262 146q-92 0 -178 -33.5t-150 -84.5l-16 91q56 53 147 93t218 40zM518 83q143 0 269.5 159t174.5 390l-3 5h-696l-10 -52 q-48 -238 14.5 -370t250.5 -132z" />
<glyph unicode="&#x4d9;" horiz-adv-x="869" d="M548 1102q156 0 237.5 -152t36.5 -379l-11 -54q-50 -249 -183.5 -393t-285.5 -143q-153 0 -222 126t-27 335l21 103h584l6 26q38 194 -8 310.5t-168 116.5q-79 0 -150 -32.5t-123 -87.5l-32 86q58 62 139 100t186 38zM363 84q87 0 175 101t131 251l-2 5h-458l-6 -29 q-30 -151 10.5 -239.5t149.5 -88.5z" />
<glyph unicode="&#x4da;" horiz-adv-x="1152" d="M748 1477q221 0 326 -184.5t48 -471.5l-33 -167q-64 -315 -229 -495t-363 -180q-216 0 -315.5 173t-41.5 463l23 117h822l18 89q51 258 -14 404t-262 146q-92 0 -178 -33.5t-150 -84.5l-16 91q56 53 147 93t218 40zM518 83q143 0 269.5 159t174.5 390l-3 5h-696l-10 -52 q-48 -238 14.5 -370t250.5 -132zM1034 1659h-156l26 160h156zM644 1659h-157l26 160h157z" />
<glyph unicode="&#x4db;" horiz-adv-x="869" d="M548 1102q156 0 237.5 -152t36.5 -379l-11 -54q-50 -249 -183.5 -393t-285.5 -143q-153 0 -222 126t-27 335l21 103h584l6 26q38 194 -8 310.5t-168 116.5q-79 0 -150 -32.5t-123 -87.5l-32 86q58 62 139 100t186 38zM363 84q87 0 175 101t131 251l-2 5h-458l-6 -29 q-30 -151 10.5 -239.5t149.5 -88.5zM775 1316h-156l26 160h156zM385 1316h-157l26 160h157z" />
<glyph unicode="&#x4dc;" horiz-adv-x="1470" d="M972 694h-124l-138 -694h-118l138 694h-129l-504 -694h-149l568 756l-245 700h139l207 -658h134l132 658h118l-132 -658h133l469 658h138l-525 -700l265 -756h-148zM1251 1638h-156l26 160h156zM861 1638h-157l26 160h157z" />
<glyph unicode="&#x4dd;" horiz-adv-x="1266" d="M809 498h-107l-99 -498h-118l99 498h-106l-382 -498h-142l-3 5l450 561l-205 516h144l160 -474h106l95 474h118l-95 -474h109l348 474h136l3 -5l-407 -512l229 -565h-149zM1102 1296h-156l26 160h156zM712 1296h-157l26 160h157z" />
<glyph unicode="&#x4de;" horiz-adv-x="988" d="M430 795h134q131 0 217.5 75.5t113.5 205.5q27 140 -26.5 217.5t-196.5 77.5q-106 0 -203 -84t-123 -212h-110l-2 6q33 188 163 292t296 104q174 0 266 -107t54 -298q-24 -116 -94.5 -202t-176.5 -128q97 -41 137.5 -129.5t15.5 -216.5q-42 -209 -176 -313t-325 -104 q-153 0 -255 110t-61 315h118q-30 -147 30.5 -234t188.5 -87q132 0 232.5 84.5t128.5 224.5q33 163 -25.5 230t-207.5 67h-134l4 19l13 66zM1018 1659h-156l26 160h156zM628 1659h-157l26 160h157z" />
<glyph unicode="&#x4df;" horiz-adv-x="848" d="M327 605h136q94 0 152 50t76 140q19 94 -17.5 147t-138.5 53q-80 0 -152.5 -59t-89.5 -147h-109l-2 6q24 144 130.5 224t243.5 80q139 0 210.5 -80.5t43.5 -225.5q-18 -84 -68.5 -146.5t-127.5 -94.5q71 -32 101 -97.5t11 -157.5q-32 -157 -136.5 -236t-257.5 -79 q-127 0 -212 84.5t-51 238.5l3 5h110q-21 -102 27 -164t144 -62q95 0 164.5 58.5t88.5 152.5q22 113 -17.5 158t-146.5 45h-136l5 25l11 56zM872 1316h-156l26 160h156zM482 1316h-157l26 160h157z" />
<glyph unicode="&#x4e0;" horiz-adv-x="962" d="M432 842l425 503l-2 5h-541l21 106h686l-18 -94l-457 -526q170 -4 250 -119.5t39 -320.5q-42 -209 -165 -313t-293 -104q-140 0 -231 110t-50 315h120q-30 -147 20 -234t162 -87t201 85t117 224q38 191 -12.5 268.5t-187.5 77.5h-104l19 99z" />
<glyph unicode="&#x4e1;" horiz-adv-x="962" d="M356 462l1 6l416 502l-3 5h-531l21 107h686l-17 -94l-450 -527q163 -9 242 -125t39 -315q-42 -205 -165 -310.5t-293 -105.5q-140 0 -230.5 111t-50.5 313h120q-30 -145 20 -231.5t162 -86.5t201.5 85t116.5 221q38 191 -16 268.5t-193 77.5h-96l7 37l1 7l11 55h1z" />
<glyph unicode="&#x4e2;" horiz-adv-x="1177" d="M1104 1456h118l-291 -1456h-118l240 1202l-5 2l-854 -1204h-118l291 1456h118l-241 -1203l5 -2zM1129 1686h-570l16 100h570z" />
<glyph unicode="&#x4e3;" horiz-adv-x="947" d="M818 1082h119l-216 -1082h-119l168 842l-5 2l-592 -844h-118l216 1082h118l-169 -845l5 -2zM939 1345h-570l16 100h570z" />
<glyph unicode="&#x4e4;" horiz-adv-x="1177" d="M1104 1456h118l-291 -1456h-118l240 1202l-5 2l-854 -1204h-118l291 1456h118l-241 -1203l5 -2zM1110 1638h-156l26 160h156zM720 1638h-157l26 160h157z" />
<glyph unicode="&#x4e5;" horiz-adv-x="947" d="M818 1082h119l-216 -1082h-119l168 842l-5 2l-592 -844h-118l216 1082h118l-169 -845l5 -2zM920 1296h-156l26 160h156zM530 1296h-157l26 160h157z" />
<glyph unicode="&#x4e6;" horiz-adv-x="1079" d="M1048 603q-61 -302 -204.5 -463t-351.5 -161q-191 0 -296 180.5t-50 452.5l48 239q60 303 200 464.5t344 161.5q195 0 303 -182t54 -453zM978 844q48 244 -24.5 384t-236.5 140q-141 0 -249.5 -141t-154.5 -374l-49 -241q-49 -246 20.5 -386t228.5 -140q146 0 257.5 141 t159.5 376zM1060 1659h-156l26 160h156zM670 1659h-157l26 160h157z" />
<glyph unicode="&#x4e7;" d="M117 620q35 219 158 350.5t298 131.5q166 0 251 -137t52 -345l-25 -159q-36 -221 -158.5 -351.5t-297.5 -130.5q-168 0 -252.5 136t-50.5 346zM210 461q-27 -167 23.5 -272.5t177.5 -105.5q118 0 206.5 109.5t114.5 268.5l25 159q26 164 -25 270t-176 106 q-120 0 -208 -109.5t-113 -266.5zM888 1316h-156l26 160h156zM498 1316h-157l26 160h157z" />
<glyph unicode="&#x4e8;" horiz-adv-x="1121" d="M995 523q-57 -282 -198 -413t-351 -131q-189 0 -281.5 142t-39.5 402l81 408q56 282 194.5 414t343.5 132q191 0 287 -143.5t45 -402.5zM290 775h638l32 159q45 230 -16.5 332t-220.5 102q-142 0 -251 -111.5t-150 -322.5zM907 671h-638l-29 -148q-48 -233 11.5 -335 t215.5 -102q146 0 256.5 111t154.5 326z" />
<glyph unicode="&#x4e9;" horiz-adv-x="944" d="M117 620q35 219 158 350.5t298 131.5q166 0 251 -137t52 -345l-25 -159q-36 -221 -158.5 -351.5t-297.5 -130.5q-168 0 -252.5 136t-50.5 346zM411 83q118 0 206.5 109.5t114.5 268.5l4 30h-522l-4 -30q-27 -167 23.5 -272.5t177.5 -105.5zM231 596h522l4 24 q26 164 -25 270t-176 106q-120 0 -208 -109.5t-113 -266.5z" />
<glyph unicode="&#x4ea;" horiz-adv-x="1121" d="M995 523q-57 -282 -198 -413t-351 -131q-189 0 -281.5 142t-39.5 402l81 408q56 282 194.5 414t343.5 132q191 0 287 -143.5t45 -402.5zM290 775h638l32 159q45 230 -16.5 332t-220.5 102q-142 0 -251 -111.5t-150 -322.5zM907 671h-638l-29 -148q-48 -233 11.5 -335 t215.5 -102q146 0 256.5 111t154.5 326zM1095 1659h-156l26 160h156zM705 1659h-157l26 160h157z" />
<glyph unicode="&#x4eb;" horiz-adv-x="944" d="M117 620q35 219 158 350.5t298 131.5q166 0 251 -137t52 -345l-25 -159q-36 -221 -158.5 -351.5t-297.5 -130.5q-168 0 -252.5 136t-50.5 346zM411 83q118 0 206.5 109.5t114.5 268.5l4 30h-522l-4 -30q-27 -167 23.5 -272.5t177.5 -105.5zM231 596h522l4 24 q26 164 -25 270t-176 106q-120 0 -208 -109.5t-113 -266.5zM915 1316h-156l26 160h156zM525 1316h-157l26 160h157z" />
<glyph unicode="&#x4ec;" horiz-adv-x="1105" d="M268 1000l-2 6q42 228 179 350t331 122q180 0 270 -179.5t36 -450.5l-48 -239q-60 -296 -211 -462.5t-347 -166.5q-180 0 -275 127t-50 348h119q-38 -188 21.5 -279.5t205.5 -91.5q133 0 253 148.5t165 374.5l19 97h-471l21 104h472l8 40q49 245 -8 384.5t-202 139.5 q-134 0 -237 -97.5t-138 -274.5h-111zM1081 1659h-156l26 160h156zM691 1659h-157l26 160h157z" />
<glyph unicode="&#x4ed;" horiz-adv-x="893" d="M536 996q-80 0 -159 -68t-102 -185h-106l-2 6q28 160 142.5 256.5t247.5 96.5q159 0 232.5 -156t27.5 -384l-8 -42q-51 -251 -176.5 -396t-298.5 -145q-133 0 -208.5 107t-40.5 280h114q-28 -139 17 -211t139 -72q109 0 199.5 119t127.5 287l-3 5h-349l21 105h356 q30 180 -11.5 288.5t-159.5 108.5zM897 1316h-156l26 160h156zM507 1316h-157l26 160h157z" />
<glyph unicode="&#x4ee;" horiz-adv-x="1042" d="M532 665l23 -128l6 -1l488 920h138l-666 -1208q-75 -127 -145 -198t-185 -71q-18 0 -43 3.5t-32 7.5l26 99q8 -3 30.5 -4.5t39.5 -1.5q59 0 107 51.5t96 140.5l59 104l-200 1077h134zM1058 1686h-570l16 100h570z" />
<glyph unicode="&#x4ef;" horiz-adv-x="827" d="M359 298l5 -104l6 -1l418 889h131l-618 -1255q-53 -107 -124 -185.5t-173 -78.5q-16 0 -42 5t-38 9l34 103q9 -2 31 -4.5t32 -2.5q54 0 103 58.5t87 139.5l72 144l-113 1067h131zM886 1345h-570l16 100h570z" />
<glyph unicode="&#x4f0;" horiz-adv-x="1042" d="M532 665l23 -128l6 -1l488 920h138l-666 -1208q-75 -127 -145 -198t-185 -71q-18 0 -43 3.5t-32 7.5l26 99q8 -3 30.5 -4.5t39.5 -1.5q59 0 107 51.5t96 140.5l59 104l-200 1077h134zM1039 1638h-156l26 160h156zM649 1638h-157l26 160h157z" />
<glyph unicode="&#x4f1;" horiz-adv-x="827" d="M359 298l5 -104l6 -1l418 889h131l-618 -1255q-53 -107 -124 -185.5t-173 -78.5q-16 0 -42 5t-38 9l34 103q9 -2 31 -4.5t32 -2.5q54 0 103 58.5t87 139.5l72 144l-113 1067h131zM867 1296h-156l26 160h156zM477 1296h-157l26 160h157z" />
<glyph unicode="&#x4f2;" horiz-adv-x="1042" d="M532 665l23 -128l6 -1l488 920h138l-666 -1208q-75 -127 -145 -198t-185 -71q-18 0 -43 3.5t-32 7.5l26 99q8 -3 30.5 -4.5t39.5 -1.5q59 0 107 51.5t96 140.5l59 104l-200 1077h134zM1042 1867h139l2 -6l-288 -260h-105l-3 6zM800 1867h127l3 -6l-245 -260h-94l-3 5z " />
<glyph unicode="&#x4f3;" horiz-adv-x="827" d="M359 298l5 -104l6 -1l418 889h131l-618 -1255q-53 -107 -124 -185.5t-173 -78.5q-16 0 -42 5t-38 9l34 103q9 -2 31 -4.5t32 -2.5q54 0 103 58.5t87 139.5l72 144l-113 1067h131zM870 1524h139l2 -6l-288 -260h-105l-3 6zM628 1524h127l3 -6l-245 -260h-94l-3 5z" />
<glyph unicode="&#x4f4;" horiz-adv-x="1117" d="M1163 1456l-291 -1456h-118l132 659q-88 -29 -162.5 -43t-162.5 -14q-178 0 -259.5 107t-34.5 341l81 406h118l-81 -406q-40 -198 8.5 -270.5t188.5 -72.5q74 0 156.5 14.5t168.5 42.5l138 692h118zM1073 1638h-156l26 160h156zM683 1638h-157l26 160h157z" />
<glyph unicode="&#x4f5;" horiz-adv-x="896" d="M670 0h-118l89 445q-56 -22 -111.5 -34t-109.5 -12q-153 0 -221.5 96t-25.5 311l55 276h119l-55 -276q-36 -179 0.5 -240.5t148.5 -61.5q55 1 110.5 13.5t110.5 33.5l106 531h118zM870 1296h-156l26 160h156zM480 1296h-157l26 160h157z" />
<glyph unicode="&#x4f6;" horiz-adv-x="923" d="M1041 1350h-579l-270 -1350h-118l291 1456h697zM213 -355h-119l96 481h119z" />
<glyph unicode="&#x4f7;" horiz-adv-x="707" d="M782 975h-414l-195 -975h-119l216 1082h533zM175 -355h-119l96 481h119z" />
<glyph unicode="&#x4f8;" horiz-adv-x="1399" d="M357 824h286q171 0 254.5 -113.5t47.5 -296.5q-40 -200 -160.5 -307t-306.5 -107h-403l291 1456h117zM336 719l-123 -615h286q124 0 211.5 90t114.5 222q27 138 -20.5 220.5t-182.5 82.5h-286zM1152 0h-119l291 1456h119zM1230 1638h-156l26 160h156zM840 1638h-157 l26 160h157z" />
<glyph unicode="&#x4f9;" horiz-adv-x="1261" d="M314 690h232q139 0 207.5 -97.5t38.5 -245.5q-33 -164 -133 -255.5t-251 -91.5h-350l216 1082h118zM293 585l-96 -481h232q92 0 157.5 70t86.5 170q20 105 -14.5 173t-133.5 68h-232zM1019 0h-118l216 1082h118zM1088 1296h-156l26 160h156zM698 1296h-157l26 160h157z " />
<glyph unicode="&#x4fa;" horiz-adv-x="963" d="M1080 1350h-579l-270 -1350h-118l291 1456h697zM604 752h-491l21 104h491zM362 135l-45 -224q-36 -178 -115.5 -263t-198.5 -85q-21 0 -41.5 5t-42.5 14l33 107q11 -5 35 -10.5t38 -5.5q58 0 105.5 63.5t69.5 174.5l45 224h117z" />
<glyph unicode="&#x4fb;" horiz-adv-x="692" d="M828 975h-414l-195 -975h-119l216 1082h533zM567 563h-491l21 104h491zM350 135l-45 -224q-36 -178 -115.5 -263t-198.5 -85q-21 0 -41.5 5t-42.5 14l33 107q11 -5 35 -10.5t38 -5.5q58 0 105.5 63.5t69.5 174.5l45 224h117z" />
<glyph unicode="&#x4fc;" horiz-adv-x="1030" d="M579 843l6 -1l397 614h142l-490 -718l269 -738h-141l-209 632l-6 1l-412 -633h-143l505 738l-261 718h142zM968 135l-45 -224q-36 -178 -115.5 -263t-198.5 -85q-21 0 -41.5 5t-42.5 14l33 107q11 -5 35 -10.5t38 -5.5q58 0 105.5 63.5t69.5 174.5l45 224h117z" />
<glyph unicode="&#x4fd;" horiz-adv-x="827" d="M441 649l6 -1l279 434h138l-369 -532l207 -550h-137l-148 451l-6 1l-291 -452h-138l384 550l-200 532h137zM788 135l-45 -224q-36 -178 -115.5 -263t-198.5 -85q-21 0 -41.5 5t-42.5 14l33 107q11 -5 35 -10.5t38 -5.5q58 0 105.5 63.5t69.5 174.5l45 224h117z" />
<glyph unicode="&#x4fe;" horiz-adv-x="1030" d="M805 694h-155l253 -694h-141l-209 632l-6 1l-412 -633h-143l475 694h-153l21 104h140l-239 658h142l201 -613l6 -1l397 614h142l-449 -658h151z" />
<glyph unicode="&#x4ff;" horiz-adv-x="827" d="M661 503h-149l190 -503h-137l-148 451l-6 1l-291 -452h-138l351 503h-163l21 104h153l-178 475h137l138 -433l6 -1l279 434h138l-330 -475h148z" />
<glyph unicode="&#x500;" horiz-adv-x="989" d="M830 844l122 612h119l-291 -1456h-404q-171 0 -254 119.5t-45 304.5q40 200 160.5 310t307.5 110h285zM682 104l127 635h-285q-124 0 -213.5 -92.5t-114.5 -220.5q-29 -145 18.5 -233.5t182.5 -88.5h285z" />
<glyph unicode="&#x501;" d="M122 551q55 277 160.5 414t264.5 137q80 0 141.5 -41t94.5 -115l123 614h118l-312 -1560h-104l17 126q-55 -71 -124 -109t-149 -38q-144 0 -212.5 157.5t-21.5 393.5zM238 530q-41 -206 -0.5 -325t162.5 -119q75 0 137.5 51.5t112.5 141.5l106 530q-18 81 -68.5 133 t-135.5 52q-111 0 -190.5 -120t-119.5 -323z" />
<glyph unicode="&#x502;" horiz-adv-x="1320" d="M376 0q-171 0 -254 119.5t-45 304.5q40 200 160.5 310t307.5 110h285l122 612h119l-271 -1354l85 1q91 1 157 80t96 219q18 81 23.5 170t-1.5 173h113q5 -106 3 -186.5t-19 -156.5q-42 -195 -152.5 -298.5t-240.5 -103.5h-488zM682 104l127 635h-285q-124 0 -213.5 -92.5 t-114.5 -220.5q-29 -145 18.5 -233.5t182.5 -88.5h285z" />
<glyph unicode="&#x503;" horiz-adv-x="1418" d="M118 531q55 276 170 423.5t274 147.5q75 0 129.5 -40t84.5 -113l122 611h119l-243 -1215q-27 -126 -1 -194t95 -68q114 1 200.5 119.5t131.5 326.5q19 96 26 197t4 205l115 1q1 -124 -3.5 -217.5t-23.5 -185.5q-57 -267 -186.5 -408.5t-284.5 -141.5q-90 -2 -141.5 43 t-60.5 142q-60 -89 -137.5 -137t-170.5 -48q-145 0 -207.5 147t-15.5 384zM750 822q-17 78 -61 125t-121 47q-112 0 -201 -131t-129 -332l-4 -21q-42 -207 -7 -315.5t157 -108.5q76 0 142.5 48t118.5 132q1 20 3.5 39.5t6.5 39.5z" />
<glyph unicode="&#x504;" horiz-adv-x="1306" d="M559 306l15 74q28 142 -12.5 217.5t-143.5 75.5h-151l21 105h122q130 0 214.5 75t113.5 222q27 139 -23 207t-192 68h-283l21 106h283q177 0 263 -100t50 -283q-27 -134 -99 -223.5t-181 -129.5q84 -37 111.5 -125.5t3.5 -212.5l-15 -78q-21 -99 4.5 -160t87.5 -61 q104 1 189.5 128t127.5 318q19 97 26 198.5t2 204.5h116q1 -132 -3.5 -222t-23.5 -181q-53 -251 -181.5 -400.5t-273.5 -149.5q-120 -3 -169.5 75.5t-19.5 249.5v2z" />
<glyph unicode="&#x505;" horiz-adv-x="1069" d="M544 214q-15 -66 -0.5 -100.5t67.5 -34.5q94 2 164 91t104 249q16 77 19 159t-8 160h118q6 -107 5 -178t-16 -141q-46 -215 -160 -328.5t-247 -113.5q-104 -3 -144.5 52.5t-19.5 184.5l16 80q18 92 -19 136.5t-126 44.5h-167l19 102h155q91 0 156 53t82 138 q19 99 -23 155.5t-145 56.5h-207l15 102h212q146 0 221 -85t47 -226q-18 -89 -69.5 -148.5t-134.5 -92.5q69 -28 94 -89t8 -146l-16 -82v1z" />
<glyph unicode="&#x506;" horiz-adv-x="892" d="M692 -14l-154 -277h-75l110 280l2 10h-39q-23 37 -21.5 101t16.5 136l27 133q28 141 -19 214.5t-158 73.5h-171l21 105h129q135 0 223.5 81t114.5 211q30 153 -19.5 225t-187.5 72h-220l21 104h220q175 0 258.5 -104.5t45.5 -297.5q-26 -125 -96.5 -213.5t-176.5 -129.5 q94 -35 126 -123.5t8 -215.5l-27 -137q-9 -42 -12 -77h88z" />
<glyph unicode="&#x507;" horiz-adv-x="840" d="M663 -8l-154 -277h-75l110 280l1 5h-47q-17 24 -13.5 73.5t14.5 99.5l19 96q19 98 -17.5 147.5t-126.5 49.5h-196l20 104h173q101 0 164.5 52t82.5 148q21 106 -17 157t-148 51h-236l21 104h235q146 0 219.5 -81.5t45.5 -227.5q-20 -96 -71.5 -158t-135.5 -93 q72 -29 97 -94.5t8 -157.5l-20 -98l-2 -9h83z" />
<glyph unicode="&#x508;" horiz-adv-x="1591" d="M1059 1350h-419l-116 -582q-85 -422 -198 -595t-303 -173h-42l21 104h34q118 0 209 158.5t161 505.5l137 688h655l-222 -1111q-27 -136 -1.5 -199t97.5 -63q113 1 199 119.5t131 326.5q20 96 27 197t4 205l115 1q1 -124 -3.5 -217.5t-22.5 -185.5q-57 -267 -187.5 -408.5 t-283.5 -141.5q-125 -3 -175 85.5t-18 280.5z" />
<glyph unicode="&#x509;" horiz-adv-x="1329" d="M777 975h-292l-70 -353q-68 -336 -158 -479t-239 -143h-46l24 110l35 1q81 0 147.5 124.5t118.5 386.5l92 460h529l-147 -737q-26 -127 -2 -194.5t91 -67.5q97 1 169.5 102t111.5 279q19 89 25 184t2 197l114 1q3 -125 -0.5 -211t-21.5 -171q-51 -236 -167 -360.5 t-254 -124.5q-122 -3 -171 85.5t-16 280.5z" />
<glyph unicode="&#x50a;" horiz-adv-x="1619" d="M1181 1456l-222 -1111q-26 -127 0 -194.5t95 -67.5q115 1 201 119.5t131 326.5q19 95 25.5 196t3.5 206l116 1q1 -136 -3.5 -224.5t-23.5 -178.5q-57 -267 -187 -408.5t-284 -141.5q-124 -3 -174.5 85.5t-18.5 280.5l64 322h-580l-133 -667h-118l291 1456h118l-137 -684 h580l137 684h119z" />
<glyph unicode="&#x50b;" horiz-adv-x="1364" d="M691 489h-430l-97 -489h-119l216 1082h119l-98 -490h430l98 490h118l-147 -737q-26 -127 -2 -194.5t91 -67.5q97 1 170 102t112 279q19 89 24.5 184.5t1.5 196.5l114 1q3 -121 0 -208.5t-21 -173.5q-51 -236 -167.5 -360.5t-254.5 -124.5q-122 -3 -170.5 85.5 t-15.5 280.5z" />
<glyph unicode="&#x50c;" horiz-adv-x="1028" d="M474 -21q-186 0 -281 177.5t-43 440.5l53 262q57 285 212 451.5t358 166.5q80 0 146.5 -20t110.5 -57l-58 -97q-46 33 -100 50.5t-120 17.5q-140 0 -264 -149t-166 -361l-53 -264q-47 -234 13 -374t213 -140q122 1 206.5 91.5t119.5 250.5q18 83 25.5 172.5t7.5 188.5 h116q-5 -145 -9.5 -213.5t-20.5 -147.5q-46 -215 -177 -330.5t-289 -115.5z" />
<glyph unicode="&#x50d;" horiz-adv-x="856" d="M412 83q93 1 144.5 58.5t74.5 159.5q12 63 19.5 121.5t10.5 114.5h115q-4 -74 -9.5 -129t-16.5 -107q-35 -159 -131.5 -240.5t-227.5 -81.5q-164 0 -240 159.5t-31 381.5l8 42q48 240 174 390t297 150q69 0 122.5 -16.5t82.5 -46.5l-50 -98q-31 26 -76 40.5t-100 14.5 q-113 0 -206 -132t-127 -302l-8 -42q-38 -187 3.5 -312t171.5 -125z" />
<glyph unicode="&#x50e;" horiz-adv-x="1172" d="M619 1350h-393l21 106h909l-21 -106h-398l-201 -1005q-27 -136 -1.5 -199t96.5 -63q115 1 201 119.5t131 326.5q20 98 27 199.5t2 202.5l116 1q2 -119 -3 -214.5t-25 -188.5q-56 -267 -186 -408.5t-284 -141.5q-124 -3 -174.5 85.5t-17.5 280.5z" />
<glyph unicode="&#x50f;" horiz-adv-x="1061" d="M473 978h-295l20 104h716l-20 -104h-302l-126 -633q-26 -127 -0.5 -194.5t94.5 -67.5q97 1 168.5 94.5t107.5 258.5q17 83 22 172.5t-1 180.5h115q4 -120 1.5 -197.5t-19.5 -155.5q-48 -222 -162.5 -339.5t-252.5 -117.5q-124 -3 -174.5 85.5t-17.5 280.5z" />
<glyph unicode="&#x510;" horiz-adv-x="1105" d="M773 689h-146q-151 0 -252.5 -73.5t-131.5 -223.5q-30 -152 40 -230.5t230 -78.5q129 0 239 92.5t138 228.5h109l2 -6q-40 -219 -183.5 -319t-325.5 -100q-188 0 -296.5 112.5t-69.5 304.5q28 143 106.5 230.5t206.5 122.5q-94 46 -137.5 132.5t-22.5 190.5 q42 207 175 306t337 99q164 0 267 -111.5t64 -285.5l-2 -5h-112q28 139 -40.5 217.5t-197.5 78.5q-146 0 -246.5 -83t-126.5 -212q-28 -141 31.5 -211t219.5 -70h146l-4 -21l-13 -66z" />
<glyph unicode="&#x511;" horiz-adv-x="903" d="M614 523l-4 -22h-153q-106 0 -177 -51.5t-92 -154.5q-21 -100 29.5 -155.5t163.5 -55.5q98 0 180.5 66t101.5 160h109l2 -6q-30 -167 -148 -244.5t-266 -77.5t-234 85.5t-57 229.5q21 104 79 168.5t152 92.5q-68 34 -99.5 97t-15.5 138q31 156 134.5 231t264.5 75 q134 0 219 -86t55 -219l-2 -5h-111q18 96 -34 151t-148 55q-102 0 -172.5 -57.5t-87.5 -142.5q-20 -97 21.5 -144.5t153.5 -47.5h153l-16 -80h-1z" />
<glyph unicode="&#x512;" horiz-adv-x="1166" d="M1213 1456l-291 -1456h-118l270 1350h-464l-120 -554q-93 -430 -202.5 -613t-288.5 -183h-35l21 104h30q108 0 190 152t167 540l143 660h698zM1064 135l-45 -224q-36 -178 -115.5 -263t-198.5 -85q-21 0 -41.5 5t-42.5 14l33 107q11 -5 35 -10.5t38 -5.5q58 0 105.5 63.5 t69.5 174.5l45 224h117z" />
<glyph unicode="&#x513;" horiz-adv-x="949" d="M939 1082l-216 -1082h-119l194 975h-333l-73 -371q-68 -338 -154.5 -471t-238.5 -133h-38l24 110l31 1q80 0 142 112t116 381l95 478h570zM865 135l-45 -224q-36 -178 -115.5 -263t-198.5 -85q-21 0 -41.5 5t-42.5 14l33 107q11 -5 35 -10.5t38 -5.5q58 0 105.5 63.5 t69.5 174.5l45 224h117z" />
<glyph unicode="&#x1e00;" horiz-adv-x="1057" d="M776 404h-502l-199 -404h-121l730 1456h106l143 -1456h-121zM328 514h438l-66 741l-6 1zM296 -223q11 61 53 98t93 37q45 0 72.5 -39.5t16.5 -95.5q-13 -59 -53 -94.5t-89 -35.5q-47 0 -75.5 37.5t-17.5 92.5zM358 -223q-6 -27 7 -44.5t37 -17.5q21 0 41 18t26 44 q5 30 -7 47.5t-34 17.5t-43.5 -19t-26.5 -46z" />
<glyph unicode="&#x1e01;" horiz-adv-x="905" d="M583 0q2 53 5.5 89.5t10.5 74.5q-61 -80 -146 -132.5t-176 -52.5q-120 0 -176.5 85.5t-28.5 223.5q31 160 148 245t292 85h177l27 133q24 122 -17 183.5t-141 61.5q-85 0 -159.5 -62.5t-91.5 -151.5l-108 1l-2 6q21 130 130.5 221.5t257.5 91.5q134 0 208 -93t41 -260 l-106 -531q-13 -60 -18.5 -112t-3.5 -106h-123zM313 87q88 0 175.5 59t136.5 147l46 232h-181q-108 0 -195 -70.5t-106 -170.5q-19 -92 13 -144.5t111 -52.5zM160 -223q11 61 53 98t93 37q45 0 72.5 -39.5t16.5 -95.5q-13 -59 -53 -94.5t-89 -35.5q-47 0 -75.5 37.5 t-17.5 92.5zM222 -223q-6 -27 7 -44.5t37 -17.5q21 0 41 18t26 44q5 30 -7 47.5t-34 17.5t-43.5 -19t-26.5 -46z" />
<glyph unicode="&#x1e3e;" horiz-adv-x="1383" d="M512 1456l126 -1273l6 -1l637 1274h152l-291 -1456h-117l128 639l128 584l-6 2l-631 -1225h-78l-141 1223h-6l-105 -584l-128 -639h-116l291 1456h151zM1064 1823h142l3 -6l-253 -260h-100z" />
<glyph unicode="&#x1e3f;" horiz-adv-x="1452" d="M345 926q58 86 133.5 131t168.5 45q85 0 138 -57t63 -170q59 108 141 167.5t183 59.5q126 0 181.5 -117.5t8.5 -352.5l-126 -632h-119l127 634q42 213 8 287t-132 74q-94 0 -172 -98.5t-117 -239.5q-1 -2 -1 -3v-3l-130 -651h-118l127 633q41 208 6 284.5t-131 76.5 q-85 0 -152 -61.5t-114 -164.5l-154 -768h-117l216 1082h104zM1043 1501h142l3 -6l-253 -260h-100z" />
<glyph unicode="&#x1e80;" horiz-adv-x="1467" d="M370 417l-2 -192l6 -1l69 193l396 1039h108l66 -1039l5 -194l6 -1l63 195l359 1039h119l-521 -1456h-109l-67 1111l-5 130l-6 1l-45 -131l-428 -1111h-108l-54 1456h118zM972 1561h-109l-165 266h155z" />
<glyph unicode="&#x1e81;" horiz-adv-x="1250" d="M316 353l-5 -164l5 -1l66 165l323 729h98l31 -729l-1 -172l6 -1l66 173l292 729h120l-465 -1082h-97l-33 735l-3 170l-6 1l-69 -171l-324 -735h-98l-31 1082h118zM845 1218h-109l-165 266h155z" />
<glyph unicode="&#x1e82;" horiz-adv-x="1467" d="M370 417l-2 -192l6 -1l69 193l396 1039h108l66 -1039l5 -194l6 -1l63 195l359 1039h119l-521 -1456h-109l-67 1111l-5 130l-6 1l-45 -131l-428 -1111h-108l-54 1456h118zM1052 1823h142l3 -6l-253 -260h-100z" />
<glyph unicode="&#x1e83;" horiz-adv-x="1250" d="M316 353l-5 -164l5 -1l66 165l323 729h98l31 -729l-1 -172l6 -1l66 173l292 729h120l-465 -1082h-97l-33 735l-3 170l-6 1l-69 -171l-324 -735h-98l-31 1082h118zM925 1480h142l3 -6l-253 -260h-100z" />
<glyph unicode="&#x1e84;" horiz-adv-x="1467" d="M370 417l-2 -192l6 -1l69 193l396 1039h108l66 -1039l5 -194l6 -1l63 195l359 1039h119l-521 -1456h-109l-67 1111l-5 130l-6 1l-45 -131l-428 -1111h-108l-54 1456h118zM1198 1638h-156l26 160h156zM808 1638h-157l26 160h157z" />
<glyph unicode="&#x1e85;" horiz-adv-x="1250" d="M316 353l-5 -164l5 -1l66 165l323 729h98l31 -729l-1 -172l6 -1l66 173l292 729h120l-465 -1082h-97l-33 735l-3 170l-6 1l-69 -171l-324 -735h-98l-31 1082h118zM1071 1296h-156l26 160h156zM681 1296h-157l26 160h157z" />
<glyph unicode="&#x1ea0;" horiz-adv-x="1057" d="M776 404h-502l-199 -404h-121l730 1456h106l143 -1456h-121zM328 514h438l-66 741l-6 1zM470 -316h-139l34 170h139z" />
<glyph unicode="&#x1ea1;" horiz-adv-x="905" d="M583 0q2 53 5.5 89.5t10.5 74.5q-61 -80 -146 -132.5t-176 -52.5q-120 0 -176.5 85.5t-28.5 223.5q31 160 148 245t292 85h177l27 133q24 122 -17 183.5t-141 61.5q-85 0 -159.5 -62.5t-91.5 -151.5l-108 1l-2 6q21 130 130.5 221.5t257.5 91.5q134 0 208 -93t41 -260 l-106 -531q-13 -60 -18.5 -112t-3.5 -106h-123zM313 87q88 0 175.5 59t136.5 147l46 232h-181q-108 0 -195 -70.5t-106 -170.5q-19 -92 13 -144.5t111 -52.5zM334 -316h-139l34 170h139z" />
<glyph unicode="&#x1ea2;" horiz-adv-x="1057" d="M776 404h-502l-199 -404h-121l730 1456h106l143 -1456h-121zM328 514h438l-66 741l-6 1zM741 1584l24 126q70 7 101 26t41 68q10 48 -28.5 70.5t-99.5 22.5l22 79q114 0 166 -44.5t34 -129.5q-13 -73 -57.5 -110.5t-104.5 -45.5l-12 -62h-86z" />
<glyph unicode="&#x1ea3;" horiz-adv-x="905" d="M583 0q2 53 5.5 89.5t10.5 74.5q-61 -80 -146 -132.5t-176 -52.5q-120 0 -176.5 85.5t-28.5 223.5q31 160 148 245t292 85h177l27 133q24 122 -17 183.5t-141 61.5q-85 0 -159.5 -62.5t-91.5 -151.5l-108 1l-2 6q21 130 130.5 221.5t257.5 91.5q134 0 208 -93t41 -260 l-106 -531q-13 -60 -18.5 -112t-3.5 -106h-123zM313 87q88 0 175.5 59t136.5 147l46 232h-181q-108 0 -195 -70.5t-106 -170.5q-19 -92 13 -144.5t111 -52.5zM573 1262l24 126q70 7 101 26t41 68q10 48 -28.5 70.5t-99.5 22.5l22 79q114 0 166 -44.5t34 -129.5 q-13 -73 -57.5 -110.5t-104.5 -45.5l-12 -62h-86z" />
<glyph unicode="&#x1ea4;" horiz-adv-x="1057" d="M776 404h-502l-199 -404h-121l730 1456h106l143 -1456h-121zM328 514h438l-66 741l-6 1zM1187 1969h124l2 -5l-192 -227h-94zM1050 1586h-115l-120 186l-194 -186h-108l-2 6l253 237h125z" />
<glyph unicode="&#x1ea5;" horiz-adv-x="905" d="M583 0q2 53 5.5 89.5t10.5 74.5q-61 -80 -146 -132.5t-176 -52.5q-120 0 -176.5 85.5t-28.5 223.5q31 160 148 245t292 85h177l27 133q24 122 -17 183.5t-141 61.5q-85 0 -159.5 -62.5t-91.5 -151.5l-108 1l-2 6q21 130 130.5 221.5t257.5 91.5q134 0 208 -93t41 -260 l-106 -531q-13 -60 -18.5 -112t-3.5 -106h-123zM313 87q88 0 175.5 59t136.5 147l46 232h-181q-108 0 -195 -70.5t-106 -170.5q-19 -92 13 -144.5t111 -52.5zM1019 1647h124l2 -5l-192 -227h-94zM882 1264h-115l-120 186l-194 -186h-108l-2 6l253 237h125z" />
<glyph unicode="&#x1ea6;" horiz-adv-x="1057" d="M776 404h-502l-199 -404h-121l730 1456h106l143 -1456h-121zM328 514h438l-66 741l-6 1zM589 1728h-93l-104 232h129zM1050 1577h-115l-120 186l-194 -186h-108l-2 6l253 237h125z" />
<glyph unicode="&#x1ea7;" horiz-adv-x="905" d="M583 0q2 53 5.5 89.5t10.5 74.5q-61 -80 -146 -132.5t-176 -52.5q-120 0 -176.5 85.5t-28.5 223.5q31 160 148 245t292 85h177l27 133q24 122 -17 183.5t-141 61.5q-85 0 -159.5 -62.5t-91.5 -151.5l-108 1l-2 6q21 130 130.5 221.5t257.5 91.5q134 0 208 -93t41 -260 l-106 -531q-13 -60 -18.5 -112t-3.5 -106h-123zM313 87q88 0 175.5 59t136.5 147l46 232h-181q-108 0 -195 -70.5t-106 -170.5q-19 -92 13 -144.5t111 -52.5zM421 1406h-93l-104 232h129zM882 1255h-115l-120 186l-194 -186h-108l-2 6l253 237h125z" />
<glyph unicode="&#x1ea8;" horiz-adv-x="1057" d="M776 404h-502l-199 -404h-121l730 1456h106l143 -1456h-121zM328 514h438l-66 741l-6 1zM1049 1577h-115l-120 186l-194 -186h-108l-2 6l253 237h125zM1058 1703l21 114q60 4 85 17.5t33 53.5q7 40 -24.5 58t-81.5 18l19 75q97 0 141.5 -38t30.5 -110 q-13 -63 -50.5 -95.5t-87.5 -39.5l-11 -53h-75z" />
<glyph unicode="&#x1ea9;" horiz-adv-x="905" d="M583 0q2 53 5.5 89.5t10.5 74.5q-61 -80 -146 -132.5t-176 -52.5q-120 0 -176.5 85.5t-28.5 223.5q31 160 148 245t292 85h177l27 133q24 122 -17 183.5t-141 61.5q-85 0 -159.5 -62.5t-91.5 -151.5l-108 1l-2 6q21 130 130.5 221.5t257.5 91.5q134 0 208 -93t41 -260 l-106 -531q-13 -60 -18.5 -112t-3.5 -106h-123zM313 87q88 0 175.5 59t136.5 147l46 232h-181q-108 0 -195 -70.5t-106 -170.5q-19 -92 13 -144.5t111 -52.5zM881 1255h-115l-120 186l-194 -186h-108l-2 6l253 237h125zM890 1381l21 114q60 4 85 17.5t33 53.5q7 40 -24.5 58 t-81.5 18l19 75q97 0 141.5 -38t30.5 -110q-13 -63 -50.5 -95.5t-87.5 -39.5l-11 -53h-75z" />
<glyph unicode="&#x1eaa;" horiz-adv-x="1057" d="M776 404h-502l-199 -404h-121l730 1456h106l143 -1456h-121zM328 514h438l-66 741l-6 1zM1074 2024q-15 -70 -58.5 -114t-94.5 -44q-38 0 -76 44t-70 44q-24 0 -50.5 -31.5t-34.5 -71.5l-52 14q14 69 59 118.5t94 49.5q32 0 73 -43.5t73 -43.5q24 0 50 27t34 67z M1047 1562h-115l-120 186l-194 -186h-108l-2 6l253 237h125z" />
<glyph unicode="&#x1eab;" horiz-adv-x="905" d="M583 0q2 53 5.5 89.5t10.5 74.5q-61 -80 -146 -132.5t-176 -52.5q-120 0 -176.5 85.5t-28.5 223.5q31 160 148 245t292 85h177l27 133q24 122 -17 183.5t-141 61.5q-85 0 -159.5 -62.5t-91.5 -151.5l-108 1l-2 6q21 130 130.5 221.5t257.5 91.5q134 0 208 -93t41 -260 l-106 -531q-13 -60 -18.5 -112t-3.5 -106h-123zM313 87q88 0 175.5 59t136.5 147l46 232h-181q-108 0 -195 -70.5t-106 -170.5q-19 -92 13 -144.5t111 -52.5zM906 1704q-15 -70 -58.5 -114t-94.5 -44q-38 0 -76 44t-70 44q-24 0 -50.5 -31.5t-34.5 -71.5l-52 14 q14 69 59 118.5t94 49.5q32 0 73 -43.5t73 -43.5q24 0 50 27t34 67zM879 1242h-115l-120 186l-194 -186h-108l-2 6l253 237h125z" />
<glyph unicode="&#x1eac;" horiz-adv-x="1057" d="M776 404h-502l-199 -404h-121l730 1456h106l143 -1456h-121zM328 514h438l-66 741l-6 1zM1018 1620l-4 -19h-104l-92 166l-159 -166h-101l5 21l229 222h83zM470 -316h-139l34 170h139z" />
</font>
</defs>
</svg>
