<?xml version="1.0" standalone="no"?>
<!DOCTYPE svg PUBLIC "-//W3C//DTD SVG 1.1//EN" "http://www.w3.org/Graphics/SVG/1.1/DTD/svg11.dtd" >
<svg xmlns="http://www.w3.org/2000/svg">
<metadata></metadata>
<defs>
<font id="roboto_condensedlight" horiz-adv-x="969" >
<font-face units-per-em="2048" ascent="1638" descent="-410" />
<missing-glyph horiz-adv-x="434" />
<glyph unicode="fi" horiz-adv-x="941" d="M190 0v981h-147v101h147v136q0 173 82 268t227 95q56 0 113 -15.5t118 -44.5l-20 -105q-46 24 -94.5 38t-107.5 14q-101 0 -149.5 -63.5t-48.5 -186.5v-136h199v-101h-199v-981h-120zM793 0h-121v1082h121v-1082z" />
<glyph horiz-adv-x="18" />
<glyph unicode="&#x9;" horiz-adv-x="18" />
<glyph unicode=" "  horiz-adv-x="434" />
<glyph unicode="&#x09;" horiz-adv-x="434" />
<glyph unicode="&#xa0;" horiz-adv-x="434" />
<glyph unicode="!" horiz-adv-x="421" d="M269 478h-119v978h119v-978zM277 0h-133v168h133v-168z" />
<glyph unicode="&#x22;" horiz-adv-x="549" d="M217 1341l-36 -261h-68l2 254v226h102v-219zM442 1341l-36 -261h-68l2 258v222h102v-219z" />
<glyph unicode="#" horiz-adv-x="1072" d="M613 410h-244l-65 -410h-97l65 410h-207v96h222l68 435h-227v99h243l66 416h97l-66 -416h245l66 416h96l-66 -416h181v-99h-197l-69 -435h205v-96h-220l-65 -410h-96zM384 506h244l69 435h-245z" />
<glyph unicode="$" horiz-adv-x="964" d="M742 359q0 110 -57 179.5t-200 133.5q-172 66 -255 159t-83 262q0 160 81.5 262t221.5 119v203h101v-203q143 -19 222 -134.5t79 -313.5h-120q0 151 -61.5 246t-171.5 95q-114 0 -173 -77t-59 -194q0 -113 54.5 -182t205.5 -133q171 -68 252.5 -160t81.5 -260 q0 -164 -85 -263.5t-232 -115.5v-190h-100v189q-148 14 -244.5 119.5t-96.5 318.5h119q0 -177 78 -254.5t188 -77.5q116 0 185 77.5t69 194.5z" />
<glyph unicode="%" horiz-adv-x="1333" d="M103 1176q0 127 69.5 214t182.5 87t182.5 -87t69.5 -214v-77q0 -127 -69 -213t-181 -86q-114 0 -184 86.5t-70 212.5v77zM200 1099q0 -87 40.5 -148.5t116.5 -61.5q74 0 114 61t40 149v77q0 87 -40.5 149.5t-115.5 62.5q-74 0 -114.5 -62.5t-40.5 -149.5v-77zM735 357 q0 126 69.5 213t182.5 87t182.5 -87t69.5 -213v-78q0 -127 -69 -213.5t-181 -86.5q-115 0 -184.5 86.5t-69.5 213.5v78zM831 279q0 -88 41 -149.5t117 -61.5q74 0 114 61.5t40 149.5v78q0 90 -40.5 150.5t-115.5 60.5t-115.5 -61t-40.5 -150v-78zM406 120l-71 49l588 1138 l72 -49z" />
<glyph unicode="&#x26;" horiz-adv-x="1119" d="M342 791q-73 102 -108 184.5t-35 169.5q0 159 79.5 245.5t218.5 86.5q129 0 206.5 -81.5t77.5 -204.5q0 -91 -41.5 -156.5t-119.5 -130.5l-132 -117l345 -465l6 1q38 64 60 148.5t22 180.5h113q0 -128 -33 -235.5t-95 -193.5l166 -223h-147l-97 132 q-74 -74 -161.5 -113.5t-185.5 -39.5q-184 0 -291.5 107.5t-107.5 285.5q0 121 64.5 217.5t188.5 195.5zM481 83q77 0 150.5 34.5t133.5 98.5l-355 483l-9 11l-36 -32q-96 -93 -128.5 -167.5t-32.5 -138.5q0 -124 71 -206.5t206 -82.5zM323 1147q0 -64 26.5 -134t80.5 -146 l144 126q50 44 71 93t21 105q0 77 -45.5 128.5t-123.5 51.5q-84 0 -129 -64t-45 -160z" />
<glyph unicode="'" horiz-adv-x="324" d="M214 1363l-39 -275h-69l6 266v206h102v-197z" />
<glyph unicode="(" horiz-adv-x="559" d="M123 588q0 360 121 648.5t262 388.5h6l24 -75q-116 -105 -204 -367t-88 -592v-20q0 -330 87.5 -592t204.5 -369l-24 -72h-6q-143 101 -263 383.5t-120 651.5v15z" />
<glyph unicode=")" horiz-adv-x="568" d="M434 573q0 -369 -120.5 -651.5t-262.5 -383.5h-6l-25 72q115 103 204.5 366.5t89.5 594.5v20q0 327 -91 592t-203 371l25 71h6q140 -100 261.5 -388t121.5 -649v-15z" />
<glyph unicode="*" horiz-adv-x="778" d="M314 999l-280 106l32 104l280 -122l-4 369h104l-8 -372l276 126l31 -104l-283 -114l189 -293l-86 -64l-178 304l-172 -302l-85 63z" />
<glyph unicode="+" horiz-adv-x="1026" d="M569 742h376v-116h-376v-480h-123v480h-371v116h371v464h123v-464z" />
<glyph unicode="," horiz-adv-x="346" d="M246 19l-100 -277h-77l56 280v168h121v-171z" />
<glyph unicode="-" horiz-adv-x="497" d="M445 568h-399v104h399v-104z" />
<glyph unicode="." horiz-adv-x="440" d="M276 0h-130v166h130v-166z" />
<glyph unicode="/" horiz-adv-x="701" d="M136 -125h-106l504 1581h106z" />
<glyph unicode="0" horiz-adv-x="978" d="M867 564q0 -282 -100.5 -433.5t-276.5 -151.5q-177 0 -278.5 152t-101.5 433v326q0 280 100.5 433.5t277.5 153.5t278 -153t101 -434v-326zM747 911q0 222 -66.5 341t-192.5 119q-125 0 -191 -119.5t-66 -340.5v-366q0 -220 67 -341t192 -121t191 120.5t66 341.5v366z " />
<glyph unicode="1" horiz-adv-x="964" d="M577 -6h-120v1332l-299 -41v86l419 88v-1465z" />
<glyph unicode="2" horiz-adv-x="964" d="M878 0h-761v94l395 540q108 148 151.5 247.5t43.5 192.5q0 134 -60.5 215.5t-166.5 81.5q-133 0 -200.5 -90.5t-67.5 -244.5h-113l-2 5q-4 184 99.5 310t283.5 126q158 0 252.5 -108.5t94.5 -290.5q0 -121 -61.5 -245.5t-170.5 -272.5l-332 -456h615v-104z" />
<glyph unicode="3" horiz-adv-x="964" d="M339 794h124q124 0 184.5 78t60.5 204q0 136 -60 215.5t-177 79.5q-110 0 -178.5 -81t-68.5 -215h-112l-2 5q-4 171 98 284t263 113q163 0 260 -107t97 -298q0 -103 -51 -193t-146 -134q113 -38 166 -130t53 -219q0 -195 -105.5 -306t-270.5 -111q-162 0 -273 108 t-107 302l3 5h112q0 -139 73 -225t192 -86q120 0 187.5 80t67.5 229q0 152 -67.5 224.5t-198.5 72.5h-124v105z" />
<glyph unicode="4" horiz-adv-x="964" d="M740 470h181v-104h-181v-366h-119v366h-559v71l549 1019h129v-986zM198 470h423v805l-6 1l-34 -88z" />
<glyph unicode="5" horiz-adv-x="964" d="M162 659l68 797h592v-115h-490l-44 -513q44 48 96 75.5t135 30.5q158 3 253 -125t95 -345q0 -221 -93.5 -353t-278.5 -132q-151 0 -251 101t-96 298l2 5h109q0 -146 64.5 -223t171.5 -77q125 0 188.5 97.5t63.5 281.5q0 162 -64.5 259.5t-178.5 97.5q-109 0 -164 -43.5 t-80 -133.5z" />
<glyph unicode="6" horiz-adv-x="964" d="M553 1477q63 0 123.5 -17t104.5 -49l-29 -100q-43 30 -89 45t-110 15q-133 0 -218.5 -125.5t-85.5 -329.5v-106q52 70 126.5 110.5t162.5 40.5q162 0 257 -135.5t95 -351.5t-102 -355.5t-267 -139.5q-169 0 -280 150t-111 412v363q0 254 122 413.5t301 159.5zM513 861 q-95 0 -164.5 -55.5t-99.5 -145.5v-128q0 -208 77 -329t195 -121q114 0 181 114t67 278q0 173 -67 280t-189 107z" />
<glyph unicode="7" horiz-adv-x="964" d="M872 1350q-202 -270 -297 -553.5t-130 -673.5l-11 -123h-119l10 123q35 371 141.5 668.5t284.5 558.5h-678v106h799v-106z" />
<glyph unicode="8" horiz-adv-x="964" d="M839 1081q0 -119 -57.5 -207.5t-153.5 -127.5q110 -42 176.5 -137.5t66.5 -222.5q0 -197 -108 -302t-280 -105q-175 0 -283 105t-108 302q0 128 65.5 223.5t176.5 136.5q-97 40 -152.5 128t-55.5 207q0 188 98.5 292t256.5 104q156 0 257 -104.5t101 -291.5zM751 386 q0 137 -77 222.5t-193 85.5q-118 0 -193 -85.5t-75 -222.5q0 -142 74 -222.5t196 -80.5q117 0 192.5 80.5t75.5 222.5zM717 1081q0 126 -67.5 208t-168.5 82q-104 0 -169 -79t-65 -211q0 -129 65.5 -205.5t170.5 -76.5q102 0 168 77t66 205z" />
<glyph unicode="9" horiz-adv-x="964" d="M432 83q131 0 209.5 111t78.5 317v131q-43 -87 -113 -133.5t-155 -46.5q-168 0 -269.5 137.5t-101.5 358.5q0 220 107 369.5t263 149.5q179 0 285.5 -138t106.5 -400v-426q0 -254 -114 -394t-297 -140q-62 0 -128 15.5t-123 44.5l21 104q54 -32 108 -46t122 -14zM452 566 q102 0 170 64t98 160v158q0 207 -70.5 315t-194.5 108q-107 0 -179 -121t-72 -292q0 -168 67 -280t181 -112z" />
<glyph unicode=":" horiz-adv-x="400" d="M269 0h-130v166h130v-166zM269 914h-130v166h130v-166z" />
<glyph unicode=";" horiz-adv-x="405" d="M272 916h-130v166h130v-166zM273 19l-100 -277h-77l56 280v168h121v-171z" />
<glyph unicode="&#x3c;" horiz-adv-x="884" d="M259 578l-95 -27v-6l95 -28l495 -266v-130l-683 379v99l683 378v-129z" />
<glyph unicode="=" horiz-adv-x="970" d="M825 832h-691v109h691v-109zM825 421h-691v109h691v-109z" />
<glyph unicode="&#x3e;" horiz-adv-x="901" d="M115 848v127l703 -378v-100l-703 -379v128l515 272l95 27v6l-95 29z" />
<glyph unicode="?" horiz-adv-x="801" d="M315 404q1 130 19.5 182.5t97.5 138.5q88 117 126.5 189.5t38.5 186.5q0 126 -53.5 196t-151.5 70q-90 0 -147.5 -68t-58.5 -183h-113l-2 5q-2 166 88.5 261t232.5 95q153 0 239.5 -101t86.5 -273q0 -134 -55 -236t-158 -222q-48 -53 -58.5 -98.5t-10.5 -142.5h-121z M446 0h-133v157h133v-157z" />
<glyph unicode="@" horiz-adv-x="1639" d="M1530 512q-8 -217 -102 -375t-277 -158q-68 0 -115 49t-62 137q-46 -93 -112 -139.5t-153 -46.5q-112 0 -171.5 120t-43.5 317q20 254 122 408t248 154q84 0 135.5 -26.5t113.5 -81.5l-2 -2h3l-44 -575q-8 -132 24 -179.5t80 -47.5q119 0 188.5 124t78.5 322 q16 388 -128.5 604t-454.5 216q-278 0 -455 -235t-192 -619q-17 -379 138.5 -611.5t443.5 -232.5q77 0 155.5 21.5t133.5 57.5l28 -77q-57 -41 -146.5 -65t-173.5 -24q-331 0 -511.5 249.5t-164.5 681.5q15 424 218 683.5t530 259.5q338 0 510.5 -242.5t157.5 -666.5z M605 416q-12 -155 22.5 -246t112.5 -91q69 0 126.5 39t100.5 141v14t2 20l42 548q-27 20 -59 32t-69 12q-115 0 -187 -118t-91 -351z" />
<glyph unicode="A" horiz-adv-x="1096" d="M814 404h-531l-124 -404h-124l461 1456h109l456 -1456h-124zM317 514h464l-228 749h-6z" />
<glyph unicode="B" horiz-adv-x="1080" d="M164 0v1456h366q188 0 294 -96t106 -288q0 -110 -55 -192.5t-146 -115.5q113 -23 182 -124t69 -235q0 -196 -105.5 -300.5t-284.5 -104.5h-426zM284 701v-597h306q127 0 198.5 78.5t71.5 220.5q0 132 -63.5 215t-187.5 83h-325zM284 804h284q113 3 177 72.5t64 199.5 q0 136 -71.5 205t-207.5 69h-246v-546z" />
<glyph unicode="C" horiz-adv-x="1062" d="M959 423l3 -6q-2 -213 -112 -325.5t-303 -112.5q-201 0 -319 142t-118 405v403q0 261 118.5 404.5t318.5 143.5q195 0 304 -110t111 -328l-3 -6h-111q-5 173 -80 255.5t-221 82.5q-150 0 -234 -113t-84 -326v-406q0 -217 84 -330t234 -113q146 0 221 80.5t80 259.5h111z " />
<glyph unicode="D" horiz-adv-x="1134" d="M164 0v1456h357q227 0 371 -178t144 -457v-188q0 -280 -144 -456.5t-371 -176.5h-357zM284 1350v-1246h237q176 0 285.5 149t109.5 380v191q0 229 -109.5 377.5t-285.5 148.5h-237z" />
<glyph unicode="E" horiz-adv-x="1001" d="M856 703h-572v-599h657v-104h-777v1456h771v-106h-651v-543h572v-104z" />
<glyph unicode="F" horiz-adv-x="1000" d="M859 679h-575v-679h-120v1456h780v-106h-660v-565h575v-106z" />
<glyph unicode="G" horiz-adv-x="1192" d="M1030 198q-40 -82 -147.5 -150.5t-273.5 -68.5q-219 0 -352.5 139t-133.5 399v433q0 255 126 391t337 136q206 0 319 -107.5t118 -299.5l-2 -6h-112q-6 147 -86 227t-237 80q-159 0 -251 -107.5t-92 -311.5v-435q0 -212 99 -323t267 -111q123 0 197 44t103 107v378h-302 v105h423v-519z" />
<glyph unicode="H" horiz-adv-x="1221" d="M1057 0h-119v669h-654v-669h-120v1456h120v-683h654v683h119v-1456z" />
<glyph unicode="I" horiz-adv-x="484" d="M302 0h-121v1456h121v-1456z" />
<glyph unicode="J" horiz-adv-x="953" d="M676 1456h120v-1044q0 -200 -99 -316.5t-258 -116.5q-171 0 -271 106.5t-96 310.5l2 5h114q0 -157 65 -237.5t186 -80.5q103 0 170 89t67 240v1044z" />
<glyph unicode="K" horiz-adv-x="1104" d="M440 683h-156v-683h-120v1456h120v-669h152l461 669h140l-500 -715l536 -741h-149z" />
<glyph unicode="L" horiz-adv-x="920" d="M285 104h588v-104h-709v1456h121v-1352z" />
<glyph unicode="M" horiz-adv-x="1443" d="M312 1456l405 -1275h6l406 1275h155v-1456h-119v639l12 595l-6 1l-411 -1235h-80l-410 1233l-6 -1l12 -593v-639h-118v1456h154z" />
<glyph unicode="N" horiz-adv-x="1225" d="M1061 0h-120l-650 1219l-6 -1v-1218h-121v1456h121l650 -1219l6 1v1218h120v-1456z" />
<glyph unicode="O" horiz-adv-x="1124" d="M1019 523q0 -265 -123.5 -404.5t-338.5 -139.5q-211 0 -331.5 139.5t-120.5 404.5v408q0 265 120 405.5t331 140.5q215 0 339 -141t124 -405v-408zM900 934q0 216 -89 325t-255 109q-161 0 -247 -109t-86 -325v-411q0 -219 86 -328t248 -109q166 0 254.5 109t88.5 328 v411z" />
<glyph unicode="P" horiz-adv-x="1080" d="M284 603v-603h-120v1456h431q191 0 296 -117t105 -309q0 -194 -105 -310.5t-296 -116.5h-311zM284 708h311q140 0 210 91.5t70 228.5q0 139 -70 230.5t-210 91.5h-311v-642z" />
<glyph unicode="Q" horiz-adv-x="1166" d="M1019 523q0 -141 -36.5 -247t-103.5 -175l212 -237l-82 -77l-220 246q-50 -27 -108 -40.5t-124 -13.5q-211 0 -331.5 139.5t-120.5 404.5v408q0 265 120 405.5t331 140.5q215 0 339 -141t124 -405v-408zM900 934q0 216 -89 325t-255 109q-161 0 -247 -109t-86 -325v-411 q0 -219 86 -328t248 -109q166 0 254.5 109t88.5 328v411z" />
<glyph unicode="R" horiz-adv-x="1137" d="M282 657v-657h-120v1455h418q196 0 300 -103t104 -300q0 -116 -55 -206.5t-156 -133.5q111 -34 159.5 -122t48.5 -219v-137q0 -68 13 -122t44 -88v-24h-123q-31 36 -42.5 100t-11.5 136v133q0 132 -67 210t-184 78h-328zM282 761h284q154 0 225.5 78.5t71.5 213.5 q0 143 -70 220t-213 77h-298v-589z" />
<glyph unicode="S" horiz-adv-x="1044" d="M842 357q0 119 -69.5 193.5t-244.5 131.5q-199 61 -301.5 157.5t-102.5 258.5q0 167 114.5 273t295.5 106q190 0 305.5 -125t112.5 -305l-3 -6h-113q0 145 -80.5 237.5t-221.5 92.5q-137 0 -213 -77t-76 -193q0 -108 73.5 -181.5t249.5 -128.5q194 -60 294.5 -162.5 t100.5 -269.5q0 -175 -118.5 -277.5t-304.5 -102.5q-183 0 -318.5 110t-130.5 319l2 6h112q0 -170 98.5 -250.5t236.5 -80.5q136 0 219 75t83 199z" />
<glyph unicode="T" horiz-adv-x="1020" d="M976 1350h-407v-1350h-120v1350h-406v106h933v-106z" />
<glyph unicode="U" horiz-adv-x="1119" d="M985 1456v-1019q0 -223 -119 -340.5t-310 -117.5q-187 0 -303 117.5t-116 340.5v1019h118v-1019q0 -171 83.5 -262.5t217.5 -91.5q141 0 225.5 87.5t84.5 266.5v1019h119z" />
<glyph unicode="V" horiz-adv-x="1077" d="M512 252l24 -90h6l25 90l345 1204h130l-449 -1456h-109l-449 1456h130z" />
<glyph unicode="W" horiz-adv-x="1531" d="M385 417l31 -197l6 -1l41 198l244 1039h110l246 -1039l40 -200h6l33 200l205 1039h122l-304 -1456h-111l-260 1111l-28 135h-6l-26 -135l-264 -1111h-111l-303 1456h121z" />
<glyph unicode="X" horiz-adv-x="1069" d="M536 836l321 620h145l-395 -718l408 -738h-144l-333 639l-333 -639h-146l408 738l-396 718h145z" />
<glyph unicode="Y" horiz-adv-x="1056" d="M524 685h6l352 771h137l-433 -922v-534h-120v540l-431 916h139z" />
<glyph unicode="Z" horiz-adv-x="995" d="M213 104h700v-104h-827v95l671 1256h-655v105h785v-90z" />
<glyph unicode="[" horiz-adv-x="460" d="M447 1558h-178v-1764h178v-106h-301v1976h301v-106z" />
<glyph unicode="\" horiz-adv-x="697" d="M46 1456h116l505 -1581h-117z" />
<glyph unicode="]" horiz-adv-x="460" d="M12 1664h301v-1976h-301v106h178v1764h-178v106z" />
<glyph unicode="^" horiz-adv-x="725" d="M183 729h-115l248 727h87l247 -727h-114l-155 481l-20 87h-6l-20 -87z" />
<glyph unicode="_" horiz-adv-x="764" d="M753 -104h-742v104h742v-104z" />
<glyph unicode="`" horiz-adv-x="541" d="M412 1210h-113l-212 261l3 5h152z" />
<glyph unicode="a" horiz-adv-x="938" d="M698 0q-9 56 -13.5 92t-4.5 73q-49 -81 -127.5 -133.5t-174.5 -52.5q-134 0 -207 83.5t-73 225.5q0 151 106 240.5t287 89.5h189v133q0 115 -58 180t-162 65q-97 0 -159.5 -62t-62.5 -152l-112 1l-2 6q-5 122 92.5 217.5t249.5 95.5q150 0 242 -91.5t92 -261.5v-531 q0 -58 5 -112t18 -106h-125zM393 87q100 0 177.5 57.5t109.5 146.5v234h-192q-123 0 -196.5 -69.5t-73.5 -171.5q0 -87 46 -142t129 -55z" />
<glyph unicode="b" d="M873 446q0 -213 -91.5 -340t-252.5 -127q-95 0 -164.5 43t-113.5 123l-12 -145h-103v1560h120v-625q44 80 112 123.5t159 43.5q162 0 254 -134.5t92 -357.5v-164zM752 610q0 171 -63.5 277.5t-188.5 106.5q-93 0 -152.5 -57t-91.5 -148v-514q33 -87 94 -138t152 -51 q125 0 187.5 98t62.5 262v164z" />
<glyph unicode="c" horiz-adv-x="904" d="M478 83q94 0 165 67.5t71 186.5h106l3 -6q3 -150 -101 -251t-244 -101q-187 0 -287.5 133.5t-100.5 343.5v168q0 209 100.5 343.5t287.5 134.5q151 0 249.5 -105.5t95.5 -277.5l-2 -5h-107q0 129 -67.5 205.5t-168.5 76.5q-140 0 -204 -105.5t-64 -266.5v-168 q0 -163 64 -268t204 -105z" />
<glyph unicode="d" d="M97 531q0 260 91 415.5t255 155.5q89 0 155.5 -42t111.5 -119v619h120v-1560h-106l-10 140q-45 -78 -113 -119.5t-159 -41.5q-162 0 -253.5 144.5t-91.5 386.5v21zM219 510q0 -195 61.5 -309.5t187.5 -114.5q88 0 147.5 48t94.5 134v530q-33 87 -92 141.5t-148 54.5 q-127 0 -189 -128t-62 -335v-21z" />
<glyph unicode="e" horiz-adv-x="900" d="M485 -21q-175 0 -286 131.5t-111 335.5v180q0 205 111.5 340.5t268.5 135.5q170 0 264 -121.5t94 -326.5v-119h-619v-89q0 -156 75 -259.5t203 -103.5q89 0 153.5 31t110.5 88l49 -85q-49 -63 -126.5 -100.5t-186.5 -37.5zM468 996q-113 0 -185.5 -103t-75.5 -254h499v46 q0 134 -63 222.5t-175 88.5z" />
<glyph unicode="f" horiz-adv-x="586" d="M209 0v981h-146v101h146v156q0 164 70.5 253.5t196.5 89.5q28 0 56.5 -5.5t57.5 -14.5l-15 -101q-20 6 -40.5 9.5t-45.5 3.5q-79 0 -119.5 -61t-40.5 -174v-156h205v-101h-205v-981h-120z" />
<glyph unicode="g" d="M97 594q0 230 93 369t257 139q91 0 159.5 -44.5t113.5 -126.5l12 151h102v-1083q0 -208 -97 -322t-275 -114q-64 0 -137.5 19.5t-130.5 51.5l33 105q49 -31 109 -48.5t124 -17.5q129 0 191 83t62 243v131q-46 -73 -113 -112t-155 -39q-163 0 -255.5 127.5t-92.5 339.5 v148zM218 446q0 -164 63 -262t190 -98q87 0 147 47.5t95 131.5v536q-34 86 -92.5 139.5t-147.5 53.5q-127 0 -191 -111t-64 -289v-148z" />
<glyph unicode="h" d="M256 911q45 91 117.5 141t165.5 50q143 0 220 -105.5t77 -328.5v-668h-121v670q0 174 -53.5 249t-153.5 75q-90 0 -154 -57.5t-98 -153.5v-783h-120v1560h120v-649z" />
<glyph unicode="i" horiz-adv-x="417" d="M269 0h-121v1082h121v-1082zM269 1390h-121v170h121v-170z" />
<glyph unicode="j" horiz-adv-x="432" d="M276 1082v-1171q0 -167 -68 -257.5t-189 -90.5q-24 0 -45 5t-46 14l11 105q13 -6 35.5 -11t36.5 -5q67 0 106 61t39 179v1171h120zM276 1390h-120v170h120v-170z" />
<glyph unicode="k" horiz-adv-x="864" d="M370 525h-114v-525h-119v1560h119v-929h105l305 451h145l-348 -494l388 -588h-144z" />
<glyph unicode="l" horiz-adv-x="417" d="M269 0h-121v1560h121v-1560z" />
<glyph unicode="m" horiz-adv-x="1515" d="M239 1082l10 -168q43 90 114 139t167 49q98 0 165 -57.5t98 -174.5q40 108 113.5 170t177.5 62q142 0 220.5 -115.5t78.5 -354.5v-632h-121v634q0 199 -54 280t-154 81q-105 0 -164 -90t-72 -226v-28v-651h-120v633q0 195 -55.5 278t-154.5 83q-95 0 -152.5 -57.5 t-82.5 -157.5v-779h-120v1082h106z" />
<glyph unicode="n" d="M243 1082l10 -179q43 95 114.5 147t167.5 52q145 0 222.5 -107.5t77.5 -334.5v-660h-121v659q0 185 -54 260t-157 75q-92 0 -154 -60.5t-93 -161.5v-772h-120v1082h107z" />
<glyph unicode="o" d="M86 620q0 210 108 346t290 136t290.5 -135.5t108.5 -346.5v-159q0 -213 -108 -347.5t-290 -134.5q-183 0 -291 134.5t-108 347.5v159zM207 461q0 -162 72 -270t206 -108q131 0 204 108.5t73 269.5v159q0 159 -73 267.5t-205 108.5q-133 0 -205 -108.5t-72 -267.5v-159z " />
<glyph unicode="p" d="M872 446q0 -213 -91.5 -340t-252.5 -127q-91 0 -159 38t-113 110v-543h-120v1498h101l13 -149q45 81 114 125t161 44q163 0 255 -138.5t92 -369.5v-148zM750 594q0 177 -65 288.5t-191 111.5q-89 0 -147.5 -53t-90.5 -138v-545q33 -82 92 -128.5t147 -46.5 q126 0 190.5 99.5t64.5 263.5v148z" />
<glyph unicode="q" d="M97 594q0 231 91 369.5t255 138.5q88 0 154.5 -41t111.5 -118l11 139h105v-1498h-121v538q-45 -70 -111 -106.5t-151 -36.5q-162 0 -253.5 127t-91.5 340v148zM219 446q0 -165 61.5 -264t187.5 -99q84 0 142 45t94 125v561q-34 82 -91.5 132t-142.5 50 q-127 0 -189 -111.5t-62 -290.5v-148z" />
<glyph unicode="r" horiz-adv-x="601" d="M555 974l-79 6q-84 0 -139 -56.5t-81 -155.5v-768h-120v1082h106l14 -179q38 94 100.5 146.5t146.5 52.5q19 0 38 -3.5t30 -7.5z" />
<glyph unicode="s" horiz-adv-x="865" d="M656 259q0 74 -48.5 127.5t-177.5 112.5q-165 68 -241.5 138.5t-76.5 184.5q0 116 91 198t236 82q154 0 244 -91t86 -227l-2 -6h-113q0 88 -58 153t-157 65q-101 0 -154 -51t-53 -119q0 -72 42 -115.5t180 -109.5q162 -65 242 -141.5t80 -193.5q0 -129 -92.5 -208 t-244.5 -79q-167 0 -261.5 94.5t-89.5 224.5l2 6h112q6 -116 75 -168.5t162 -52.5q101 0 159 51t58 125z" />
<glyph unicode="t" horiz-adv-x="592" d="M313 1358v-276h188v-101h-188v-702q0 -105 30 -149t79 -44q24 0 47 3t52 9l16 -92q-24 -12 -62.5 -19.5t-77.5 -7.5q-96 0 -150.5 72t-54.5 228v702h-150v101h150v276h121z" />
<glyph unicode="u" d="M718 169q-43 -91 -114 -140.5t-166 -49.5q-144 0 -224.5 115.5t-80.5 359.5v628h120v-630q0 -197 51.5 -281.5t149.5 -84.5q103 0 167.5 55.5t92.5 152.5v788h120v-1082h-108z" />
<glyph unicode="v" horiz-adv-x="856" d="M405 273l24 -105h6l26 105l232 809h123l-337 -1082h-94l-339 1082h124z" />
<glyph unicode="w" horiz-adv-x="1302" d="M340 353l29 -169h6l36 169l188 729h100l186 -729l37 -177h6l33 177l156 729h122l-261 -1082h-100l-190 735l-39 173h-6l-37 -173l-188 -735h-100l-260 1082h121z" />
<glyph unicode="x" horiz-adv-x="856" d="M425 642l226 440h141l-299 -532l311 -550h-140l-237 458l-237 -458h-141l312 550l-300 532h140z" />
<glyph unicode="y" horiz-adv-x="856" d="M397 298l28 -109h6l256 893h134l-386 -1255q-35 -108 -92.5 -186t-164.5 -78q-18 0 -45 5t-40 9l13 103q10 -2 33 -4.5t34 -2.5q61 0 99 57t61 141l45 143l-342 1068h133z" />
<glyph unicode="z" horiz-adv-x="826" d="M215 104h549v-104h-683v90l512 885h-500v107h637v-91z" />
<glyph unicode="{" horiz-adv-x="583" d="M537 -395l-6 -1q-152 51 -217 169t-65 287v225q0 122 -45.5 190t-139.5 68v106q94 0 139.5 67t45.5 189v227q0 171 65 289.5t217 169.5l6 -1l24 -75q-101 -40 -146 -139.5t-45 -243.5v-227q0 -110 -39.5 -191t-119.5 -119q80 -39 119.5 -120.5t39.5 -189.5v-225 q0 -143 45 -240.5t147 -139.5z" />
<glyph unicode="|" horiz-adv-x="408" d="M254 -270h-99v1726h99v-1726z" />
<glyph unicode="}" horiz-adv-x="583" d="M20 -320q101 42 147 140t46 240v225q0 111 40.5 192t125.5 118q-85 36 -125.5 116.5t-40.5 193.5v227q0 144 -45.5 243.5t-146.5 139.5l24 75l6 1q151 -51 216.5 -169.5t65.5 -289.5v-227q0 -122 45 -189t141 -67v-106q-96 0 -141 -68t-45 -190v-225q0 -169 -65.5 -287 t-216.5 -169l-6 1z" />
<glyph unicode="~" horiz-adv-x="1177" d="M1053 740q0 -130 -69 -224.5t-171 -94.5q-74 0 -134 35.5t-134 114.5q-51 53 -94.5 80t-88.5 27q-62 0 -104 -60.5t-42 -159.5l-92 16q0 132 66.5 223t171.5 91q72 0 134 -37.5t134 -111.5q51 -57 93.5 -82.5t89.5 -25.5q60 0 103 63.5t43 160.5z" />
<glyph unicode="&#xa1;" horiz-adv-x="408" d="M255 -374h-120v978h120v-978zM262 896h-133v186h133v-186z" />
<glyph unicode="&#xa2;" horiz-adv-x="944" d="M495 83q94 0 165 67.5t71 186.5h107l2 -5q3 -135 -82.5 -232t-209.5 -116v-229h-121v229q-155 24 -237.5 153.5t-82.5 318.5v168q0 188 82.5 318t237.5 155v221h121v-220q131 -19 214 -122t83 -262h-114q0 129 -67.5 205.5t-168.5 76.5q-140 0 -204 -105.5t-64 -266.5 v-168q0 -163 64 -268t204 -105z" />
<glyph unicode="&#xa3;" horiz-adv-x="994" d="M345 641l6 -175q0 -107 -19.5 -203t-54.5 -159h631v-104h-789v104h7q52 14 78 127.5t26 234.5l-6 175h-159v104h156l-8 295q0 204 89.5 320.5t239.5 116.5q158 0 240.5 -104t79.5 -278l-2 -5h-114q0 146 -55 213.5t-149 67.5q-97 0 -153 -87t-56 -244l9 -295h364v-104 h-361z" />
<glyph unicode="&#xa4;" horiz-adv-x="1302" d="M987 126q-69 -70 -155 -108t-180 -38t-179.5 37.5t-154.5 107.5l-128 -151l-87 88l138 160q-52 80 -80 178.5t-28 207.5q0 112 30 213.5t85 182.5l-145 170l87 90l139 -164q67 64 149.5 99t173.5 35q90 0 173.5 -35.5t150.5 -99.5l142 166l88 -91l-148 -173 q53 -82 82.5 -182t29.5 -211q0 -108 -27.5 -205.5t-77.5 -177.5l141 -163l-88 -89zM248 608q0 -213 118.5 -363.5t285.5 -150.5q166 0 284 150.5t118 363.5q0 211 -118 361t-284 150q-167 0 -285.5 -150t-118.5 -361z" />
<glyph unicode="&#xa5;" horiz-adv-x="1037" d="M511 766h6l331 690h139l-373 -749h296v-104h-337v-173h337v-104h-337v-326h-121v326h-332v104h332v173h-332v104h294l-372 749h139z" />
<glyph unicode="&#xa6;" horiz-adv-x="401" d="M137 -270v772h120v-772h-120zM257 698h-120v758h120v-758z" />
<glyph unicode="&#xa7;" horiz-adv-x="1050" d="M944 431q0 -98 -50.5 -168.5t-141.5 -104.5q77 -50 116 -120t39 -176q0 -167 -107 -262t-287 -95q-178 0 -300 103t-118 323l3 5l112 2q0 -170 89.5 -248.5t213.5 -78.5q128 0 201 69.5t73 179.5q0 105 -63 164t-237 120q-201 62 -297 150.5t-96 256.5q0 97 48.5 167.5 t137.5 105.5q-74 49 -111 119.5t-37 175.5q0 162 108 260t288 98q187 0 291.5 -111.5t101.5 -314.5l-2 -5h-113q0 140 -74 232.5t-204 92.5q-136 0 -205.5 -70t-69.5 -179q0 -113 59.5 -171.5t241.5 -121.5q205 -66 297.5 -149t92.5 -249zM505 727q-35 10 -64 20t-54 21 q-86 -15 -129 -72.5t-43 -142.5q0 -115 62.5 -174t255.5 -126q27 -9 53 -18.5t52 -19.5q87 14 136.5 72t49.5 141q0 106 -68 169t-251 130z" />
<glyph unicode="&#xa8;" horiz-adv-x="868" d="M723 1296h-161v160h161v-160zM315 1296h-163v160h163v-160z" />
<glyph unicode="&#xa9;" horiz-adv-x="1436" d="M978 596l2 -5q3 -151 -70 -230t-204 -79q-134 0 -214 106.5t-80 280.5v119q0 172 80 279.5t214 107.5q131 0 204.5 -79.5t70.5 -228.5l-2 -5h-91q0 111 -46.5 165.5t-135.5 54.5q-92 0 -143.5 -82.5t-51.5 -210.5v-120q0 -132 51 -213.5t144 -81.5q89 0 135 53.5 t46 168.5h91zM180 729q0 -278 157 -470.5t379 -192.5t378.5 192.5t156.5 470.5q0 276 -156.5 467t-378.5 191t-379 -191.5t-157 -466.5zM97 729q0 315 180.5 531t438.5 216q257 0 437.5 -216t180.5 -531q0 -316 -180.5 -533t-437.5 -217q-258 0 -438.5 217t-180.5 533z" />
<glyph unicode="&#xaa;" horiz-adv-x="772" d="M536 706q-7 25 -11 52t-6 56q-29 -54 -78.5 -88t-117.5 -34q-98 0 -152.5 61.5t-54.5 166.5t67 163t195 58h139v61q0 84 -31 130t-91 46q-69 0 -107 -37.5t-38 -107.5l-99 10l-2 6q-4 98 64.5 163t181.5 65q105 0 167.5 -71.5t62.5 -204.5v-314q0 -51 5 -95t17 -86h-111z M345 789q54 0 105 37.5t67 84.5v144h-138q-74 0 -114.5 -38t-40.5 -93q0 -65 29.5 -100t91.5 -35z" />
<glyph unicode="&#xab;" horiz-adv-x="800" d="M224 521l223 -389h-99l-245 380v19l245 379h99zM488 521l223 -389h-99l-245 380v19l245 379h99z" />
<glyph unicode="&#xac;" horiz-adv-x="949" d="M792 385h-120v283h-560v109h680v-392z" />
<glyph unicode="&#xad;" horiz-adv-x="497" d="M445 568h-399v104h399v-104z" />
<glyph unicode="&#xae;" horiz-adv-x="1440" d="M95 729q0 315 180.5 531t438.5 216q257 0 437.5 -216t180.5 -531q0 -316 -180.5 -533t-437.5 -217q-258 0 -438.5 217t-180.5 533zM177 729q0 -278 157 -470.5t380 -192.5q220 0 377 192.5t157 470.5q0 275 -156.5 466.5t-377.5 191.5q-224 0 -380.5 -191t-156.5 -467z M576 670v-354h-98v850h230q129 0 200 -63.5t71 -185.5q0 -67 -31.5 -116t-91.5 -80q60 -25 87 -78t27 -128v-56q0 -41 3.5 -73.5t11.5 -53.5v-16h-102q-8 21 -9.5 61.5t-1.5 82.5v54q0 83 -32 119.5t-107 36.5h-157zM576 764h151q65 0 110 40t45 111q0 84 -39 121t-135 37 h-132v-309z" />
<glyph unicode="&#xaf;" horiz-adv-x="797" d="M701 1356h-595v100h595v-100z" />
<glyph unicode="&#xb0;" horiz-adv-x="689" d="M130 1226q0 102 63.5 176.5t153.5 74.5q87 0 150 -74.5t63 -176.5q0 -104 -63 -176t-150 -72q-90 0 -153.5 72t-63.5 176zM218 1226q0 -67 37 -110.5t92 -43.5q53 0 88.5 43.5t35.5 110.5t-35.5 112t-88.5 45q-55 0 -92 -45t-37 -112z" />
<glyph unicode="&#xb1;" horiz-adv-x="967" d="M552 831h333v-105h-333v-437h-112v437h-353v105h353v436h112v-436zM848 46h-691v104h691v-104z" />
<glyph unicode="&#xb2;" horiz-adv-x="719" d="M586 667h-478v92l257 281q62 69 83 113t21 92q0 64 -29 102t-89 38q-67 0 -103 -41.5t-36 -106.5h-100l-2 6q-5 97 62 166.5t179 69.5q105 0 165.5 -61t60.5 -174q0 -76 -40.5 -139.5t-125.5 -154.5l-163 -186l2 -5h336v-92z" />
<glyph unicode="&#xb3;" horiz-adv-x="731" d="M355 1120q68 0 100 34.5t32 98.5q0 58 -35 94.5t-102 36.5q-58 0 -95 -34.5t-37 -91.5h-98l-2 6q-5 95 62.5 154.5t169.5 59.5q112 0 178 -59t66 -167q0 -58 -30 -104.5t-83 -71.5q60 -22 92 -70.5t32 -119.5q0 -109 -71 -170t-184 -61q-102 0 -175.5 58t-68.5 169l2 6 h100q0 -62 39 -101.5t103 -39.5q69 0 108.5 37.5t39.5 101.5q0 74 -36 108.5t-107 34.5h-104v91h104z" />
<glyph unicode="&#xb4;" horiz-adv-x="538" d="M289 1478h147l2 -5l-221 -261h-103z" />
<glyph unicode="&#xb5;" d="M260 1082v-632q0 -207 55 -287t150 -80q102 0 160 52.5t83 152.5v794h121v-1082h-106l-9 139q-39 -78 -99.5 -119t-143.5 -41q-69 0 -122 27.5t-89 89.5v-512h-119v1498h119z" />
<glyph unicode="&#xb6;" horiz-adv-x="833" d="M561 0v520h-81q-194 0 -301.5 129.5t-107.5 338.5q0 207 107.5 337.5t301.5 130.5h202v-1456h-121z" />
<glyph unicode="&#xb7;" horiz-adv-x="446" d="M285 624h-140v181h140v-181z" />
<glyph unicode="&#xb8;" horiz-adv-x="434" d="M225 0l-9 -63q62 -9 100.5 -49t38.5 -122q0 -92 -66 -146.5t-187 -54.5l-6 80q69 0 115.5 30t46.5 89q0 56 -32.5 78.5t-114.5 30.5l24 127h90z" />
<glyph unicode="&#xb9;" horiz-adv-x="454" d="M309 665h-109v700l-116 -7v96l225 23v-812z" />
<glyph unicode="&#xba;" horiz-adv-x="785" d="M116 1142q0 148 74.5 241.5t199.5 93.5q126 0 200 -93.5t74 -241.5v-116q0 -149 -74 -241.5t-198 -92.5q-126 0 -201 92.5t-75 241.5v116zM224 1026q0 -106 42.5 -171.5t125.5 -65.5q80 0 123 65.5t43 171.5v116q0 102 -43.5 169t-124.5 67q-80 0 -123 -67t-43 -169v-116 z" />
<glyph unicode="&#xbb;" horiz-adv-x="798" d="M204 949l245 -384v-19l-245 -380h-99l222 389l-222 394h99zM473 949l245 -384v-19l-245 -380h-99l222 389l-222 394h99z" />
<glyph unicode="&#xbc;" horiz-adv-x="1321" d="M373 664h-109v700l-116 -7v96l225 23v-812zM354 128l-71 49l588 1138l72 -49zM1115 261h120v-93h-120v-168h-106v168h-353l-4 69l353 564h110v-540zM773 261h236v387l-6 2l-17 -33z" />
<glyph unicode="&#xbd;" horiz-adv-x="1355" d="M364 128l-71 49l588 1138l72 -49zM373 664h-109v700l-116 -7v96l225 23v-812zM1249 0h-478v92l257 281q62 69 83 113t21 92q0 64 -29 102t-89 38q-67 0 -103 -41.5t-36 -106.5h-100l-2 6q-5 97 62 166.5t179 69.5q105 0 165.5 -61t60.5 -174q0 -76 -40.5 -139.5 t-125.5 -154.5l-163 -186l2 -5h336v-92z" />
<glyph unicode="&#xbe;" horiz-adv-x="1456" d="M520 128l-71 49l588 1138l72 -49zM1283 261h120v-93h-120v-168h-106v168h-353l-4 69l353 564h110v-540zM941 261h236v387l-6 2l-17 -33zM373 1121q68 0 100 34.5t32 98.5q0 58 -35 94.5t-102 36.5q-58 0 -95 -34.5t-37 -91.5h-98l-2 6q-5 95 62.5 154.5t169.5 59.5 q112 0 178 -59t66 -167q0 -58 -30 -104.5t-83 -71.5q60 -22 92 -70.5t32 -119.5q0 -109 -71 -170t-184 -61q-102 0 -175.5 58t-68.5 169l2 6h100q0 -62 39 -101.5t103 -39.5q69 0 108.5 37.5t39.5 101.5q0 74 -36 108.5t-107 34.5h-104v91h104z" />
<glyph unicode="&#xbf;" horiz-adv-x="827" d="M503 677q-2 -131 -20.5 -183.5t-96.5 -137.5q-90 -119 -128 -190.5t-38 -183.5q0 -126 53.5 -196t151.5 -70q89 0 147.5 68t58.5 183h114l2 -5q2 -166 -89 -261t-233 -95q-153 0 -238.5 101t-85.5 273q0 132 54.5 235.5t156.5 221.5q48 52 59 97.5t11 142.5h121z M371 1083h134v-158h-134v158z" />
<glyph unicode="&#xc0;" horiz-adv-x="1096" d="M814 404h-531l-124 -404h-124l461 1456h109l456 -1456h-124zM317 514h464l-228 749h-6zM634 1561h-113l-212 261l3 5h152z" />
<glyph unicode="&#xc1;" horiz-adv-x="1096" d="M814 404h-531l-124 -404h-124l461 1456h109l456 -1456h-124zM317 514h464l-228 749h-6zM676 1823h147l2 -5l-221 -261h-103z" />
<glyph unicode="&#xc2;" horiz-adv-x="1096" d="M814 404h-531l-124 -404h-124l461 1456h109l456 -1456h-124zM317 514h464l-228 749h-6zM809 1620v-19h-107l-133 166l-132 -166h-104v21l193 222h87z" />
<glyph unicode="&#xc3;" horiz-adv-x="1096" d="M814 404h-531l-124 -404h-124l461 1456h109l456 -1456h-124zM317 514h464l-228 749h-6zM843 1823q0 -88 -47 -146.5t-117 -58.5q-61 0 -125 54.5t-107 54.5q-38 0 -64 -35t-26 -88l-74 18q0 87 46.5 146t117.5 59q52 0 120.5 -55t111.5 -55q37 0 63.5 36t26.5 91z" />
<glyph unicode="&#xc4;" horiz-adv-x="1096" d="M814 404h-531l-124 -404h-124l461 1456h109l456 -1456h-124zM317 514h464l-228 749h-6zM857 1638h-161v160h161v-160zM449 1638h-163v160h163v-160z" />
<glyph unicode="&#xc5;" horiz-adv-x="1096" d="M814 404h-531l-124 -404h-124l461 1456h109l456 -1456h-124zM317 514h464l-228 749h-6zM412 1731q0 70 46 119t111 49q64 0 109 -49t45 -119q0 -72 -45 -118.5t-109 -46.5q-66 0 -111.5 46.5t-45.5 118.5zM486 1731q0 -40 24 -66t59 -26q33 0 56 26t23 66t-23 67t-56 27 q-35 0 -59 -27.5t-24 -66.5z" />
<glyph unicode="&#xc6;" horiz-adv-x="1579" d="M1538 0h-699l-14 387h-478l-187 -387h-147l730 1456h744v-106h-575l19 -540h488v-104h-484l21 -602h582v-104zM403 503h418l-27 789h-6l1 6z" />
<glyph unicode="&#xc7;" horiz-adv-x="1062" d="M959 423l3 -6q-2 -213 -112 -325.5t-303 -112.5q-201 0 -319 142t-118 405v403q0 261 118.5 404.5t318.5 143.5q195 0 304 -110t111 -328l-3 -6h-111q-5 173 -80 255.5t-221 82.5q-150 0 -234 -113t-84 -326v-406q0 -217 84 -330t234 -113q146 0 221 80.5t80 259.5h111z M599 -8l-9 -63q62 -9 100.5 -49t38.5 -122q0 -92 -66 -146.5t-187 -54.5l-6 80q69 0 115.5 30t46.5 89q0 56 -32.5 78.5t-114.5 30.5l24 127h90z" />
<glyph unicode="&#xc8;" horiz-adv-x="1001" d="M856 703h-572v-599h657v-104h-777v1456h771v-106h-651v-543h572v-104zM591 1561h-113l-212 261l3 5h152z" />
<glyph unicode="&#xc9;" horiz-adv-x="1001" d="M856 703h-572v-599h657v-104h-777v1456h771v-106h-651v-543h572v-104zM633 1823h147l2 -5l-221 -261h-103z" />
<glyph unicode="&#xca;" horiz-adv-x="1001" d="M856 703h-572v-599h657v-104h-777v1456h771v-106h-651v-543h572v-104zM766 1620v-19h-107l-133 166l-132 -166h-104v21l193 222h87z" />
<glyph unicode="&#xcb;" horiz-adv-x="1001" d="M856 703h-572v-599h657v-104h-777v1456h771v-106h-651v-543h572v-104zM814 1638h-161v160h161v-160zM406 1638h-163v160h163v-160z" />
<glyph unicode="&#xcc;" horiz-adv-x="484" d="M302 0h-121v1456h121v-1456zM309 1561h-113l-212 261l3 5h152z" />
<glyph unicode="&#xcd;" horiz-adv-x="484" d="M302 0h-121v1456h121v-1456zM349 1823h147l2 -5l-221 -261h-103z" />
<glyph unicode="&#xce;" horiz-adv-x="484" d="M302 0h-121v1456h121v-1456zM484 1620v-19h-107l-133 166l-132 -166h-104v21l193 222h87z" />
<glyph unicode="&#xcf;" horiz-adv-x="484" d="M302 0h-121v1456h121v-1456zM532 1638h-161v160h161v-160zM124 1638h-163v160h163v-160z" />
<glyph unicode="&#xd0;" horiz-adv-x="1164" d="M194 0v688h-131v104h131v664h357q227 0 371 -178t144 -457v-188q0 -280 -144 -456.5t-371 -176.5h-357zM578 688h-264v-584h237q176 0 285.5 149t109.5 380v191q0 229 -109.5 377.5t-285.5 148.5h-237v-558h264v-104z" />
<glyph unicode="&#xd1;" horiz-adv-x="1225" d="M1061 0h-120l-650 1219l-6 -1v-1218h-121v1456h121l650 -1219l6 1v1218h120v-1456zM886 1823q0 -88 -47 -146.5t-117 -58.5q-61 0 -125 54.5t-107 54.5q-38 0 -64 -35t-26 -88l-74 18q0 87 46.5 146t117.5 59q52 0 120.5 -55t111.5 -55q37 0 63.5 36t26.5 91z" />
<glyph unicode="&#xd2;" horiz-adv-x="1124" d="M1019 523q0 -265 -123.5 -404.5t-338.5 -139.5q-211 0 -331.5 139.5t-120.5 404.5v408q0 265 120 405.5t331 140.5q215 0 339 -141t124 -405v-408zM900 934q0 216 -89 325t-255 109q-161 0 -247 -109t-86 -325v-411q0 -219 86 -328t248 -109q166 0 254.5 109t88.5 328 v411zM625 1582h-113l-212 261l3 5h152z" />
<glyph unicode="&#xd3;" horiz-adv-x="1124" d="M1019 523q0 -265 -123.5 -404.5t-338.5 -139.5q-211 0 -331.5 139.5t-120.5 404.5v408q0 265 120 405.5t331 140.5q215 0 339 -141t124 -405v-408zM900 934q0 216 -89 325t-255 109q-161 0 -247 -109t-86 -325v-411q0 -219 86 -328t248 -109q166 0 254.5 109t88.5 328 v411zM667 1844h147l2 -5l-221 -261h-103z" />
<glyph unicode="&#xd4;" horiz-adv-x="1124" d="M1019 523q0 -265 -123.5 -404.5t-338.5 -139.5q-211 0 -331.5 139.5t-120.5 404.5v408q0 265 120 405.5t331 140.5q215 0 339 -141t124 -405v-408zM900 934q0 216 -89 325t-255 109q-161 0 -247 -109t-86 -325v-411q0 -219 86 -328t248 -109q166 0 254.5 109t88.5 328 v411zM800 1641v-19h-107l-133 166l-132 -166h-104v21l193 222h87z" />
<glyph unicode="&#xd5;" horiz-adv-x="1124" d="M1019 523q0 -265 -123.5 -404.5t-338.5 -139.5q-211 0 -331.5 139.5t-120.5 404.5v408q0 265 120 405.5t331 140.5q215 0 339 -141t124 -405v-408zM900 934q0 216 -89 325t-255 109q-161 0 -247 -109t-86 -325v-411q0 -219 86 -328t248 -109q166 0 254.5 109t88.5 328 v411zM834 1844q0 -88 -47 -146.5t-117 -58.5q-61 0 -125 54.5t-107 54.5q-38 0 -64 -35t-26 -88l-74 18q0 87 46.5 146t117.5 59q52 0 120.5 -55t111.5 -55q37 0 63.5 36t26.5 91z" />
<glyph unicode="&#xd6;" horiz-adv-x="1124" d="M1019 523q0 -265 -123.5 -404.5t-338.5 -139.5q-211 0 -331.5 139.5t-120.5 404.5v408q0 265 120 405.5t331 140.5q215 0 339 -141t124 -405v-408zM900 934q0 216 -89 325t-255 109q-161 0 -247 -109t-86 -325v-411q0 -219 86 -328t248 -109q166 0 254.5 109t88.5 328 v411zM848 1659h-161v160h161v-160zM440 1659h-163v160h163v-160z" />
<glyph unicode="&#xd7;" horiz-adv-x="957" d="M89 320l308 361l-299 351l80 82l294 -345l295 345l80 -82l-300 -350l310 -362l-80 -82l-305 356l-304 -356z" />
<glyph unicode="&#xd8;" horiz-adv-x="1166" d="M1019 523q0 -265 -123.5 -404.5t-338.5 -139.5q-73 0 -135.5 16.5t-113.5 50.5l-66 -131h-98l95 188q-66 69 -100 174.5t-34 245.5v408q0 265 120 405.5t331 140.5q97 0 177 -30t140 -88l75 147h99l-113 -223q41 -67 63 -155.5t22 -196.5v-408zM223 523q0 -101 17.5 -177 t52.5 -123l6 -1l519 1028q-45 58 -111 88t-151 30q-161 0 -247 -109t-86 -325v-411zM900 934q0 64 -8 117.5t-23 91.5l-5 1l-505 -999q38 -30 88 -44.5t110 -14.5q166 0 254.5 109t88.5 328v411z" />
<glyph unicode="&#xd9;" horiz-adv-x="1119" d="M985 1456v-1019q0 -223 -119 -340.5t-310 -117.5q-187 0 -303 117.5t-116 340.5v1019h118v-1019q0 -171 83.5 -262.5t217.5 -91.5q141 0 225.5 87.5t84.5 266.5v1019h119zM630 1561h-113l-212 261l3 5h152z" />
<glyph unicode="&#xda;" horiz-adv-x="1119" d="M985 1456v-1019q0 -223 -119 -340.5t-310 -117.5q-187 0 -303 117.5t-116 340.5v1019h118v-1019q0 -171 83.5 -262.5t217.5 -91.5q141 0 225.5 87.5t84.5 266.5v1019h119zM672 1823h147l2 -5l-221 -261h-103z" />
<glyph unicode="&#xdb;" horiz-adv-x="1119" d="M985 1456v-1019q0 -223 -119 -340.5t-310 -117.5q-187 0 -303 117.5t-116 340.5v1019h118v-1019q0 -171 83.5 -262.5t217.5 -91.5q141 0 225.5 87.5t84.5 266.5v1019h119zM805 1620v-19h-107l-133 166l-132 -166h-104v21l193 222h87z" />
<glyph unicode="&#xdc;" horiz-adv-x="1119" d="M985 1456v-1019q0 -223 -119 -340.5t-310 -117.5q-187 0 -303 117.5t-116 340.5v1019h118v-1019q0 -171 83.5 -262.5t217.5 -91.5q141 0 225.5 87.5t84.5 266.5v1019h119zM853 1638h-161v160h161v-160zM445 1638h-163v160h163v-160z" />
<glyph unicode="&#xdd;" horiz-adv-x="1056" d="M524 685h6l352 771h137l-433 -922v-534h-120v540l-431 916h139zM634 1816h147l2 -5l-221 -261h-103z" />
<glyph unicode="&#xde;" horiz-adv-x="1022" d="M275 1456v-303h254q186 0 290.5 -115.5t104.5 -299.5q0 -186 -104.5 -300.5t-290.5 -114.5h-254v-323h-120v1456h120zM275 1048v-621h254q136 0 205 91t69 218q0 129 -69 220.5t-205 91.5h-254z" />
<glyph unicode="&#xdf;" horiz-adv-x="1018" d="M250 0h-119v1082q0 204 88.5 318t233.5 114q121 0 200.5 -79.5t79.5 -224.5q0 -109 -52 -216t-52 -184q0 -85 149.5 -227t149.5 -287q0 -154 -89.5 -235.5t-225.5 -81.5q-70 0 -144.5 23.5t-106.5 56.5l30 103q35 -31 94 -55.5t114 -24.5q99 0 153.5 59t54.5 155 q0 98 -150 239t-150 277q0 93 54 201.5t54 189.5q0 93 -46.5 150t-107.5 57q-96 0 -154 -85t-58 -243v-1082z" />
<glyph unicode="&#xe0;" horiz-adv-x="938" d="M698 0q-9 56 -13.5 92t-4.5 73q-49 -81 -127.5 -133.5t-174.5 -52.5q-134 0 -207 83.5t-73 225.5q0 151 106 240.5t287 89.5h189v133q0 115 -58 180t-162 65q-97 0 -159.5 -62t-62.5 -152l-112 1l-2 6q-5 122 92.5 217.5t249.5 95.5q150 0 242 -91.5t92 -261.5v-531 q0 -58 5 -112t18 -106h-125zM393 87q100 0 177.5 57.5t109.5 146.5v234h-192q-123 0 -196.5 -69.5t-73.5 -171.5q0 -87 46 -142t129 -55zM527 1239h-113l-212 261l3 5h152z" />
<glyph unicode="&#xe1;" horiz-adv-x="938" d="M698 0q-9 56 -13.5 92t-4.5 73q-49 -81 -127.5 -133.5t-174.5 -52.5q-134 0 -207 83.5t-73 225.5q0 151 106 240.5t287 89.5h189v133q0 115 -58 180t-162 65q-97 0 -159.5 -62t-62.5 -152l-112 1l-2 6q-5 122 92.5 217.5t249.5 95.5q150 0 242 -91.5t92 -261.5v-531 q0 -58 5 -112t18 -106h-125zM393 87q100 0 177.5 57.5t109.5 146.5v234h-192q-123 0 -196.5 -69.5t-73.5 -171.5q0 -87 46 -142t129 -55zM569 1501h147l2 -5l-221 -261h-103z" />
<glyph unicode="&#xe2;" horiz-adv-x="938" d="M698 0q-9 56 -13.5 92t-4.5 73q-49 -81 -127.5 -133.5t-174.5 -52.5q-134 0 -207 83.5t-73 225.5q0 151 106 240.5t287 89.5h189v133q0 115 -58 180t-162 65q-97 0 -159.5 -62t-62.5 -152l-112 1l-2 6q-5 122 92.5 217.5t249.5 95.5q150 0 242 -91.5t92 -261.5v-531 q0 -58 5 -112t18 -106h-125zM393 87q100 0 177.5 57.5t109.5 146.5v234h-192q-123 0 -196.5 -69.5t-73.5 -171.5q0 -87 46 -142t129 -55zM702 1298v-19h-107l-133 166l-132 -166h-104v21l193 222h87z" />
<glyph unicode="&#xe3;" horiz-adv-x="938" d="M698 0q-9 56 -13.5 92t-4.5 73q-49 -81 -127.5 -133.5t-174.5 -52.5q-134 0 -207 83.5t-73 225.5q0 151 106 240.5t287 89.5h189v133q0 115 -58 180t-162 65q-97 0 -159.5 -62t-62.5 -152l-112 1l-2 6q-5 122 92.5 217.5t249.5 95.5q150 0 242 -91.5t92 -261.5v-531 q0 -58 5 -112t18 -106h-125zM393 87q100 0 177.5 57.5t109.5 146.5v234h-192q-123 0 -196.5 -69.5t-73.5 -171.5q0 -87 46 -142t129 -55zM736 1501q0 -88 -47 -146.5t-117 -58.5q-61 0 -125 54.5t-107 54.5q-38 0 -64 -35t-26 -88l-74 18q0 87 46.5 146t117.5 59 q52 0 120.5 -55t111.5 -55q37 0 63.5 36t26.5 91z" />
<glyph unicode="&#xe4;" horiz-adv-x="938" d="M698 0q-9 56 -13.5 92t-4.5 73q-49 -81 -127.5 -133.5t-174.5 -52.5q-134 0 -207 83.5t-73 225.5q0 151 106 240.5t287 89.5h189v133q0 115 -58 180t-162 65q-97 0 -159.5 -62t-62.5 -152l-112 1l-2 6q-5 122 92.5 217.5t249.5 95.5q150 0 242 -91.5t92 -261.5v-531 q0 -58 5 -112t18 -106h-125zM393 87q100 0 177.5 57.5t109.5 146.5v234h-192q-123 0 -196.5 -69.5t-73.5 -171.5q0 -87 46 -142t129 -55zM750 1316h-161v160h161v-160zM342 1316h-163v160h163v-160z" />
<glyph unicode="&#xe5;" horiz-adv-x="938" d="M698 0q-9 56 -13.5 92t-4.5 73q-49 -81 -127.5 -133.5t-174.5 -52.5q-134 0 -207 83.5t-73 225.5q0 151 106 240.5t287 89.5h189v133q0 115 -58 180t-162 65q-97 0 -159.5 -62t-62.5 -152l-112 1l-2 6q-5 122 92.5 217.5t249.5 95.5q150 0 242 -91.5t92 -261.5v-531 q0 -58 5 -112t18 -106h-125zM393 87q100 0 177.5 57.5t109.5 146.5v234h-192q-123 0 -196.5 -69.5t-73.5 -171.5q0 -87 46 -142t129 -55zM305 1409q0 70 46 119t111 49q64 0 109 -49t45 -119q0 -72 -45 -118.5t-109 -46.5q-66 0 -111.5 46.5t-45.5 118.5zM379 1409 q0 -40 24 -66t59 -26q33 0 56 26t23 66t-23 67t-56 27q-35 0 -59 -27.5t-24 -66.5z" />
<glyph unicode="&#xe6;" horiz-adv-x="1453" d="M1056 -21q-114 0 -199 53t-137 151q-44 -85 -136 -144.5t-223 -59.5q-140 0 -217 84.5t-77 230.5q0 157 94.5 247.5t272.5 90.5h209v88q0 131 -49.5 203.5t-144.5 72.5q-104 0 -164 -66t-60 -166l-112 13l-2 6q-4 138 89 228.5t249 90.5q100 0 172.5 -48.5t109.5 -142.5 q51 90 128 140.5t168 50.5q170 0 263 -124.5t93 -341.5v-101h-614v-25q0 -191 71 -309t216 -118q86 0 150 32t116 86l44 -90q-42 -53 -118.5 -92.5t-191.5 -39.5zM383 82q76 0 151.5 49.5t108.5 109.5v292h-208q-119 0 -183 -70t-64 -173q0 -96 49.5 -152t145.5 -56z M1027 996q-108 0 -175 -100.5t-80 -259.5h491v31q0 146 -59 237.5t-177 91.5z" />
<glyph unicode="&#xe7;" horiz-adv-x="904" d="M478 83q94 0 165 67.5t71 186.5h106l3 -6q3 -150 -101 -251t-244 -101q-187 0 -287.5 133.5t-100.5 343.5v168q0 209 100.5 343.5t287.5 134.5q151 0 249.5 -105.5t95.5 -277.5l-2 -5h-107q0 129 -67.5 205.5t-168.5 76.5q-140 0 -204 -105.5t-64 -266.5v-168 q0 -163 64 -268t204 -105zM505 -8l-9 -63q62 -9 100.5 -49t38.5 -122q0 -92 -66 -146.5t-187 -54.5l-6 80q69 0 115.5 30t46.5 89q0 56 -32.5 78.5t-114.5 30.5l24 127h90z" />
<glyph unicode="&#xe8;" horiz-adv-x="900" d="M485 -21q-175 0 -286 131.5t-111 335.5v180q0 205 111.5 340.5t268.5 135.5q170 0 264 -121.5t94 -326.5v-119h-619v-89q0 -156 75 -259.5t203 -103.5q89 0 153.5 31t110.5 88l49 -85q-49 -63 -126.5 -100.5t-186.5 -37.5zM468 996q-113 0 -185.5 -103t-75.5 -254h499v46 q0 134 -63 222.5t-175 88.5zM538 1240h-113l-212 261l3 5h152z" />
<glyph unicode="&#xe9;" horiz-adv-x="900" d="M485 -21q-175 0 -286 131.5t-111 335.5v180q0 205 111.5 340.5t268.5 135.5q170 0 264 -121.5t94 -326.5v-119h-619v-89q0 -156 75 -259.5t203 -103.5q89 0 153.5 31t110.5 88l49 -85q-49 -63 -126.5 -100.5t-186.5 -37.5zM468 996q-113 0 -185.5 -103t-75.5 -254h499v46 q0 134 -63 222.5t-175 88.5zM580 1502h147l2 -5l-221 -261h-103z" />
<glyph unicode="&#xea;" horiz-adv-x="900" d="M485 -21q-175 0 -286 131.5t-111 335.5v180q0 205 111.5 340.5t268.5 135.5q170 0 264 -121.5t94 -326.5v-119h-619v-89q0 -156 75 -259.5t203 -103.5q89 0 153.5 31t110.5 88l49 -85q-49 -63 -126.5 -100.5t-186.5 -37.5zM468 996q-113 0 -185.5 -103t-75.5 -254h499v46 q0 134 -63 222.5t-175 88.5zM713 1299v-19h-107l-133 166l-132 -166h-104v21l193 222h87z" />
<glyph unicode="&#xeb;" horiz-adv-x="900" d="M485 -21q-175 0 -286 131.5t-111 335.5v180q0 205 111.5 340.5t268.5 135.5q170 0 264 -121.5t94 -326.5v-119h-619v-89q0 -156 75 -259.5t203 -103.5q89 0 153.5 31t110.5 88l49 -85q-49 -63 -126.5 -100.5t-186.5 -37.5zM468 996q-113 0 -185.5 -103t-75.5 -254h499v46 q0 134 -63 222.5t-175 88.5zM761 1317h-161v160h161v-160zM353 1317h-163v160h163v-160z" />
<glyph unicode="&#xec;" horiz-adv-x="412" d="M264 0h-120v1082h120v-1082zM271 1218h-113l-212 261l3 5h152z" />
<glyph unicode="&#xed;" horiz-adv-x="412" d="M264 0h-120v1082h120v-1082zM311 1480h147l2 -5l-221 -261h-103z" />
<glyph unicode="&#xee;" horiz-adv-x="412" d="M264 0h-120v1082h120v-1082zM446 1277v-19h-107l-133 166l-132 -166h-104v21l193 222h87z" />
<glyph unicode="&#xef;" horiz-adv-x="412" d="M264 0h-120v1082h120v-1082zM494 1296h-161v160h161v-160zM86 1296h-163v160h163v-160z" />
<glyph unicode="&#xf0;" horiz-adv-x="1008" d="M696 1298q94 -121 143 -289.5t49 -385.5v-88q0 -245 -115.5 -400.5t-289.5 -155.5q-175 0 -287 137t-112 340q0 233 110 371t289 138q81 0 151 -36.5t113 -97.5l4 4q-16 124 -55 222.5t-97 173.5l-247 -170l-49 76l235 162q-36 33 -76.5 60.5t-83.5 49.5l37 108 q62 -29 117.5 -67t102.5 -84l210 145l50 -76zM767 625q0 9 -0.5 28t-0.5 28q-31 74 -103 125.5t-180 51.5q-132 0 -205 -114t-73 -288q0 -148 76 -259.5t205 -111.5q125 0 203 126.5t78 323.5v90z" />
<glyph unicode="&#xf1;" d="M243 1082l10 -179q43 95 114.5 147t167.5 52q145 0 222.5 -107.5t77.5 -334.5v-660h-121v659q0 185 -54 260t-157 75q-92 0 -154 -60.5t-93 -161.5v-772h-120v1082h107zM761 1501q0 -88 -47 -146.5t-117 -58.5q-61 0 -125 54.5t-107 54.5q-38 0 -64 -35t-26 -88l-74 18 q0 87 46.5 146t117.5 59q52 0 120.5 -55t111.5 -55q37 0 63.5 36t26.5 91z" />
<glyph unicode="&#xf2;" d="M86 620q0 210 108 346t290 136t290.5 -135.5t108.5 -346.5v-159q0 -213 -108 -347.5t-290 -134.5q-183 0 -291 134.5t-108 347.5v159zM207 461q0 -162 72 -270t206 -108q131 0 204 108.5t73 269.5v159q0 159 -73 267.5t-205 108.5q-133 0 -205 -108.5t-72 -267.5v-159z M555 1239h-113l-212 261l3 5h152z" />
<glyph unicode="&#xf3;" d="M86 620q0 210 108 346t290 136t290.5 -135.5t108.5 -346.5v-159q0 -213 -108 -347.5t-290 -134.5q-183 0 -291 134.5t-108 347.5v159zM207 461q0 -162 72 -270t206 -108q131 0 204 108.5t73 269.5v159q0 159 -73 267.5t-205 108.5q-133 0 -205 -108.5t-72 -267.5v-159z M597 1501h147l2 -5l-221 -261h-103z" />
<glyph unicode="&#xf4;" d="M86 620q0 210 108 346t290 136t290.5 -135.5t108.5 -346.5v-159q0 -213 -108 -347.5t-290 -134.5q-183 0 -291 134.5t-108 347.5v159zM207 461q0 -162 72 -270t206 -108q131 0 204 108.5t73 269.5v159q0 159 -73 267.5t-205 108.5q-133 0 -205 -108.5t-72 -267.5v-159z M730 1298v-19h-107l-133 166l-132 -166h-104v21l193 222h87z" />
<glyph unicode="&#xf5;" d="M86 620q0 210 108 346t290 136t290.5 -135.5t108.5 -346.5v-159q0 -213 -108 -347.5t-290 -134.5q-183 0 -291 134.5t-108 347.5v159zM207 461q0 -162 72 -270t206 -108q131 0 204 108.5t73 269.5v159q0 159 -73 267.5t-205 108.5q-133 0 -205 -108.5t-72 -267.5v-159z M764 1501q0 -88 -47 -146.5t-117 -58.5q-61 0 -125 54.5t-107 54.5q-38 0 -64 -35t-26 -88l-74 18q0 87 46.5 146t117.5 59q52 0 120.5 -55t111.5 -55q37 0 63.5 36t26.5 91z" />
<glyph unicode="&#xf6;" d="M86 620q0 210 108 346t290 136t290.5 -135.5t108.5 -346.5v-159q0 -213 -108 -347.5t-290 -134.5q-183 0 -291 134.5t-108 347.5v159zM207 461q0 -162 72 -270t206 -108q131 0 204 108.5t73 269.5v159q0 159 -73 267.5t-205 108.5q-133 0 -205 -108.5t-72 -267.5v-159z M778 1316h-161v160h161v-160zM370 1316h-163v160h163v-160z" />
<glyph unicode="&#xf7;" horiz-adv-x="984" d="M895 641h-827v120h827v-120zM552 1009h-133v162h133v-162zM552 210h-133v163h133v-163z" />
<glyph unicode="&#xf8;" horiz-adv-x="970" d="M86 620q0 210 108 346t290 136q48 0 93 -11t84 -31l63 154h87l-82 -201q73 -64 113.5 -166.5t40.5 -226.5v-159q0 -213 -108 -347.5t-290 -134.5q-45 0 -85.5 9t-76.5 25l-62 -153h-86l79 195q-81 62 -124.5 167.5t-43.5 238.5v159zM207 461q0 -90 22.5 -165.5 t66.5 -120.5l6 -1l317 782q-29 19 -63 29.5t-72 10.5q-133 0 -205 -108.5t-72 -267.5v-159zM762 620q0 81 -20 151.5t-57 116.5l-6 1l-316 -776q26 -15 56.5 -22.5t65.5 -7.5q131 0 204 108.5t73 269.5v159z" />
<glyph unicode="&#xf9;" d="M718 169q-43 -91 -114 -140.5t-166 -49.5q-144 0 -224.5 115.5t-80.5 359.5v628h120v-630q0 -197 51.5 -281.5t149.5 -84.5q103 0 167.5 55.5t92.5 152.5v788h120v-1082h-108zM554 1218h-113l-212 261l3 5h152z" />
<glyph unicode="&#xfa;" d="M718 169q-43 -91 -114 -140.5t-166 -49.5q-144 0 -224.5 115.5t-80.5 359.5v628h120v-630q0 -197 51.5 -281.5t149.5 -84.5q103 0 167.5 55.5t92.5 152.5v788h120v-1082h-108zM596 1480h147l2 -5l-221 -261h-103z" />
<glyph unicode="&#xfb;" d="M718 169q-43 -91 -114 -140.5t-166 -49.5q-144 0 -224.5 115.5t-80.5 359.5v628h120v-630q0 -197 51.5 -281.5t149.5 -84.5q103 0 167.5 55.5t92.5 152.5v788h120v-1082h-108zM729 1277v-19h-107l-133 166l-132 -166h-104v21l193 222h87z" />
<glyph unicode="&#xfc;" d="M718 169q-43 -91 -114 -140.5t-166 -49.5q-144 0 -224.5 115.5t-80.5 359.5v628h120v-630q0 -197 51.5 -281.5t149.5 -84.5q103 0 167.5 55.5t92.5 152.5v788h120v-1082h-108zM777 1296h-161v160h161v-160zM369 1296h-163v160h163v-160z" />
<glyph unicode="&#xfd;" horiz-adv-x="856" d="M397 298l28 -109h6l256 893h134l-386 -1255q-35 -108 -92.5 -186t-164.5 -78q-18 0 -45 5t-40 9l13 103q10 -2 33 -4.5t34 -2.5q61 0 99 57t61 141l45 143l-342 1068h133zM541 1480h147l2 -5l-221 -261h-103z" />
<glyph unicode="&#xfe;" horiz-adv-x="982" d="M877 446q0 -213 -91.5 -340t-252.5 -127q-91 0 -159 38t-113 110v-543h-120v416h-1v1560h121v-618q45 77 112.5 118.5t156.5 41.5q163 0 255 -138.5t92 -369.5v-148zM755 594q0 177 -65 288.5t-191 111.5q-89 0 -147.5 -53t-90.5 -138v-545q33 -82 92 -128.5t147 -46.5 q126 0 190.5 99.5t64.5 263.5v148z" />
<glyph unicode="&#xff;" horiz-adv-x="856" d="M397 298l28 -109h6l256 893h134l-386 -1255q-35 -108 -92.5 -186t-164.5 -78q-18 0 -45 5t-40 9l13 103q10 -2 33 -4.5t34 -2.5q61 0 99 57t61 141l45 143l-342 1068h133zM723 1296h-161v160h161v-160zM315 1296h-163v160h163v-160z" />
<glyph unicode="&#x100;" horiz-adv-x="1096" d="M814 404h-531l-124 -404h-124l461 1456h109l456 -1456h-124zM317 514h464l-228 749h-6zM868 1686h-595v100h595v-100z" />
<glyph unicode="&#x101;" horiz-adv-x="938" d="M698 0q-9 56 -13.5 92t-4.5 73q-49 -81 -127.5 -133.5t-174.5 -52.5q-134 0 -207 83.5t-73 225.5q0 151 106 240.5t287 89.5h189v133q0 115 -58 180t-162 65q-97 0 -159.5 -62t-62.5 -152l-112 1l-2 6q-5 122 92.5 217.5t249.5 95.5q150 0 242 -91.5t92 -261.5v-531 q0 -58 5 -112t18 -106h-125zM393 87q100 0 177.5 57.5t109.5 146.5v234h-192q-123 0 -196.5 -69.5t-73.5 -171.5q0 -87 46 -142t129 -55zM761 1364h-595v100h595v-100z" />
<glyph unicode="&#x102;" horiz-adv-x="1096" d="M814 404h-531l-124 -404h-124l461 1456h109l456 -1456h-124zM317 514h464l-228 749h-6zM816 1855l3 -6q3 -112 -65 -182.5t-185 -70.5q-118 0 -186 70.5t-64 182.5l3 6h94q0 -77 36.5 -124t116.5 -47q76 0 113.5 48t37.5 123h96z" />
<glyph unicode="&#x103;" horiz-adv-x="938" d="M698 0q-9 56 -13.5 92t-4.5 73q-49 -81 -127.5 -133.5t-174.5 -52.5q-134 0 -207 83.5t-73 225.5q0 151 106 240.5t287 89.5h189v133q0 115 -58 180t-162 65q-97 0 -159.5 -62t-62.5 -152l-112 1l-2 6q-5 122 92.5 217.5t249.5 95.5q150 0 242 -91.5t92 -261.5v-531 q0 -58 5 -112t18 -106h-125zM393 87q100 0 177.5 57.5t109.5 146.5v234h-192q-123 0 -196.5 -69.5t-73.5 -171.5q0 -87 46 -142t129 -55zM709 1533l3 -6q3 -112 -65 -182.5t-185 -70.5q-118 0 -186 70.5t-64 182.5l3 6h94q0 -77 36.5 -124t116.5 -47q76 0 113.5 48t37.5 123 h96z" />
<glyph unicode="&#x104;" horiz-adv-x="1096" d="M814 404h-531l-124 -404h-124l461 1456h109l456 -1456h-124zM317 514h464l-228 749h-6zM1046 0q-59 -59 -90.5 -107t-31.5 -104q0 -31 17 -58t58 -27q25 0 45 9t41 22l22 -85q-26 -19 -58.5 -31.5t-75.5 -12.5q-68 0 -111.5 45t-43.5 126q0 72 45 140.5t131 120.5z" />
<glyph unicode="&#x105;" horiz-adv-x="938" d="M698 0q-9 56 -13.5 92t-4.5 73q-49 -81 -127.5 -133.5t-174.5 -52.5q-134 0 -207 83.5t-73 225.5q0 151 106 240.5t287 89.5h189v133q0 115 -58 180t-162 65q-97 0 -159.5 -62t-62.5 -152l-112 1l-2 6q-5 122 92.5 217.5t249.5 95.5q150 0 242 -91.5t92 -261.5v-531 q0 -58 5 -112t18 -106h-125zM393 87q100 0 177.5 57.5t109.5 146.5v234h-192q-123 0 -196.5 -69.5t-73.5 -171.5q0 -87 46 -142t129 -55zM808 0q-59 -59 -90.5 -107t-31.5 -104q0 -31 17 -58t58 -27q25 0 45 9t41 22l22 -85q-26 -19 -58.5 -31.5t-75.5 -12.5 q-68 0 -111.5 45t-43.5 126q0 72 45 140.5t131 120.5z" />
<glyph unicode="&#x106;" horiz-adv-x="1062" d="M959 423l3 -6q-2 -213 -112 -325.5t-303 -112.5q-201 0 -319 142t-118 405v403q0 261 118.5 404.5t318.5 143.5q195 0 304 -110t111 -328l-3 -6h-111q-5 173 -80 255.5t-221 82.5q-150 0 -234 -113t-84 -326v-406q0 -217 84 -330t234 -113q146 0 221 80.5t80 259.5h111z M657 1844h147l2 -5l-221 -261h-103z" />
<glyph unicode="&#x107;" horiz-adv-x="904" d="M478 83q94 0 165 67.5t71 186.5h106l3 -6q3 -150 -101 -251t-244 -101q-187 0 -287.5 133.5t-100.5 343.5v168q0 209 100.5 343.5t287.5 134.5q151 0 249.5 -105.5t95.5 -277.5l-2 -5h-107q0 129 -67.5 205.5t-168.5 76.5q-140 0 -204 -105.5t-64 -266.5v-168 q0 -163 64 -268t204 -105zM563 1501h147l2 -5l-221 -261h-103z" />
<glyph unicode="&#x108;" horiz-adv-x="1062" d="M959 423l3 -6q-2 -213 -112 -325.5t-303 -112.5q-201 0 -319 142t-118 405v403q0 261 118.5 404.5t318.5 143.5q195 0 304 -110t111 -328l-3 -6h-111q-5 173 -80 255.5t-221 82.5q-150 0 -234 -113t-84 -326v-406q0 -217 84 -330t234 -113q146 0 221 80.5t80 259.5h111z M790 1641v-19h-107l-133 166l-132 -166h-104v21l193 222h87z" />
<glyph unicode="&#x109;" horiz-adv-x="904" d="M478 83q94 0 165 67.5t71 186.5h106l3 -6q3 -150 -101 -251t-244 -101q-187 0 -287.5 133.5t-100.5 343.5v168q0 209 100.5 343.5t287.5 134.5q151 0 249.5 -105.5t95.5 -277.5l-2 -5h-107q0 129 -67.5 205.5t-168.5 76.5q-140 0 -204 -105.5t-64 -266.5v-168 q0 -163 64 -268t204 -105zM696 1298v-19h-107l-133 166l-132 -166h-104v21l193 222h87z" />
<glyph unicode="&#x10a;" horiz-adv-x="1062" d="M959 423l3 -6q-2 -213 -112 -325.5t-303 -112.5q-201 0 -319 142t-118 405v403q0 261 118.5 404.5t318.5 143.5q195 0 304 -110t111 -328l-3 -6h-111q-5 173 -80 255.5t-221 82.5q-150 0 -234 -113t-84 -326v-406q0 -217 84 -330t234 -113q146 0 221 80.5t80 259.5h111z M621 1656h-143v170h143v-170z" />
<glyph unicode="&#x10b;" horiz-adv-x="904" d="M478 83q94 0 165 67.5t71 186.5h106l3 -6q3 -150 -101 -251t-244 -101q-187 0 -287.5 133.5t-100.5 343.5v168q0 209 100.5 343.5t287.5 134.5q151 0 249.5 -105.5t95.5 -277.5l-2 -5h-107q0 129 -67.5 205.5t-168.5 76.5q-140 0 -204 -105.5t-64 -266.5v-168 q0 -163 64 -268t204 -105zM527 1313h-143v170h143v-170z" />
<glyph unicode="&#x10c;" horiz-adv-x="1062" d="M959 423l3 -6q-2 -213 -112 -325.5t-303 -112.5q-201 0 -319 142t-118 405v403q0 261 118.5 404.5t318.5 143.5q195 0 304 -110t111 -328l-3 -6h-111q-5 173 -80 255.5t-221 82.5q-150 0 -234 -113t-84 -326v-406q0 -217 84 -330t234 -113q146 0 221 80.5t80 259.5h111z M550 1699l133 168h110v-17l-200 -226h-86l-198 226v17h109z" />
<glyph unicode="&#x10d;" horiz-adv-x="904" d="M478 83q94 0 165 67.5t71 186.5h106l3 -6q3 -150 -101 -251t-244 -101q-187 0 -287.5 133.5t-100.5 343.5v168q0 209 100.5 343.5t287.5 134.5q151 0 249.5 -105.5t95.5 -277.5l-2 -5h-107q0 129 -67.5 205.5t-168.5 76.5q-140 0 -204 -105.5t-64 -266.5v-168 q0 -163 64 -268t204 -105zM456 1356l133 168h110v-17l-200 -226h-86l-198 226v17h109z" />
<glyph unicode="&#x10e;" horiz-adv-x="1134" d="M164 0v1456h357q227 0 371 -178t144 -457v-188q0 -280 -144 -456.5t-371 -176.5h-357zM284 1350v-1246h237q176 0 285.5 149t109.5 380v191q0 229 -109.5 377.5t-285.5 148.5h-237zM514 1678l133 168h110v-17l-200 -226h-86l-198 226v17h109z" />
<glyph unicode="&#x10f;" horiz-adv-x="1119" d="M97 531q0 260 91 415.5t255 155.5q89 0 155.5 -42t111.5 -119v619h120v-1560h-106l-10 140q-45 -78 -113 -119.5t-159 -41.5q-162 0 -253.5 144.5t-91.5 386.5v21zM219 510q0 -195 61.5 -309.5t187.5 -114.5q88 0 147.5 48t94.5 134v530q-33 87 -92 141.5t-148 54.5 q-127 0 -189 -128t-62 -335v-21zM1066 1436l-79 -209h-67l47 212v120h99v-123z" />
<glyph unicode="&#x110;" horiz-adv-x="1164" d="M194 0v688h-131v104h131v664h357q227 0 371 -178t144 -457v-188q0 -280 -144 -456.5t-371 -176.5h-357zM578 688h-264v-584h237q176 0 285.5 149t109.5 380v191q0 229 -109.5 377.5t-285.5 148.5h-237v-558h264v-104z" />
<glyph unicode="&#x111;" horiz-adv-x="999" d="M981 1256h-151v-1256h-106l-10 140q-45 -78 -113 -119.5t-159 -41.5q-162 0 -253.5 144.5t-91.5 386.5v21q0 260 91 415.5t255 155.5q89 0 155.5 -42t111.5 -119v315h-244v104h244v200h120v-200h151v-104zM219 510q0 -195 61.5 -309.5t187.5 -114.5q88 0 147.5 48 t94.5 134v530q-33 87 -92 141.5t-148 54.5q-127 0 -189 -128t-62 -335v-21z" />
<glyph unicode="&#x112;" horiz-adv-x="1001" d="M856 703h-572v-599h657v-104h-777v1456h771v-106h-651v-543h572v-104zM825 1686h-595v100h595v-100z" />
<glyph unicode="&#x113;" horiz-adv-x="900" d="M485 -21q-175 0 -286 131.5t-111 335.5v180q0 205 111.5 340.5t268.5 135.5q170 0 264 -121.5t94 -326.5v-119h-619v-89q0 -156 75 -259.5t203 -103.5q89 0 153.5 31t110.5 88l49 -85q-49 -63 -126.5 -100.5t-186.5 -37.5zM468 996q-113 0 -185.5 -103t-75.5 -254h499v46 q0 134 -63 222.5t-175 88.5zM772 1365h-595v100h595v-100z" />
<glyph unicode="&#x114;" horiz-adv-x="1001" d="M856 703h-572v-599h657v-104h-777v1456h771v-106h-651v-543h572v-104zM773 1855l3 -6q3 -112 -65 -182.5t-185 -70.5q-118 0 -186 70.5t-64 182.5l3 6h94q0 -77 36.5 -124t116.5 -47q76 0 113.5 48t37.5 123h96z" />
<glyph unicode="&#x115;" horiz-adv-x="900" d="M485 -21q-175 0 -286 131.5t-111 335.5v180q0 205 111.5 340.5t268.5 135.5q170 0 264 -121.5t94 -326.5v-119h-619v-89q0 -156 75 -259.5t203 -103.5q89 0 153.5 31t110.5 88l49 -85q-49 -63 -126.5 -100.5t-186.5 -37.5zM468 996q-113 0 -185.5 -103t-75.5 -254h499v46 q0 134 -63 222.5t-175 88.5zM720 1534l3 -6q3 -112 -65 -182.5t-185 -70.5q-118 0 -186 70.5t-64 182.5l3 6h94q0 -77 36.5 -124t116.5 -47q76 0 113.5 48t37.5 123h96z" />
<glyph unicode="&#x116;" horiz-adv-x="1001" d="M856 703h-572v-599h657v-104h-777v1456h771v-106h-651v-543h572v-104zM597 1635h-143v170h143v-170z" />
<glyph unicode="&#x117;" horiz-adv-x="900" d="M485 -21q-175 0 -286 131.5t-111 335.5v180q0 205 111.5 340.5t268.5 135.5q170 0 264 -121.5t94 -326.5v-119h-619v-89q0 -156 75 -259.5t203 -103.5q89 0 153.5 31t110.5 88l49 -85q-49 -63 -126.5 -100.5t-186.5 -37.5zM468 996q-113 0 -185.5 -103t-75.5 -254h499v46 q0 134 -63 222.5t-175 88.5zM544 1314h-143v170h143v-170z" />
<glyph unicode="&#x118;" horiz-adv-x="1001" d="M856 703h-572v-599h657v-104h-777v1456h771v-106h-651v-543h572v-104zM584 0q-59 -59 -90.5 -107t-31.5 -104q0 -31 17 -58t58 -27q25 0 45 9t41 22l22 -85q-26 -19 -58.5 -31.5t-75.5 -12.5q-68 0 -111.5 45t-43.5 126q0 72 45 140.5t131 120.5z" />
<glyph unicode="&#x119;" horiz-adv-x="900" d="M485 -21q-175 0 -286 131.5t-111 335.5v180q0 205 111.5 340.5t268.5 135.5q170 0 264 -121.5t94 -326.5v-119h-619v-89q0 -156 75 -259.5t203 -103.5q89 0 153.5 31t110.5 88l49 -85q-49 -63 -126.5 -100.5t-186.5 -37.5zM468 996q-113 0 -185.5 -103t-75.5 -254h499v46 q0 134 -63 222.5t-175 88.5zM721 60q-59 -59 -90.5 -107t-31.5 -104q0 -31 17 -58t58 -27q25 0 45 9t41 22l22 -85q-26 -19 -58.5 -31.5t-75.5 -12.5q-68 0 -111.5 45t-43.5 126q0 72 45 140.5t131 120.5z" />
<glyph unicode="&#x11a;" horiz-adv-x="1001" d="M856 703h-572v-599h657v-104h-777v1456h771v-106h-651v-543h572v-104zM526 1678l133 168h110v-17l-200 -226h-86l-198 226v17h109z" />
<glyph unicode="&#x11b;" horiz-adv-x="900" d="M485 -21q-175 0 -286 131.5t-111 335.5v180q0 205 111.5 340.5t268.5 135.5q170 0 264 -121.5t94 -326.5v-119h-619v-89q0 -156 75 -259.5t203 -103.5q89 0 153.5 31t110.5 88l49 -85q-49 -63 -126.5 -100.5t-186.5 -37.5zM468 996q-113 0 -185.5 -103t-75.5 -254h499v46 q0 134 -63 222.5t-175 88.5zM473 1357l133 168h110v-17l-200 -226h-86l-198 226v17h109z" />
<glyph unicode="&#x11c;" horiz-adv-x="1192" d="M1030 198q-40 -82 -147.5 -150.5t-273.5 -68.5q-219 0 -352.5 139t-133.5 399v433q0 255 126 391t337 136q206 0 319 -107.5t118 -299.5l-2 -6h-112q-6 147 -86 227t-237 80q-159 0 -251 -107.5t-92 -311.5v-435q0 -212 99 -323t267 -111q123 0 197 44t103 107v378h-302 v105h423v-519zM813 1641v-19h-107l-133 166l-132 -166h-104v21l193 222h87z" />
<glyph unicode="&#x11d;" d="M97 594q0 230 93 369t257 139q91 0 159.5 -44.5t113.5 -126.5l12 151h102v-1083q0 -208 -97 -322t-275 -114q-64 0 -137.5 19.5t-130.5 51.5l33 105q49 -31 109 -48.5t124 -17.5q129 0 191 83t62 243v131q-46 -73 -113 -112t-155 -39q-163 0 -255.5 127.5t-92.5 339.5 v148zM218 446q0 -164 63 -262t190 -98q87 0 147 47.5t95 131.5v536q-34 86 -92.5 139.5t-147.5 53.5q-127 0 -191 -111t-64 -289v-148zM716 1298v-19h-107l-133 166l-132 -166h-104v21l193 222h87z" />
<glyph unicode="&#x11e;" horiz-adv-x="1192" d="M1030 198q-40 -82 -147.5 -150.5t-273.5 -68.5q-219 0 -352.5 139t-133.5 399v433q0 255 126 391t337 136q206 0 319 -107.5t118 -299.5l-2 -6h-112q-6 147 -86 227t-237 80q-159 0 -251 -107.5t-92 -311.5v-435q0 -212 99 -323t267 -111q123 0 197 44t103 107v378h-302 v105h423v-519zM820 1876l3 -6q3 -112 -65 -182.5t-185 -70.5q-118 0 -186 70.5t-64 182.5l3 6h94q0 -77 36.5 -124t116.5 -47q76 0 113.5 48t37.5 123h96z" />
<glyph unicode="&#x11f;" d="M97 594q0 230 93 369t257 139q91 0 159.5 -44.5t113.5 -126.5l12 151h102v-1083q0 -208 -97 -322t-275 -114q-64 0 -137.5 19.5t-130.5 51.5l33 105q49 -31 109 -48.5t124 -17.5q129 0 191 83t62 243v131q-46 -73 -113 -112t-155 -39q-163 0 -255.5 127.5t-92.5 339.5 v148zM218 446q0 -164 63 -262t190 -98q87 0 147 47.5t95 131.5v536q-34 86 -92.5 139.5t-147.5 53.5q-127 0 -191 -111t-64 -289v-148zM723 1533l3 -6q3 -112 -65 -182.5t-185 -70.5q-118 0 -186 70.5t-64 182.5l3 6h94q0 -77 36.5 -124t116.5 -47q76 0 113.5 48t37.5 123 h96z" />
<glyph unicode="&#x120;" horiz-adv-x="1192" d="M1030 198q-40 -82 -147.5 -150.5t-273.5 -68.5q-219 0 -352.5 139t-133.5 399v433q0 255 126 391t337 136q206 0 319 -107.5t118 -299.5l-2 -6h-112q-6 147 -86 227t-237 80q-159 0 -251 -107.5t-92 -311.5v-435q0 -212 99 -323t267 -111q123 0 197 44t103 107v378h-302 v105h423v-519zM644 1656h-143v170h143v-170z" />
<glyph unicode="&#x121;" d="M97 594q0 230 93 369t257 139q91 0 159.5 -44.5t113.5 -126.5l12 151h102v-1083q0 -208 -97 -322t-275 -114q-64 0 -137.5 19.5t-130.5 51.5l33 105q49 -31 109 -48.5t124 -17.5q129 0 191 83t62 243v131q-46 -73 -113 -112t-155 -39q-163 0 -255.5 127.5t-92.5 339.5 v148zM218 446q0 -164 63 -262t190 -98q87 0 147 47.5t95 131.5v536q-34 86 -92.5 139.5t-147.5 53.5q-127 0 -191 -111t-64 -289v-148zM547 1313h-143v170h143v-170z" />
<glyph unicode="&#x122;" horiz-adv-x="1192" d="M1030 198q-40 -82 -147.5 -150.5t-273.5 -68.5q-219 0 -352.5 139t-133.5 399v433q0 255 126 391t337 136q206 0 319 -107.5t118 -299.5l-2 -6h-112q-6 147 -86 227t-237 80q-159 0 -251 -107.5t-92 -311.5v-435q0 -212 99 -323t267 -111q123 0 197 44t103 107v378h-302 v105h423v-519zM627 -253l-79 -209h-67l47 212v120h99v-123z" />
<glyph unicode="&#x123;" d="M97 594q0 230 93 369t257 139q91 0 159.5 -44.5t113.5 -126.5l12 151h102v-1083q0 -208 -97 -322t-275 -114q-64 0 -137.5 19.5t-130.5 51.5l33 105q49 -31 109 -48.5t124 -17.5q129 0 191 83t62 243v131q-46 -73 -113 -112t-155 -39q-163 0 -255.5 127.5t-92.5 339.5 v148zM218 446q0 -164 63 -262t190 -98q87 0 147 47.5t95 131.5v536q-34 86 -92.5 139.5t-147.5 53.5q-127 0 -191 -111t-64 -289v-148zM414 1401l81 218h67l-28 -220v-136h-120v138z" />
<glyph unicode="&#x124;" horiz-adv-x="1221" d="M1057 0h-119v669h-654v-669h-120v1456h120v-683h654v683h119v-1456zM845 1620v-19h-107l-133 166l-132 -166h-104v21l193 222h87z" />
<glyph unicode="&#x125;" d="M256 911q45 91 117.5 141t165.5 50q143 0 220 -105.5t77 -328.5v-668h-121v670q0 174 -53.5 249t-153.5 75q-90 0 -154 -57.5t-98 -153.5v-783h-120v1560h120v-649zM659 1619v-19h-107l-133 166l-132 -166h-104v21l193 222h87z" />
<glyph unicode="&#x126;" horiz-adv-x="1196" d="M1043 1125h125v-99h-125v-1026h-119v669h-654v-669h-120v1026h-118v99h118v331h120v-331h654v331h119v-331zM270 773h654v253h-654v-253z" />
<glyph unicode="&#x127;" horiz-adv-x="999" d="M548 1256h-262v-345q45 91 117.5 141t165.5 50q143 0 220 -105.5t77 -328.5v-668h-121v670q0 174 -53.5 249t-153.5 75q-90 0 -154 -57.5t-98 -153.5v-783h-120v1256h-133v104h133v200h120v-200h262v-104z" />
<glyph unicode="&#x128;" horiz-adv-x="484" d="M302 0h-121v1456h121v-1456zM518 1823q0 -88 -47 -146.5t-117 -58.5q-61 0 -125 54.5t-107 54.5q-38 0 -64 -35t-26 -88l-74 18q0 87 46.5 146t117.5 59q52 0 120.5 -55t111.5 -55q37 0 63.5 36t26.5 91z" />
<glyph unicode="&#x129;" horiz-adv-x="412" d="M264 0h-120v1082h120v-1082zM480 1481q0 -88 -47 -146.5t-117 -58.5q-61 0 -125 54.5t-107 54.5q-38 0 -64 -35t-26 -88l-74 18q0 87 46.5 146t117.5 59q52 0 120.5 -55t111.5 -55q37 0 63.5 36t26.5 91z" />
<glyph unicode="&#x12a;" horiz-adv-x="484" d="M302 0h-121v1456h121v-1456zM543 1686h-595v100h595v-100z" />
<glyph unicode="&#x12b;" horiz-adv-x="412" d="M264 0h-120v1082h120v-1082zM505 1345h-595v100h595v-100z" />
<glyph unicode="&#x12c;" horiz-adv-x="484" d="M302 0h-121v1456h121v-1456zM491 1855l3 -6q3 -112 -65 -182.5t-185 -70.5q-118 0 -186 70.5t-64 182.5l3 6h94q0 -77 36.5 -124t116.5 -47q76 0 113.5 48t37.5 123h96z" />
<glyph unicode="&#x12d;" horiz-adv-x="412" d="M264 0h-120v1082h120v-1082zM453 1512l3 -6q3 -112 -65 -182.5t-185 -70.5q-118 0 -186 70.5t-64 182.5l3 6h94q0 -77 36.5 -124t116.5 -47q76 0 113.5 48t37.5 123h96z" />
<glyph unicode="&#x12e;" horiz-adv-x="484" d="M302 0h-121v1456h121v-1456zM289 0q-59 -59 -90.5 -107t-31.5 -104q0 -31 17 -58t58 -27q25 0 45 9t41 22l22 -85q-26 -19 -58.5 -31.5t-75.5 -12.5q-68 0 -111.5 45t-43.5 126q0 72 45 140.5t131 120.5z" />
<glyph unicode="&#x12f;" horiz-adv-x="417" d="M269 0h-121v1082h121v-1082zM269 1390h-121v170h121v-170zM255 0q-59 -59 -90.5 -107t-31.5 -104q0 -31 17 -58t58 -27q25 0 45 9t41 22l22 -85q-26 -19 -58.5 -31.5t-75.5 -12.5q-68 0 -111.5 45t-43.5 126q0 72 45 140.5t131 120.5z" />
<glyph unicode="&#x130;" horiz-adv-x="484" d="M302 0h-121v1456h121v-1456zM313 1635h-143v170h143v-170z" />
<glyph unicode="&#x131;" horiz-adv-x="412" d="M264 0h-120v1082h120v-1082z" />
<glyph unicode="&#x132;" horiz-adv-x="1437" d="M302 0h-121v1456h121v-1456zM1160 1456h120v-1044q0 -200 -99 -316.5t-258 -116.5q-171 0 -271 106.5t-96 310.5l2 5h114q0 -157 65 -237.5t186 -80.5q103 0 170 89t67 240v1044z" />
<glyph unicode="&#x133;" horiz-adv-x="849" d="M269 0h-121v1082h121v-1082zM269 1390h-121v170h121v-170zM693 1082v-1171q0 -167 -68 -257.5t-189 -90.5q-24 0 -45 5t-46 14l11 105q13 -6 35.5 -11t36.5 -5q67 0 106 61t39 179v1171h120zM693 1390h-120v170h120v-170z" />
<glyph unicode="&#x134;" horiz-adv-x="953" d="M676 1456h120v-1044q0 -200 -99 -316.5t-258 -116.5q-171 0 -271 106.5t-96 310.5l2 5h114q0 -157 65 -237.5t186 -80.5q103 0 170 89t67 240v1044zM972 1598v-19h-107l-133 166l-132 -166h-104v21l193 222h87z" />
<glyph unicode="&#x135;" horiz-adv-x="421" d="M275 1082v-1171q0 -167 -68 -257.5t-189 -90.5q-24 0 -45.5 5t-45.5 14l11 102q13 -5 38.5 -10t41.5 -5q64 0 100.5 64t36.5 178v1171h120zM456 1259v-19h-107l-133 166l-132 -166h-104v21l193 222h87z" />
<glyph unicode="&#x136;" horiz-adv-x="1104" d="M440 683h-156v-683h-120v1456h120v-669h152l461 669h140l-500 -715l536 -741h-149zM577 -253l-79 -209h-67l47 212v120h99v-123z" />
<glyph unicode="&#x137;" horiz-adv-x="864" d="M370 525h-114v-525h-119v1560h119v-929h105l305 451h145l-348 -494l388 -588h-144zM498 -253l-79 -209h-67l47 212v120h99v-123z" />
<glyph unicode="&#x138;" horiz-adv-x="948" d="M364 493h-102v-493h-121v1082h121v-479h97l352 479h147l-397 -522l433 -560h-153z" />
<glyph unicode="&#x139;" horiz-adv-x="920" d="M285 104h588v-104h-709v1456h121v-1352zM330 1760h147l2 -5l-221 -261h-103z" />
<glyph unicode="&#x13a;" horiz-adv-x="417" d="M269 0h-121v1560h121v-1560zM316 1884h147l2 -5l-221 -261h-103z" />
<glyph unicode="&#x13b;" horiz-adv-x="920" d="M285 104h588v-104h-709v1456h121v-1352zM574 -253l-79 -209h-67l47 212v120h99v-123z" />
<glyph unicode="&#x13c;" horiz-adv-x="417" d="M269 0h-121v1560h121v-1560zM257 -253l-79 -209h-67l47 212v120h99v-123z" />
<glyph unicode="&#x13d;" horiz-adv-x="920" d="M285 104h588v-104h-709v1456h121v-1352zM632 1333l-79 -209h-67l47 212v120h99v-123z" />
<glyph unicode="&#x13e;" horiz-adv-x="567" d="M269 0h-121v1560h121v-1560zM518 1436l-79 -209h-67l47 212v120h99v-123z" />
<glyph unicode="&#x13f;" horiz-adv-x="920" d="M285 104h588v-104h-709v1456h121v-1352zM657 687h-143v170h143v-170z" />
<glyph unicode="&#x140;" horiz-adv-x="637" d="M269 0h-121v1560h121v-1560zM527 698h-143v170h143v-170z" />
<glyph unicode="&#x141;" horiz-adv-x="906" d="M274 820l247 95v-111l-247 -95v-605h588v-104h-709v663l-120 -46v111l120 46v682h121v-636z" />
<glyph unicode="&#x142;" horiz-adv-x="465" d="M294 864l140 66v-112l-140 -66v-752h-121v696l-139 -65v112l139 65v752h121v-696z" />
<glyph unicode="&#x143;" horiz-adv-x="1225" d="M1061 0h-120l-650 1219l-6 -1v-1218h-121v1456h121l650 -1219l6 1v1218h120v-1456zM719 1823h147l2 -5l-221 -261h-103z" />
<glyph unicode="&#x144;" d="M243 1082l10 -179q43 95 114.5 147t167.5 52q145 0 222.5 -107.5t77.5 -334.5v-660h-121v659q0 185 -54 260t-157 75q-92 0 -154 -60.5t-93 -161.5v-772h-120v1082h107zM594 1501h147l2 -5l-221 -261h-103z" />
<glyph unicode="&#x145;" horiz-adv-x="1225" d="M1061 0h-120l-650 1219l-6 -1v-1218h-121v1456h121l650 -1219l6 1v1218h120v-1456zM658 -253l-79 -209h-67l47 212v120h99v-123z" />
<glyph unicode="&#x146;" d="M243 1082l10 -179q43 95 114.5 147t167.5 52q145 0 222.5 -107.5t77.5 -334.5v-660h-121v659q0 185 -54 260t-157 75q-92 0 -154 -60.5t-93 -161.5v-772h-120v1082h107zM533 -253l-79 -209h-67l47 212v120h99v-123z" />
<glyph unicode="&#x147;" horiz-adv-x="1225" d="M1061 0h-120l-650 1219l-6 -1v-1218h-121v1456h121l650 -1219l6 1v1218h120v-1456zM612 1678l133 168h110v-17l-200 -226h-86l-198 226v17h109z" />
<glyph unicode="&#x148;" d="M243 1082l10 -179q43 95 114.5 147t167.5 52q145 0 222.5 -107.5t77.5 -334.5v-660h-121v659q0 185 -54 260t-157 75q-92 0 -154 -60.5t-93 -161.5v-772h-120v1082h107zM487 1356l133 168h110v-17l-200 -226h-86l-198 226v17h109z" />
<glyph unicode="&#x149;" d="M243 1082l10 -179q43 95 114.5 147t167.5 52q145 0 222.5 -107.5t77.5 -334.5v-660h-121v659q0 185 -54 260t-157 75q-92 0 -154 -60.5t-93 -161.5v-772h-120v1082h107zM138 1434l-79 -209h-67l47 212v120h99v-123z" />
<glyph unicode="&#x14a;" horiz-adv-x="1202" d="M1052 1456v-1545q0 -167 -68.5 -257.5t-190.5 -90.5q-25 0 -46.5 5t-46.5 14l12 102q12 -5 38 -10t43 -5q65 0 101.5 64t36.5 178v89l-650 1210l-6 -1v-1209h-121v1456h121l650 -1213l6 1v1212h121z" />
<glyph unicode="&#x14b;" d="M243 1082l9 -172q44 92 114.5 142t164.5 50q145 0 222.5 -107.5t77.5 -334.5v-749q0 -167 -68.5 -257.5t-189.5 -90.5q-27 0 -51 5t-49 14l12 107q13 -5 41.5 -10.5t46.5 -5.5q65 0 101.5 62.5t36.5 175.5v748q0 184 -54 259.5t-158 75.5q-91 0 -151.5 -53t-91.5 -143 v-798h-120v1082h107z" />
<glyph unicode="&#x14c;" horiz-adv-x="1124" d="M1019 523q0 -265 -123.5 -404.5t-338.5 -139.5q-211 0 -331.5 139.5t-120.5 404.5v408q0 265 120 405.5t331 140.5q215 0 339 -141t124 -405v-408zM900 934q0 216 -89 325t-255 109q-161 0 -247 -109t-86 -325v-411q0 -219 86 -328t248 -109q166 0 254.5 109t88.5 328 v411zM859 1707h-595v100h595v-100z" />
<glyph unicode="&#x14d;" d="M86 620q0 210 108 346t290 136t290.5 -135.5t108.5 -346.5v-159q0 -213 -108 -347.5t-290 -134.5q-183 0 -291 134.5t-108 347.5v159zM207 461q0 -162 72 -270t206 -108q131 0 204 108.5t73 269.5v159q0 159 -73 267.5t-205 108.5q-133 0 -205 -108.5t-72 -267.5v-159z M789 1364h-595v100h595v-100z" />
<glyph unicode="&#x14e;" horiz-adv-x="1124" d="M1019 523q0 -265 -123.5 -404.5t-338.5 -139.5q-211 0 -331.5 139.5t-120.5 404.5v408q0 265 120 405.5t331 140.5q215 0 339 -141t124 -405v-408zM900 934q0 216 -89 325t-255 109q-161 0 -247 -109t-86 -325v-411q0 -219 86 -328t248 -109q166 0 254.5 109t88.5 328 v411zM807 1876l3 -6q3 -112 -65 -182.5t-185 -70.5q-118 0 -186 70.5t-64 182.5l3 6h94q0 -77 36.5 -124t116.5 -47q76 0 113.5 48t37.5 123h96z" />
<glyph unicode="&#x14f;" d="M86 620q0 210 108 346t290 136t290.5 -135.5t108.5 -346.5v-159q0 -213 -108 -347.5t-290 -134.5q-183 0 -291 134.5t-108 347.5v159zM207 461q0 -162 72 -270t206 -108q131 0 204 108.5t73 269.5v159q0 159 -73 267.5t-205 108.5q-133 0 -205 -108.5t-72 -267.5v-159z M737 1533l3 -6q3 -112 -65 -182.5t-185 -70.5q-118 0 -186 70.5t-64 182.5l3 6h94q0 -77 36.5 -124t116.5 -47q76 0 113.5 48t37.5 123h96z" />
<glyph unicode="&#x150;" horiz-adv-x="1124" d="M1019 523q0 -265 -123.5 -404.5t-338.5 -139.5q-211 0 -331.5 139.5t-120.5 404.5v408q0 265 120 405.5t331 140.5q215 0 339 -141t124 -405v-408zM900 934q0 216 -89 325t-255 109q-161 0 -247 -109t-86 -325v-411q0 -219 86 -328t248 -109q166 0 254.5 109t88.5 328 v411zM806 1888h142l3 -6l-247 -260h-109l-3 5zM553 1888h138l-206 -266h-104z" />
<glyph unicode="&#x151;" d="M86 620q0 210 108 346t290 136t290.5 -135.5t108.5 -346.5v-159q0 -213 -108 -347.5t-290 -134.5q-183 0 -291 134.5t-108 347.5v159zM207 461q0 -162 72 -270t206 -108q131 0 204 108.5t73 269.5v159q0 159 -73 267.5t-205 108.5q-133 0 -205 -108.5t-72 -267.5v-159z M736 1545h142l3 -6l-247 -260h-109l-3 5zM483 1545h138l-206 -266h-104z" />
<glyph unicode="&#x152;" horiz-adv-x="1616" d="M1529 0h-727q-80 -10 -137 -15.5t-115 -5.5q-201 0 -326.5 166t-125.5 431v304q0 265 124.5 431t326.5 166q60 0 122 -6t131 -15h721v-106h-651v-543h572v-104h-572v-599h657v-104zM550 83q52 0 103.5 3.5t98.5 11.5v1260q-48 7 -99 11t-104 4q-153 0 -242 -131.5 t-89 -359.5v-306q0 -227 90 -360t242 -133z" />
<glyph unicode="&#x153;" horiz-adv-x="1575" d="M88 556q0 240 108 393t289 153q116 0 204.5 -66t138.5 -182q51 115 137 181.5t186 66.5q171 0 265 -125.5t94 -338.5v-103h-619v-25q0 -184 75 -305.5t202 -121.5q90 0 154.5 31t110.5 88l49 -85q-49 -64 -126.5 -101t-187.5 -37q-112 0 -201.5 64.5t-139.5 179.5 q-50 -115 -138 -179.5t-202 -64.5q-183 0 -291 152t-108 393v32zM208 524q0 -188 72.5 -314.5t206.5 -126.5q131 0 203.5 126.5t72.5 314.5v32q0 185 -73 312.5t-205 127.5t-204.5 -127.5t-72.5 -312.5v-32zM1151 996q-101 0 -171.5 -101t-85.5 -256h496v30q0 141 -63.5 234 t-175.5 93z" />
<glyph unicode="&#x154;" horiz-adv-x="1137" d="M282 657v-657h-120v1455h418q196 0 300 -103t104 -300q0 -116 -55 -206.5t-156 -133.5q111 -34 159.5 -122t48.5 -219v-137q0 -68 13 -122t44 -88v-24h-123q-31 36 -42.5 100t-11.5 136v133q0 132 -67 210t-184 78h-328zM282 761h284q154 0 225.5 78.5t71.5 213.5 q0 143 -70 220t-213 77h-298v-589zM625 1823h147l2 -5l-221 -261h-103z" />
<glyph unicode="&#x155;" horiz-adv-x="601" d="M555 974l-79 6q-84 0 -139 -56.5t-81 -155.5v-768h-120v1082h106l14 -179q38 94 100.5 146.5t146.5 52.5q19 0 38 -3.5t30 -7.5zM458 1501h147l2 -5l-221 -261h-103z" />
<glyph unicode="&#x156;" horiz-adv-x="1137" d="M282 657v-657h-120v1455h418q196 0 300 -103t104 -300q0 -116 -55 -206.5t-156 -133.5q111 -34 159.5 -122t48.5 -219v-137q0 -68 13 -122t44 -88v-24h-123q-31 36 -42.5 100t-11.5 136v133q0 132 -67 210t-184 78h-328zM282 761h284q154 0 225.5 78.5t71.5 213.5 q0 143 -70 220t-213 77h-298v-589zM564 -253l-79 -209h-67l47 212v120h99v-123z" />
<glyph unicode="&#x157;" horiz-adv-x="601" d="M555 974l-79 6q-84 0 -139 -56.5t-81 -155.5v-768h-120v1082h106l14 -179q38 94 100.5 146.5t146.5 52.5q19 0 38 -3.5t30 -7.5zM252 -253l-79 -209h-67l47 212v120h99v-123z" />
<glyph unicode="&#x158;" horiz-adv-x="1137" d="M282 657v-657h-120v1455h418q196 0 300 -103t104 -300q0 -116 -55 -206.5t-156 -133.5q111 -34 159.5 -122t48.5 -219v-137q0 -68 13 -122t44 -88v-24h-123q-31 36 -42.5 100t-11.5 136v133q0 132 -67 210t-184 78h-328zM282 761h284q154 0 225.5 78.5t71.5 213.5 q0 143 -70 220t-213 77h-298v-589zM518 1678l133 168h110v-17l-200 -226h-86l-198 226v17h109z" />
<glyph unicode="&#x159;" horiz-adv-x="601" d="M555 974l-79 6q-84 0 -139 -56.5t-81 -155.5v-768h-120v1082h106l14 -179q38 94 100.5 146.5t146.5 52.5q19 0 38 -3.5t30 -7.5zM353 1356l133 168h110v-17l-200 -226h-86l-198 226v17h109z" />
<glyph unicode="&#x15a;" horiz-adv-x="1044" d="M842 357q0 119 -69.5 193.5t-244.5 131.5q-199 61 -301.5 157.5t-102.5 258.5q0 167 114.5 273t295.5 106q190 0 305.5 -125t112.5 -305l-3 -6h-113q0 145 -80.5 237.5t-221.5 92.5q-137 0 -213 -77t-76 -193q0 -108 73.5 -181.5t249.5 -128.5q194 -60 294.5 -162.5 t100.5 -269.5q0 -175 -118.5 -277.5t-304.5 -102.5q-183 0 -318.5 110t-130.5 319l2 6h112q0 -170 98.5 -250.5t236.5 -80.5q136 0 219 75t83 199zM626 1844h147l2 -5l-221 -261h-103z" />
<glyph unicode="&#x15b;" horiz-adv-x="865" d="M656 259q0 74 -48.5 127.5t-177.5 112.5q-165 68 -241.5 138.5t-76.5 184.5q0 116 91 198t236 82q154 0 244 -91t86 -227l-2 -6h-113q0 88 -58 153t-157 65q-101 0 -154 -51t-53 -119q0 -72 42 -115.5t180 -109.5q162 -65 242 -141.5t80 -193.5q0 -129 -92.5 -208 t-244.5 -79q-167 0 -261.5 94.5t-89.5 224.5l2 6h112q6 -116 75 -168.5t162 -52.5q101 0 159 51t58 125zM551 1501h147l2 -5l-221 -261h-103z" />
<glyph unicode="&#x15c;" horiz-adv-x="1044" d="M842 357q0 119 -69.5 193.5t-244.5 131.5q-199 61 -301.5 157.5t-102.5 258.5q0 167 114.5 273t295.5 106q190 0 305.5 -125t112.5 -305l-3 -6h-113q0 145 -80.5 237.5t-221.5 92.5q-137 0 -213 -77t-76 -193q0 -108 73.5 -181.5t249.5 -128.5q194 -60 294.5 -162.5 t100.5 -269.5q0 -175 -118.5 -277.5t-304.5 -102.5q-183 0 -318.5 110t-130.5 319l2 6h112q0 -170 98.5 -250.5t236.5 -80.5q136 0 219 75t83 199zM759 1641v-19h-107l-133 166l-132 -166h-104v21l193 222h87z" />
<glyph unicode="&#x15d;" horiz-adv-x="865" d="M656 259q0 74 -48.5 127.5t-177.5 112.5q-165 68 -241.5 138.5t-76.5 184.5q0 116 91 198t236 82q154 0 244 -91t86 -227l-2 -6h-113q0 88 -58 153t-157 65q-101 0 -154 -51t-53 -119q0 -72 42 -115.5t180 -109.5q162 -65 242 -141.5t80 -193.5q0 -129 -92.5 -208 t-244.5 -79q-167 0 -261.5 94.5t-89.5 224.5l2 6h112q6 -116 75 -168.5t162 -52.5q101 0 159 51t58 125zM684 1298v-19h-107l-133 166l-132 -166h-104v21l193 222h87z" />
<glyph unicode="&#x15e;" horiz-adv-x="1044" d="M842 357q0 119 -69.5 193.5t-244.5 131.5q-199 61 -301.5 157.5t-102.5 258.5q0 167 114.5 273t295.5 106q190 0 305.5 -125t112.5 -305l-3 -6h-113q0 145 -80.5 237.5t-221.5 92.5q-137 0 -213 -77t-76 -193q0 -108 73.5 -181.5t249.5 -128.5q194 -60 294.5 -162.5 t100.5 -269.5q0 -175 -118.5 -277.5t-304.5 -102.5q-183 0 -318.5 110t-130.5 319l2 6h112q0 -170 98.5 -250.5t236.5 -80.5q136 0 219 75t83 199zM568 -8l-9 -63q62 -9 100.5 -49t38.5 -122q0 -92 -66 -146.5t-187 -54.5l-6 80q69 0 115.5 30t46.5 89q0 56 -32.5 78.5 t-114.5 30.5l24 127h90z" />
<glyph unicode="&#x15f;" horiz-adv-x="865" d="M656 259q0 74 -48.5 127.5t-177.5 112.5q-165 68 -241.5 138.5t-76.5 184.5q0 116 91 198t236 82q154 0 244 -91t86 -227l-2 -6h-113q0 88 -58 153t-157 65q-101 0 -154 -51t-53 -119q0 -72 42 -115.5t180 -109.5q162 -65 242 -141.5t80 -193.5q0 -129 -92.5 -208 t-244.5 -79q-167 0 -261.5 94.5t-89.5 224.5l2 6h112q6 -116 75 -168.5t162 -52.5q101 0 159 51t58 125zM493 -5l-9 -63q62 -9 100.5 -49t38.5 -122q0 -92 -66 -146.5t-187 -54.5l-6 80q69 0 115.5 30t46.5 89q0 56 -32.5 78.5t-114.5 30.5l24 127h90z" />
<glyph unicode="&#x160;" horiz-adv-x="1044" d="M842 357q0 119 -69.5 193.5t-244.5 131.5q-199 61 -301.5 157.5t-102.5 258.5q0 167 114.5 273t295.5 106q190 0 305.5 -125t112.5 -305l-3 -6h-113q0 145 -80.5 237.5t-221.5 92.5q-137 0 -213 -77t-76 -193q0 -108 73.5 -181.5t249.5 -128.5q194 -60 294.5 -162.5 t100.5 -269.5q0 -175 -118.5 -277.5t-304.5 -102.5q-183 0 -318.5 110t-130.5 319l2 6h112q0 -170 98.5 -250.5t236.5 -80.5q136 0 219 75t83 199zM519 1699l133 168h110v-17l-200 -226h-86l-198 226v17h109z" />
<glyph unicode="&#x161;" horiz-adv-x="865" d="M656 259q0 74 -48.5 127.5t-177.5 112.5q-165 68 -241.5 138.5t-76.5 184.5q0 116 91 198t236 82q154 0 244 -91t86 -227l-2 -6h-113q0 88 -58 153t-157 65q-101 0 -154 -51t-53 -119q0 -72 42 -115.5t180 -109.5q162 -65 242 -141.5t80 -193.5q0 -129 -92.5 -208 t-244.5 -79q-167 0 -261.5 94.5t-89.5 224.5l2 6h112q6 -116 75 -168.5t162 -52.5q101 0 159 51t58 125zM444 1356l133 168h110v-17l-200 -226h-86l-198 226v17h109z" />
<glyph unicode="&#x162;" horiz-adv-x="1020" d="M976 1350h-407v-1350h-120v1350h-406v106h933v-106zM557 -253l-79 -209h-67l47 212v120h99v-123z" />
<glyph unicode="&#x163;" horiz-adv-x="592" d="M313 1358v-276h188v-101h-188v-702q0 -105 30 -149t79 -44q24 0 47 3t52 9l16 -92q-24 -12 -62.5 -19.5t-77.5 -7.5q-96 0 -150.5 72t-54.5 228v702h-150v101h150v276h121zM436 -253l-79 -209h-67l47 212v120h99v-123z" />
<glyph unicode="&#x164;" horiz-adv-x="1020" d="M976 1350h-407v-1350h-120v1350h-406v106h933v-106zM510 1673l133 168h110v-17l-200 -226h-86l-198 226v17h109z" />
<glyph unicode="&#x165;" horiz-adv-x="632" d="M313 1358v-276h188v-101h-188v-702q0 -105 30 -149t79 -44q24 0 47 3t52 9l16 -92q-24 -12 -62.5 -19.5t-77.5 -7.5q-96 0 -150.5 72t-54.5 228v702h-150v101h150v276h121zM579 1440l-79 -209h-67l47 212v120h99v-123z" />
<glyph unicode="&#x166;" horiz-adv-x="1020" d="M759 833h-190v-833h-120v833h-205v104h205v413h-406v106h933v-106h-407v-413h190v-104z" />
<glyph unicode="&#x167;" horiz-adv-x="592" d="M313 1358v-276h188v-101h-188v-261h222v-104h-222v-337q0 -105 30 -149t79 -44q24 0 47 3t52 9l16 -92q-24 -12 -62.5 -19.5t-77.5 -7.5q-96 0 -150.5 72t-54.5 228v337h-172v104h172v261h-150v101h150v276h121z" />
<glyph unicode="&#x168;" horiz-adv-x="1119" d="M985 1456v-1019q0 -223 -119 -340.5t-310 -117.5q-187 0 -303 117.5t-116 340.5v1019h118v-1019q0 -171 83.5 -262.5t217.5 -91.5q141 0 225.5 87.5t84.5 266.5v1019h119zM839 1823q0 -88 -47 -146.5t-117 -58.5q-61 0 -125 54.5t-107 54.5q-38 0 -64 -35t-26 -88l-74 18 q0 87 46.5 146t117.5 59q52 0 120.5 -55t111.5 -55q37 0 63.5 36t26.5 91z" />
<glyph unicode="&#x169;" d="M718 169q-43 -91 -114 -140.5t-166 -49.5q-144 0 -224.5 115.5t-80.5 359.5v628h120v-630q0 -197 51.5 -281.5t149.5 -84.5q103 0 167.5 55.5t92.5 152.5v788h120v-1082h-108zM763 1481q0 -88 -47 -146.5t-117 -58.5q-61 0 -125 54.5t-107 54.5q-38 0 -64 -35t-26 -88 l-74 18q0 87 46.5 146t117.5 59q52 0 120.5 -55t111.5 -55q37 0 63.5 36t26.5 91z" />
<glyph unicode="&#x16a;" horiz-adv-x="1119" d="M985 1456v-1019q0 -223 -119 -340.5t-310 -117.5q-187 0 -303 117.5t-116 340.5v1019h118v-1019q0 -171 83.5 -262.5t217.5 -91.5q141 0 225.5 87.5t84.5 266.5v1019h119zM864 1686h-595v100h595v-100z" />
<glyph unicode="&#x16b;" d="M718 169q-43 -91 -114 -140.5t-166 -49.5q-144 0 -224.5 115.5t-80.5 359.5v628h120v-630q0 -197 51.5 -281.5t149.5 -84.5q103 0 167.5 55.5t92.5 152.5v788h120v-1082h-108zM788 1345h-595v100h595v-100z" />
<glyph unicode="&#x16c;" horiz-adv-x="1119" d="M985 1456v-1019q0 -223 -119 -340.5t-310 -117.5q-187 0 -303 117.5t-116 340.5v1019h118v-1019q0 -171 83.5 -262.5t217.5 -91.5q141 0 225.5 87.5t84.5 266.5v1019h119zM812 1855l3 -6q3 -112 -65 -182.5t-185 -70.5q-118 0 -186 70.5t-64 182.5l3 6h94 q0 -77 36.5 -124t116.5 -47q76 0 113.5 48t37.5 123h96z" />
<glyph unicode="&#x16d;" d="M718 169q-43 -91 -114 -140.5t-166 -49.5q-144 0 -224.5 115.5t-80.5 359.5v628h120v-630q0 -197 51.5 -281.5t149.5 -84.5q103 0 167.5 55.5t92.5 152.5v788h120v-1082h-108zM736 1512l3 -6q3 -112 -65 -182.5t-185 -70.5q-118 0 -186 70.5t-64 182.5l3 6h94 q0 -77 36.5 -124t116.5 -47q76 0 113.5 48t37.5 123h96z" />
<glyph unicode="&#x16e;" horiz-adv-x="1119" d="M985 1456v-1019q0 -223 -119 -340.5t-310 -117.5q-187 0 -303 117.5t-116 340.5v1019h118v-1019q0 -171 83.5 -262.5t217.5 -91.5q141 0 225.5 87.5t84.5 266.5v1019h119zM408 1731q0 70 46 119t111 49q64 0 109 -49t45 -119q0 -72 -45 -118.5t-109 -46.5 q-66 0 -111.5 46.5t-45.5 118.5zM482 1731q0 -40 24 -66t59 -26q33 0 56 26t23 66t-23 67t-56 27q-35 0 -59 -27.5t-24 -66.5z" />
<glyph unicode="&#x16f;" d="M718 169q-43 -91 -114 -140.5t-166 -49.5q-144 0 -224.5 115.5t-80.5 359.5v628h120v-630q0 -197 51.5 -281.5t149.5 -84.5q103 0 167.5 55.5t92.5 152.5v788h120v-1082h-108zM332 1388q0 70 46 119t111 49q64 0 109 -49t45 -119q0 -72 -45 -118.5t-109 -46.5 q-66 0 -111.5 46.5t-45.5 118.5zM406 1388q0 -40 24 -66t59 -26q33 0 56 26t23 66t-23 67t-56 27q-35 0 -59 -27.5t-24 -66.5z" />
<glyph unicode="&#x170;" horiz-adv-x="1119" d="M985 1456v-1019q0 -223 -119 -340.5t-310 -117.5q-187 0 -303 117.5t-116 340.5v1019h118v-1019q0 -171 83.5 -262.5t217.5 -91.5q141 0 225.5 87.5t84.5 266.5v1019h119zM811 1867h142l3 -6l-247 -260h-109l-3 5zM558 1867h138l-206 -266h-104z" />
<glyph unicode="&#x171;" d="M718 169q-43 -91 -114 -140.5t-166 -49.5q-144 0 -224.5 115.5t-80.5 359.5v628h120v-630q0 -197 51.5 -281.5t149.5 -84.5q103 0 167.5 55.5t92.5 152.5v788h120v-1082h-108zM735 1524h142l3 -6l-247 -260h-109l-3 5zM482 1524h138l-206 -266h-104z" />
<glyph unicode="&#x172;" horiz-adv-x="1119" d="M985 1456v-1019q0 -223 -119 -340.5t-310 -117.5q-187 0 -303 117.5t-116 340.5v1019h118v-1019q0 -171 83.5 -262.5t217.5 -91.5q141 0 225.5 87.5t84.5 266.5v1019h119zM643 0q-59 -59 -90.5 -107t-31.5 -104q0 -31 17 -58t58 -27q25 0 45 9t41 22l22 -85 q-26 -19 -58.5 -31.5t-75.5 -12.5q-68 0 -111.5 45t-43.5 126q0 72 45 140.5t131 120.5z" />
<glyph unicode="&#x173;" d="M718 169q-43 -91 -114 -140.5t-166 -49.5q-144 0 -224.5 115.5t-80.5 359.5v628h120v-630q0 -197 51.5 -281.5t149.5 -84.5q103 0 167.5 55.5t92.5 152.5v788h120v-1082h-108zM817 0q-59 -59 -90.5 -107t-31.5 -104q0 -31 17 -58t58 -27q25 0 45 9t41 22l22 -85 q-26 -19 -58.5 -31.5t-75.5 -12.5q-68 0 -111.5 45t-43.5 126q0 72 45 140.5t131 120.5z" />
<glyph unicode="&#x174;" horiz-adv-x="1531" d="M385 417l31 -197l6 -1l41 198l244 1039h110l246 -1039l40 -200h6l33 200l205 1039h122l-304 -1456h-111l-260 1111l-28 135h-6l-26 -135l-264 -1111h-111l-303 1456h121zM1002 1620v-19h-107l-133 166l-132 -166h-104v21l193 222h87z" />
<glyph unicode="&#x175;" horiz-adv-x="1302" d="M340 353l29 -169h6l36 169l188 729h100l186 -729l37 -177h6l33 177l156 729h122l-261 -1082h-100l-190 735l-39 173h-6l-37 -173l-188 -735h-100l-260 1082h121zM888 1277v-19h-107l-133 166l-132 -166h-104v21l193 222h87z" />
<glyph unicode="&#x176;" horiz-adv-x="1056" d="M524 685h6l352 771h137l-433 -922v-534h-120v540l-431 916h139zM767 1613v-19h-107l-133 166l-132 -166h-104v21l193 222h87z" />
<glyph unicode="&#x177;" horiz-adv-x="856" d="M397 298l28 -109h6l256 893h134l-386 -1255q-35 -108 -92.5 -186t-164.5 -78q-18 0 -45 5t-40 9l13 103q10 -2 33 -4.5t34 -2.5q61 0 99 57t61 141l45 143l-342 1068h133zM674 1277v-19h-107l-133 166l-132 -166h-104v21l193 222h87z" />
<glyph unicode="&#x178;" horiz-adv-x="1056" d="M524 685h6l352 771h137l-433 -922v-534h-120v540l-431 916h139zM815 1631h-161v160h161v-160zM407 1631h-163v160h163v-160z" />
<glyph unicode="&#x179;" horiz-adv-x="995" d="M213 104h700v-104h-827v95l671 1256h-655v105h785v-90zM601 1823h147l2 -5l-221 -261h-103z" />
<glyph unicode="&#x17a;" horiz-adv-x="826" d="M215 104h549v-104h-683v90l512 885h-500v107h637v-91zM534 1480h147l2 -5l-221 -261h-103z" />
<glyph unicode="&#x17b;" horiz-adv-x="995" d="M213 104h700v-104h-827v95l671 1256h-655v105h785v-90zM565 1635h-143v170h143v-170z" />
<glyph unicode="&#x17c;" horiz-adv-x="826" d="M215 104h549v-104h-683v90l512 885h-500v107h637v-91zM498 1292h-143v170h143v-170z" />
<glyph unicode="&#x17d;" horiz-adv-x="995" d="M213 104h700v-104h-827v95l671 1256h-655v105h785v-90zM494 1678l133 168h110v-17l-200 -226h-86l-198 226v17h109z" />
<glyph unicode="&#x17e;" horiz-adv-x="826" d="M215 104h549v-104h-683v90l512 885h-500v107h637v-91zM427 1335l133 168h110v-17l-200 -226h-86l-198 226v17h109z" />
<glyph unicode="&#x17f;" horiz-adv-x="417" d="M145 0v1238q0 164 70.5 253.5t196.5 89.5q27 0 56.5 -5.5t58.5 -14.5l-16 -98q-20 5 -39 8.5t-44 3.5q-78 0 -120 -62.5t-42 -174.5v-1238h-121z" />
<glyph unicode="&#x192;" horiz-adv-x="582" d="M509 981h-190v-1070q0 -167 -68 -257.5t-189 -90.5q-26 0 -47.5 5t-43.5 14l11 102q12 -5 37.5 -10t42.5 -5q65 0 101 64t36 178v1070h-145v101h145v156q0 164 70.5 253.5t195.5 89.5q28 0 57 -5.5t58 -14.5l-14 -101q-20 6 -41 9.5t-46 3.5q-79 0 -119.5 -61t-40.5 -174 v-156h190v-101z" />
<glyph unicode="&#x1a0;" horiz-adv-x="1195" d="M1026 523q0 -265 -123.5 -404.5t-338.5 -139.5q-211 0 -331.5 139.5t-120.5 404.5v408q0 265 120 405.5t331 140.5q125 0 222 -49.5t156 -144.5q107 11 162.5 99.5t55.5 244.5h121q0 -191 -76 -306t-216 -139q18 -54 28 -117t10 -134v-408zM907 934q0 216 -89 325 t-255 109q-161 0 -247 -109t-86 -325v-411q0 -219 86 -328t248 -109q166 0 254.5 109t88.5 328v411z" />
<glyph unicode="&#x1a1;" horiz-adv-x="976" d="M86 620q0 210 108 346t290 136q91 0 165.5 -36.5t127.5 -102.5q77 17 115.5 88t38.5 188h111q0 -144 -55.5 -235t-159.5 -120q27 -57 41.5 -124t14.5 -140v-159q0 -213 -108 -347.5t-290 -134.5q-183 0 -291 134.5t-108 347.5v159zM207 461q0 -162 72 -270t206 -108 q131 0 204 108.5t73 269.5v159q0 159 -73 267.5t-205 108.5q-133 0 -205 -108.5t-72 -267.5v-159z" />
<glyph unicode="&#x1af;" horiz-adv-x="1184" d="M985 1456v-208l6 -2q108 9 166 98.5t58 245.5h121q0 -204 -91.5 -320t-259.5 -130v-703q0 -223 -119 -340.5t-310 -117.5q-187 0 -303 117.5t-116 340.5v1019h118v-1019q0 -171 83.5 -262.5t217.5 -91.5q141 0 225.5 87.5t84.5 266.5v1019h119z" />
<glyph unicode="&#x1b0;" horiz-adv-x="1044" d="M1082 1210q0 -155 -62 -241.5t-186 -101.5v-867h-108l-8 169q-43 -91 -114 -140.5t-166 -49.5q-144 0 -224.5 115.5t-80.5 359.5v628h120v-630q0 -197 51.5 -281.5t149.5 -84.5q103 0 167.5 55.5t92.5 152.5v788h120v-121l6 -2q72 8 106.5 71.5t34.5 179.5h101z" />
<glyph unicode="&#x1f0;" horiz-adv-x="421" d="M275 1082v-1171q0 -167 -68 -257.5t-189 -90.5q-24 0 -45.5 5t-45.5 14l11 102q13 -5 38.5 -10t41.5 -5q64 0 100.5 64t36.5 178v1171h120zM216 1317l133 168h110v-17l-200 -226h-86l-198 226v17h109z" />
<glyph unicode="&#x1fa;" horiz-adv-x="1096" d="M814 404h-531l-124 -404h-124l461 1456h109l456 -1456h-124zM317 514h464l-228 749h-6zM667 2082h126l2 -5l-168 -198h-88zM437 1673q0 65 39 110t95 45q54 0 93 -45t39 -110t-39 -108t-93 -43q-56 0 -95 43t-39 108zM499 1673q0 -36 20.5 -61t51.5 -25q29 0 49.5 24.5 t20.5 61.5q0 38 -20.5 64t-49.5 26q-31 0 -51.5 -26t-20.5 -64z" />
<glyph unicode="&#x1fb;" horiz-adv-x="938" d="M698 0q-9 56 -13.5 92t-4.5 73q-49 -81 -127.5 -133.5t-174.5 -52.5q-134 0 -207 83.5t-73 225.5q0 151 106 240.5t287 89.5h189v133q0 115 -58 180t-162 65q-97 0 -159.5 -62t-62.5 -152l-112 1l-2 6q-5 122 92.5 217.5t249.5 95.5q150 0 242 -91.5t92 -261.5v-531 q0 -58 5 -112t18 -106h-125zM393 87q100 0 177.5 57.5t109.5 146.5v234h-192q-123 0 -196.5 -69.5t-73.5 -171.5q0 -87 46 -142t129 -55zM560 1760h126l2 -5l-168 -198h-88zM330 1351q0 65 39 110t95 45q54 0 93 -45t39 -110t-39 -108t-93 -43q-56 0 -95 43t-39 108z M392 1351q0 -36 20.5 -61t51.5 -25q29 0 49.5 24.5t20.5 61.5q0 38 -20.5 64t-49.5 26q-31 0 -51.5 -26t-20.5 -64z" />
<glyph unicode="&#x1fc;" horiz-adv-x="1579" d="M1538 0h-699l-14 387h-478l-187 -387h-147l730 1456h744v-106h-575l19 -540h488v-104h-484l21 -602h582v-104zM403 503h418l-27 789h-6l1 6zM901 1823h147l2 -5l-221 -261h-103z" />
<glyph unicode="&#x1fd;" horiz-adv-x="1453" d="M1056 -21q-114 0 -199 53t-137 151q-44 -85 -136 -144.5t-223 -59.5q-140 0 -217 84.5t-77 230.5q0 157 94.5 247.5t272.5 90.5h209v88q0 131 -49.5 203.5t-144.5 72.5q-104 0 -164 -66t-60 -166l-112 13l-2 6q-4 138 89 228.5t249 90.5q100 0 172.5 -48.5t109.5 -142.5 q51 90 128 140.5t168 50.5q170 0 263 -124.5t93 -341.5v-101h-614v-25q0 -191 71 -309t216 -118q86 0 150 32t116 86l44 -90q-42 -53 -118.5 -92.5t-191.5 -39.5zM383 82q76 0 151.5 49.5t108.5 109.5v292h-208q-119 0 -183 -70t-64 -173q0 -96 49.5 -152t145.5 -56z M1027 996q-108 0 -175 -100.5t-80 -259.5h491v31q0 146 -59 237.5t-177 91.5zM828 1502h147l2 -5l-221 -261h-103z" />
<glyph unicode="&#x1fe;" horiz-adv-x="1166" d="M1019 523q0 -265 -123.5 -404.5t-338.5 -139.5q-73 0 -135.5 16.5t-113.5 50.5l-66 -131h-98l95 188q-66 69 -100 174.5t-34 245.5v408q0 265 120 405.5t331 140.5q97 0 177 -30t140 -88l75 147h99l-113 -223q41 -67 63 -155.5t22 -196.5v-408zM223 523q0 -101 17.5 -177 t52.5 -123l6 -1l519 1028q-45 58 -111 88t-151 30q-161 0 -247 -109t-86 -325v-411zM900 934q0 64 -8 117.5t-23 91.5l-5 1l-505 -999q38 -30 88 -44.5t110 -14.5q166 0 254.5 109t88.5 328v411zM699 1885h147l2 -5l-221 -261h-103z" />
<glyph unicode="&#x1ff;" horiz-adv-x="970" d="M86 620q0 210 108 346t290 136q48 0 93 -11t84 -31l63 154h87l-82 -201q73 -64 113.5 -166.5t40.5 -226.5v-159q0 -213 -108 -347.5t-290 -134.5q-45 0 -85.5 9t-76.5 25l-62 -153h-86l79 195q-81 62 -124.5 167.5t-43.5 238.5v159zM207 461q0 -90 22.5 -165.5 t66.5 -120.5l6 -1l317 782q-29 19 -63 29.5t-72 10.5q-133 0 -205 -108.5t-72 -267.5v-159zM762 620q0 81 -20 151.5t-57 116.5l-6 1l-316 -776q26 -15 56.5 -22.5t65.5 -7.5q131 0 204 108.5t73 269.5v159zM554 1500h147l2 -5l-221 -261h-103z" />
<glyph unicode="&#x218;" horiz-adv-x="1044" d="M842 357q0 119 -69.5 193.5t-244.5 131.5q-199 61 -301.5 157.5t-102.5 258.5q0 167 114.5 273t295.5 106q190 0 305.5 -125t112.5 -305l-3 -6h-113q0 145 -80.5 237.5t-221.5 92.5q-137 0 -213 -77t-76 -193q0 -108 73.5 -181.5t249.5 -128.5q194 -60 294.5 -162.5 t100.5 -269.5q0 -175 -118.5 -277.5t-304.5 -102.5q-183 0 -318.5 110t-130.5 319l2 6h112q0 -170 98.5 -250.5t236.5 -80.5q136 0 219 75t83 199zM565 -253l-79 -209h-67l47 212v120h99v-123z" />
<glyph unicode="&#x219;" horiz-adv-x="865" d="M656 259q0 74 -48.5 127.5t-177.5 112.5q-165 68 -241.5 138.5t-76.5 184.5q0 116 91 198t236 82q154 0 244 -91t86 -227l-2 -6h-113q0 88 -58 153t-157 65q-101 0 -154 -51t-53 -119q0 -72 42 -115.5t180 -109.5q162 -65 242 -141.5t80 -193.5q0 -129 -92.5 -208 t-244.5 -79q-167 0 -261.5 94.5t-89.5 224.5l2 6h112q6 -116 75 -168.5t162 -52.5q101 0 159 51t58 125zM490 -253l-79 -209h-67l47 212v120h99v-123z" />
<glyph unicode="&#x21a;" horiz-adv-x="1020" d="M976 1350h-407v-1350h-120v1350h-406v106h933v-106zM560 4l-9 -63q62 -9 100.5 -49t38.5 -122q0 -92 -66 -146.5t-187 -54.5l-6 80q69 0 115.5 30t46.5 89q0 56 -32.5 78.5t-114.5 30.5l24 127h90z" />
<glyph unicode="&#x21b;" horiz-adv-x="592" d="M313 1358v-276h188v-101h-188v-702q0 -105 30 -149t79 -44q24 0 47 3t52 9l16 -92q-24 -12 -62.5 -19.5t-77.5 -7.5q-96 0 -150.5 72t-54.5 228v702h-150v101h150v276h121zM439 0l-9 -63q62 -9 100.5 -49t38.5 -122q0 -92 -66 -146.5t-187 -54.5l-6 80q69 0 115.5 30 t46.5 89q0 56 -32.5 78.5t-114.5 30.5l24 127h90z" />
<glyph unicode="&#x237;" horiz-adv-x="421" d="M275 1082v-1171q0 -167 -68 -257.5t-189 -90.5q-24 0 -45.5 5t-45.5 14l11 102q13 -5 38.5 -10t41.5 -5q64 0 100.5 64t36.5 178v1171h120z" />
<glyph unicode="&#x259;" horiz-adv-x="900" d="M428 1102q174 0 286 -150t112 -381v-54q0 -233 -112 -385t-268 -151q-172 0 -265 124t-93 337v103h618v26q0 182 -76 304.5t-202 122.5q-90 0 -154 -31.5t-109 -88.5l-50 86q48 62 125.5 100t187.5 38zM446 84q100 0 170 100t86 257h-495v-29q0 -142 63 -235t176 -93z " />
<glyph unicode="&#x2bc;" horiz-adv-x="335" d="M253 1380l-106 -309h-66l51 306v183h121v-180z" />
<glyph unicode="&#x2c6;" horiz-adv-x="774" d="M621 1271v-19h-107l-133 166l-132 -166h-104v21l193 222h87z" />
<glyph unicode="&#x2c7;" horiz-adv-x="734" d="M364 1327l133 168h110v-17l-200 -226h-86l-198 226v17h109z" />
<glyph unicode="&#x2d8;" horiz-adv-x="775" d="M629 1456l3 -6q3 -112 -65 -182.5t-185 -70.5q-118 0 -186 70.5t-64 182.5l3 6h94q0 -77 36.5 -124t116.5 -47q76 0 113.5 48t37.5 123h96z" />
<glyph unicode="&#x2d9;" horiz-adv-x="440" d="M283 1286h-143v170h143v-170z" />
<glyph unicode="&#x2da;" horiz-adv-x="611" d="M149 1323q0 70 46 119t111 49q64 0 109 -49t45 -119q0 -72 -45 -118.5t-109 -46.5q-66 0 -111.5 46.5t-45.5 118.5zM223 1323q0 -40 24 -66t59 -26q33 0 56 26t23 66t-23 67t-56 27q-35 0 -59 -27.5t-24 -66.5z" />
<glyph unicode="&#x2db;" horiz-adv-x="456" d="M307 0q-59 -59 -90.5 -107t-31.5 -104q0 -31 17 -58t58 -27q25 0 45 9t41 22l22 -85q-26 -19 -58.5 -31.5t-75.5 -12.5q-68 0 -111.5 45t-43.5 126q0 72 45 140.5t131 120.5z" />
<glyph unicode="&#x2dc;" horiz-adv-x="781" d="M662 1481q0 -88 -47 -146.5t-117 -58.5q-61 0 -125 54.5t-107 54.5q-38 0 -64 -35t-26 -88l-74 18q0 87 46.5 146t117.5 59q52 0 120.5 -55t111.5 -55q37 0 63.5 36t26.5 91z" />
<glyph unicode="&#x2dd;" horiz-adv-x="656" d="M533 1518h142l3 -6l-247 -260h-109l-3 5zM280 1518h138l-206 -266h-104z" />
<glyph unicode="&#x2f3;" horiz-adv-x="566" d="M160 -226q0 57 36.5 96t88.5 39q50 0 85.5 -39t35.5 -96q0 -56 -35.5 -93t-85.5 -37q-52 0 -88.5 37t-36.5 93zM225 -226q0 -26 17.5 -44t42.5 -18q23 0 40 18t17 44q0 28 -17 46.5t-40 18.5q-25 0 -42.5 -18.5t-17.5 -46.5z" />
<glyph unicode="&#x300;" horiz-adv-x="18" d="M-400 1213h-90l-142 320h120z" />
<glyph unicode="&#x301;" horiz-adv-x="18" d="M-395 1534h117l-147 -319h-82z" />
<glyph unicode="&#x303;" horiz-adv-x="19" d="M-143 1481q0 -88 -47 -146.5t-117 -58.5q-61 0 -125 54.5t-107 54.5q-38 0 -64 -35t-26 -88l-74 18q0 87 46.5 146t117.5 59q52 0 120.5 -55t111.5 -55q37 0 63.5 36t26.5 91z" />
<glyph unicode="&#x309;" horiz-adv-x="18" d="M-516 1234l-1 126q71 6 101 27t30 67q0 48 -44 70.5t-112 22.5l6 79q117 0 182 -47t65 -127q0 -73 -39 -110.5t-100 -45.5v-62h-88z" />
<glyph unicode="&#x30f;" horiz-adv-x="18" d="M-439 1257l-3 -5h-109l-247 260l3 6h143zM-228 1252h-104l-206 266h139z" />
<glyph unicode="&#x323;" horiz-adv-x="18" d="M-409 -316h-143v170h143v-170z" />
<glyph unicode="&#x384;" horiz-adv-x="450" d="M229 1618h142l-137 -331h-66z" />
<glyph unicode="&#x385;" horiz-adv-x="849" d="M699 1301h-142v155h142v-155zM286 1301h-143v155h143v-155zM411 1693h156l-102 -221h-87z" />
<glyph unicode="&#x386;" horiz-adv-x="1096" d="M814 404h-531l-124 -404h-124l461 1456h109l456 -1456h-124zM317 514h464l-228 749h-6zM248 1618h142l-137 -331h-66z" />
<glyph unicode="&#x387;" horiz-adv-x="446" d="M285 624h-140v181h140v-181z" />
<glyph unicode="&#x388;" horiz-adv-x="1101" d="M956 703h-572v-599h657v-104h-777v1456h771v-106h-651v-543h572v-104zM73 1620h142l-137 -331h-66z" />
<glyph unicode="&#x389;" horiz-adv-x="1321" d="M1157 0h-119v669h-654v-669h-120v1456h120v-683h654v683h119v-1456zM102 1620h142l-137 -331h-66z" />
<glyph unicode="&#x38a;" horiz-adv-x="584" d="M402 0h-121v1456h121v-1456zM113 1618h142l-137 -331h-66z" />
<glyph unicode="&#x38c;" horiz-adv-x="1144" d="M1039 523q0 -265 -123.5 -404.5t-338.5 -139.5q-211 0 -331.5 139.5t-120.5 404.5v408q0 265 120 405.5t331 140.5q215 0 339 -141t124 -405v-408zM920 934q0 216 -89 325t-255 109q-161 0 -247 -109t-86 -325v-411q0 -219 86 -328t248 -109q166 0 254.5 109t88.5 328 v411zM120 1618h142l-137 -331h-66z" />
<glyph unicode="&#x38e;" horiz-adv-x="1156" d="M624 685h6l352 771h137l-433 -922v-534h-120v540l-431 916h139zM-3 1618h142l-137 -331h-66z" />
<glyph unicode="&#x38f;" horiz-adv-x="1156" d="M646 118q119 47 192 197t73 412v118q0 239 -90 382.5t-241 143.5q-152 0 -241 -143.5t-89 -382.5v-118q0 -263 74.5 -413t195.5 -196v-118h-393v104h246q-112 90 -177.5 252t-65.5 371v116q0 283 124 458.5t326 175.5q200 0 326 -175.5t126 -458.5v-116 q0 -208 -66.5 -370.5t-175.5 -252.5h248v-104h-392v118zM139 1618h142l-137 -331h-66z" />
<glyph unicode="&#x390;" horiz-adv-x="543" d="M284 1081v-808q0 -104 28.5 -145.5t79.5 -41.5q21 0 41 4.5t39 12.5l26 -91q-31 -18 -63 -25.5t-70 -7.5q-101 0 -151 70.5t-50 229.5v802h120zM505 1229h-142v155h142v-155zM92 1229h-143v155h143v-155zM217 1621h156l-102 -221h-87z" />
<glyph unicode="&#x391;" horiz-adv-x="1096" d="M814 404h-531l-124 -404h-124l461 1456h109l456 -1456h-124zM317 514h464l-228 749h-6z" />
<glyph unicode="&#x392;" horiz-adv-x="1080" d="M164 0v1456h366q188 0 294 -96t106 -288q0 -110 -55 -192.5t-146 -115.5q113 -23 182 -124t69 -235q0 -196 -105.5 -300.5t-284.5 -104.5h-426zM284 701v-597h306q127 0 198.5 78.5t71.5 220.5q0 132 -63.5 215t-187.5 83h-325zM284 804h284q113 3 177 72.5t64 199.5 q0 136 -71.5 205t-207.5 69h-246v-546z" />
<glyph unicode="&#x393;" horiz-adv-x="958" d="M893 1350h-611v-1350h-120v1456h731v-106z" />
<glyph unicode="&#x394;" horiz-adv-x="1206" d="M662 1456l490 -1456h-1110l511 1456h109zM201 104h793l-385 1168h-6z" />
<glyph unicode="&#x395;" horiz-adv-x="1001" d="M856 703h-572v-599h657v-104h-777v1456h771v-106h-651v-543h572v-104z" />
<glyph unicode="&#x396;" horiz-adv-x="995" d="M213 104h700v-104h-827v95l671 1256h-655v105h785v-90z" />
<glyph unicode="&#x397;" horiz-adv-x="1221" d="M1057 0h-119v669h-654v-669h-120v1456h120v-683h654v683h119v-1456z" />
<glyph unicode="&#x398;" horiz-adv-x="1166" d="M808 675h-447v104h447v-104zM1019 523q0 -265 -123.5 -404.5t-338.5 -139.5q-211 0 -331.5 139.5t-120.5 404.5v408q0 265 120 405.5t331 140.5q215 0 339 -141t124 -405v-408zM900 934q0 216 -89 325t-255 109q-161 0 -247 -109t-86 -325v-411q0 -219 86 -328t248 -109 q166 0 254.5 109t88.5 328v411z" />
<glyph unicode="&#x399;" horiz-adv-x="484" d="M302 0h-121v1456h121v-1456z" />
<glyph unicode="&#x39a;" horiz-adv-x="1104" d="M440 683h-156v-683h-120v1456h120v-669h152l461 669h140l-500 -715l536 -741h-149z" />
<glyph unicode="&#x39b;" horiz-adv-x="1123" d="M560 1245h-6l-369 -1245h-124l442 1456h110l442 -1456h-123z" />
<glyph unicode="&#x39c;" horiz-adv-x="1443" d="M312 1456l405 -1275h6l406 1275h155v-1456h-119v639l12 595l-6 1l-411 -1235h-80l-410 1233l-6 -1l12 -593v-639h-118v1456h154z" />
<glyph unicode="&#x39d;" horiz-adv-x="1225" d="M1061 0h-120l-650 1219l-6 -1v-1218h-121v1456h121l650 -1219l6 1v1218h120v-1456z" />
<glyph unicode="&#x39e;" horiz-adv-x="974" d="M107 104h767v-104h-767v104zM184 786h607v-104h-607v104zM114 1456h743v-105h-743v105z" />
<glyph unicode="&#x39f;" horiz-adv-x="1124" d="M1019 523q0 -265 -123.5 -404.5t-338.5 -139.5q-211 0 -331.5 139.5t-120.5 404.5v408q0 265 120 405.5t331 140.5q215 0 339 -141t124 -405v-408zM900 934q0 216 -89 325t-255 109q-161 0 -247 -109t-86 -325v-411q0 -219 86 -328t248 -109q166 0 254.5 109t88.5 328 v411z" />
<glyph unicode="&#x3a0;" horiz-adv-x="1223" d="M1059 0h-121v1350h-654v-1350h-120v1456h895v-1456z" />
<glyph unicode="&#x3a1;" horiz-adv-x="1080" d="M284 603v-603h-120v1456h431q191 0 296 -117t105 -309q0 -194 -105 -310.5t-296 -116.5h-311zM284 708h311q140 0 210 91.5t70 228.5q0 139 -70 230.5t-210 91.5h-311v-642z" />
<glyph unicode="&#x3a3;" horiz-adv-x="974" d="M607 741l-407 -637h703v-104h-840v95l417 662l-417 603v96h796v-105h-652l400 -575v-35z" />
<glyph unicode="&#x3a4;" horiz-adv-x="1020" d="M976 1350h-407v-1350h-120v1350h-406v106h933v-106z" />
<glyph unicode="&#x3a5;" horiz-adv-x="1056" d="M524 685h6l352 771h137l-433 -922v-534h-120v540l-431 916h139z" />
<glyph unicode="&#x3a6;" horiz-adv-x="1232" d="M676 1268h2q207 0 340.5 -153t133.5 -384q0 -233 -133.5 -386.5t-340.5 -153.5h-2v-191h-120v191h-5q-207 0 -339.5 152.5t-132.5 385.5q0 231 132.5 385t339.5 154h5v188h120v-188zM551 1163q-165 0 -259 -120.5t-94 -313.5q0 -195 93.5 -314t259.5 -119h5v867h-5z M676 1163v-867h4q164 0 258 120t94 315q0 192 -94 312t-258 120h-4z" />
<glyph unicode="&#x3a7;" horiz-adv-x="1069" d="M536 836l321 620h145l-395 -718l408 -738h-144l-333 639l-333 -639h-146l408 738l-396 718h145z" />
<glyph unicode="&#x3a8;" horiz-adv-x="1194" d="M647 463l6 -2q137 13 223 128.5t86 305.5v561h120v-561q0 -243 -120 -387t-315 -161v-347h-120v347q-192 18 -308.5 162t-116.5 386v561h120v-561q0 -188 82.5 -304t216.5 -129l6 2v992h120v-993z" />
<glyph unicode="&#x3a9;" horiz-adv-x="1136" d="M626 118q119 47 192 197t73 412v118q0 239 -90 382.5t-241 143.5q-152 0 -241 -143.5t-89 -382.5v-118q0 -263 74.5 -413t195.5 -196v-118h-393v104h246q-112 90 -177.5 252t-65.5 371v116q0 283 124 458.5t326 175.5q200 0 326 -175.5t126 -458.5v-116 q0 -208 -66.5 -370.5t-175.5 -252.5h248v-104h-392v118z" />
<glyph unicode="&#x3aa;" horiz-adv-x="484" d="M302 0h-121v1456h121v-1456zM532 1638h-161v160h161v-160zM124 1638h-163v160h163v-160z" />
<glyph unicode="&#x3ab;" horiz-adv-x="1056" d="M524 685h6l352 771h137l-433 -922v-534h-120v540l-431 916h139zM815 1631h-161v160h161v-160zM407 1631h-163v160h163v-160z" />
<glyph unicode="&#x3ac;" horiz-adv-x="975" d="M829 1082v-807q0 -102 20 -143.5t56 -41.5q9 0 15 1t22 6l16 -94q-22 -13 -43.5 -18.5t-46.5 -5.5q-63 0 -101.5 42t-51.5 135q-45 -86 -113 -131.5t-160 -45.5q-162 0 -253.5 144.5t-91.5 386.5v21q0 260 91 415.5t255 155.5q91 0 159 -47.5t112 -134.5l13 162h102z M219 510q0 -195 61.5 -311t187.5 -116q88 0 146.5 57t93.5 159v461q-36 106 -94 171t-144 65q-127 0 -189 -129t-62 -336v-21zM537 1582h142l-137 -331h-66z" />
<glyph unicode="&#x3ad;" horiz-adv-x="938" d="M95 297q0 96 47 161.5t138 96.5q-80 33 -124.5 96.5t-44.5 141.5q0 146 95 226t260 80q150 0 253 -84.5t99 -219.5l-3 -6h-111q0 90 -69 148t-169 58q-117 0 -175.5 -56t-58.5 -144q0 -91 55 -141.5t172 -50.5h160v-102h-160q-121 0 -182 -50.5t-61 -155.5q0 -95 66 -153 t184 -58q111 0 182 65t71 161h111l3 -6q4 -156 -106 -239t-261 -83q-166 0 -268.5 84t-102.5 231zM476 1581h142l-137 -331h-66z" />
<glyph unicode="&#x3ae;" d="M243 1082l9 -172q44 92 114.5 142t164.5 50q146 0 223 -105t77 -337v-1075h-120v1074q0 185 -54.5 261t-157.5 76q-91 0 -151.5 -53t-91.5 -144v-799h-120v1082h107zM498 1582h142l-137 -331h-66z" />
<glyph unicode="&#x3af;" horiz-adv-x="543" d="M284 1081v-808q0 -104 28.5 -145.5t79.5 -41.5q21 0 41 4.5t39 12.5l26 -91q-31 -18 -63 -25.5t-70 -7.5q-101 0 -151 70.5t-50 229.5v802h120zM237 1561h142l-137 -331h-66z" />
<glyph unicode="&#x3b0;" d="M254 1082v-605q0 -203 64 -298.5t173 -95.5q130 0 189.5 128.5t59.5 319.5q-2 142 -28 278.5t-71 272.5h130q41 -125 65.5 -252.5t24.5 -297.5q0 -249 -88 -401t-276 -152q-173 0 -268 122.5t-95 377.5v603h120zM767 1229h-142v155h142v-155zM354 1229h-143v155h143v-155 zM479 1621h156l-102 -221h-87z" />
<glyph unicode="&#x3b1;" horiz-adv-x="975" d="M829 1082v-807q0 -102 20 -143.5t56 -41.5q9 0 15 1t22 6l16 -94q-22 -13 -43.5 -18.5t-46.5 -5.5q-63 0 -101.5 42t-51.5 135q-45 -86 -113 -131.5t-160 -45.5q-162 0 -253.5 144.5t-91.5 386.5v21q0 260 91 415.5t255 155.5q91 0 159 -47.5t112 -134.5l13 162h102z M219 510q0 -195 61.5 -311t187.5 -116q88 0 146.5 57t93.5 159v461q-36 106 -94 171t-144 65q-127 0 -189 -129t-62 -336v-21z" />
<glyph unicode="&#x3b2;" horiz-adv-x="1023" d="M505 1477q155 0 250 -107.5t95 -277.5q0 -101 -44.5 -183t-123.5 -127q112 -39 173 -140t61 -237q0 -200 -103.5 -313t-270.5 -113q-76 0 -148 28.5t-123 84.5v-490h-121v1461q0 174 104 294t251 120zM502 825q117 0 172.5 71.5t55.5 200.5q0 111 -59 192.5t-166 81.5 q-99 0 -166.5 -88t-67.5 -220v-838q38 -66 106.5 -104t153.5 -38q125 0 194.5 85.5t69.5 232.5q0 138 -66 228.5t-183 90.5h-119v105h75z" />
<glyph unicode="&#x3b3;" horiz-adv-x="856" d="M693 1082h123l-325 -1044v-453h-120v459l-325 1038h124l235 -809l24 -105h6l26 105z" />
<glyph unicode="&#x3b4;" d="M794 1456v-103h-424q237 -181 375 -382t138 -415v-32q0 -241 -108 -393t-290 -152q-183 0 -291 152t-108 393v32q0 221 100.5 367.5t271.5 160.5q10 0 21.5 -2t19.5 -6l3 5q-54 64 -134 136t-171 143v96h597zM207 524q0 -189 72 -315t206 -126q131 0 204 126.5t73 314.5 v32q0 144 -55.5 255.5t-125.5 167.5q-22 7 -49.5 12t-47.5 5q-133 0 -205 -127.5t-72 -312.5v-32z" />
<glyph unicode="&#x3b5;" horiz-adv-x="938" d="M95 297q0 96 47 161.5t138 96.5q-80 33 -124.5 96.5t-44.5 141.5q0 146 95 226t260 80q150 0 253 -84.5t99 -219.5l-3 -6h-111q0 90 -69 148t-169 58q-117 0 -175.5 -56t-58.5 -144q0 -91 55 -141.5t172 -50.5h160v-102h-160q-121 0 -182 -50.5t-61 -155.5q0 -95 66 -153 t184 -58q111 0 182 65t71 161h111l3 -6q4 -156 -106 -239t-261 -83q-166 0 -268.5 84t-102.5 231z" />
<glyph unicode="&#x3b6;" horiz-adv-x="877" d="M788 1456v-75l-314 -505q-103 -159 -148 -275.5t-45 -236.5q0 -117 54.5 -189t160.5 -72h47q115 0 178 -55.5t63 -158.5q-1 -100 -64 -177.5t-143 -112.5l-46 89q51 26 94.5 77.5t43.5 119.5q0 56 -32.5 85.5t-103.5 29.5h-59q-153 0 -233 103.5t-80 257.5q0 115 52 259 t168 315l278 416h-578v105h707z" />
<glyph unicode="&#x3b7;" d="M243 1082l9 -172q44 92 114.5 142t164.5 50q146 0 223 -105t77 -337v-1075h-120v1074q0 185 -54.5 261t-157.5 76q-91 0 -151.5 -53t-91.5 -144v-799h-120v1082h107z" />
<glyph unicode="&#x3b8;" horiz-adv-x="989" d="M872 564q0 -282 -100.5 -433.5t-276.5 -151.5q-177 0 -278.5 152t-101.5 433v326q0 280 100.5 433.5t277.5 153.5t278 -153t101 -434v-326zM236 776h516v135q0 222 -66.5 341t-192.5 119q-125 0 -191 -119.5t-66 -340.5v-135zM752 672h-516v-127q0 -220 67 -341t192 -121 t191 120.5t66 341.5v127z" />
<glyph unicode="&#x3b9;" horiz-adv-x="543" d="M284 1081v-808q0 -104 28.5 -145.5t79.5 -41.5q21 0 41 4.5t39 12.5l26 -91q-31 -18 -63 -25.5t-70 -7.5q-101 0 -151 70.5t-50 229.5v802h120z" />
<glyph unicode="&#x3ba;" horiz-adv-x="948" d="M364 493h-102v-493h-121v1082h121v-479h97l352 479h147l-397 -522l433 -560h-153z" />
<glyph unicode="&#x3bb;" d="M187 0h-133l337 1047l-49 164q-26 94 -61.5 147.5t-91.5 53.5q-9 0 -26.5 -2t-30.5 -3l-2 98q14 4 37.5 8.5t41.5 4.5q102 0 157.5 -78t88.5 -187l299 -963q22 -87 53 -140t72 -53q10 0 20 1t25 5l1 -102q-9 -4 -26 -8t-28 -4q-88 0 -140.5 70t-93.5 193l-192 619l-6 -1 l-24 -92z" />
<glyph unicode="&#x3bc;" d="M260 1082v-632q0 -207 55 -287t150 -80q102 0 160 52.5t83 152.5v794h121v-1082h-106l-9 139q-39 -78 -99.5 -119t-143.5 -41q-69 0 -122 27.5t-89 89.5v-512h-119v1498h119z" />
<glyph unicode="&#x3bd;" horiz-adv-x="856" d="M405 273l24 -105h6l26 105l232 809h123l-337 -1082h-94l-339 1082h124z" />
<glyph unicode="&#x3be;" horiz-adv-x="884" d="M766 1456v-106h-231q-123 -8 -183.5 -77t-60.5 -176q0 -109 67.5 -169t211.5 -60h112v-105h-112q-163 0 -255 -87.5t-92 -262.5q0 -145 84 -232t228 -87h45q121 0 187 -58.5t66 -166.5q-1 -96 -64 -171t-142 -108l-46 89q51 25 94.5 72.5t43.5 112.5q0 62 -32.5 94.5 t-102.5 32.5h-49q-191 0 -312 113.5t-121 312.5q0 153 71 255.5t201 144.5q-96 38 -149.5 111t-53.5 165q0 86 30 151t88 106h-201v106h678z" />
<glyph unicode="&#x3bf;" d="M86 620q0 210 108 346t290 136t290.5 -135.5t108.5 -346.5v-159q0 -213 -108 -347.5t-290 -134.5q-183 0 -291 134.5t-108 347.5v159zM207 461q0 -162 72 -270t206 -108q131 0 204 108.5t73 269.5v159q0 159 -73 267.5t-205 108.5q-133 0 -205 -108.5t-72 -267.5v-159z " />
<glyph unicode="&#x3c0;" horiz-adv-x="1029" d="M934 977h-121v-704q0 -104 28.5 -145.5t79.5 -41.5q21 0 41 4.5t39 12.5l26 -91q-31 -18 -63 -25.5t-70 -7.5q-101 0 -151 70.5t-50 229.5v698h-380v-977h-120v977h-117v105h858v-105z" />
<glyph unicode="&#x3c1;" d="M869 510q0 -242 -90.5 -386.5t-250.5 -144.5q-89 0 -157.5 35t-114.5 102v-532h-120v1013h1l-1 9q0 234 103 365t260 131q177 0 273.5 -155t96.5 -416v-21zM748 531q0 208 -61.5 336.5t-187.5 128.5q-121 0 -182 -122t-61 -279v-337q33 -82 92 -128.5t147 -46.5 q126 0 189.5 116.5t63.5 310.5v21z" />
<glyph unicode="&#x3c2;" horiz-adv-x="927" d="M484 1102q148 0 243 -101.5t92 -281.5l-2 -5h-107q0 132 -61 207t-165 75q-130 0 -197.5 -125.5t-67.5 -308.5v-42q0 -178 76 -293.5t227 -135.5q130 -18 193.5 -68.5t63.5 -154.5q-1 -96 -64 -170t-142 -109l-47 89q50 24 94 72.5t44 112.5q0 58 -37 87.5t-119 39.5 q-199 24 -305 163.5t-106 366.5v42q0 233 104 386.5t283 153.5z" />
<glyph unicode="&#x3c3;" d="M951 975h-250q86 -69 134 -182t48 -255v-33q0 -226 -109 -376t-289 -150q-183 0 -291 152t-108 393v32q0 230 108 378t290 148h467v-107zM207 524q0 -189 72 -315t206 -126q131 0 204 126.5t73 314.5v32q0 176 -73 297.5t-205 121.5q-133 0 -205 -121.5t-72 -297.5v-32z " />
<glyph unicode="&#x3c4;" horiz-adv-x="893" d="M817 977h-316v-977h-121v977h-306v105h743v-105z" />
<glyph unicode="&#x3c5;" d="M254 1082v-605q0 -203 64 -298.5t173 -95.5q130 0 189.5 128.5t59.5 319.5q-2 142 -28 278.5t-71 272.5h130q41 -125 65.5 -252.5t24.5 -297.5q0 -249 -88 -401t-276 -152q-173 0 -268 122.5t-95 377.5v603h120z" />
<glyph unicode="&#x3c6;" horiz-adv-x="1194" d="M651 1082q190 0 320.5 -159t130.5 -399q0 -219 -113.5 -371.5t-337.5 -170.5v-460h-120v460q-225 19 -330.5 174.5t-105.5 397.5q0 164 29 287t80 241h128q-54 -130 -85 -261t-32 -267q0 -184 74 -313.5t236 -145.5l6 2v985h120zM651 95l6 -1q160 14 242 138t82 292 q-2 185 -90.5 317t-233.5 127l-6 -2v-871z" />
<glyph unicode="&#x3c7;" horiz-adv-x="936" d="M149 1093q97 0 151.5 -74t93.5 -181l105 -298h6l230 542h125l-300 -713l175 -495q37 -99 62 -143.5t63 -44.5q12 0 22.5 1.5t23.5 3.5l1 -106q-10 -5 -27 -8.5t-28 -3.5q-84 0 -133.5 61.5t-97.5 202.5l-127 360h-6l-258 -611h-128l331 782l-151 427q-34 95 -66.5 142.5 t-85.5 47.5q-9 0 -27 -2.5t-30 -3.5l-3 102q13 4 37 8t42 4z" />
<glyph unicode="&#x3c8;" horiz-adv-x="1189" d="M646 1081v-985l6 -1q168 15 246 152t78 330q-2 129 -31.5 255t-79.5 250h129q47 -115 75 -232.5t28 -271.5q0 -257 -109 -418t-342 -179v-425h-120v426q-203 20 -314 170.5t-111 439.5v490h121v-492q0 -236 80.5 -358t217.5 -135l6 1v983h120z" />
<glyph unicode="&#x3c9;" horiz-adv-x="1471" d="M364 1082q-61 -135 -96 -271.5t-37 -279.5q0 -193 55 -320.5t168 -127.5q101 0 160.5 95t59.5 299v293h121v-293q0 -204 59 -299t161 -95q112 0 167.5 127t55.5 321q-3 143 -38 279.5t-94 271.5h129q57 -124 90 -252t33 -298q0 -246 -84 -399.5t-253 -153.5 q-106 0 -179 62.5t-107 187.5q-35 -125 -108 -187.5t-179 -62.5q-169 0 -252.5 153.5t-83.5 399.5q0 172 33 301t91 249h128z" />
<glyph unicode="&#x3ca;" horiz-adv-x="543" d="M284 1081v-808q0 -104 28.5 -145.5t79.5 -41.5q21 0 41 4.5t39 12.5l26 -91q-31 -18 -63 -25.5t-70 -7.5q-101 0 -151 70.5t-50 229.5v802h120zM516 1296h-161v160h161v-160zM108 1296h-163v160h163v-160z" />
<glyph unicode="&#x3cb;" d="M254 1082v-605q0 -203 64 -298.5t173 -95.5q130 0 189.5 128.5t59.5 319.5q-2 142 -28 278.5t-71 272.5h130q41 -125 65.5 -252.5t24.5 -297.5q0 -249 -88 -401t-276 -152q-173 0 -268 122.5t-95 377.5v603h120zM778 1296h-161v160h161v-160zM370 1296h-163v160h163v-160 z" />
<glyph unicode="&#x3cc;" d="M86 620q0 210 108 346t290 136t290.5 -135.5t108.5 -346.5v-159q0 -213 -108 -347.5t-290 -134.5q-183 0 -291 134.5t-108 347.5v159zM207 461q0 -162 72 -270t206 -108q131 0 204 108.5t73 269.5v159q0 159 -73 267.5t-205 108.5q-133 0 -205 -108.5t-72 -267.5v-159z M501 1582h142l-137 -331h-66z" />
<glyph unicode="&#x3cd;" d="M254 1082v-605q0 -203 64 -298.5t173 -95.5q130 0 189.5 128.5t59.5 319.5q-2 142 -28 278.5t-71 272.5h130q41 -125 65.5 -252.5t24.5 -297.5q0 -249 -88 -401t-276 -152q-173 0 -268 122.5t-95 377.5v603h120zM501 1561h142l-137 -331h-66z" />
<glyph unicode="&#x3ce;" horiz-adv-x="1471" d="M364 1082q-61 -135 -96 -271.5t-37 -279.5q0 -193 55 -320.5t168 -127.5q101 0 160.5 95t59.5 299v293h121v-293q0 -204 59 -299t161 -95q112 0 167.5 127t55.5 321q-3 143 -38 279.5t-94 271.5h129q57 -124 90 -252t33 -298q0 -246 -84 -399.5t-253 -153.5 q-106 0 -179 62.5t-107 187.5q-35 -125 -108 -187.5t-179 -62.5q-169 0 -252.5 153.5t-83.5 399.5q0 172 33 301t91 249h128zM740 1561h142l-137 -331h-66z" />
<glyph unicode="&#x3d1;" horiz-adv-x="1064" d="M537 86q151 0 236 121t85 344v34q-183 8 -294.5 133.5t-111.5 317.5v62q0 173 73 276t189 103q123 0 193 -101t70 -278v-547q0 -267 -120 -419.5t-320 -152.5q-190 0 -306.5 159t-116.5 413v701l120 2v-703q0 -211 81.5 -338t221.5 -127zM572 1034q0 -143 75 -237 t205 -97l6 2v396q0 133 -36.5 201.5t-107.5 68.5q-65 0 -103.5 -68t-38.5 -202v-64z" />
<glyph unicode="&#x3d2;" horiz-adv-x="925" d="M645 1239q43 123 93 175.5t120 52.5q25 0 47.5 -7t41.5 -19l-19 -97q-7 5 -19 10t-27 5q-37 0 -66 -28.5t-53 -111.5l-239 -619v-600h-120v603l-240 616q-26 83 -55 111.5t-64 28.5q-16 0 -28 -5t-18 -10l-18 97q19 12 40.5 19t46.5 7q69 0 119.5 -52.5t94.5 -175.5 l153 -425l25 -92h6l25 92z" />
<glyph unicode="&#x3d6;" horiz-adv-x="1352" d="M1310 976h-135q33 -97 52.5 -205t19.5 -239q0 -245 -75 -399t-224 -154q-100 0 -169 61.5t-101 184.5q-34 -124 -102.5 -185t-166.5 -61q-150 0 -224.5 154t-74.5 399q0 132 18.5 240t52.5 204h-120v106h1249v-106zM1126 531q-2 114 -23.5 224.5t-58.5 220.5h-733 q-38 -113 -59.5 -223t-21.5 -222q0 -193 45 -319.5t137 -121.5l6 -1q91 -5 145.5 89.5t54.5 298.5v269h121v-269q0 -204 54 -298.5t146 -89.5l6 1q90 -5 135.5 121t45.5 320z" />
<glyph unicode="&#x400;" horiz-adv-x="1001" d="M856 703h-572v-599h657v-104h-777v1456h771v-106h-651v-543h572v-104zM591 1561h-113l-212 261l3 5h152z" />
<glyph unicode="&#x401;" horiz-adv-x="1001" d="M856 703h-572v-599h657v-104h-777v1456h771v-106h-651v-543h572v-104zM814 1638h-161v160h161v-160zM406 1638h-163v160h163v-160z" />
<glyph unicode="&#x402;" horiz-adv-x="1285" d="M983 1350h-457v-532q72 29 141 48.5t121 19.5q197 0 308 -116t111 -347q0 -186 -103 -309t-291 -119l-6 2l-1 91q141 0 210.5 93.5t69.5 241.5q0 178 -77.5 265.5t-220.5 87.5q-59 0 -128 -18t-134 -47v-711h-121v1350h-355v106h933v-106z" />
<glyph unicode="&#x403;" horiz-adv-x="958" d="M893 1350h-611v-1350h-120v1456h731v-106zM629 1823h147l2 -5l-221 -261h-103z" />
<glyph unicode="&#x404;" horiz-adv-x="1149" d="M968 424l3 -6q-2 -213 -112 -325.5t-303 -112.5q-201 0 -319 142t-118 405v403q0 261 118.5 404.5t318.5 143.5q195 0 304 -110t111 -328l-3 -6h-111q-5 173 -80 255.5t-221 82.5q-150 0 -234 -113t-84 -326v-143h497v-105h-497v-158q0 -217 84 -330t234 -113 q146 0 221 80.5t80 259.5h111z" />
<glyph unicode="&#x405;" horiz-adv-x="1044" d="M842 357q0 119 -69.5 193.5t-244.5 131.5q-199 61 -301.5 157.5t-102.5 258.5q0 167 114.5 273t295.5 106q190 0 305.5 -125t112.5 -305l-3 -6h-113q0 145 -80.5 237.5t-221.5 92.5q-137 0 -213 -77t-76 -193q0 -108 73.5 -181.5t249.5 -128.5q194 -60 294.5 -162.5 t100.5 -269.5q0 -175 -118.5 -277.5t-304.5 -102.5q-183 0 -318.5 110t-130.5 319l2 6h112q0 -170 98.5 -250.5t236.5 -80.5q136 0 219 75t83 199z" />
<glyph unicode="&#x406;" horiz-adv-x="484" d="M302 0h-121v1456h121v-1456z" />
<glyph unicode="&#x407;" horiz-adv-x="484" d="M302 0h-121v1456h121v-1456zM532 1638h-161v160h161v-160zM124 1638h-163v160h163v-160z" />
<glyph unicode="&#x408;" horiz-adv-x="953" d="M676 1456h120v-1044q0 -200 -99 -316.5t-258 -116.5q-171 0 -271 106.5t-96 310.5l2 5h114q0 -157 65 -237.5t186 -80.5q103 0 170 89t67 240v1044z" />
<glyph unicode="&#x409;" horiz-adv-x="1845" d="M1051 1456v-608h301q190 0 295 -117.5t105 -306.5q0 -190 -105 -307t-295 -117h-421v1350h-451l-11 -554q-10 -433 -92 -614.5t-289 -181.5h-37v104h32q139 0 198 148t69 544l13 660h688zM1051 744v-640h301q140 0 210.5 92.5t70.5 229.5q0 132 -71 225t-210 93h-301z " />
<glyph unicode="&#x40a;" horiz-adv-x="1851" d="M282 787h655v669h120v-632h301q190 0 295.5 -113t105.5 -297q0 -185 -105.5 -299.5t-295.5 -114.5h-421v683h-655v-683h-120v1456h120v-669zM1057 720v-612h301q140 0 210.5 88t70.5 220q0 129 -70.5 216.5t-210.5 87.5h-301z" />
<glyph unicode="&#x40b;" horiz-adv-x="1389" d="M991 1350h-456v-536q74 23 145 35.5t156 12.5q198 0 300 -105.5t102 -341.5v-415h-120v415q0 185 -69 263.5t-213 78.5q-79 0 -153.5 -12.5t-147.5 -35.5v-709h-121v1350h-356v106h933v-106z" />
<glyph unicode="&#x40c;" horiz-adv-x="1104" d="M440 683h-156v-683h-120v1456h120v-669h152l461 669h140l-500 -715l536 -741h-149zM621 1823h147l2 -5l-221 -261h-103z" />
<glyph unicode="&#x40d;" horiz-adv-x="1225" d="M941 1456h120v-1456h-120v1211l-6 1l-651 -1212h-120v1456h120v-1210l6 -1zM682 1561h-113l-212 261l3 5h152z" />
<glyph unicode="&#x40e;" horiz-adv-x="1083" d="M504 665l52 -133h6l323 924h140l-449 -1208q-51 -127 -110 -198t-180 -71q-20 0 -46 3.5t-34 7.5l6 99q9 -3 32.5 -4.5t41.5 -1.5q67 0 104.5 49t72.5 143l41 104l-440 1077h137zM790 1855l3 -6q3 -112 -65 -182.5t-185 -70.5q-118 0 -186 70.5t-64 182.5l3 6h94 q0 -77 36.5 -124t116.5 -47q76 0 113.5 48t37.5 123h96z" />
<glyph unicode="&#x40f;" horiz-adv-x="1219" d="M162 1456h120v-1352h655v1352h120v-1456h-382v-353h-121v353h-392v1456z" />
<glyph unicode="&#x410;" horiz-adv-x="1096" d="M814 404h-531l-124 -404h-124l461 1456h109l456 -1456h-124zM317 514h464l-228 749h-6z" />
<glyph unicode="&#x411;" horiz-adv-x="1085" d="M884 1350h-611v-526h301q192 0 297 -111.5t105 -298.5q0 -188 -105.5 -301t-296.5 -113h-421v1456h731v-106zM273 719v-615h301q141 0 210.5 88t69.5 224q0 130 -69.5 216.5t-210.5 86.5h-301z" />
<glyph unicode="&#x412;" horiz-adv-x="1080" d="M164 0v1456h366q188 0 294 -96t106 -288q0 -110 -55 -192.5t-146 -115.5q113 -23 182 -124t69 -235q0 -196 -105.5 -300.5t-284.5 -104.5h-426zM284 701v-597h306q127 0 198.5 78.5t71.5 220.5q0 132 -63.5 215t-187.5 83h-325zM284 804h284q113 3 177 72.5t64 199.5 q0 136 -71.5 205t-207.5 69h-246v-546z" />
<glyph unicode="&#x413;" horiz-adv-x="958" d="M893 1350h-611v-1350h-120v1456h731v-106z" />
<glyph unicode="&#x414;" horiz-adv-x="1265" d="M1062 104h142l-10 -457h-111v353h-901v-353h-104l-16 457h89q65 79 128 278t74 547l24 527h685v-1352zM475 929q-11 -285 -65.5 -497.5t-132.5 -327.5h665v1246h-450z" />
<glyph unicode="&#x415;" horiz-adv-x="1001" d="M856 703h-572v-599h657v-104h-777v1456h771v-106h-651v-543h572v-104z" />
<glyph unicode="&#x416;" horiz-adv-x="1530" d="M957 694h-131v-694h-120v694h-137l-388 -694h-152l439 755l-406 701h142l359 -658h143v658h120v-658h139l359 658h141l-407 -699l440 -757h-151z" />
<glyph unicode="&#x417;" horiz-adv-x="1027" d="M509 795q150 0 221.5 74t71.5 207q0 132 -75.5 213.5t-224.5 81.5q-120 0 -202 -83t-82 -213h-113l-2 6q-5 176 112 286t287 110q195 0 308 -105.5t113 -299.5q0 -108 -57.5 -195.5t-159.5 -130.5q115 -39 175 -128t60 -222q0 -196 -121.5 -306.5t-317.5 -110.5 q-171 0 -295.5 107.5t-120.5 311.5l3 6h112q0 -139 84 -230t217 -91q151 0 235 83t84 226q0 153 -78.5 225t-233.5 72h-141v106h141z" />
<glyph unicode="&#x418;" horiz-adv-x="1225" d="M941 1456h120v-1456h-120v1211l-6 1l-651 -1212h-120v1456h120v-1210l6 -1z" />
<glyph unicode="&#x419;" horiz-adv-x="1225" d="M941 1456h120v-1456h-120v1211l-6 1l-651 -1212h-120v1456h120v-1210l6 -1zM864 1855l3 -6q3 -112 -65 -182.5t-185 -70.5q-118 0 -186 70.5t-64 182.5l3 6h94q0 -77 36.5 -124t116.5 -47q76 0 113.5 48t37.5 123h96z" />
<glyph unicode="&#x41a;" horiz-adv-x="1104" d="M440 683h-156v-683h-120v1456h120v-669h152l461 669h140l-500 -715l536 -741h-149z" />
<glyph unicode="&#x41b;" horiz-adv-x="1213" d="M1051 1456v-1456h-120v1350h-492l-11 -554q-7 -431 -83 -613.5t-263 -182.5h-37v104h32q121 0 172 148t59 544l13 660h730z" />
<glyph unicode="&#x41c;" horiz-adv-x="1443" d="M312 1456l405 -1275h6l406 1275h155v-1456h-119v639l12 595l-6 1l-411 -1235h-80l-410 1233l-6 -1l12 -593v-639h-118v1456h154z" />
<glyph unicode="&#x41d;" horiz-adv-x="1221" d="M1057 0h-119v669h-654v-669h-120v1456h120v-683h654v683h119v-1456z" />
<glyph unicode="&#x41e;" horiz-adv-x="1124" d="M1019 523q0 -265 -123.5 -404.5t-338.5 -139.5q-211 0 -331.5 139.5t-120.5 404.5v408q0 265 120 405.5t331 140.5q215 0 339 -141t124 -405v-408zM900 934q0 216 -89 325t-255 109q-161 0 -247 -109t-86 -325v-411q0 -219 86 -328t248 -109q166 0 254.5 109t88.5 328 v411z" />
<glyph unicode="&#x41f;" horiz-adv-x="1223" d="M1059 0h-121v1350h-654v-1350h-120v1456h895v-1456z" />
<glyph unicode="&#x420;" horiz-adv-x="1080" d="M284 603v-603h-120v1456h431q191 0 296 -117t105 -309q0 -194 -105 -310.5t-296 -116.5h-311zM284 708h311q140 0 210 91.5t70 228.5q0 139 -70 230.5t-210 91.5h-311v-642z" />
<glyph unicode="&#x421;" horiz-adv-x="1062" d="M959 423l3 -6q-2 -213 -112 -325.5t-303 -112.5q-201 0 -319 142t-118 405v403q0 261 118.5 404.5t318.5 143.5q195 0 304 -110t111 -328l-3 -6h-111q-5 173 -80 255.5t-221 82.5q-150 0 -234 -113t-84 -326v-406q0 -217 84 -330t234 -113q146 0 221 80.5t80 259.5h111z " />
<glyph unicode="&#x422;" horiz-adv-x="1020" d="M976 1350h-407v-1350h-120v1350h-406v106h933v-106z" />
<glyph unicode="&#x423;" horiz-adv-x="1083" d="M504 665l52 -133h6l323 924h140l-449 -1208q-51 -127 -110 -198t-180 -71q-20 0 -46 3.5t-34 7.5l6 99q9 -3 32.5 -4.5t41.5 -1.5q67 0 104.5 49t72.5 143l41 104l-440 1077h137z" />
<glyph unicode="&#x424;" horiz-adv-x="1299" d="M712 1308h22q215 0 355.5 -164t140.5 -412q0 -250 -140.5 -415t-355.5 -165h-22v-212h-120v212h-23q-216 0 -355 164t-139 414q0 248 139 413t355 165h23v208h120v-208zM569 1204q-175 0 -275 -132t-100 -342q0 -212 99.5 -342.5t275.5 -130.5h23v947h-23zM712 1204v-947 h24q174 0 273.5 131t99.5 344q0 210 -99.5 341t-273.5 131h-24z" />
<glyph unicode="&#x425;" horiz-adv-x="1069" d="M536 836l321 620h145l-395 -718l408 -738h-144l-333 639l-333 -639h-146l408 738l-396 718h145z" />
<glyph unicode="&#x426;" horiz-adv-x="1241" d="M159 1456h121v-1352h653v1352h120v-1350h120l-11 -457h-108v351h-895v1456z" />
<glyph unicode="&#x427;" horiz-adv-x="1160" d="M997 1456v-1456h-120v659q-86 -29 -161.5 -43t-167.5 -14q-199 0 -301 105t-102 343v406h120v-406q0 -186 69 -264.5t214 -78.5q84 0 165 14t164 43v692h120z" />
<glyph unicode="&#x428;" horiz-adv-x="1599" d="M281 1456v-1352h460v1352h120v-1352h457v1352h121v-1456h-1278v1456h120z" />
<glyph unicode="&#x429;" horiz-adv-x="1636" d="M281 1456v-1352h460v1352h120v-1352h457v1352h121v-1352h121l-11 -455h-109v351h-1279v1456h120z" />
<glyph unicode="&#x42a;" horiz-adv-x="1322" d="M10 1456h500v-632h301q192 0 297 -111.5t105 -298.5q0 -188 -105.5 -301t-296.5 -113h-420v1352h-381v104zM510 719v-615h301q141 0 210.5 88t69.5 224q0 130 -69.5 216.5t-210.5 86.5h-301z" />
<glyph unicode="&#x42b;" horiz-adv-x="1455" d="M282 824h301q192 0 297 -111.5t105 -298.5q0 -188 -105.5 -301t-296.5 -113h-420v1456h119v-632zM282 719v-615h301q141 0 210.5 88t69.5 224q0 130 -69.5 216.5t-210.5 86.5h-301zM1290 0h-121v1456h121v-1456z" />
<glyph unicode="&#x42c;" horiz-adv-x="1067" d="M273 824h301q192 0 297 -111.5t105 -298.5q0 -188 -105.5 -301t-296.5 -113h-420v1456h119v-632zM273 719v-615h301q141 0 210.5 88t69.5 224q0 130 -69.5 216.5t-210.5 86.5h-301z" />
<glyph unicode="&#x42d;" horiz-adv-x="1148" d="M153 1000l-2 5q-4 215 116 344t319 129q202 0 327.5 -176.5t125.5 -453.5v-239q0 -278 -125.5 -453.5t-327.5 -175.5q-201 0 -320 124.5t-115 345.5l2 5h114q0 -176 84 -273.5t235 -97.5t242 146t91 377v97h-498v104h498v40q0 231 -91 377.5t-242 146.5t-235 -96 t-84 -276h-114z" />
<glyph unicode="&#x42e;" horiz-adv-x="1552" d="M1418 523q0 -265 -123.5 -404.5t-338.5 -139.5q-211 0 -331.5 139.5t-120.5 404.5v139h-203v-662h-121v1456h121v-690h203v165q0 265 120 405.5t331 140.5q215 0 339 -141t124 -405v-408zM1299 934q0 216 -89 325t-255 109q-161 0 -247 -109t-86 -325v-411 q0 -219 86 -328t248 -109q166 0 254.5 109t88.5 328v411z" />
<glyph unicode="&#x42f;" horiz-adv-x="1072" d="M219 0h-129l287 632q-119 48 -181.5 146.5t-62.5 239.5q0 208 110.5 323t304.5 115h374v-1456h-120v593h-321zM802 1350h-254q-144 0 -218.5 -87t-74.5 -243q0 -144 71.5 -232.5t202.5 -88.5h273v651z" />
<glyph unicode="&#x430;" horiz-adv-x="938" d="M698 0q-9 56 -13.5 92t-4.5 73q-49 -81 -127.5 -133.5t-174.5 -52.5q-134 0 -207 83.5t-73 225.5q0 151 106 240.5t287 89.5h189v133q0 115 -58 180t-162 65q-97 0 -159.5 -62t-62.5 -152l-112 1l-2 6q-5 122 92.5 217.5t249.5 95.5q150 0 242 -91.5t92 -261.5v-531 q0 -58 5 -112t18 -106h-125zM393 87q100 0 177.5 57.5t109.5 146.5v234h-192q-123 0 -196.5 -69.5t-73.5 -171.5q0 -87 46 -142t129 -55z" />
<glyph unicode="&#x431;" horiz-adv-x="954" d="M508 1010q172 0 275 -135.5t103 -348.5v-33q0 -227 -108.5 -370.5t-289.5 -143.5q-182 0 -290 143.5t-108 370.5v156q0 313 109.5 504.5t294.5 227.5q117 23 168 61.5t51 110.5h93l2 -6q4 -138 -70.5 -195t-219.5 -80q-121 -20 -207.5 -126.5t-104.5 -287.5l4 -5 q47 71 126 114t172 43zM487 906q-132 0 -204.5 -110.5t-72.5 -269.5v-33q0 -175 72.5 -292.5t205.5 -117.5q131 0 204 117.5t73 292.5v33q0 160 -73 270t-205 110z" />
<glyph unicode="&#x432;" horiz-adv-x="975" d="M145 0v1082h337q170 0 265 -72.5t95 -216.5q0 -83 -42.5 -146t-119.5 -91q89 -20 142.5 -91.5t53.5 -164.5q0 -147 -90 -223.5t-247 -76.5h-394zM265 497v-395h274q104 0 160.5 51.5t56.5 148.5q0 90 -57 142.5t-160 52.5h-274zM265 600h224q114 0 173.5 47.5t59.5 141.5 q0 95 -60.5 141.5t-179.5 46.5h-217v-377z" />
<glyph unicode="&#x433;" horiz-adv-x="732" d="M700 975h-438v-975h-121v1082h559v-107z" />
<glyph unicode="&#x434;" horiz-adv-x="1010" d="M117 104q68 98 110 218.5t52 367.5l15 392h548v-978h102l-11 -422h-110v318h-655v-318h-107l-10 422h66zM399 690q-9 -211 -49.5 -353.5t-103.5 -232.5h476v863h-313z" />
<glyph unicode="&#x435;" horiz-adv-x="900" d="M485 -21q-175 0 -286 131.5t-111 335.5v180q0 205 111.5 340.5t268.5 135.5q170 0 264 -121.5t94 -326.5v-119h-619v-89q0 -156 75 -259.5t203 -103.5q89 0 153.5 31t110.5 88l49 -85q-49 -63 -126.5 -100.5t-186.5 -37.5zM468 996q-113 0 -185.5 -103t-75.5 -254h499v46 q0 134 -63 222.5t-175 88.5z" />
<glyph unicode="&#x436;" horiz-adv-x="1319" d="M828 498h-113v-498h-120v498h-114l-301 -498h-152l360 565l-324 517h146l271 -474h114v474h120v-474h115l271 474h146l-325 -517l361 -565h-152z" />
<glyph unicode="&#x437;" horiz-adv-x="879" d="M443 605q108 0 155.5 49t47.5 141q0 89 -51 144.5t-158 55.5q-90 0 -152.5 -58.5t-62.5 -147.5h-112l-2 6q-5 134 92 219t237 85q156 0 243 -79.5t87 -226.5q0 -78 -40.5 -141t-114.5 -97q85 -30 128.5 -95.5t43.5 -162.5q0 -148 -95.5 -231.5t-251.5 -83.5 q-141 0 -245 83.5t-99 238.5l2 6h112q0 -96 65 -161t165 -65q108 0 166.5 57.5t58.5 153.5q0 106 -53.5 154.5t-165.5 48.5h-142v107h142z" />
<glyph unicode="&#x438;" horiz-adv-x="982" d="M718 1082h121v-1082h-121v850l-6 1l-450 -851h-120v1082h120v-851l6 -1z" />
<glyph unicode="&#x439;" horiz-adv-x="982" d="M718 1082h121v-1082h-121v850l-6 1l-450 -851h-120v1082h120v-851l6 -1zM735 1512l3 -6q3 -112 -65 -182.5t-185 -70.5q-118 0 -186 70.5t-64 182.5l3 6h94q0 -77 36.5 -124t116.5 -47q76 0 113.5 48t37.5 123h96z" />
<glyph unicode="&#x43a;" horiz-adv-x="912" d="M389 493h-127v-493h-120v1082h120v-479h124l317 479h149l-368 -521l404 -561h-155z" />
<glyph unicode="&#x43b;" horiz-adv-x="984" d="M841 1082v-1082h-121v975h-355v-371q0 -319 -64 -461.5t-219 -142.5h-39l2 110l32 1q90 0 129 109t39 384v478h596z" />
<glyph unicode="&#x43c;" horiz-adv-x="1266" d="M634 174h6l333 908h150v-1082h-121v831l-6 2l-317 -833h-84l-324 853l-6 -1v-852h-120v1082h157z" />
<glyph unicode="&#x43d;" horiz-adv-x="981" d="M839 0h-121v494h-456v-494h-120v1082h120v-484h456v484h121v-1082z" />
<glyph unicode="&#x43e;" d="M86 620q0 210 108 346t290 136t290.5 -135.5t108.5 -346.5v-159q0 -213 -108 -347.5t-290 -134.5q-183 0 -291 134.5t-108 347.5v159zM207 461q0 -162 72 -270t206 -108q131 0 204 108.5t73 269.5v159q0 159 -73 267.5t-205 108.5q-133 0 -205 -108.5t-72 -267.5v-159z " />
<glyph unicode="&#x43f;" horiz-adv-x="982" d="M839 0h-121v975h-456v-975h-120v1082h697v-1082z" />
<glyph unicode="&#x440;" d="M872 446q0 -213 -91.5 -340t-252.5 -127q-91 0 -159 38t-113 110v-543h-120v1498h101l13 -149q45 81 114 125t161 44q163 0 255 -138.5t92 -369.5v-148zM750 594q0 177 -65 288.5t-191 111.5q-89 0 -147.5 -53t-90.5 -138v-545q33 -82 92 -128.5t147 -46.5 q126 0 190.5 99.5t64.5 263.5v148z" />
<glyph unicode="&#x441;" horiz-adv-x="904" d="M478 83q94 0 165 67.5t71 186.5h106l3 -6q3 -150 -101 -251t-244 -101q-187 0 -287.5 133.5t-100.5 343.5v168q0 209 100.5 343.5t287.5 134.5q151 0 249.5 -105.5t95.5 -277.5l-2 -5h-107q0 129 -67.5 205.5t-168.5 76.5q-140 0 -204 -105.5t-64 -266.5v-168 q0 -163 64 -268t204 -105z" />
<glyph unicode="&#x442;" horiz-adv-x="838" d="M791 977h-316v-977h-122v977h-306v105h744v-105z" />
<glyph unicode="&#x443;" horiz-adv-x="856" d="M397 298l28 -109h6l256 893h134l-386 -1255q-35 -108 -92.5 -186t-164.5 -78q-18 0 -45 5t-40 9l13 103q10 -2 33 -4.5t34 -2.5q61 0 99 57t61 141l45 143l-342 1068h133z" />
<glyph unicode="&#x444;" horiz-adv-x="1249" d="M97 531q0 261 84.5 416t240.5 155q40 0 74.5 -9.5t62.5 -25.5v493h121v-497q29 19 65 29t81 10q155 0 239.5 -155t84.5 -416v-21q0 -243 -84.5 -387t-238.5 -144q-44 0 -81 10t-66 27v-432h-121v430q-29 -16 -64 -25.5t-75 -9.5q-153 0 -238 144t-85 387v21zM1030 531 q0 207 -59 336t-177 129q-37 0 -65.5 -9.5t-48.5 -24.5v-849q21 -14 50 -22t66 -8q117 0 175.5 116t58.5 311v21zM219 510q0 -197 55 -312t172 -115q35 0 62.5 8t50.5 22v852q-22 14 -49 22.5t-62 8.5q-118 0 -173.5 -128t-55.5 -337v-21z" />
<glyph unicode="&#x445;" horiz-adv-x="856" d="M425 642l226 440h141l-299 -532l311 -550h-140l-237 458l-237 -458h-141l312 550l-300 532h140z" />
<glyph unicode="&#x446;" horiz-adv-x="999" d="M142 1082h120v-978h456v978h121v-978h98l-11 -425h-109v321h-675v1082z" />
<glyph unicode="&#x447;" horiz-adv-x="929" d="M786 0h-120v446q-56 -22 -112.5 -34.5t-112.5 -12.5q-171 0 -257.5 94t-86.5 313v276h121v-276q0 -168 53.5 -235t169.5 -67q58 1 114.5 13.5t110.5 34.5v530h120v-1082z" />
<glyph unicode="&#x448;" horiz-adv-x="1375" d="M262 1082v-978h372v978h121v-978h369v978h120v-1082h-1102v1082h120z" />
<glyph unicode="&#x449;" horiz-adv-x="1397" d="M256 1082v-978h372v978h121v-978h369v978h120v-978h115l-10 -425h-109v321h-1098v1082h120z" />
<glyph unicode="&#x44a;" horiz-adv-x="1082" d="M37 1082h397v-392h246q156 0 243.5 -95.5t87.5 -247.5q0 -154 -87.5 -250.5t-243.5 -96.5h-366v978h-277v104zM434 585v-481h246q106 0 158 68.5t52 171.5q0 99 -52.5 170t-157.5 71h-246z" />
<glyph unicode="&#x44b;" horiz-adv-x="1310" d="M265 690h246q156 0 243.5 -95.5t87.5 -247.5q0 -154 -87.5 -250.5t-243.5 -96.5h-366v1082h120v-392zM265 585v-481h246q106 0 158 68.5t52 171.5q0 99 -52.5 170t-157.5 71h-246zM1151 0h-120v1082h120v-1082z" />
<glyph unicode="&#x44c;" horiz-adv-x="931" d="M265 690h246q156 0 243.5 -95.5t87.5 -247.5q0 -154 -87.5 -250.5t-243.5 -96.5h-366v1082h120v-392zM265 585v-481h246q106 0 158 68.5t52 171.5q0 99 -52.5 170t-157.5 71h-246z" />
<glyph unicode="&#x44d;" horiz-adv-x="927" d="M438 996q-91 0 -158 -67.5t-67 -185.5h-108l-3 6q-4 150 98 251.5t238 101.5q178 0 282 -153.5t104 -386.5v-42q0 -236 -103.5 -388.5t-281.5 -152.5q-149 0 -245 105t-92 277l2 5h109q0 -131 64.5 -207t161.5 -76q124 0 191.5 117t72.5 294h-378v105h378 q-7 171 -74.5 284t-190.5 113z" />
<glyph unicode="&#x44e;" horiz-adv-x="1401" d="M507 487h-242v-487h-120v1082h120v-491h242v29q0 210 108 346t290 136t290.5 -135.5t108.5 -346.5v-159q0 -213 -108 -347.5t-290 -134.5q-183 0 -291 134.5t-108 347.5v26zM628 461q0 -162 72 -270t206 -108q131 0 204 108.5t73 269.5v159q0 159 -73 267.5t-205 108.5 q-133 0 -205 -108.5t-72 -267.5v-159z" />
<glyph unicode="&#x44f;" horiz-adv-x="943" d="M799 1082v-1082h-120v435h-255l-222 -435h-131l230 453q-92 31 -142 112t-50 193q0 142 87.5 233t241.5 91h361zM229 756q0 -91 46.5 -154t138.5 -63h265v438h-241q-105 0 -157 -64t-52 -157z" />
<glyph unicode="&#x450;" horiz-adv-x="900" d="M485 -21q-175 0 -286 131.5t-111 335.5v180q0 205 111.5 340.5t268.5 135.5q170 0 264 -121.5t94 -326.5v-119h-619v-89q0 -156 75 -259.5t203 -103.5q89 0 153.5 31t110.5 88l49 -85q-49 -63 -126.5 -100.5t-186.5 -37.5zM468 996q-113 0 -185.5 -103t-75.5 -254h499v46 q0 134 -63 222.5t-175 88.5zM538 1240h-113l-212 261l3 5h152z" />
<glyph unicode="&#x451;" horiz-adv-x="900" d="M485 -21q-175 0 -286 131.5t-111 335.5v180q0 205 111.5 340.5t268.5 135.5q170 0 264 -121.5t94 -326.5v-119h-619v-89q0 -156 75 -259.5t203 -103.5q89 0 153.5 31t110.5 88l49 -85q-49 -63 -126.5 -100.5t-186.5 -37.5zM468 996q-113 0 -185.5 -103t-75.5 -254h499v46 q0 134 -63 222.5t-175 88.5zM761 1317h-161v160h161v-160zM353 1317h-163v160h163v-160z" />
<glyph unicode="&#x452;" horiz-adv-x="970" d="M502 1234h-246v-323q45 91 117.5 141t165.5 50q143 0 220 -105.5t77 -328.5v-233h1v-524q0 -167 -68 -257.5t-189 -90.5q-27 0 -51 5t-49 14l12 101q13 -5 41.5 -10.5t46.5 -5.5q64 0 100 64.5t36 179.5v89h-1v670q0 174 -53.5 249t-153.5 75q-90 0 -154 -57.5 t-98 -153.5v-783h-120v1234h-149v104h149v222h120v-222h246v-104z" />
<glyph unicode="&#x453;" horiz-adv-x="732" d="M700 975h-438v-975h-121v1082h559v-107zM470 1480h147l2 -5l-221 -261h-103z" />
<glyph unicode="&#x454;" horiz-adv-x="928" d="M488 83q94 0 165 67.5t71 186.5h106l3 -6q3 -150 -101 -251t-244 -101q-187 0 -287.5 133.5t-100.5 343.5v168q0 209 100.5 343.5t287.5 134.5q151 0 249.5 -105.5t95.5 -277.5l-2 -5h-107q0 129 -67.5 205.5t-168.5 76.5q-140 0 -204 -105.5t-64 -266.5v-30h379v-105 h-379v-33q0 -163 64 -268t204 -105z" />
<glyph unicode="&#x455;" horiz-adv-x="865" d="M656 259q0 74 -48.5 127.5t-177.5 112.5q-165 68 -241.5 138.5t-76.5 184.5q0 116 91 198t236 82q154 0 244 -91t86 -227l-2 -6h-113q0 88 -58 153t-157 65q-101 0 -154 -51t-53 -119q0 -72 42 -115.5t180 -109.5q162 -65 242 -141.5t80 -193.5q0 -129 -92.5 -208 t-244.5 -79q-167 0 -261.5 94.5t-89.5 224.5l2 6h112q6 -116 75 -168.5t162 -52.5q101 0 159 51t58 125z" />
<glyph unicode="&#x456;" horiz-adv-x="417" d="M269 0h-121v1082h121v-1082zM269 1390h-121v170h121v-170z" />
<glyph unicode="&#x457;" horiz-adv-x="412" d="M264 0h-120v1082h120v-1082zM494 1296h-161v160h161v-160zM86 1296h-163v160h163v-160z" />
<glyph unicode="&#x458;" horiz-adv-x="432" d="M276 1082v-1171q0 -167 -68 -257.5t-189 -90.5q-24 0 -45 5t-46 14l11 105q13 -6 35.5 -11t36.5 -5q67 0 106 61t39 179v1171h120zM276 1390h-120v170h120v-170z" />
<glyph unicode="&#x459;" horiz-adv-x="1464" d="M820 1082v-432h245q156 0 243.5 -90t87.5 -233q0 -145 -87.5 -236t-243.5 -91h-366v975h-332v-371q0 -317 -66.5 -460.5t-221.5 -143.5h-39l2 105l32 1q91 0 132 112.5t41 385.5v478h573zM820 546v-444h245q106 0 158 65.5t52 161.5q0 91 -52 154t-158 63h-245z" />
<glyph unicode="&#x45a;" horiz-adv-x="1479" d="M262 653h456v429h121v-432h245q156 0 243.5 -90t87.5 -233q0 -145 -87.5 -236t-243.5 -91h-366v549h-456v-549h-120v1082h120v-429zM839 546v-444h245q106 0 158 65.5t52 161.5q0 91 -52 154t-158 63h-245z" />
<glyph unicode="&#x45b;" horiz-adv-x="970" d="M514 1234h-258v-323q45 91 117.5 141t165.5 50q143 0 220 -105.5t77 -328.5v-668h-121v670q0 174 -53.5 249t-153.5 75q-90 0 -154 -57.5t-98 -153.5v-783h-120v1234h-137v104h137v222h120v-222h258v-104z" />
<glyph unicode="&#x45c;" horiz-adv-x="912" d="M389 493h-127v-493h-120v1082h120v-479h124l317 479h149l-368 -521l404 -561h-155zM563 1479h147l2 -5l-221 -261h-103z" />
<glyph unicode="&#x45d;" horiz-adv-x="982" d="M718 1082h121v-1082h-121v850l-6 1l-450 -851h-120v1082h120v-851l6 -1zM553 1218h-113l-212 261l3 5h152z" />
<glyph unicode="&#x45e;" horiz-adv-x="856" d="M397 298l28 -109h6l256 893h134l-386 -1255q-35 -108 -92.5 -186t-164.5 -78q-18 0 -45 5t-40 9l13 103q10 -2 33 -4.5t34 -2.5q61 0 99 57t61 141l45 143l-342 1068h133zM681 1512l3 -6q3 -112 -65 -182.5t-185 -70.5q-118 0 -186 70.5t-64 182.5l3 6h94 q0 -77 36.5 -124t116.5 -47q76 0 113.5 48t37.5 123h96z" />
<glyph unicode="&#x45f;" horiz-adv-x="982" d="M262 1082v-978h456v978h121v-1082h-286v-352h-119v352h-292v1082h120z" />
<glyph unicode="&#x460;" horiz-adv-x="1519" d="M1369 1456v-1047q0 -209 -92.5 -319.5t-241.5 -110.5q-95 0 -167.5 50.5t-110.5 150.5q-39 -100 -113.5 -150.5t-171.5 -50.5q-147 0 -236 110.5t-89 319.5v1047h120v-1047q0 -156 56.5 -241t148.5 -85q99 0 161.5 85t62.5 241v1047h124v-1047q0 -156 59 -241t156 -85 q95 0 154.5 85t59.5 241v1047h120z" />
<glyph unicode="&#x461;" horiz-adv-x="1381" d="M1241 1082v-702q0 -196 -85 -298.5t-223 -102.5q-85 0 -149 43.5t-100 130.5q-37 -86 -104 -130t-152 -44q-135 0 -216.5 102.5t-81.5 298.5v702h120v-702q0 -143 49 -220t129 -77q87 0 142 77.5t55 219.5v702h120v-702q0 -142 52 -219.5t136 -77.5q83 0 135 77t52 220 v702h121z" />
<glyph unicode="&#x462;" horiz-adv-x="1067" d="M507 1126h-234v-302h301q192 0 297 -111.5t105 -298.5q0 -188 -105.5 -301t-296.5 -113h-420v1126h-162v104h162v226h119v-226h234v-104zM273 719v-615h301q141 0 210.5 88t69.5 224q0 130 -69.5 216.5t-210.5 86.5h-301z" />
<glyph unicode="&#x463;" horiz-adv-x="931" d="M533 1082h-269v-373h245q156 0 243.5 -98t87.5 -255q0 -158 -87.5 -257t-243.5 -99h-365v1082h-161v104h161v374h120v-374h269v-104zM264 604v-500h245q107 0 159 71t52 179q0 103 -52.5 176.5t-158.5 73.5h-245z" />
<glyph unicode="&#x464;" horiz-adv-x="1537" d="M302 814h195v116q0 261 118.5 404.5t318.5 143.5q195 0 304 -110t111 -328l-3 -6h-111q-5 173 -80 255.5t-221 82.5q-150 0 -234 -113t-84 -326v-119h447v-104h-447v-183q0 -217 84 -330t234 -113q146 0 221 80.5t80 259.5h111l3 -6q-2 -213 -112 -325.5t-303 -112.5 q-201 0 -319 142t-118 405v183h-195v-710h-121v1456h121v-642z" />
<glyph unicode="&#x465;" horiz-adv-x="1283" d="M262 602h191v22q0 209 100.5 343.5t287.5 134.5q151 0 249.5 -105.5t95.5 -277.5l-2 -5h-107q0 129 -67.5 205.5t-168.5 76.5q-140 0 -204 -105.5t-64 -266.5v-22h379v-104h-379v-42q0 -163 64 -268t204 -105q94 0 165 67.5t71 186.5h106l3 -6q3 -150 -101 -251 t-244 -101q-187 0 -287.5 133.5t-100.5 343.5v42h-191v-498h-120v1082h120v-480z" />
<glyph unicode="&#x466;" horiz-adv-x="1038" d="M765 472h-175v-472h-120v472h-165l-139 -472h-124l440 1456h109l436 -1456h-124zM338 582h395l-193 664h-6z" />
<glyph unicode="&#x467;" horiz-adv-x="918" d="M634 343h-122v-343h-119v343h-127l-115 -343h-125l371 1082h105l373 -1082h-123zM301 449h297l-122 357l-24 97h-6l-25 -97z" />
<glyph unicode="&#x468;" horiz-adv-x="1511" d="M317 582h340l264 874h109l436 -1456h-124l-138 472h-175v-472h-120v472h-165l-139 -472h-124l143 473h-307v-473h-121v1456h121v-874zM777 582h395l-193 664h-6z" />
<glyph unicode="&#x469;" horiz-adv-x="1298" d="M292 449h259l217 633h105l373 -1082h-123l-118 343h-122v-343h-119v343h-127l-115 -343h-125l118 344h-223v-344h-120v1082h120v-633zM672 449h297l-122 357l-24 97h-6l-25 -97z" />
<glyph unicode="&#x46a;" horiz-adv-x="1426" d="M1196 1456l-359 -675h71q186 0 283 -95t97 -306v-380h-121v380q0 164 -61.5 230.5t-197.5 66.5h-126l-8 -17v-660h-120v668l-5 9h-131q-136 0 -198 -66.5t-62 -230.5v-380h-121v380q0 211 97 306t284 95h76l-358 675h960zM716 790l286 560h-573z" />
<glyph unicode="&#x46b;" horiz-adv-x="1236" d="M744 594q173 -2 263.5 -97t90.5 -304v-193h-121v193q0 164 -56.5 230t-181.5 66h-52l-6 -11v-478h-121v481l-4 8h-59q-126 0 -182.5 -66t-56.5 -230v-193h-121v193q0 212 91.5 306.5t268.5 94.5h2l-265 488h776zM621 597l197 379h-393z" />
<glyph unicode="&#x46c;" horiz-adv-x="1884" d="M301 782h722v-1h28l-358 675h960l-359 -675h71q186 0 283 -95t97 -306v-380h-121v380q0 164 -61.5 230.5t-197.5 66.5h-126l-8 -17v-660h-120v668l-5 9h-144q-129 -4 -188 -71t-59 -226v-380h-121v380q0 100 22 174t66 123h-381v-677h-121v1456h121v-674zM1173 790 l286 560h-573z" />
<glyph unicode="&#x46d;" horiz-adv-x="1625" d="M526 0v193q0 100 20.5 174t62.5 123h-345v-490h-120v1082h120v-487h623l-264 487h776l-266 -488q173 -2 263.5 -97t90.5 -304v-193h-121v193q0 164 -56.5 230t-181.5 66h-52l-6 -11v-478h-121v481l-4 8h-59q-126 0 -182.5 -66t-56.5 -230v-193h-121zM1010 597l197 379 h-393z" />
<glyph unicode="&#x46e;" horiz-adv-x="894" d="M374 798q149 0 220.5 73t71.5 206q0 122 -69.5 198.5t-204.5 76.5h-261v104h261q178 0 286.5 -101.5t108.5 -281.5q0 -110 -59 -196.5t-164 -128.5q118 -38 179.5 -127.5t61.5 -224.5q0 -189 -115.5 -297t-294.5 -108h-51q-72 0 -103.5 -33t-31.5 -94q0 -65 43 -113.5 t95 -72.5l-47 -89q-80 34 -143 108.5t-63 170.5q0 109 65.5 167.5t188.5 58.5h47q132 0 210.5 81t78.5 217q0 154 -78.5 227.5t-231.5 73.5h-112v105h112zM471 1718l133 168h110v-17l-200 -226h-86l-198 226v17h109z" />
<glyph unicode="&#x46f;" horiz-adv-x="838" d="M366 1082q159 0 257 -77t98 -212q0 -78 -46.5 -141.5t-129.5 -99.5q95 -31 144.5 -93.5t49.5 -154.5q0 -145 -104.5 -229t-265.5 -84h-38q-71 0 -102.5 -33t-31.5 -94q0 -65 43 -113.5t95 -72.5l-47 -89q-80 34 -143.5 108.5t-63.5 170.5q0 109 65.5 167.5t188.5 58.5h34 q114 0 182 56t68 150q0 100 -68.5 148t-202.5 48h-112v106h112q130 0 191 50.5t61 144.5q0 80 -59.5 130t-174.5 50h-245v105h245zM384 1388l133 168h110v-17l-200 -226h-86l-198 226v17h109z" />
<glyph unicode="&#x470;" horiz-adv-x="1194" d="M647 463l6 -2q137 13 223 128.5t86 305.5v561h120v-561q0 -243 -120 -387t-315 -161v-347h-120v347q-192 18 -308.5 162t-116.5 386v561h120v-561q0 -188 82.5 -304t216.5 -129l6 2v992h120v-993z" />
<glyph unicode="&#x471;" horiz-adv-x="1189" d="M646 1081v-985l6 -1q168 15 246 152t78 330q-2 129 -31.5 255t-79.5 250h129q47 -115 75 -232.5t28 -271.5q0 -257 -109 -418t-342 -179v-425h-120v426q-203 20 -314 170.5t-111 439.5v490h121v-492q0 -236 80.5 -358t217.5 -135l6 1v983h120z" />
<glyph unicode="&#x472;" horiz-adv-x="1166" d="M1019 523q0 -265 -123.5 -404.5t-338.5 -139.5q-211 0 -331.5 139.5t-120.5 404.5v408q0 265 120 405.5t331 140.5q215 0 339 -141t124 -405v-408zM223 775h677v159q0 216 -89 325t-255 109q-161 0 -247 -109t-86 -325v-159zM900 671h-677v-148q0 -219 86 -328t248 -109 q166 0 254.5 109t88.5 328v148z" />
<glyph unicode="&#x473;" horiz-adv-x="980" d="M86 620q0 210 108 346t290 136t290.5 -135.5t108.5 -346.5v-159q0 -213 -108 -347.5t-290 -134.5q-183 0 -291 134.5t-108 347.5v159zM485 83q131 0 204 108.5t73 269.5v30h-555v-30q0 -162 72 -270t206 -108zM207 596h555v24q0 159 -73 267.5t-205 108.5 q-133 0 -205 -108.5t-72 -267.5v-24z" />
<glyph unicode="&#x474;" horiz-adv-x="1073" d="M470 262l24 -92h6l24 92l240 944q38 146 94 208t146 62l29 -1l-1 -108h-9q-52 0 -86.5 -37t-60.5 -148l-325 -1182h-109l-412 1456h131z" />
<glyph unicode="&#x475;" horiz-adv-x="860" d="M382 273l24 -104h6l25 104l145 590q34 125 86.5 181.5t123.5 56.5q24 0 46.5 -7t41.5 -20l-18 -96q-8 5 -20.5 10t-26.5 5q-37 0 -66.5 -31.5t-49.5 -117.5l-244 -844h-94l-315 1082h124z" />
<glyph unicode="&#x476;" horiz-adv-x="1073" d="M470 262l24 -92h6l24 92l240 944q38 146 94 208t146 62l29 -1l-1 -108h-9q-52 0 -86.5 -37t-60.5 -148l-325 -1182h-109l-412 1456h131zM451 1593l-3 -5h-109l-247 260l3 6h143zM662 1588h-104l-206 266h139z" />
<glyph unicode="&#x477;" horiz-adv-x="860" d="M382 273l24 -104h6l25 104l145 590q34 125 86.5 181.5t123.5 56.5q24 0 46.5 -7t41.5 -20l-18 -96q-8 5 -20.5 10t-26.5 5q-37 0 -66.5 -31.5t-49.5 -117.5l-244 -844h-94l-315 1082h124zM369 1297l-3 -5h-109l-247 260l3 6h143zM580 1292h-104l-206 266h139z" />
<glyph unicode="&#x478;" horiz-adv-x="1980" d="M1019 523q0 -265 -123.5 -404.5t-338.5 -139.5q-211 0 -331.5 139.5t-120.5 404.5v408q0 265 120 405.5t331 140.5q215 0 339 -141t124 -405v-408zM900 934q0 216 -89 325t-255 109q-161 0 -247 -109t-86 -325v-411q0 -219 86 -328t248 -109q166 0 254.5 109t88.5 328 v411zM1521 298l28 -109h6l256 893h134l-386 -1255q-35 -108 -92.5 -186t-164.5 -78q-18 0 -45 5t-40 9l13 103q10 -2 33 -4.5t34 -2.5q61 0 99 57t61 141l45 143l-342 1068h133z" />
<glyph unicode="&#x479;" horiz-adv-x="1825" d="M86 620q0 210 108 346t290 136t290.5 -135.5t108.5 -346.5v-159q0 -213 -108 -347.5t-290 -134.5q-183 0 -291 134.5t-108 347.5v159zM207 461q0 -162 72 -270t206 -108q131 0 204 108.5t73 269.5v159q0 159 -73 267.5t-205 108.5q-133 0 -205 -108.5t-72 -267.5v-159z M1366 298l28 -109h6l256 893h134l-386 -1255q-35 -108 -92.5 -186t-164.5 -78q-18 0 -45 5t-40 9l13 103q10 -2 33 -4.5t34 -2.5q61 0 99 57t61 141l45 143l-342 1068h133z" />
<glyph unicode="&#x47a;" horiz-adv-x="1166" d="M1019 523q0 -265 -124 -405q-97 -110 -251 -133v-128h-121v123q-187 11 -298 138q-120 140 -120 405v408q0 265 120 405q110 130 298 140v117h121v-123q153 -24 251 -134q124 -141 124 -405v-408zM900 934q0 216 -89 325q-64 78 -167 100v-114h-121v122 q-137 -11 -214 -108q-86 -109 -86 -325v-411q0 -219 86 -328q77 -98 214 -108v123h121v-116q104 22 167 101q89 109 89 328v411z" />
<glyph unicode="&#x47b;" horiz-adv-x="970" d="M546 -132h-120v115q-142 18 -232 130q-108 135 -108 348v159q0 210 108 346q90 113 232 132v113h120v-113q139 -20 228 -132q109 -135 109 -346v-159q0 -213 -108 -348q-90 -111 -229 -130v-115zM207 461q0 -162 72 -270q55 -83 147 -102v117h120v-117q88 21 143 102 q73 109 73 270v159q0 159 -73 267q-55 82 -143 102v-116h-120v117q-92 -19 -147 -103q-72 -108 -72 -267v-159z" />
<glyph unicode="&#x47c;" horiz-adv-x="1511" d="M1041 1444l6 2q141 6 230 -109t89 -333v-575q0 -219 -90 -334.5t-235 -115.5q-98 0 -172 50t-113 148q-40 -98 -114 -148t-170 -50q-146 0 -235.5 115.5t-89.5 334.5v575q0 218 88.5 333t230.5 109l6 -2v-94q-92 0 -148.5 -90.5t-56.5 -255.5v-575q0 -166 56.5 -256 t148.5 -90q99 0 161.5 85t62.5 241v471h121v-471q0 -156 61.5 -241t162.5 -85q91 0 148 90t57 256v575q0 165 -57 255.5t-148 90.5v94zM1132 1686v-87h-30q-107 0 -222.5 78t-159.5 78q-53 0 -82.5 -40.5t-29.5 -104.5v-18h-88v31q0 102 52 162.5t144 60.5q64 0 179.5 -80 t208.5 -80h28zM718 1329l-54 47l50 121v140h129v-133z" />
<glyph unicode="&#x47d;" horiz-adv-x="1353" d="M933 1084l6 2q129 6 210.5 -101.5t81.5 -311.5v-274q0 -205 -82 -312.5t-216 -107.5q-88 0 -155 44t-103 131q-37 -87 -103.5 -131t-153.5 -44q-135 0 -216 107.5t-81 312.5v274q0 204 80.5 311.5t210.5 101.5l6 -2v-95q-80 0 -128.5 -82.5t-48.5 -233.5v-274 q0 -152 48.5 -234t128.5 -82q87 0 142 77.5t55 219.5v244h121v-244q0 -142 54.5 -219.5t142.5 -77.5q79 0 128.5 82t49.5 234v274q0 151 -49.5 233.5t-128.5 82.5v95zM1065 1357v-87h-29q-107 0 -223 77.5t-160 77.5q-53 0 -83 -40.5t-30 -103.5v-18h-87v30 q0 103 52.5 163.5t144.5 60.5q64 0 179 -80t208 -80h28zM651 939l-53 47l50 121v140h128v-133z" />
<glyph unicode="&#x47e;" horiz-adv-x="1520" d="M427 1696v83h644l1 -83h-274v-114h-111v114h-260zM1369 1456v-1047q0 -209 -92.5 -319.5t-241.5 -110.5q-95 0 -167.5 50.5t-110.5 150.5q-39 -100 -113.5 -150.5t-171.5 -50.5q-147 0 -236 110.5t-89 319.5v1047h120v-1047q0 -156 56.5 -241t148.5 -85q99 0 161.5 85 t62.5 241v1047h124v-1047q0 -156 59 -241t156 -85q95 0 154.5 85t59.5 241v1047h120z" />
<glyph unicode="&#x47f;" horiz-adv-x="1382" d="M367 1374v82h645l2 -82h-276v-130h-111v130h-260zM1241 1082v-702q0 -196 -85 -298.5t-223 -102.5q-85 0 -149 43.5t-100 130.5q-37 -86 -104 -130t-152 -44q-135 0 -216.5 102.5t-81.5 298.5v702h120v-702q0 -143 49 -220t129 -77q87 0 142 77.5t55 219.5v702h120v-702 q0 -142 52 -219.5t136 -77.5q83 0 135 77t52 220v702h121z" />
<glyph unicode="&#x480;" horiz-adv-x="1103" d="M642 -366h-120v348q-185 20 -296.5 192.5t-111.5 433.5v239q0 276 125.5 453t328.5 177q199 0 317.5 -125.5t115.5 -345.5l-2 -5h-113q0 175 -84 272.5t-234 97.5q-152 0 -243 -146.5t-91 -375.5v-241q0 -232 91 -378.5t243 -146.5h74v-449z" />
<glyph unicode="&#x481;" horiz-adv-x="914" d="M554 -366h-120v349q-158 21 -247.5 170t-89.5 367v42q0 233 104 386.5t283 153.5q146 0 242 -105.5t93 -277.5l-2 -5h-107q0 129 -65 205.5t-161 76.5q-130 0 -197.5 -125.5t-67.5 -308.5v-42q0 -187 66.5 -312t198.5 -125h70v-449z" />
<glyph unicode="&#x482;" horiz-adv-x="1062" d="M495 432l240 -172l-51 -96l-241 170l-152 -334h-122l186 398l-240 171l48 95l243 -171l178 393l-240 171l50 97l241 -171l164 359h120l-196 -422l242 -171l-52 -95l-239 170z" />
<glyph unicode="&#x483;" horiz-adv-x="18" d="M-613 1338v-124l-111 1l1 203h433l-1 108h109v-188h-431z" />
<glyph unicode="&#x484;" horiz-adv-x="18" d="M-711 1397q92 0 207.5 80t180.5 80q92 0 144.5 -60.5t52.5 -163.5v-30h-88v18q0 63 -29.5 103.5t-82.5 40.5q-44 0 -159.5 -77.5t-222.5 -77.5h-31v87h28z" />
<glyph unicode="&#x485;" horiz-adv-x="18" d="M-536 1500v132h129l-1 -140l51 -120l-53 -47z" />
<glyph unicode="&#x486;" horiz-adv-x="18" d="M-436 1325l-53 47l50 120l-1 140h129v-132z" />
<glyph unicode="&#x488;" horiz-adv-x="0" d="M-661 1267l-2 5q-3 80 43 131.5t126 51.5q79 0 125 -52t43 -131l-2 -5h-85q0 44 -19 72.5t-62 28.5q-42 0 -61.5 -28.5t-19.5 -72.5h-86zM-173 990l-2 5q-4 79 42.5 131t126.5 52q79 0 126 -51.5t44 -130.5l-3 -6h-85q0 43 -20 72t-62 29t-61 -28.5t-19 -72.5h-87z M-18 487l-2 5q-4 79 42.5 131t125.5 52q81 0 127 -51.5t43 -130.5l-3 -6h-84q0 43 -20.5 72t-62.5 29q-41 0 -60 -29t-19 -72h-87zM-182 -32l-2 5q-4 79 42.5 131t126.5 52t126.5 -51.5t43.5 -130.5l-3 -6h-84q0 43 -20.5 72t-62.5 29q-41 0 -60.5 -29t-19.5 -72h-87z M-657 -316l-2 5q-3 80 43 131.5t125 51.5q80 0 126 -51.5t43 -131.5l-2 -5h-84q0 44 -20 72.5t-63 28.5q-40 0 -59.5 -28.5t-19.5 -72.5h-87zM-1136 990l-3 6q-3 78 44 130t126 52q80 0 127 -51.5t43 -130.5l-3 -6h-84q0 43 -20 72t-63 29q-41 0 -60.5 -28.5t-19.5 -72.5 h-87zM-1282 487l-2 5q-3 79 43.5 131t125.5 52q81 0 127 -51.5t42 -131.5l-2 -5h-85q0 43 -19.5 72t-62.5 29q-40 0 -60 -29t-20 -72h-87zM-1145 -32l-2 5q-3 79 43.5 131t125.5 52q81 0 127.5 -51.5t42.5 -130.5l-3 -6h-85q0 44 -19.5 72.5t-62.5 28.5q-40 0 -59.5 -29 t-19.5 -72h-88z" />
<glyph unicode="&#x489;" horiz-adv-x="0" d="M-394 -60l8 -14l-100 -339h-79l57 353h114zM-555 1126l-10 14l100 338h79l-57 -352h-112zM4 631l11 12l276 -124v-98l-287 71v139zM-959 433l-10 -12l-276 124v98l286 -71v-139zM-194 1002l2 16l266 153l55 -68q-30 -23 -243 -200zM-759 21l-2 -17l-266 -153l-57 69 l244 200zM-876 860l-14 2l-122 326l53 69l164 -299zM-80 161l14 -2l123 -325l-54 -71l-164 299z" />
<glyph unicode="&#x48a;" horiz-adv-x="1225" d="M941 1456h120v-1456h-120v1211l-6 1l-651 -1212h-120v1456h120v-1210l6 -1zM864 1855l3 -6q3 -112 -65 -182.5t-185 -70.5q-118 0 -186 70.5t-64 182.5l3 6h94q0 -77 36.5 -124t116.5 -47q76 0 113.5 48t37.5 123h96zM1164 -11l-100 -277h-77l56 280v168h121v-171z" />
<glyph unicode="&#x48b;" horiz-adv-x="982" d="M718 1082h121v-1082h-121v850l-6 1l-450 -851h-120v1082h120v-851l6 -1zM735 1512l3 -6q3 -112 -65 -182.5t-185 -70.5q-118 0 -186 70.5t-64 182.5l3 6h94q0 -77 36.5 -124t116.5 -47q76 0 113.5 48t37.5 123h96zM942 -11l-100 -277h-77l56 280v168h121v-171z" />
<glyph unicode="&#x48c;" horiz-adv-x="1067" d="M507 1126h-234v-302h301q192 0 297 -111.5t105 -298.5q0 -188 -105.5 -301t-296.5 -113h-420v1126h-162v104h162v226h119v-226h234v-104zM273 719v-615h301q141 0 210.5 88t69.5 224q0 130 -69.5 216.5t-210.5 86.5h-301z" />
<glyph unicode="&#x48d;" horiz-adv-x="931" d="M533 1350h-269v-641h245q156 0 243.5 -98t87.5 -255q0 -158 -87.5 -257t-243.5 -99h-365v1350h-161v106h161v179h120v-179h269v-106zM264 604v-500h245q107 0 159 71t52 179q0 103 -52.5 176.5t-158.5 73.5h-245z" />
<glyph unicode="&#x48e;" horiz-adv-x="1095" d="M282 603v-603h-120v1456h431q191 0 296 -117t105 -309q0 -194 -105 -311l-8 -8l116 -152l-73 -70l-122 161q-87 -47 -209 -47h-311zM282 708h311q83 0 141 32l-97 129l73 69l99 -131q64 90 64 221q0 139 -70 230.5t-210 91.5h-311v-642z" />
<glyph unicode="&#x48f;" horiz-adv-x="978" d="M872 446q0 -213 -92 -340q-2 -3 -4 -7l86 -122l-74 -69l-85 121q-74 -50 -175 -50q-91 0 -159 38t-113 110v-543h-120v1498h101l13 -149q45 81 114 125t161 44q163 0 255 -138.5t92 -369.5v-148zM750 594q0 177 -65 288.5t-191 111.5q-89 0 -147.5 -53t-90.5 -138v-545 q33 -82 92 -128.5t147 -46.5q83 0 140 43l-100 143l75 68l90 -130q50 95 50 239v148z" />
<glyph unicode="&#x490;" horiz-adv-x="950" d="M886 1351h-2v-1h-611v-1350h-120v1456h613v353h120v-458z" />
<glyph unicode="&#x491;" horiz-adv-x="767" d="M699 975h-442v-975h-121v1082h442v343h121v-450z" />
<glyph unicode="&#x492;" horiz-adv-x="958" d="M546 706h-264v-706h-120v706h-131v104h131v646h731v-106h-611v-540h264v-104z" />
<glyph unicode="&#x493;" horiz-adv-x="732" d="M523 501h-261v-501h-121v501h-133v104h133v477h559v-107h-438v-370h261v-104z" />
<glyph unicode="&#x494;" horiz-adv-x="1017" d="M893 1350h-611v-522h166q228 0 357 -143.5t129 -427.5q0 -228 -99.5 -382.5t-278.5 -149.5l-6 2l-1 91q133 0 199 123.5t66 315.5q-2 232 -96.5 346.5t-269.5 114.5h-166v-718h-120v1456h731v-106z" />
<glyph unicode="&#x495;" horiz-adv-x="867" d="M695 975h-438v-349h110q192 0 309 -117t117 -343q0 -132 -77 -265.5t-236 -170.5l-32 96q119 34 172 127.5t53 212.5q1 173 -83 262t-223 89h-110v-517h-121v1082h559v-107z" />
<glyph unicode="&#x496;" horiz-adv-x="1530" d="M957 694h-131v-694h-120v694h-137l-388 -694h-152l439 755l-406 701h142l359 -658h143v658h120v-658h139l359 658h141l-407 -699l440 -757h-151zM1539 -355h-121v481h121v-481z" />
<glyph unicode="&#x497;" horiz-adv-x="1319" d="M828 498h-113v-498h-120v498h-114l-301 -498h-152l360 565l-324 517h146l271 -474h114v474h120v-474h115l271 474h146l-325 -517l361 -565h-152zM1302 -355h-121v481h121v-481z" />
<glyph unicode="&#x498;" horiz-adv-x="1027" d="M509 795q150 0 221.5 74t71.5 207q0 132 -75.5 213.5t-224.5 81.5q-120 0 -202 -83t-82 -213h-113l-2 6q-5 176 112 286t287 110q195 0 308 -105.5t113 -299.5q0 -108 -57.5 -195.5t-159.5 -130.5q115 -39 175 -128t60 -222q0 -196 -121.5 -306.5t-317.5 -110.5 q-171 0 -295.5 107.5t-120.5 311.5l3 6h112q0 -139 84 -230t217 -91q151 0 235 83t84 226q0 153 -78.5 225t-233.5 72h-141v106h141zM577 -429h-121v481h121v-481z" />
<glyph unicode="&#x499;" horiz-adv-x="879" d="M443 605q108 0 155.5 49t47.5 141q0 89 -51 144.5t-158 55.5q-90 0 -152.5 -58.5t-62.5 -147.5h-112l-2 6q-5 134 92 219t237 85q156 0 243 -79.5t87 -226.5q0 -78 -40.5 -141t-114.5 -97q85 -30 128.5 -95.5t43.5 -162.5q0 -148 -95.5 -231.5t-251.5 -83.5 q-141 0 -245 83.5t-99 238.5l2 6h112q0 -96 65 -161t165 -65q108 0 166.5 57.5t58.5 153.5q0 106 -53.5 154.5t-165.5 48.5h-142v107h142zM495 -428h-121v481h121v-481z" />
<glyph unicode="&#x49a;" horiz-adv-x="1104" d="M440 683h-156v-683h-120v1456h120v-669h152l461 669h140l-500 -715l536 -741h-149zM1113 -355h-121v481h121v-481z" />
<glyph unicode="&#x49b;" horiz-adv-x="912" d="M389 493h-127v-493h-120v1082h120v-479h124l317 479h149l-368 -521l404 -561h-155zM912 -355h-121v481h121v-481z" />
<glyph unicode="&#x49c;" horiz-adv-x="1069" d="M998 1456l-354 -700l399 -756h-151l-340 689h-71v-284h-99v284h-108v-689h-120v1456h120v-663h108v281h99v-281h76l299 663h142z" />
<glyph unicode="&#x49d;" horiz-adv-x="949" d="M894 1082l-289 -517l326 -565h-156l-259 493h-54v-235h-99v235h-101v-493h-121v1082h121v-479h101v240h99v-240h53l230 479h149z" />
<glyph unicode="&#x49e;" horiz-adv-x="1124" d="M460 683h-156v-683h-120v1179h-180v104h180v173h120v-173h215v-104h-215v-392h152l461 669h140l-500 -715l536 -741h-149z" />
<glyph unicode="&#x49f;" horiz-adv-x="884" d="M390 525h-114v-525h-119v1239h-152v104h152v217h119v-217h244v-104h-244v-608h105l305 451h145l-348 -494l388 -588h-144z" />
<glyph unicode="&#x4a0;" horiz-adv-x="1396" d="M750 683h-156v-683h-120v1352h-402v104h522v-669h152l461 669h140l-500 -715l536 -741h-149z" />
<glyph unicode="&#x4a1;" horiz-adv-x="1157" d="M637 493h-127v-493h-120v977h-335v105h455v-479h124l317 479h149l-368 -521l404 -561h-155z" />
<glyph unicode="&#x4a2;" horiz-adv-x="1221" d="M1057 0h-119v669h-654v-669h-120v1456h120v-683h654v683h119v-1456zM1151 -355h-121v481h121v-481z" />
<glyph unicode="&#x4a3;" horiz-adv-x="981" d="M839 0h-121v494h-456v-494h-120v1082h120v-484h456v484h121v-1082zM932 -355h-121v481h121v-481z" />
<glyph unicode="&#x4a4;" horiz-adv-x="1708" d="M282 773h654v683h699v-104h-580v-1352h-119v669h-654v-669h-120v1456h120v-683z" />
<glyph unicode="&#x4a5;" horiz-adv-x="1239" d="M256 598h456v484h458v-105h-337v-977h-121v494h-456v-494h-120v1082h120v-484z" />
<glyph unicode="&#x4a6;" horiz-adv-x="1752" d="M1053 835h124q228 0 357 -143.5t129 -427.5q0 -228 -99.5 -382.5t-278.5 -149.5l-6 2l-1 91q133 0 199 123.5t66 315.5q-2 232 -96.5 346.5t-269.5 114.5h-124v-725h-121v1350h-654v-1350h-120v1456h895v-621z" />
<glyph unicode="&#x4a7;" horiz-adv-x="1476" d="M833 626h139q196 0 316.5 -117t120.5 -343q0 -133 -77.5 -266t-236.5 -170l-32 96q119 34 171.5 127t53.5 213q1 173 -86 262t-230 89h-139v-517h-121v975h-456v-975h-120v1082h697v-456z" />
<glyph unicode="&#x4a8;" horiz-adv-x="1279" d="M1195 -26q-88 0 -167 17.5t-149 52.5q-58 -32 -124 -48.5t-137 -16.5q-231 0 -370 198t-139 500v203q0 256 103.5 425t266.5 163l6 -1l2 -99q-117 0 -187 -140.5t-70 -345.5v-205q0 -257 105.5 -424t282.5 -167q40 0 78 7t74 21q-120 94 -185 239.5t-65 323.5v255 q0 234 91 385t240 151t241.5 -150t92.5 -386v-267q0 -174 -54 -315.5t-153 -232.5q48 -19 102.5 -28t114.5 -9v-106zM641 675q0 -165 58 -294.5t168 -201.5h6q90 70 140.5 198t50.5 288v268q0 189 -57 308.5t-156 119.5q-98 0 -154 -121.5t-56 -306.5v-258z" />
<glyph unicode="&#x4a9;" horiz-adv-x="1032" d="M973 -12q-71 0 -135.5 14t-119.5 41q-47 -32 -100 -48t-111 -16q-179 0 -291 162.5t-112 409.5v76q0 205 79 338.5t201 126.5l6 -1v-97q-72 0 -119 -104.5t-47 -260.5v-78q0 -203 76 -334t207 -131q28 0 55 5.5t53 17.5q-92 76 -141 192.5t-49 257.5v106q0 193 70 315 t186 122q115 0 185.5 -130.5t70.5 -327.5v-104q0 -126 -34.5 -233t-96.5 -183q36 -15 78 -22t89 -7v-107zM817 540v107q0 148 -37 246t-96 93l-6 1q-62 5 -96.5 -85t-34.5 -235v-110q0 -123 40.5 -219.5t115.5 -150.5h6q51 55 79.5 148t28.5 205z" />
<glyph unicode="&#x4aa;" horiz-adv-x="1062" d="M959 423l3 -6q-2 -213 -112 -325.5t-303 -112.5q-201 0 -319 142t-118 405v403q0 261 118.5 404.5t318.5 143.5q195 0 304 -110t111 -328l-3 -6h-111q-5 173 -80 255.5t-221 82.5q-150 0 -234 -113t-84 -326v-406q0 -217 84 -330t234 -113q146 0 221 80.5t80 259.5h111z M611 -429h-121v481h121v-481z" />
<glyph unicode="&#x4ab;" horiz-adv-x="904" d="M478 83q94 0 165 67.5t71 186.5h106l3 -6q3 -150 -101 -251t-244 -101q-187 0 -287.5 133.5t-100.5 343.5v168q0 209 100.5 343.5t287.5 134.5q151 0 249.5 -105.5t95.5 -277.5l-2 -5h-107q0 129 -67.5 205.5t-168.5 76.5q-140 0 -204 -105.5t-64 -266.5v-168 q0 -163 64 -268t204 -105zM517 -429h-121v481h121v-481z" />
<glyph unicode="&#x4ac;" horiz-adv-x="1020" d="M976 1350h-407v-1350h-120v1350h-406v106h933v-106zM663 -355h-121v481h121v-481z" />
<glyph unicode="&#x4ad;" horiz-adv-x="838" d="M791 977h-316v-977h-122v977h-306v105h744v-105zM569 -355h-121v481h121v-481z" />
<glyph unicode="&#x4ae;" horiz-adv-x="1056" d="M524 685h6l352 771h137l-433 -922v-534h-120v540l-431 916h139z" />
<glyph unicode="&#x4af;" horiz-adv-x="856" d="M693 1082h123l-325 -1044v-453h-120v459l-325 1038h124l235 -809l24 -105h6l26 105z" />
<glyph unicode="&#x4b0;" horiz-adv-x="1056" d="M524 685h6l352 771h137l-381 -810h137v-104h-186l-3 -8v-534h-120v541l-1 1h-205v104h156l-381 810h139z" />
<glyph unicode="&#x4b1;" horiz-adv-x="856" d="M691 -4h-200v-411h-120v411h-195v104h177l-307 982h124l235 -809l24 -105h6l26 105l232 809h123l-306 -982h181v-104z" />
<glyph unicode="&#x4b2;" horiz-adv-x="1069" d="M536 836l321 620h145l-395 -718l408 -738h-144l-333 639l-333 -639h-146l408 738l-396 718h145zM1029 -355h-121v481h121v-481z" />
<glyph unicode="&#x4b3;" horiz-adv-x="856" d="M425 642l226 440h141l-299 -532l311 -550h-140l-237 458l-237 -458h-141l312 550l-300 532h140zM840 -355h-121v481h121v-481z" />
<glyph unicode="&#x4b4;" horiz-adv-x="1511" d="M369 1352h-325v104h787v-104h-341v-1248h653v1352h120v-1350h120l-11 -457h-108v351h-895v1352z" />
<glyph unicode="&#x4b5;" horiz-adv-x="1138" d="M273 978h-239v104h587v-104h-228v-874h456v978h121v-978h98l-11 -425h-109v321h-675v978z" />
<glyph unicode="&#x4b6;" horiz-adv-x="1160" d="M997 1456v-1456h-120v659q-86 -29 -161.5 -43t-167.5 -14q-199 0 -301 105t-102 343v406h120v-406q0 -186 69 -264.5t214 -78.5q84 0 165 14t164 43v692h120zM1091 -355h-121v481h121v-481z" />
<glyph unicode="&#x4b7;" horiz-adv-x="929" d="M786 0h-120v446q-56 -22 -112.5 -34.5t-112.5 -12.5q-171 0 -257.5 94t-86.5 313v276h121v-276q0 -168 53.5 -235t169.5 -67q58 1 114.5 13.5t110.5 34.5v530h120v-1082zM879 -355h-121v481h121v-481z" />
<glyph unicode="&#x4b8;" horiz-adv-x="1155" d="M997 1456v-1456h-120v659q-86 -29 -162 -43q-33 -6 -70 -10v-248h-100v244q-197 1 -298 105q-102 105 -102 343v406h120v-406q0 -186 69 -265q68 -77 211 -78v343h100v-339q34 4 68 10q81 14 164 43v692h120z" />
<glyph unicode="&#x4b9;" horiz-adv-x="954" d="M816 0h-120v446q-56 -22 -113 -35q-20 -4 -39 -7v-168h-101v163q-150 8 -230 94q-86 94 -86 313v276h121v-276q0 -168 53 -235q47 -59 142 -66v292h101v-288q21 4 41 8q57 13 111 35v530h120v-1082z" />
<glyph unicode="&#x4ba;" horiz-adv-x="1155" d="M122 0v1456h120v-660q83 28 159.5 43t169.5 15q198 0 300.5 -105.5t102.5 -342.5v-406h-120v406q0 185 -69.5 264t-213.5 79q-85 0 -165.5 -15t-163.5 -42v-692h-120z" />
<glyph unicode="&#x4bb;" d="M256 911q45 91 117.5 141t165.5 50q143 0 220 -105.5t77 -328.5v-668h-121v670q0 174 -53.5 249t-153.5 75q-90 0 -154 -57.5t-98 -153.5v-783h-120v1560h120v-649z" />
<glyph unicode="&#x4bc;" horiz-adv-x="1312" d="M812 -23q-237 0 -368.5 166t-131.5 438v152q-127 17 -193.5 106t-66.5 238h100q0 -103 38.5 -165t115.5 -72l6 2v18q0 268 127.5 441.5t318.5 173.5q213 0 330.5 -171t117.5 -467v-106h-774v-150q0 -223 94 -361.5t286 -138.5q99 0 174 32t133 86l36 -91 q-49 -54 -132.5 -92.5t-210.5 -38.5zM432 826h652v41q0 224 -81 363t-245 139q-151 0 -238.5 -145.5t-87.5 -363.5v-34z" />
<glyph unicode="&#x4bd;" horiz-adv-x="1022" d="M585 -21q-175 0 -286 131.5t-111 335.5v112q-95 23 -143.5 100.5t-48.5 201.5h100q0 -76 22.5 -127t70.5 -73q9 192 119 317t260 125q170 0 264 -121.5t94 -326.5v-119h-619v-89q0 -156 75 -259.5t203 -103.5q89 0 153.5 31t110.5 88l49 -85q-49 -63 -126.5 -100.5 t-186.5 -37.5zM568 996q-113 0 -185.5 -103t-75.5 -254h499v46q0 134 -63 222.5t-175 88.5z" />
<glyph unicode="&#x4be;" horiz-adv-x="1312" d="M812 -23q-237 0 -368.5 166t-131.5 438v152q-127 17 -193.5 106t-66.5 238h100q0 -103 38.5 -165t115.5 -72l6 2v18q0 268 127.5 441.5t318.5 173.5q213 0 330.5 -171t117.5 -467v-106h-774v-150q0 -223 94 -361.5t286 -138.5q99 0 174 32t133 86l36 -91 q-49 -54 -132.5 -92.5t-210.5 -38.5zM432 826h652v41q0 224 -81 363t-245 139q-151 0 -238.5 -145.5t-87.5 -363.5v-34zM852 -443h-121v481h121v-481z" />
<glyph unicode="&#x4bf;" horiz-adv-x="1022" d="M585 -21q-175 0 -286 131.5t-111 335.5v112q-95 23 -143.5 100.5t-48.5 201.5h100q0 -76 22.5 -127t70.5 -73q9 192 119 317t260 125q170 0 264 -121.5t94 -326.5v-119h-619v-89q0 -156 75 -259.5t203 -103.5q89 0 153.5 31t110.5 88l49 -85q-49 -63 -126.5 -100.5 t-186.5 -37.5zM568 996q-113 0 -185.5 -103t-75.5 -254h499v46q0 134 -63 222.5t-175 88.5zM652 -420h-121v481h121v-481z" />
<glyph unicode="&#x4c0;" horiz-adv-x="484" d="M302 0h-121v1456h121v-1456z" />
<glyph unicode="&#x4c1;" horiz-adv-x="1530" d="M957 694h-131v-694h-120v694h-137l-388 -694h-152l439 755l-406 701h142l359 -658h143v658h120v-658h139l359 658h141l-407 -699l440 -757h-151zM1011 1855l3 -6q3 -112 -65 -182.5t-185 -70.5q-118 0 -186 70.5t-64 182.5l3 6h94q0 -77 36.5 -124t116.5 -47 q76 0 113.5 48t37.5 123h96z" />
<glyph unicode="&#x4c2;" horiz-adv-x="1319" d="M828 498h-113v-498h-120v498h-114l-301 -498h-152l360 565l-324 517h146l271 -474h114v474h120v-474h115l271 474h146l-325 -517l361 -565h-152zM926 1512l3 -6q3 -112 -65 -182.5t-185 -70.5q-118 0 -186 70.5t-64 182.5l3 6h94q0 -77 36.5 -124t116.5 -47 q76 0 113.5 48t37.5 123h96z" />
<glyph unicode="&#x4c3;" horiz-adv-x="1069" d="M537 800q221 -5 345 -148t124 -422q0 -227 -99 -381.5t-279 -149.5l-6 2l-1 90q133 0 199 124t66 315q-1 232 -95.5 347t-269.5 115h-247v-692h-120v1456h120v-655h134l448 655h142z" />
<glyph unicode="&#x4c4;" horiz-adv-x="924" d="M489 598q166 -20 263.5 -130t97.5 -312q0 -129 -77.5 -258.5t-236.5 -165.5l-32 96q119 33 172 123t54 205q1 172 -85.5 255t-230.5 83h-4v-1h-148v-493h-121v1082h121v-479h97l343 479h149z" />
<glyph unicode="&#x4c5;" horiz-adv-x="1213" d="M1051 1456v-1456h-120v1350h-492l-11 -554q-7 -431 -83 -613.5t-263 -182.5h-37v104h32q121 0 172 148t59 544l13 660h730zM1153 -11l-100 -277h-77l56 280v168h121v-171z" />
<glyph unicode="&#x4c6;" horiz-adv-x="984" d="M841 1082v-1082h-121v975h-355v-371q0 -319 -64 -461.5t-219 -142.5h-39l2 110l32 1q90 0 129 109t39 384v478h596zM943 -11l-100 -277h-77l56 280v168h121v-171z" />
<glyph unicode="&#x4c7;" horiz-adv-x="1219" d="M282 1456v-683h654v683h120v-1545q0 -167 -68.5 -257.5t-189.5 -90.5q-25 0 -47 5t-46 14l12 102q12 -5 38 -10t43 -5q65 0 101.5 64t36.5 178v758h-654v-669h-120v1456h120z" />
<glyph unicode="&#x4c8;" d="M256 1082v-484h456v484h120v-1171q0 -167 -68 -257.5t-189 -90.5q-26 0 -47.5 5t-45.5 14l12 102q11 -5 37.5 -10t43.5 -5q65 0 101 64t36 178v583h-456v-494h-120v1082h120z" />
<glyph unicode="&#x4c9;" horiz-adv-x="1221" d="M1057 0h-119v669h-654v-669h-120v1456h120v-683h654v683h119v-1456zM1160 -11l-100 -277h-77l56 280v168h121v-171z" />
<glyph unicode="&#x4ca;" horiz-adv-x="981" d="M839 0h-121v494h-456v-494h-120v1082h120v-484h456v484h121v-1082zM941 -11l-100 -277h-77l56 280v168h121v-171z" />
<glyph unicode="&#x4cb;" horiz-adv-x="1160" d="M997 1456v-1456h-120v659q-86 -29 -161.5 -43t-167.5 -14q-199 0 -301 105t-102 343v406h120v-406q0 -186 69 -264.5t214 -78.5q84 0 165 14t164 43v692h120zM904 -355h-121v481h121v-481z" />
<glyph unicode="&#x4cc;" horiz-adv-x="929" d="M786 0h-120v446q-56 -22 -112.5 -34.5t-112.5 -12.5q-171 0 -257.5 94t-86.5 313v276h121v-276q0 -168 53.5 -235t169.5 -67q58 1 114.5 13.5t110.5 34.5v530h120v-1082zM693 -355h-121v481h121v-481z" />
<glyph unicode="&#x4cd;" horiz-adv-x="1443" d="M312 1456l405 -1275h6l406 1275h155v-1456h-119v639l12 595l-6 1l-411 -1235h-80l-410 1233l-6 -1l12 -593v-639h-118v1456h154zM1386 -11l-100 -277h-77l56 280v168h121v-171z" />
<glyph unicode="&#x4ce;" horiz-adv-x="1266" d="M634 174h6l333 908h150v-1082h-121v831l-6 2l-317 -833h-84l-324 853l-6 -1v-852h-120v1082h157zM1225 -11l-100 -277h-77l56 280v168h121v-171z" />
<glyph unicode="&#x4cf;" horiz-adv-x="484" d="M302 0h-121v1456h121v-1456z" />
<glyph unicode="&#x4d0;" horiz-adv-x="1096" d="M814 404h-531l-124 -404h-124l461 1456h109l456 -1456h-124zM317 514h464l-228 749h-6zM816 1855l3 -6q3 -112 -65 -182.5t-185 -70.5q-118 0 -186 70.5t-64 182.5l3 6h94q0 -77 36.5 -124t116.5 -47q76 0 113.5 48t37.5 123h96z" />
<glyph unicode="&#x4d1;" horiz-adv-x="938" d="M698 0q-9 56 -13.5 92t-4.5 73q-49 -81 -127.5 -133.5t-174.5 -52.5q-134 0 -207 83.5t-73 225.5q0 151 106 240.5t287 89.5h189v133q0 115 -58 180t-162 65q-97 0 -159.5 -62t-62.5 -152l-112 1l-2 6q-5 122 92.5 217.5t249.5 95.5q150 0 242 -91.5t92 -261.5v-531 q0 -58 5 -112t18 -106h-125zM393 87q100 0 177.5 57.5t109.5 146.5v234h-192q-123 0 -196.5 -69.5t-73.5 -171.5q0 -87 46 -142t129 -55zM709 1533l3 -6q3 -112 -65 -182.5t-185 -70.5q-118 0 -186 70.5t-64 182.5l3 6h94q0 -77 36.5 -124t116.5 -47q76 0 113.5 48t37.5 123 h96z" />
<glyph unicode="&#x4d2;" horiz-adv-x="1096" d="M814 404h-531l-124 -404h-124l461 1456h109l456 -1456h-124zM317 514h464l-228 749h-6zM857 1638h-161v160h161v-160zM449 1638h-163v160h163v-160z" />
<glyph unicode="&#x4d3;" horiz-adv-x="938" d="M698 0q-9 56 -13.5 92t-4.5 73q-49 -81 -127.5 -133.5t-174.5 -52.5q-134 0 -207 83.5t-73 225.5q0 151 106 240.5t287 89.5h189v133q0 115 -58 180t-162 65q-97 0 -159.5 -62t-62.5 -152l-112 1l-2 6q-5 122 92.5 217.5t249.5 95.5q150 0 242 -91.5t92 -261.5v-531 q0 -58 5 -112t18 -106h-125zM393 87q100 0 177.5 57.5t109.5 146.5v234h-192q-123 0 -196.5 -69.5t-73.5 -171.5q0 -87 46 -142t129 -55zM750 1316h-161v160h161v-160zM342 1316h-163v160h163v-160z" />
<glyph unicode="&#x4d4;" horiz-adv-x="1579" d="M1538 0h-699l-14 387h-478l-187 -387h-147l730 1456h744v-106h-575l19 -540h488v-104h-484l21 -602h582v-104zM403 503h418l-27 789h-6l1 6z" />
<glyph unicode="&#x4d5;" horiz-adv-x="1453" d="M1056 -21q-114 0 -199 53t-137 151q-44 -85 -136 -144.5t-223 -59.5q-140 0 -217 84.5t-77 230.5q0 157 94.5 247.5t272.5 90.5h209v88q0 131 -49.5 203.5t-144.5 72.5q-104 0 -164 -66t-60 -166l-112 13l-2 6q-4 138 89 228.5t249 90.5q100 0 172.5 -48.5t109.5 -142.5 q51 90 128 140.5t168 50.5q170 0 263 -124.5t93 -341.5v-101h-614v-25q0 -191 71 -309t216 -118q86 0 150 32t116 86l44 -90q-42 -53 -118.5 -92.5t-191.5 -39.5zM383 82q76 0 151.5 49.5t108.5 109.5v292h-208q-119 0 -183 -70t-64 -173q0 -96 49.5 -152t145.5 -56z M1027 996q-108 0 -175 -100.5t-80 -259.5h491v31q0 146 -59 237.5t-177 91.5z" />
<glyph unicode="&#x4d6;" horiz-adv-x="1001" d="M856 703h-572v-599h657v-104h-777v1456h771v-106h-651v-543h572v-104zM773 1855l3 -6q3 -112 -65 -182.5t-185 -70.5q-118 0 -186 70.5t-64 182.5l3 6h94q0 -77 36.5 -124t116.5 -47q76 0 113.5 48t37.5 123h96z" />
<glyph unicode="&#x4d7;" horiz-adv-x="900" d="M485 -21q-175 0 -286 131.5t-111 335.5v180q0 205 111.5 340.5t268.5 135.5q170 0 264 -121.5t94 -326.5v-119h-619v-89q0 -156 75 -259.5t203 -103.5q89 0 153.5 31t110.5 88l49 -85q-49 -63 -126.5 -100.5t-186.5 -37.5zM468 996q-113 0 -185.5 -103t-75.5 -254h499v46 q0 134 -63 222.5t-175 88.5zM720 1534l3 -6q3 -112 -65 -182.5t-185 -70.5q-118 0 -186 70.5t-64 182.5l3 6h94q0 -77 36.5 -124t116.5 -47q76 0 113.5 48t37.5 123h96z" />
<glyph unicode="&#x4d8;" horiz-adv-x="1200" d="M562 1477q249 0 389 -181t140 -475v-167q0 -296 -138 -485.5t-342 -189.5q-242 0 -375 170t-133 466v117h867v89q0 244 -101.5 397t-306.5 153q-104 0 -183.5 -32.5t-139.5 -85.5l-35 91q50 54 137.5 93.5t220.5 39.5zM611 83q162 0 258.5 157t100.5 397h-746v-52 q0 -225 96 -363.5t291 -138.5z" />
<glyph unicode="&#x4d9;" horiz-adv-x="900" d="M428 1102q174 0 286 -150t112 -381v-54q0 -233 -112 -385t-268 -151q-172 0 -265 124t-93 337v103h618v26q0 182 -76 304.5t-202 122.5q-90 0 -154 -31.5t-109 -88.5l-50 86q48 62 125.5 100t187.5 38zM446 84q100 0 170 100t86 257h-495v-29q0 -142 63 -235t176 -93z " />
<glyph unicode="&#x4da;" horiz-adv-x="1200" d="M562 1477q249 0 389 -181t140 -475v-167q0 -296 -138 -485.5t-342 -189.5q-242 0 -375 170t-133 466v117h867v89q0 244 -101.5 397t-306.5 153q-104 0 -183.5 -32.5t-139.5 -85.5l-35 91q50 54 137.5 93.5t220.5 39.5zM611 83q162 0 258.5 157t100.5 397h-746v-52 q0 -225 96 -363.5t291 -138.5zM837 1659h-161v160h161v-160zM429 1659h-163v160h163v-160z" />
<glyph unicode="&#x4db;" horiz-adv-x="918" d="M439.06 1103q174.979 0 285.965 -131.483q110.986 -131.484 110.986 -335.459v-179.979q0 -204.975 -111.486 -340.458t-268.468 -135.483q-169.979 0 -263.967 121.485q-93.9893 121.484 -93.9893 326.46v118.985h618.925v88.9893q0 155.98 -74.9912 259.468 q-74.9902 103.487 -202.975 103.487q-88.9893 0 -153.481 -30.9961t-110.486 -87.9893l-48.9941 84.9902q48.9941 62.9922 126.484 100.487t186.478 37.4951zM456.057 86.1211q112.986 0 185.478 102.988q72.4912 102.987 75.4912 253.969h-498.939v-45.9941 q0 -133.984 62.9922 -222.474t174.979 -88.4893zM768 1316h-161v160h161v-160zM360 1316h-163v160h163v-160z" />
<glyph unicode="&#x4dc;" horiz-adv-x="1530" d="M957 694h-131v-694h-120v694h-137l-388 -694h-152l439 755l-406 701h142l359 -658h143v658h120v-658h139l359 658h141l-407 -699l440 -757h-151zM1052 1638h-161v160h161v-160zM644 1638h-163v160h163v-160z" />
<glyph unicode="&#x4dd;" horiz-adv-x="1319" d="M828 498h-113v-498h-120v498h-114l-301 -498h-152l360 565l-324 517h146l271 -474h114v474h120v-474h115l271 474h146l-325 -517l361 -565h-152zM967 1296h-161v160h161v-160zM559 1296h-163v160h163v-160z" />
<glyph unicode="&#x4de;" horiz-adv-x="1027" d="M509 795q150 0 221.5 74t71.5 207q0 132 -75.5 213.5t-224.5 81.5q-120 0 -202 -83t-82 -213h-113l-2 6q-5 176 112 286t287 110q195 0 308 -105.5t113 -299.5q0 -108 -57.5 -195.5t-159.5 -130.5q115 -39 175 -128t60 -222q0 -196 -121.5 -306.5t-317.5 -110.5 q-171 0 -295.5 107.5t-120.5 311.5l3 6h112q0 -139 84 -230t217 -91q151 0 235 83t84 226q0 153 -78.5 225t-233.5 72h-141v106h141zM804 1659h-161v160h161v-160zM396 1659h-163v160h163v-160z" />
<glyph unicode="&#x4df;" horiz-adv-x="879" d="M443 605q108 0 155.5 49t47.5 141q0 89 -51 144.5t-158 55.5q-90 0 -152.5 -58.5t-62.5 -147.5h-112l-2 6q-5 134 92 219t237 85q156 0 243 -79.5t87 -226.5q0 -78 -40.5 -141t-114.5 -97q85 -30 128.5 -95.5t43.5 -162.5q0 -148 -95.5 -231.5t-251.5 -83.5 q-141 0 -245 83.5t-99 238.5l2 6h112q0 -96 65 -161t165 -65q108 0 166.5 57.5t58.5 153.5q0 106 -53.5 154.5t-165.5 48.5h-142v107h142zM723 1316h-161v160h161v-160zM315 1316h-163v160h163v-160z" />
<glyph unicode="&#x4e0;" horiz-adv-x="999" d="M710 1350h-580v106h720l2 -94l-370 -525q191 -3 292.5 -116.5t101.5 -324.5q0 -196 -109 -306.5t-283 -110.5q-156 0 -269.5 108t-109.5 312l2 5h115q0 -139 72.5 -230t189.5 -91q128 0 200 83.5t72 225.5q0 179 -71.5 262.5t-213.5 83.5h-108v104z" />
<glyph unicode="&#x4e1;" horiz-adv-x="999" d="M700 975h-570v107h720l2 -94l-362 -527q183 -8 284.5 -122t101.5 -318q0 -193 -109 -304.5t-283 -111.5q-156 0 -269.5 109t-109.5 310l2 5h115q0 -137 72.5 -227.5t189.5 -90.5q128 0 200 83.5t72 222.5q0 179 -76 262.5t-219 83.5h-99v105z" />
<glyph unicode="&#x4e2;" horiz-adv-x="1225" d="M941 1456h120v-1456h-120v1211l-6 1l-651 -1212h-120v1456h120v-1210l6 -1zM916 1686h-595v100h595v-100z" />
<glyph unicode="&#x4e3;" horiz-adv-x="982" d="M718 1082h121v-1082h-121v850l-6 1l-450 -851h-120v1082h120v-851l6 -1zM787 1345h-595v100h595v-100z" />
<glyph unicode="&#x4e4;" horiz-adv-x="1225" d="M941 1456h120v-1456h-120v1211l-6 1l-651 -1212h-120v1456h120v-1210l6 -1zM905 1638h-161v160h161v-160zM497 1638h-163v160h163v-160z" />
<glyph unicode="&#x4e5;" horiz-adv-x="982" d="M718 1082h121v-1082h-121v850l-6 1l-450 -851h-120v1082h120v-851l6 -1zM776 1296h-161v160h161v-160zM368 1296h-163v160h163v-160z" />
<glyph unicode="&#x4e6;" horiz-adv-x="1124" d="M1019 523q0 -265 -123.5 -404.5t-338.5 -139.5q-211 0 -331.5 139.5t-120.5 404.5v408q0 265 120 405.5t331 140.5q215 0 339 -141t124 -405v-408zM900 934q0 216 -89 325t-255 109q-161 0 -247 -109t-86 -325v-411q0 -219 86 -328t248 -109q166 0 254.5 109t88.5 328 v411zM848 1659h-161v160h161v-160zM440 1659h-163v160h163v-160z" />
<glyph unicode="&#x4e7;" d="M86 620q0 210 108 346t290 136t290.5 -135.5t108.5 -346.5v-159q0 -213 -108 -347.5t-290 -134.5q-183 0 -291 134.5t-108 347.5v159zM207 461q0 -162 72 -270t206 -108q131 0 204 108.5t73 269.5v159q0 159 -73 267.5t-205 108.5q-133 0 -205 -108.5t-72 -267.5v-159z M778 1316h-161v160h161v-160zM370 1316h-163v160h163v-160z" />
<glyph unicode="&#x4e8;" horiz-adv-x="1166" d="M1019 523q0 -265 -123.5 -404.5t-338.5 -139.5q-211 0 -331.5 139.5t-120.5 404.5v408q0 265 120 405.5t331 140.5q215 0 339 -141t124 -405v-408zM223 775h677v159q0 216 -89 325t-255 109q-161 0 -247 -109t-86 -325v-159zM900 671h-677v-148q0 -219 86 -328t248 -109 q166 0 254.5 109t88.5 328v148z" />
<glyph unicode="&#x4e9;" horiz-adv-x="980" d="M86 620q0 210 108 346t290 136t290.5 -135.5t108.5 -346.5v-159q0 -213 -108 -347.5t-290 -134.5q-183 0 -291 134.5t-108 347.5v159zM485 83q131 0 204 108.5t73 269.5v30h-555v-30q0 -162 72 -270t206 -108zM207 596h555v24q0 159 -73 267.5t-205 108.5 q-133 0 -205 -108.5t-72 -267.5v-24z" />
<glyph unicode="&#x4ea;" horiz-adv-x="1166" d="M1019 523q0 -265 -123.5 -404.5t-338.5 -139.5q-211 0 -331.5 139.5t-120.5 404.5v408q0 265 120 405.5t331 140.5q215 0 339 -141t124 -405v-408zM223 775h677v159q0 216 -89 325t-255 109q-161 0 -247 -109t-86 -325v-159zM900 671h-677v-148q0 -219 86 -328t248 -109 q166 0 254.5 109t88.5 328v148zM890 1659h-161v160h161v-160zM482 1659h-163v160h163v-160z" />
<glyph unicode="&#x4eb;" horiz-adv-x="980" d="M86 620q0 210 108 346t290 136t290.5 -135.5t108.5 -346.5v-159q0 -213 -108 -347.5t-290 -134.5q-183 0 -291 134.5t-108 347.5v159zM485 83q131 0 204 108.5t73 269.5v30h-555v-30q0 -162 72 -270t206 -108zM207 596h555v24q0 159 -73 267.5t-205 108.5 q-133 0 -205 -108.5t-72 -267.5v-24zM761 1316h-161v160h161v-160zM353 1316h-163v160h163v-160z" />
<glyph unicode="&#x4ec;" horiz-adv-x="1148" d="M153 1000l-2 5q-4 215 116 344t319 129q202 0 327.5 -176.5t125.5 -453.5v-239q0 -278 -125.5 -453.5t-327.5 -175.5q-201 0 -320 124.5t-115 345.5l2 5h114q0 -176 84 -273.5t235 -97.5t242 146t91 377v97h-498v104h498v40q0 231 -91 377.5t-242 146.5t-235 -96 t-84 -276h-114zM870 1659h-161v160h161v-160zM462 1659h-163v160h163v-160z" />
<glyph unicode="&#x4ed;" horiz-adv-x="927" d="M438 996q-91 0 -158 -67.5t-67 -185.5h-108l-3 6q-4 150 98 251.5t238 101.5q178 0 282 -153.5t104 -386.5v-42q0 -236 -103.5 -388.5t-281.5 -152.5q-149 0 -245 105t-92 277l2 5h109q0 -131 64.5 -207t161.5 -76q124 0 191.5 117t72.5 294h-378v105h378 q-7 171 -74.5 284t-190.5 113zM749 1316h-161v160h161v-160zM341 1316h-163v160h163v-160z" />
<glyph unicode="&#x4ee;" horiz-adv-x="1083" d="M504 665l52 -133h6l323 924h140l-449 -1208q-51 -127 -110 -198t-180 -71q-20 0 -46 3.5t-34 7.5l6 99q9 -3 32.5 -4.5t41.5 -1.5q67 0 104.5 49t72.5 143l41 104l-440 1077h137zM842 1686h-595v100h595v-100z" />
<glyph unicode="&#x4ef;" horiz-adv-x="856" d="M397 298l28 -109h6l256 893h134l-386 -1255q-35 -108 -92.5 -186t-164.5 -78q-18 0 -45 5t-40 9l13 103q10 -2 33 -4.5t34 -2.5q61 0 99 57t61 141l45 143l-342 1068h133zM733 1345h-595v100h595v-100z" />
<glyph unicode="&#x4f0;" horiz-adv-x="1083" d="M504 665l52 -133h6l323 924h140l-449 -1208q-51 -127 -110 -198t-180 -71q-20 0 -46 3.5t-34 7.5l6 99q9 -3 32.5 -4.5t41.5 -1.5q67 0 104.5 49t72.5 143l41 104l-440 1077h137zM831 1638h-161v160h161v-160zM423 1638h-163v160h163v-160z" />
<glyph unicode="&#x4f1;" horiz-adv-x="856" d="M397 298l28 -109h6l256 893h134l-386 -1255q-35 -108 -92.5 -186t-164.5 -78q-18 0 -45 5t-40 9l13 103q10 -2 33 -4.5t34 -2.5q61 0 99 57t61 141l45 143l-342 1068h133zM723 1296h-161v160h161v-160zM315 1296h-163v160h163v-160z" />
<glyph unicode="&#x4f2;" horiz-adv-x="1083" d="M504 665l52 -133h6l323 924h140l-449 -1208q-51 -127 -110 -198t-180 -71q-20 0 -46 3.5t-34 7.5l6 99q9 -3 32.5 -4.5t41.5 -1.5q67 0 104.5 49t72.5 143l41 104l-440 1077h137zM789 1867h142l3 -6l-247 -260h-109l-3 5zM536 1867h138l-206 -266h-104z" />
<glyph unicode="&#x4f3;" horiz-adv-x="856" d="M397 298l28 -109h6l256 893h134l-386 -1255q-35 -108 -92.5 -186t-164.5 -78q-18 0 -45 5t-40 9l13 103q10 -2 33 -4.5t34 -2.5q61 0 99 57t61 141l45 143l-342 1068h133zM680 1524h142l3 -6l-247 -260h-109l-3 5zM427 1524h138l-206 -266h-104z" />
<glyph unicode="&#x4f4;" horiz-adv-x="1160" d="M997 1456v-1456h-120v659q-86 -29 -161.5 -43t-167.5 -14q-199 0 -301 105t-102 343v406h120v-406q0 -186 69 -264.5t214 -78.5q84 0 165 14t164 43v692h120zM867 1638h-161v160h161v-160zM459 1638h-163v160h163v-160z" />
<glyph unicode="&#x4f5;" horiz-adv-x="929" d="M786 0h-120v446q-56 -22 -112.5 -34.5t-112.5 -12.5q-171 0 -257.5 94t-86.5 313v276h121v-276q0 -168 53.5 -235t169.5 -67q58 1 114.5 13.5t110.5 34.5v530h120v-1082zM724 1296h-161v160h161v-160zM316 1296h-163v160h163v-160z" />
<glyph unicode="&#x4f6;" horiz-adv-x="958" d="M893 1350h-611v-1350h-120v1456h731v-106zM376 -355h-121v481h121v-481z" />
<glyph unicode="&#x4f7;" horiz-adv-x="732" d="M700 975h-438v-975h-121v1082h559v-107zM337 -355h-121v481h121v-481z" />
<glyph unicode="&#x4f8;" horiz-adv-x="1455" d="M282 824h301q192 0 297 -111.5t105 -298.5q0 -188 -105.5 -301t-296.5 -113h-420v1456h119v-632zM282 719v-615h301q141 0 210.5 88t69.5 224q0 130 -69.5 216.5t-210.5 86.5h-301zM1290 0h-121v1456h121v-1456zM1031 1638h-161v160h161v-160zM623 1638h-163v160h163 v-160z" />
<glyph unicode="&#x4f9;" horiz-adv-x="1310" d="M265 690h246q156 0 243.5 -95.5t87.5 -247.5q0 -154 -87.5 -250.5t-243.5 -96.5h-366v1082h120v-392zM265 585v-481h246q106 0 158 68.5t52 171.5q0 99 -52.5 170t-157.5 71h-246zM1151 0h-120v1082h120v-1082zM954 1296h-161v160h161v-160zM546 1296h-163v160h163v-160z " />
<glyph unicode="&#x4fa;" horiz-adv-x="998" d="M932 1350h-611v-1350h-120v1456h731v-106zM556 752h-515v104h515v-104zM427 135v-224q0 -167 -68 -257.5t-189 -90.5q-24 0 -45 5t-46 14l11 107q13 -5 39 -10.5t41 -5.5q65 0 101 62t36 176v224h120z" />
<glyph unicode="&#x4fb;" horiz-adv-x="716" d="M746 975h-438v-975h-121v1082h559v-107zM559 563h-515v104h515v-104zM415 135v-224q0 -167 -68 -257.5t-189 -90.5q-24 0 -45 5t-46 14l11 107q13 -5 39 -10.5t41 -5.5q65 0 101 62t36 176v224h120z" />
<glyph unicode="&#x4fc;" horiz-adv-x="1069" d="M536 836l321 620h145l-395 -718l408 -738h-144l-333 639l-333 -639h-146l408 738l-396 718h145zM1054 135v-224q0 -167 -68 -257.5t-189 -90.5q-24 0 -45 5t-46 14l11 107q13 -5 39 -10.5t41 -5.5q65 0 101 62t36 176v224h120z" />
<glyph unicode="&#x4fd;" horiz-adv-x="856" d="M425 642l226 440h141l-299 -532l311 -550h-140l-237 458l-237 -458h-141l312 550l-300 532h140zM865 135v-224q0 -167 -68 -257.5t-189 -90.5q-24 0 -45 5t-46 14l11 107q13 -5 39 -10.5t41 -5.5q65 0 101 62t36 176v224h120z" />
<glyph unicode="&#x4fe;" horiz-adv-x="1069" d="M797 694h-166l384 -694h-144l-333 639l-333 -639h-146l383 694h-160v104h152l-363 658h145l320 -620l321 620h145l-362 -658h157v-104z" />
<glyph unicode="&#x4ff;" horiz-adv-x="856" d="M680 503h-161l285 -503h-140l-237 458l-237 -458h-141l285 503h-169v104h164l-268 475h140l224 -440l226 440h141l-267 -475h155v-104z" />
<glyph unicode="&#x500;" horiz-adv-x="1022" d="M777 844v612h121v-1456h-421q-192 0 -297 117.5t-105 306.5q0 188 105 304t297 116h300zM777 104v635h-300q-141 0 -211 -90.5t-70 -222.5q0 -137 70 -229.5t211 -92.5h300z" />
<glyph unicode="&#x501;" d="M97 531q0 260 91 415.5t255 155.5q89 0 155.5 -42t111.5 -119v619h120v-1560h-106l-10 140q-45 -78 -113 -119.5t-159 -41.5q-162 0 -253.5 144.5t-91.5 386.5v21zM219 510q0 -195 61.5 -309.5t187.5 -114.5q88 0 147.5 48t94.5 134v530q-33 87 -92 141.5t-148 54.5 q-127 0 -189 -128t-62 -335v-21z" />
<glyph unicode="&#x502;" horiz-adv-x="1371" d="M477 0q-192 0 -297 117.5t-105 306.5q0 188 105 304t297 116h300v612h121v-1354l91 1q97 1 149.5 80t55.5 219q1 81 -12 170t-37 173h115q27 -107 42 -187t13 -156q-3 -195 -96.5 -298.5t-229.5 -103.5h-512zM777 104v635h-300q-141 0 -211 -90.5t-70 -222.5 q0 -137 70 -229.5t211 -92.5h300z" />
<glyph unicode="&#x503;" horiz-adv-x="1478" d="M97 531q0 260 91 415.5t255 155.5q85 0 149.5 -38t109.5 -109v605h121v-1215q-2 -127 39.5 -194.5t115.5 -67.5q121 1 187.5 119.5t69.5 326.5q0 95 -13.5 196t-39.5 206l117 1q27 -121 42 -216t14 -187q-3 -267 -109 -408.5t-268 -141.5q-94 -2 -157 43.5t-93 143.5 q-44 -90 -115.5 -138.5t-170.5 -48.5q-162 0 -253.5 144.5t-91.5 386.5v21zM702 816q-35 80 -91.5 129t-140.5 49q-127 0 -189 -128t-62 -335v-21q0 -195 61.5 -309.5t187.5 -114.5q87 0 145.5 47.5t93.5 132.5q-3 16 -4 33.5t-1 45.5v471z" />
<glyph unicode="&#x504;" horiz-adv-x="1360" d="M608 380q0 133 -59.5 213t-167.5 80h-159v105h130q146 0 215.5 73.5t69.5 223.5q0 131 -69.5 203t-218.5 72h-297v106h297q198 0 303.5 -98.5t105.5 -284.5q0 -125 -56.5 -217t-160.5 -134q100 -36 143.5 -123t43.5 -217v-78q-1 -99 39 -160t107 -61q111 1 174.5 128 t67.5 318q0 96 -14 197.5t-40 205.5h118q29 -135 43 -224t13 -179q-3 -251 -106.5 -400.5t-255.5 -149.5q-125 -3 -193 75.5t-73 249.5v76z" />
<glyph unicode="&#x505;" horiz-adv-x="1112" d="M616 771q0 -82 -41.5 -143.5t-118.5 -95.5q80 -27 116 -88t36 -149v-81q-1 -67 22 -101t80 -34q100 2 154.5 91t57.5 249q1 77 -13.5 159t-42.5 160h121q28 -106 42 -177t13 -142q-3 -215 -98 -328.5t-234 -113.5q-109 -3 -163 52.5t-59 184.5v80q0 86 -50 133.5 t-142 47.5h-176l-1 102h164q104 0 157.5 52t53.5 139q0 93 -58 152.5t-166 59.5h-217l-5 102h222q163 0 254.5 -83t91.5 -228z" />
<glyph unicode="&#x506;" horiz-adv-x="925" d="M813 -14l-100 -277h-77l56 280v10h-40q-31 37 -43 101.5t-12 135.5v133q0 133 -66.5 210.5t-183.5 77.5h-179v105h136q154 0 225 79t71 213q0 144 -69.5 220.5t-213.5 76.5h-231v104h231q196 0 299.5 -102.5t103.5 -299.5q0 -116 -55 -207t-156 -134q111 -34 160 -121 t49 -220v-137q0 -41 5 -77h90v-171z" />
<glyph unicode="&#x507;" horiz-adv-x="871" d="M778 -8l-100 -277h-77l56 280v5h-48q-22 24 -28 73t-6 100v96q0 90 -48.5 142t-137.5 55h-216l-1 104h182q116 0 168.5 50.5t52.5 149.5q0 100 -53 154t-168 54h-249l1 104h248q164 0 253 -80t89 -229q0 -89 -40.5 -152.5t-120.5 -97.5q85 -27 122.5 -91.5t37.5 -161.5 v-98v-9h83v-171z" />
<glyph unicode="&#x508;" horiz-adv-x="1660" d="M1035 1456v-1111q0 -127 41.5 -194.5t115.5 -67.5q120 1 186 119.5t69 326.5q1 95 -12.5 195t-38.5 207l117 1q28 -127 42.5 -219.5t13.5 -183.5q-4 -267 -110 -408.5t-267 -141.5q-129 -3 -200 85.5t-77 280.5v1005h-445v-582q0 -398 -84 -583t-278 -185h-44v104h35 q133 0 192 155t59 509v688h685z" />
<glyph unicode="&#x509;" horiz-adv-x="1385" d="M698 975h-312v-353q0 -317 -66.5 -469.5t-217.5 -152.5h-48l2 110l36 1q92 0 133 121.5t41 389.5v460h553v-737q-1 -127 38.5 -194.5t110.5 -67.5q103 1 159 102t59 279q1 89 -13 184.5t-39 196.5l117 1q28 -121 42.5 -208.5t13.5 -173.5q-3 -236 -98.5 -360.5 t-240.5 -124.5q-126 -3 -195.5 85.5t-74.5 280.5v630z" />
<glyph unicode="&#x50a;" horiz-adv-x="1687" d="M1015 1456v-1111q-1 -127 40.5 -194.5t115.5 -67.5q122 1 188 119.5t69 326.5q0 95 -14 195t-40 207l118 1q29 -131 43 -221.5t13 -181.5q-4 -267 -110 -408.5t-267 -141.5q-129 -3 -200 85.5t-77 280.5v322h-612v-667h-121v1456h121v-684h612v684h121z" />
<glyph unicode="&#x50b;" horiz-adv-x="1421" d="M709 489h-457v-489h-121v1082h121v-490h457v490h120v-737q-1 -127 38.5 -194.5t110.5 -67.5q103 1 159.5 102t59.5 279q1 90 -13 185.5t-40 195.5l117 1q28 -118 43 -207t14 -175q-4 -236 -99.5 -360.5t-240.5 -124.5q-126 -3 -195 85.5t-74 280.5v144z" />
<glyph unicode="&#x50c;" horiz-adv-x="1068" d="M586 -21q-209 0 -339 174.5t-130 443.5v262q0 268 130 443t339 175q89 0 159 -19.5t125 -57.5l-39 -97q-55 33 -115.5 50.5t-129.5 17.5q-159 0 -253.5 -146.5t-94.5 -363.5v-264q0 -220 94 -367t254 -147q129 1 200 91.5t74 250.5q1 82 -10 171.5t-31 189.5h118 q26 -156 35 -219.5t9 -141.5q-3 -215 -116.5 -330.5t-278.5 -115.5z" />
<glyph unicode="&#x50d;" horiz-adv-x="888" d="M499 83q100 1 143 58.5t45 159.5q0 60 -4.5 120.5t-13.5 115.5h117q10 -71 16 -127t6 -109q-3 -159 -87.5 -240.5t-221.5 -81.5q-185 0 -291.5 156.5t-106.5 384.5v42q0 226 102 383t279 157q76 0 133 -16t94 -47l-31 -98q-38 26 -88.5 40.5t-107.5 14.5 q-129 0 -195 -129.5t-66 -304.5v-42q0 -177 71 -307t207 -130z" />
<glyph unicode="&#x50e;" horiz-adv-x="1220" d="M452 1350h-415v106h955v-106h-419v-1005q-1 -127 40.5 -194.5t115.5 -67.5q121 1 187 119t70 327q0 96 -14 196.5t-40 205.5l118 1q27 -121 42 -216t13 -187q-3 -267 -109 -408.5t-267 -141.5q-129 -3 -200 85.5t-77 280.5v1005z" />
<glyph unicode="&#x50f;" horiz-adv-x="1103" d="M377 978h-312v104h752v-104h-319v-633q-1 -127 40.5 -194.5t115.5 -67.5q103 1 159 94.5t60 258.5q0 82 -14 171t-39 182h117q29 -116 43 -195t13 -158q-3 -222 -98.5 -339.5t-240.5 -117.5q-129 -3 -200 85.5t-77 280.5v633z" />
<glyph unicode="&#x510;" horiz-adv-x="1148" d="M597 689q-171 0 -257.5 -72t-86.5 -225q0 -143 92.5 -226t258.5 -83q147 0 239.5 91t92.5 230h112l2 -6q4 -204 -129 -311.5t-317 -107.5q-211 0 -341 110.5t-130 306.5q0 133 64 222t188 128q-111 44 -172.5 131t-61.5 195q0 194 121.5 299.5t331.5 105.5 q183 0 308.5 -110t121.5 -286l-2 -6h-113q0 131 -90.5 213.5t-224.5 82.5q-167 0 -250 -81.5t-83 -213.5q0 -133 79 -207t247 -74h153v-106h-153z" />
<glyph unicode="&#x511;" horiz-adv-x="938" d="M95 297q0 96 47 161.5t138 96.5q-80 33 -124.5 96.5t-44.5 141.5q0 146 95 226t260 80q150 0 253 -84.5t99 -219.5l-3 -6h-111q0 90 -69 148t-169 58q-117 0 -175.5 -56t-58.5 -144q0 -91 55 -141.5t172 -50.5h160v-102h-160q-121 0 -182 -50.5t-61 -155.5q0 -95 66 -153 t184 -58q111 0 182 65t71 161h111l3 -6q4 -156 -106 -239t-261 -83q-166 0 -268.5 84t-102.5 231z" />
<glyph unicode="&#x512;" horiz-adv-x="1213" d="M1051 1456v-1456h-120v1350h-492l-11 -554q-7 -431 -83 -613.5t-263 -182.5h-37v104h32q121 0 172 148t59 544l13 660h730zM1169 135v-224q0 -167 -68 -257.5t-189 -90.5q-24 0 -45 5t-46 14l11 107q13 -5 39 -10.5t41 -5.5q65 0 101 62t36 176v224h120z" />
<glyph unicode="&#x513;" horiz-adv-x="984" d="M841 1082v-1082h-121v975h-355v-371q0 -319 -64 -461.5t-219 -142.5h-39l2 110l32 1q90 0 129 109t39 384v478h596zM959 135v-224q0 -167 -68 -257.5t-189 -90.5q-24 0 -45 5t-46 14l11 107q13 -5 39 -10.5t41 -5.5q65 0 101 62t36 176v224h120z" />
<glyph unicode="&#x1e00;" horiz-adv-x="1096" d="M814 404h-531l-124 -404h-124l461 1456h109l456 -1456h-124zM317 514h464l-228 749h-6zM440 -223q0 57 36.5 96t88.5 39q50 0 85.5 -39t35.5 -96q0 -56 -35.5 -93t-85.5 -37q-52 0 -88.5 37t-36.5 93zM505 -223q0 -26 17.5 -44t42.5 -18q23 0 40 18t17 44q0 28 -17 46.5 t-40 18.5q-25 0 -42.5 -18.5t-17.5 -46.5z" />
<glyph unicode="&#x1e01;" horiz-adv-x="938" d="M698 0q-9 56 -13.5 92t-4.5 73q-49 -81 -127.5 -133.5t-174.5 -52.5q-134 0 -207 83.5t-73 225.5q0 151 106 240.5t287 89.5h189v133q0 115 -58 180t-162 65q-97 0 -159.5 -62t-62.5 -152l-112 1l-2 6q-5 122 92.5 217.5t249.5 95.5q150 0 242 -91.5t92 -261.5v-531 q0 -58 5 -112t18 -106h-125zM393 87q100 0 177.5 57.5t109.5 146.5v234h-192q-123 0 -196.5 -69.5t-73.5 -171.5q0 -87 46 -142t129 -55zM298 -223q0 57 36.5 96t88.5 39q50 0 85.5 -39t35.5 -96q0 -56 -35.5 -93t-85.5 -37q-52 0 -88.5 37t-36.5 93zM363 -223 q0 -26 17.5 -44t42.5 -18q23 0 40 18t17 44q0 28 -17 46.5t-40 18.5q-25 0 -42.5 -18.5t-17.5 -46.5z" />
<glyph unicode="&#x1e3e;" horiz-adv-x="1443" d="M312 1456l405 -1275h6l406 1275h155v-1456h-119v639l12 595l-6 1l-411 -1235h-80l-410 1233l-6 -1l12 -593v-639h-118v1456h154zM831 1823h147l2 -5l-221 -261h-103z" />
<glyph unicode="&#x1e3f;" horiz-adv-x="1515" d="M239 1082l10 -168q43 90 114 139t167 49q98 0 165 -57.5t98 -174.5q40 108 113.5 170t177.5 62q142 0 220.5 -115.5t78.5 -354.5v-632h-121v634q0 199 -54 280t-154 81q-105 0 -164 -90t-72 -226v-28v-651h-120v633q0 195 -55.5 278t-154.5 83q-95 0 -152.5 -57.5 t-82.5 -157.5v-779h-120v1082h106zM875 1501h147l2 -5l-221 -261h-103z" />
<glyph unicode="&#x1e80;" horiz-adv-x="1531" d="M385 417l31 -197l6 -1l41 198l244 1039h110l246 -1039l40 -200h6l33 200l205 1039h122l-304 -1456h-111l-260 1111l-28 135h-6l-26 -135l-264 -1111h-111l-303 1456h121zM827 1561h-113l-212 261l3 5h152z" />
<glyph unicode="&#x1e81;" horiz-adv-x="1302" d="M340 353l29 -169h6l36 169l188 729h100l186 -729l37 -177h6l33 177l156 729h122l-261 -1082h-100l-190 735l-39 173h-6l-37 -173l-188 -735h-100l-260 1082h121zM713 1218h-113l-212 261l3 5h152z" />
<glyph unicode="&#x1e82;" horiz-adv-x="1531" d="M385 417l31 -197l6 -1l41 198l244 1039h110l246 -1039l40 -200h6l33 200l205 1039h122l-304 -1456h-111l-260 1111l-28 135h-6l-26 -135l-264 -1111h-111l-303 1456h121zM869 1823h147l2 -5l-221 -261h-103z" />
<glyph unicode="&#x1e83;" horiz-adv-x="1302" d="M340 353l29 -169h6l36 169l188 729h100l186 -729l37 -177h6l33 177l156 729h122l-261 -1082h-100l-190 735l-39 173h-6l-37 -173l-188 -735h-100l-260 1082h121zM755 1480h147l2 -5l-221 -261h-103z" />
<glyph unicode="&#x1e84;" horiz-adv-x="1531" d="M385 417l31 -197l6 -1l41 198l244 1039h110l246 -1039l40 -200h6l33 200l205 1039h122l-304 -1456h-111l-260 1111l-28 135h-6l-26 -135l-264 -1111h-111l-303 1456h121zM1050 1638h-161v160h161v-160zM642 1638h-163v160h163v-160z" />
<glyph unicode="&#x1e85;" horiz-adv-x="1302" d="M340 353l29 -169h6l36 169l188 729h100l186 -729l37 -177h6l33 177l156 729h122l-261 -1082h-100l-190 735l-39 173h-6l-37 -173l-188 -735h-100l-260 1082h121zM936 1296h-161v160h161v-160zM528 1296h-163v160h163v-160z" />
<glyph unicode="&#x1ea0;" horiz-adv-x="1096" d="M814 404h-531l-124 -404h-124l461 1456h109l456 -1456h-124zM317 514h464l-228 749h-6zM641 -316h-143v170h143v-170z" />
<glyph unicode="&#x1ea1;" horiz-adv-x="938" d="M698 0q-9 56 -13.5 92t-4.5 73q-49 -81 -127.5 -133.5t-174.5 -52.5q-134 0 -207 83.5t-73 225.5q0 151 106 240.5t287 89.5h189v133q0 115 -58 180t-162 65q-97 0 -159.5 -62t-62.5 -152l-112 1l-2 6q-5 122 92.5 217.5t249.5 95.5q150 0 242 -91.5t92 -261.5v-531 q0 -58 5 -112t18 -106h-125zM393 87q100 0 177.5 57.5t109.5 146.5v234h-192q-123 0 -196.5 -69.5t-73.5 -171.5q0 -87 46 -142t129 -55zM499 -316h-143v170h143v-170z" />
<glyph unicode="&#x1ea2;" horiz-adv-x="1096" d="M814 404h-531l-124 -404h-124l461 1456h109l456 -1456h-124zM317 514h464l-228 749h-6zM527 1584l-1 126q71 6 101 27t30 67q0 48 -44 70.5t-112 22.5l6 79q117 0 182 -47t65 -127q0 -73 -39 -110.5t-100 -45.5v-62h-88z" />
<glyph unicode="&#x1ea3;" horiz-adv-x="938" d="M698 0q-9 56 -13.5 92t-4.5 73q-49 -81 -127.5 -133.5t-174.5 -52.5q-134 0 -207 83.5t-73 225.5q0 151 106 240.5t287 89.5h189v133q0 115 -58 180t-162 65q-97 0 -159.5 -62t-62.5 -152l-112 1l-2 6q-5 122 92.5 217.5t249.5 95.5q150 0 242 -91.5t92 -261.5v-531 q0 -58 5 -112t18 -106h-125zM393 87q100 0 177.5 57.5t109.5 146.5v234h-192q-123 0 -196.5 -69.5t-73.5 -171.5q0 -87 46 -142t129 -55zM420 1262l-1 126q71 6 101 27t30 67q0 48 -44 70.5t-112 22.5l6 79q117 0 182 -47t65 -127q0 -73 -39 -110.5t-100 -45.5v-62h-88z" />
<glyph unicode="&#x1ea4;" horiz-adv-x="1096" d="M814 404h-531l-124 -404h-124l461 1456h109l456 -1456h-124zM317 514h464l-228 749h-6zM913 1969h134l-157 -232h-97zM844 1592l-3 -6h-127l-149 171l-150 -171h-126l-3 6l225 237h108z" />
<glyph unicode="&#x1ea5;" horiz-adv-x="938" d="M698 0q-9 56 -13.5 92t-4.5 73q-49 -81 -127.5 -133.5t-174.5 -52.5q-134 0 -207 83.5t-73 225.5q0 151 106 240.5t287 89.5h189v133q0 115 -58 180t-162 65q-97 0 -159.5 -62t-62.5 -152l-112 1l-2 6q-5 122 92.5 217.5t249.5 95.5q150 0 242 -91.5t92 -261.5v-531 q0 -58 5 -112t18 -106h-125zM393 87q100 0 177.5 57.5t109.5 146.5v234h-192q-123 0 -196.5 -69.5t-73.5 -171.5q0 -87 46 -142t129 -55zM806 1638h134l-157 -232h-97zM737 1261l-3 -6h-127l-149 171l-150 -171h-126l-3 6l225 237h108z" />
<glyph unicode="&#x1ea6;" horiz-adv-x="1096" d="M814 404h-531l-124 -404h-124l461 1456h109l456 -1456h-124zM317 514h464l-228 749h-6zM846 1592l-3 -6h-127l-149 171l-150 -171h-126l-3 6l225 237h108zM338 1737h-96l-156 232h131z" />
<glyph unicode="&#x1ea7;" horiz-adv-x="938" d="M698 0q-9 56 -13.5 92t-4.5 73q-49 -81 -127.5 -133.5t-174.5 -52.5q-134 0 -207 83.5t-73 225.5q0 151 106 240.5t287 89.5h189v133q0 115 -58 180t-162 65q-97 0 -159.5 -62t-62.5 -152l-112 1l-2 6q-5 122 92.5 217.5t249.5 95.5q150 0 242 -91.5t92 -261.5v-531 q0 -58 5 -112t18 -106h-125zM393 87q100 0 177.5 57.5t109.5 146.5v234h-192q-123 0 -196.5 -69.5t-73.5 -171.5q0 -87 46 -142t129 -55zM739 1261l-3 -6h-127l-149 171l-150 -171h-126l-3 6l225 237h108zM231 1406h-96l-156 232h131z" />
<glyph unicode="&#x1ea8;" horiz-adv-x="1096" d="M814 404h-531l-124 -404h-124l461 1456h109l456 -1456h-124zM317 514h464l-228 749h-6zM832 1712l-1 114q60 4 84.5 18.5t24.5 52.5q0 40 -35.5 58t-92.5 18l4 75q99 0 155.5 -40t56.5 -108q0 -63 -33 -95.5t-85 -39.5l-1 -53h-77zM845 1592l-3 -6h-127l-149 171 l-150 -171h-126l-3 6l225 237h108z" />
<glyph unicode="&#x1ea9;" horiz-adv-x="938" d="M698 0q-9 56 -13.5 92t-4.5 73q-49 -81 -127.5 -133.5t-174.5 -52.5q-134 0 -207 83.5t-73 225.5q0 151 106 240.5t287 89.5h189v133q0 115 -58 180t-162 65q-97 0 -159.5 -62t-62.5 -152l-112 1l-2 6q-5 122 92.5 217.5t249.5 95.5q150 0 242 -91.5t92 -261.5v-531 q0 -58 5 -112t18 -106h-125zM393 87q100 0 177.5 57.5t109.5 146.5v234h-192q-123 0 -196.5 -69.5t-73.5 -171.5q0 -87 46 -142t129 -55zM725 1381l-1 114q60 4 84.5 18.5t24.5 52.5q0 40 -35.5 58t-92.5 18l4 75q99 0 155.5 -40t56.5 -108q0 -63 -33 -95.5t-85 -39.5 l-1 -53h-77zM738 1261l-3 -6h-127l-149 171l-150 -171h-126l-3 6l225 237h108z" />
<glyph unicode="&#x1eaa;" horiz-adv-x="1096" d="M814 404h-531l-124 -404h-124l461 1456h109l456 -1456h-124zM317 514h464l-228 749h-6zM783 2024q0 -66 -37 -112t-89 -46q-44 0 -91.5 44t-80.5 44q-27 0 -47 -31t-20 -72l-57 14q0 65 36.5 116.5t87.5 51.5q38 0 89 -43.5t83 -43.5q27 0 47.5 26.5t20.5 67.5zM846 1568 l-3 -6h-127l-149 171l-150 -171h-126l-3 6l225 237h108z" />
<glyph unicode="&#x1eab;" horiz-adv-x="938" d="M698 0q-9 56 -13.5 92t-4.5 73q-49 -81 -127.5 -133.5t-174.5 -52.5q-134 0 -207 83.5t-73 225.5q0 151 106 240.5t287 89.5h189v133q0 115 -58 180t-162 65q-97 0 -159.5 -62t-62.5 -152l-112 1l-2 6q-5 122 92.5 217.5t249.5 95.5q150 0 242 -91.5t92 -261.5v-531 q0 -58 5 -112t18 -106h-125zM393 87q100 0 177.5 57.5t109.5 146.5v234h-192q-123 0 -196.5 -69.5t-73.5 -171.5q0 -87 46 -142t129 -55zM676 1704q0 -66 -37 -112t-89 -46q-44 0 -91.5 44t-80.5 44q-27 0 -47 -31t-20 -72l-57 14q0 65 36.5 116.5t87.5 51.5q38 0 89 -43.5 t83 -43.5q27 0 47.5 26.5t20.5 67.5zM739 1248l-3 -6h-127l-149 171l-150 -171h-126l-3 6l225 237h108z" />
<glyph unicode="&#x1eac;" horiz-adv-x="1096" d="M814 404h-531l-124 -404h-124l461 1456h109l456 -1456h-124zM317 514h464l-228 749h-6zM809 1620v-19h-107l-133 166l-132 -166h-104v21l193 222h87zM641 -316h-143v170h143v-170z" />
<glyph unicode="&#x1ead;" horiz-adv-x="938" d="M698 0q-9 56 -13.5 92t-4.5 73q-49 -81 -127.5 -133.5t-174.5 -52.5q-134 0 -207 83.5t-73 225.5q0 151 106 240.5t287 89.5h189v133q0 115 -58 180t-162 65q-97 0 -159.5 -62t-62.5 -152l-112 1l-2 6q-5 122 92.5 217.5t249.5 95.5q150 0 242 -91.5t92 -261.5v-531 q0 -58 5 -112t18 -106h-125zM393 87q100 0 177.5 57.5t109.5 146.5v234h-192q-123 0 -196.5 -69.5t-73.5 -171.5q0 -87 46 -142t129 -55zM702 1298v-19h-107l-133 166l-132 -166h-104v21l193 222h87zM499 -316h-143v170h143v-170z" />
<glyph unicode="&#x1eae;" horiz-adv-x="1096" d="M814 404h-531l-124 -404h-124l461 1456h109l456 -1456h-124zM317 514h464l-228 749h-6zM801 1796l2 -6q5 -89 -60.5 -146t-177.5 -57q-114 0 -179.5 57t-59.5 146l2 6h92q0 -62 34.5 -100.5t110.5 -38.5q72 0 107.5 39t35.5 100h93zM621 1996h105l-138 -206h-73z" />
<glyph unicode="&#x1eaf;" horiz-adv-x="938" d="M698 0q-9 56 -13.5 92t-4.5 73q-49 -81 -127.5 -133.5t-174.5 -52.5q-134 0 -207 83.5t-73 225.5q0 151 106 240.5t287 89.5h189v133q0 115 -58 180t-162 65q-97 0 -159.5 -62t-62.5 -152l-112 1l-2 6q-5 122 92.5 217.5t249.5 95.5q150 0 242 -91.5t92 -261.5v-531 q0 -58 5 -112t18 -106h-125zM393 87q100 0 177.5 57.5t109.5 146.5v234h-192q-123 0 -196.5 -69.5t-73.5 -171.5q0 -87 46 -142t129 -55zM694 1474l2 -6q5 -89 -60.5 -146t-177.5 -57q-114 0 -179.5 57t-59.5 146l2 6h92q0 -62 34.5 -100.5t110.5 -38.5q72 0 107.5 39 t35.5 100h93zM514 1674h105l-138 -206h-73z" />
<glyph unicode="&#x1eb0;" horiz-adv-x="1096" d="M814 404h-531l-124 -404h-124l461 1456h109l456 -1456h-124zM317 514h464l-228 749h-6zM804 1834l2 -6q5 -89 -60.5 -146t-177.5 -57q-114 0 -179.5 57t-59.5 146l2 6h92q0 -62 34.5 -100.5t110.5 -38.5q72 0 107.5 39t35.5 100h93zM619 1828h-73l-138 206h105z" />
<glyph unicode="&#x1eb1;" horiz-adv-x="938" d="M698 0q-9 56 -13.5 92t-4.5 73q-49 -81 -127.5 -133.5t-174.5 -52.5q-134 0 -207 83.5t-73 225.5q0 151 106 240.5t287 89.5h189v133q0 115 -58 180t-162 65q-97 0 -159.5 -62t-62.5 -152l-112 1l-2 6q-5 122 92.5 217.5t249.5 95.5q150 0 242 -91.5t92 -261.5v-531 q0 -58 5 -112t18 -106h-125zM393 87q100 0 177.5 57.5t109.5 146.5v234h-192q-123 0 -196.5 -69.5t-73.5 -171.5q0 -87 46 -142t129 -55zM697 1512l2 -6q5 -89 -60.5 -146t-177.5 -57q-114 0 -179.5 57t-59.5 146l2 6h92q0 -62 34.5 -100.5t110.5 -38.5q72 0 107.5 39 t35.5 100h93zM512 1506h-73l-138 206h105z" />
<glyph unicode="&#x1eb2;" horiz-adv-x="1096" d="M814 404h-531l-124 -404h-124l461 1456h109l456 -1456h-124zM317 514h464l-228 749h-6zM527 1804v108q67 4 96.5 21t29.5 56q0 40 -42.5 58.5t-106.5 18.5l5 63q111 0 174.5 -38t63.5 -103q0 -60 -38 -91.5t-96 -37.5l-1 -55h-85zM795 1785l2 -6q5 -89 -60.5 -146 t-177.5 -57q-114 0 -179.5 57t-59.5 146l2 6h92q0 -62 34.5 -100.5t110.5 -38.5q72 0 107.5 39t35.5 100h93z" />
<glyph unicode="&#x1eb3;" horiz-adv-x="938" d="M698 0q-9 56 -13.5 92t-4.5 73q-49 -81 -127.5 -133.5t-174.5 -52.5q-134 0 -207 83.5t-73 225.5q0 151 106 240.5t287 89.5h189v133q0 115 -58 180t-162 65q-97 0 -159.5 -62t-62.5 -152l-112 1l-2 6q-5 122 92.5 217.5t249.5 95.5q150 0 242 -91.5t92 -261.5v-531 q0 -58 5 -112t18 -106h-125zM393 87q100 0 177.5 57.5t109.5 146.5v234h-192q-123 0 -196.5 -69.5t-73.5 -171.5q0 -87 46 -142t129 -55zM420 1482v108q67 4 96.5 21t29.5 56q0 40 -42.5 58.5t-106.5 18.5l5 63q111 0 174.5 -38t63.5 -103q0 -60 -38 -91.5t-96 -37.5l-1 -55 h-85zM688 1463l2 -6q5 -89 -60.5 -146t-177.5 -57q-114 0 -179.5 57t-59.5 146l2 6h92q0 -62 34.5 -100.5t110.5 -38.5q72 0 107.5 39t35.5 100h93z" />
<glyph unicode="&#x1eb4;" horiz-adv-x="1096" d="M814 404h-531l-124 -404h-124l461 1456h109l456 -1456h-124zM317 514h464l-228 749h-6zM802 2051q0 -74 -38.5 -123t-96.5 -49q-50 0 -104 46t-90 46q-31 0 -52.5 -29t-21.5 -74l-60 15q0 72 38 122t96 50q43 0 100 -47t94 -47q30 0 52 30t22 77zM804 1793l2 -6 q5 -89 -60.5 -146t-177.5 -57q-114 0 -179.5 57t-59.5 146l2 6h92q0 -62 34.5 -100.5t110.5 -38.5q72 0 107.5 39t35.5 100h93z" />
<glyph unicode="&#x1eb5;" horiz-adv-x="938" d="M698 0q-9 56 -13.5 92t-4.5 73q-49 -81 -127.5 -133.5t-174.5 -52.5q-134 0 -207 83.5t-73 225.5q0 151 106 240.5t287 89.5h189v133q0 115 -58 180t-162 65q-97 0 -159.5 -62t-62.5 -152l-112 1l-2 6q-5 122 92.5 217.5t249.5 95.5q150 0 242 -91.5t92 -261.5v-531 q0 -58 5 -112t18 -106h-125zM393 87q100 0 177.5 57.5t109.5 146.5v234h-192q-123 0 -196.5 -69.5t-73.5 -171.5q0 -87 46 -142t129 -55zM695 1729q0 -74 -38.5 -123t-96.5 -49q-50 0 -104 46t-90 46q-31 0 -52.5 -29t-21.5 -74l-60 15q0 72 38 122t96 50q43 0 100 -47 t94 -47q30 0 52 30t22 77zM697 1471l2 -6q5 -89 -60.5 -146t-177.5 -57q-114 0 -179.5 57t-59.5 146l2 6h92q0 -62 34.5 -100.5t110.5 -38.5q72 0 107.5 39t35.5 100h93z" />
<glyph unicode="&#x1eb6;" horiz-adv-x="1096" d="M814 404h-531l-124 -404h-124l461 1456h109l456 -1456h-124zM317 514h464l-228 749h-6zM816 1855l3 -6q3 -112 -65 -182.5t-185 -70.5q-118 0 -186 70.5t-64 182.5l3 6h94q0 -77 36.5 -124t116.5 -47q76 0 113.5 48t37.5 123h96zM641 -316h-143v170h143v-170z" />
<glyph unicode="&#x1eb7;" horiz-adv-x="938" d="M698 0q-9 56 -13.5 92t-4.5 73q-49 -81 -127.5 -133.5t-174.5 -52.5q-134 0 -207 83.5t-73 225.5q0 151 106 240.5t287 89.5h189v133q0 115 -58 180t-162 65q-97 0 -159.5 -62t-62.5 -152l-112 1l-2 6q-5 122 92.5 217.5t249.5 95.5q150 0 242 -91.5t92 -261.5v-531 q0 -58 5 -112t18 -106h-125zM393 87q100 0 177.5 57.5t109.5 146.5v234h-192q-123 0 -196.5 -69.5t-73.5 -171.5q0 -87 46 -142t129 -55zM709 1533l3 -6q3 -112 -65 -182.5t-185 -70.5q-118 0 -186 70.5t-64 182.5l3 6h94q0 -77 36.5 -124t116.5 -47q76 0 113.5 48t37.5 123 h96zM499 -316h-143v170h143v-170z" />
<glyph unicode="&#x1eb8;" horiz-adv-x="1001" d="M856 703h-572v-599h657v-104h-777v1456h771v-106h-651v-543h572v-104zM596 -306h-143v170h143v-170z" />
<glyph unicode="&#x1eb9;" horiz-adv-x="900" d="M485 -21q-175 0 -286 131.5t-111 335.5v180q0 205 111.5 340.5t268.5 135.5q170 0 264 -121.5t94 -326.5v-119h-619v-89q0 -156 75 -259.5t203 -103.5q89 0 153.5 31t110.5 88l49 -85q-49 -63 -126.5 -100.5t-186.5 -37.5zM468 996q-113 0 -185.5 -103t-75.5 -254h499v46 q0 134 -63 222.5t-175 88.5zM551 -315h-143v170h143v-170z" />
<glyph unicode="&#x1eba;" horiz-adv-x="1001" d="M856 703h-572v-599h657v-104h-777v1456h771v-106h-651v-543h572v-104zM484 1584l-1 126q71 6 101 27t30 67q0 48 -44 70.5t-112 22.5l6 79q117 0 182 -47t65 -127q0 -73 -39 -110.5t-100 -45.5v-62h-88z" />
<glyph unicode="&#x1ebb;" horiz-adv-x="900" d="M485 -21q-175 0 -286 131.5t-111 335.5v180q0 205 111.5 340.5t268.5 135.5q170 0 264 -121.5t94 -326.5v-119h-619v-89q0 -156 75 -259.5t203 -103.5q89 0 153.5 31t110.5 88l49 -85q-49 -63 -126.5 -100.5t-186.5 -37.5zM468 996q-113 0 -185.5 -103t-75.5 -254h499v46 q0 134 -63 222.5t-175 88.5zM431 1263l-1 126q71 6 101 27t30 67q0 48 -44 70.5t-112 22.5l6 79q117 0 182 -47t65 -127q0 -73 -39 -110.5t-100 -45.5v-62h-88z" />
<glyph unicode="&#x1ebc;" horiz-adv-x="1001" d="M856 703h-572v-599h657v-104h-777v1456h771v-106h-651v-543h572v-104zM800 1823q0 -88 -47 -146.5t-117 -58.5q-61 0 -125 54.5t-107 54.5q-38 0 -64 -35t-26 -88l-74 18q0 87 46.5 146t117.5 59q52 0 120.5 -55t111.5 -55q37 0 63.5 36t26.5 91z" />
<glyph unicode="&#x1ebd;" horiz-adv-x="900" d="M485 -21q-175 0 -286 131.5t-111 335.5v180q0 205 111.5 340.5t268.5 135.5q170 0 264 -121.5t94 -326.5v-119h-619v-89q0 -156 75 -259.5t203 -103.5q89 0 153.5 31t110.5 88l49 -85q-49 -63 -126.5 -100.5t-186.5 -37.5zM468 996q-113 0 -185.5 -103t-75.5 -254h499v46 q0 134 -63 222.5t-175 88.5zM747 1502q0 -88 -47 -146.5t-117 -58.5q-61 0 -125 54.5t-107 54.5q-38 0 -64 -35t-26 -88l-74 18q0 87 46.5 146t117.5 59q52 0 120.5 -55t111.5 -55q37 0 63.5 36t26.5 91z" />
<glyph unicode="&#x1ebe;" horiz-adv-x="1001" d="M856 703h-572v-599h657v-104h-777v1456h771v-106h-651v-543h572v-104zM870 1969h134l-157 -232h-97zM801 1592l-3 -6h-127l-149 171l-150 -171h-126l-3 6l225 237h108z" />
<glyph unicode="&#x1ebf;" horiz-adv-x="900" d="M485 -21q-175 0 -286 131.5t-111 335.5v180q0 205 111.5 340.5t268.5 135.5q170 0 264 -121.5t94 -326.5v-119h-619v-89q0 -156 75 -259.5t203 -103.5q89 0 153.5 31t110.5 88l49 -85q-49 -63 -126.5 -100.5t-186.5 -37.5zM468 996q-113 0 -185.5 -103t-75.5 -254h499v46 q0 134 -63 222.5t-175 88.5zM817 1648h134l-157 -232h-97zM748 1271l-3 -6h-127l-149 171l-150 -171h-126l-3 6l225 237h108z" />
<glyph unicode="&#x1ec0;" horiz-adv-x="1001" d="M856 703h-572v-599h657v-104h-777v1456h771v-106h-651v-543h572v-104zM803 1583l-3 -6h-127l-149 171l-150 -171h-126l-3 6l225 237h108zM295 1728h-96l-156 232h131z" />
<glyph unicode="&#x1ec1;" horiz-adv-x="900" d="M485 -21q-175 0 -286 131.5t-111 335.5v180q0 205 111.5 340.5t268.5 135.5q170 0 264 -121.5t94 -326.5v-119h-619v-89q0 -156 75 -259.5t203 -103.5q89 0 153.5 31t110.5 88l49 -85q-49 -63 -126.5 -100.5t-186.5 -37.5zM468 996q-113 0 -185.5 -103t-75.5 -254h499v46 q0 134 -63 222.5t-175 88.5zM750 1262l-3 -6h-127l-149 171l-150 -171h-126l-3 6l225 237h108zM242 1407h-96l-156 232h131z" />
<glyph unicode="&#x1ec2;" horiz-adv-x="1001" d="M856 703h-572v-599h657v-104h-777v1456h771v-106h-651v-543h572v-104zM789 1703l-1 114q60 4 84.5 18.5t24.5 52.5q0 40 -35.5 58t-92.5 18l4 75q99 0 155.5 -40t56.5 -108q0 -63 -33 -95.5t-85 -39.5l-1 -53h-77zM802 1583l-3 -6h-127l-149 171l-150 -171h-126l-3 6 l225 237h108z" />
</font>
</defs>
</svg>
