<?xml version="1.0" standalone="no"?>
<!DOCTYPE svg PUBLIC "-//W3C//DTD SVG 1.1//EN" "http://www.w3.org/Graphics/SVG/1.1/DTD/svg11.dtd" >
<svg xmlns="http://www.w3.org/2000/svg">
<metadata>Generated by IcoMoon</metadata>
<defs>
<font id="element-icons" horiz-adv-x="1024">
<font-face units-per-em="1024" ascent="960" descent="-64" />
<missing-glyph horiz-adv-x="1024" />
<glyph unicode="&#x20;" horiz-adv-x="512" d="" />
<glyph unicode="&#xe900;" glyph-name="share" d="M877.398 223.321c18.001-7.641 33.787-18.278 47.4-31.925 13.594-13.666 24.187-29.515 31.8-47.586 7.595-18.072 11.4-37.553 11.4-58.428 0-20.894-3.806-40.357-11.4-58.428-7.612-18.072-18.206-33.939-31.8-47.586-13.613-13.666-29.4-24.301-47.4-31.925-18.001-7.641-37.406-11.445-58.2-11.445-20.813 0-40.2 3.802-58.2 11.445-18.001 7.625-33.806 18.258-47.4 31.925-13.613 13.647-24.206 29.515-31.8 47.586-7.612 18.072-11.4 37.534-11.4 58.428v9.035c0 2.806 0.395 5.421 1.201 7.831 0 3.2 0.187 6.211 0.6 9.035 0.395 2.806 0.994 5.421 1.8 7.831l-364.799 213.233c-7.2-6.438-14.606-12.254-22.2-17.468-7.612-5.232-15.806-9.45-24.6-12.649-8.813-4.029-18.001-6.832-27.601-8.434-9.6-1.619-19.611-2.409-30.001-2.409-20.813 0-40.613 4.009-59.4 12.047-18.805 8.018-35.006 18.862-48.6 32.528-14.4 14.456-25.613 30.909-33.6 49.394-8.006 18.466-12 38.55-12 60.235 0 20.875 3.994 40.753 12 59.633 7.987 18.862 19.2 35.124 33.6 48.79 13.593 14.456 29.793 25.694 48.6 33.732 18.788 8.018 38.587 12.047 59.4 12.047 10.387 0 20.401-1.017 30.001-3.012 9.6-2.013 18.788-5.026 27.601-9.035 8.794-3.219 16.987-7.435 24.6-12.649 7.595-5.232 15-11.050 22.2-17.468l361.2 212.027c-0.806 2.409-1.406 5.215-1.8 8.434-0.412 3.2-1.013 6.025-1.8 8.434 0 3.2-0.206 6.419-0.6 9.638-0.412 3.2-0.6 6.419-0.6 9.638 0 20.875 3.994 40.753 12 59.633 7.987 18.862 19.2 35.124 33.6 48.79 13.594 13.647 29.793 24.696 48.6 33.129 18.788 8.434 38.587 12.649 59.4 12.649 20.794 0 40.593-4.216 59.4-12.649 18.788-8.434 34.987-19.482 48.6-33.129 14.4-13.666 25.594-29.93 33.6-48.79 7.987-18.879 12-38.758 12-59.633 0-21.685-4.013-41.977-12-60.837-8.006-18.879-19.2-35.144-33.6-48.79-13.613-13.666-29.813-24.507-48.6-32.528-18.805-8.038-38.606-12.047-59.4-12.047-10.406 0-20.401 0.79-30.001 2.409-9.6 1.6-18.805 4.406-27.601 8.434-8.813 3.2-17.006 7.416-24.6 12.649-7.612 5.215-15 11.030-22.2 17.468l-361.197-210.824c0.787-3.219 1.387-6.231 1.8-9.035 0.395-2.823 0.994-5.836 1.8-9.035 0-3.219 0.187-6.231 0.6-9.035 0.395-2.823 0.6-5.836 0.6-9.035 0-3.219-0.206-6.438-0.6-9.638-0.412-3.219-0.6-6.438-0.6-9.638-0.806-2.409-1.406-5.232-1.8-8.434-0.412-3.219-1.013-6.025-1.8-8.434l364.799-213.233c6.394 5.609 13.593 10.844 21.6 15.662 7.987 4.819 15.994 9.224 24 13.253 8.793 3.2 17.794 5.609 27 7.228 9.188 1.599 18.6 2.408 28.2 2.408 20.792-0.001 40.199-3.823 58.199-11.446z" />
<glyph unicode="&#xe901;" glyph-name="setting" d="M1020.132 517.658c-3.985 21.83-25.433 44.119-47.819 48.945l-16.643 3.791c-39.146 11.604-73.838 36.996-95.989 74.336-22.034 37.57-27.308 80.31-17.698 119.374v0l5.274 15.396c6.68 21.255-1.992 50.553-19.456 65.145 0 0-15.705 12.983-59.773 37.915-44.185 24.817-63.172 31.711-63.172 31.711-21.448 7.698-51.569 0.345-67.274-15.97l-11.603-12.179c-29.652-27.574-69.618-44.234-113.804-44.234s-84.503 16.889-114.155 44.579l-11.251 11.834c-15.471 16.315-45.709 23.553-67.274 15.97 0 0-19.221-6.894-63.407-31.711-44.185-25.162-59.656-38.145-59.656-38.145-17.463-14.362-26.136-43.43-19.456-64.915l4.805-15.511c9.376-39.179 4.454-81.689-17.698-119.259s-57.195-63.191-96.575-74.566l-16.057-3.562c-22.034-4.94-43.717-27-47.819-48.945 0 0-3.633-19.647-3.633-69.625s3.633-69.625 3.633-69.625c3.985-22.060 25.433-44.119 47.819-48.945l15.705-3.562c39.38-11.374 74.658-36.996 96.692-74.796 22.034-37.57 27.308-80.31 17.698-119.374v0l-4.571-15.166c-6.68-21.255 1.992-50.553 19.456-65.145 0 0 15.705-12.983 59.773-37.915 44.185-24.932 63.172-31.711 63.172-31.711 21.448-7.698 51.569-0.345 67.274 15.97l11.017 11.604c29.887 27.689 70.087 44.694 114.39 44.694s84.738-17.119 114.39-44.808v0l11.017-11.604c15.471-16.315 45.709-23.553 67.274-15.97 0 0 19.221 6.894 63.407 31.711 44.185 24.932 59.656 37.915 59.656 37.915 17.463 14.362 26.136 43.659 19.456 65.145l-4.805 15.74c-9.376 38.949-4.454 81.459 17.698 118.8 22.034 37.57 57.429 63.306 96.692 74.796v0l15.705 3.562c22.034 4.94 43.717 27 47.819 48.945 0 0 3.633 19.647 3.633 69.625-0.234 49.979-3.868 69.74-3.868 69.74v0 0 0zM512.176 247.888c-112.632 0-204.167 89.502-204.167 200.144 0 110.413 91.301 199.914 204.167 199.914 112.632 0 204.167-89.502 204.167-200.144-0.234-110.413-91.535-199.914-204.167-199.914v0 0 0z" />
<glyph unicode="&#xe902;" glyph-name="circle-cross" d="M512-64c-70.564 0-137.025 13.333-199.385 40s-116.718 63.179-163.077 109.538c-46.359 46.359-82.872 100.718-109.538 163.077s-40 128.82-40 199.385c0 70.564 13.333 137.025 40 199.385s63.179 116.718 109.538 163.077c46.359 46.359 100.718 82.872 163.077 109.539s128.82 40 199.385 40c70.564 0 137.025-13.333 199.385-40s116.718-63.179 163.077-109.539c46.359-46.359 82.872-100.718 109.539-163.077s40-128.82 40-199.385c0-70.564-13.333-137.025-40-199.385s-63.179-116.718-109.539-163.077c-46.359-46.359-100.718-82.872-163.077-109.538s-128.82-40-199.385-40v0zM747.077 596.923c4.923 4.923 7.385 10.872 7.385 17.846s-2.461 12.923-7.385 17.846l-52.923 51.692c-4.923 4.923-10.667 7.385-17.231 7.385s-12.308-2.462-17.231-7.385l-147.692-147.692-148.923 147.692c-4.923 4.923-10.667 7.385-17.231 7.385s-12.308-2.462-17.231-7.385l-52.923-51.692c-4.103-4.923-6.154-10.872-6.154-17.846s2.051-12.923 6.154-17.846l148.923-147.692-148.923-147.692c-4.103-4.923-6.154-10.872-6.154-17.846s2.051-12.923 6.154-17.846l52.923-51.692c4.923-4.923 10.667-7.385 17.231-7.385s12.308 2.462 17.231 7.385l148.923 147.692 147.692-147.692c4.923-4.923 10.667-7.385 17.231-7.385s12.308 2.462 17.231 7.385l52.923 51.692c4.923 4.923 7.385 10.872 7.385 17.846s-2.461 12.923-7.385 17.846l-148.923 147.692 148.923 147.692z" />
<glyph unicode="&#xe903;" glyph-name="warning" d="M512 960c-70.564 0-137.025-13.333-199.385-40s-116.718-63.179-163.077-109.539c-46.359-46.359-82.872-100.718-109.538-163.077s-40-128.82-40-199.385c0-70.564 13.333-137.025 40-199.385s63.179-116.718 109.538-163.077c46.359-46.359 100.718-82.872 163.077-109.538s128.82-40 199.385-40c70.564 0 137.025 13.333 199.385 40s116.718 63.179 163.077 109.538c46.359 46.359 82.872 100.718 109.539 163.077s40 128.82 40 199.385c0 70.564-13.333 137.025-40 199.385s-63.179 116.718-109.539 163.077c-46.359 46.359-100.718 82.872-163.077 109.539s-128.82 40-199.385 40v0zM512 157.538c-16.41 0-30.359 5.744-41.846 17.231s-17.231 25.436-17.231 41.846c0 16.41 5.744 30.359 17.231 41.846s25.436 17.231 41.846 17.231c16.41 0 30.359-5.744 41.846-17.231s17.231-25.436 17.231-41.846c0-16.41-5.744-30.359-17.231-41.846s-25.436-17.231-41.846-17.231v0zM571.077 413.538c0-16.41-5.744-30.359-17.231-41.846s-25.436-17.231-41.846-17.231c-16.41 0-30.359 5.744-41.846 17.231s-17.231 25.436-17.231 41.846v275.692c0 16.41 5.744 30.359 17.231 41.846s25.436 17.231 41.846 17.231c16.41 0 30.359-5.744 41.846-17.231s17.231-25.436 17.231-41.846v-275.692z" />
<glyph unicode="&#xe904;" glyph-name="information" d="M512-64c-70.564 0-137.025 13.333-199.385 40s-116.718 63.179-163.077 109.539c-46.359 46.359-82.872 100.718-109.538 163.077s-40 128.82-40 199.385c0 70.564 13.333 137.025 40 199.385s63.179 116.718 109.538 163.077c46.359 46.359 100.718 82.872 163.077 109.538s128.82 40 199.385 40c70.564 0 137.025-13.333 199.385-40s116.718-63.179 163.077-109.538c46.359-46.359 82.872-100.718 109.539-163.077s40-128.82 40-199.385c0-70.564-13.333-137.025-40-199.385s-63.179-116.718-109.539-163.077c-46.359-46.359-100.718-82.872-163.077-109.539s-128.82-40-199.385-40v0zM512 740.571c-20.318 0-37.587-7.111-51.809-21.333s-21.333-31.492-21.333-51.809c0-20.318 7.111-37.587 21.333-51.809s31.492-21.333 51.809-21.333c20.318 0 37.587 7.111 51.809 21.333s21.333 31.492 21.333 51.809c0 20.318-7.111 37.587-21.333 51.809s-31.492 21.333-51.809 21.333v0zM571.077 465.125c0 15.56-5.744 28.787-17.231 39.679s-25.436 16.338-41.846 16.338c-16.41 0-30.359-5.446-41.846-16.338s-17.231-24.119-17.231-39.679v-261.415c0-15.56 5.744-28.787 17.231-39.679s25.436-16.338 41.846-16.338c16.41 0 30.359 5.446 41.846 16.338s17.231 24.119 17.231 39.679v261.415z" />
<glyph unicode="&#xe905;" glyph-name="circle-check" d="M512 960c-70.564 0-137.025-13.333-199.385-40s-116.718-63.179-163.077-109.539c-46.359-46.359-82.872-100.718-109.538-163.077s-40-128.82-40-199.385c0-70.564 13.333-137.025 40-199.385s63.179-116.718 109.538-163.077c46.359-46.359 100.718-82.872 163.077-109.538s128.82-40 199.385-40c70.564 0 137.025 13.333 199.385 40s116.718 63.179 163.077 109.538c46.359 46.359 82.872 100.718 109.539 163.077s40 128.82 40 199.385c0 70.564-13.333 137.025-40 199.385s-63.179 116.718-109.539 163.077c-46.359 46.359-100.718 82.872-163.077 109.539s-128.82 40-199.385 40v0zM797.538 561.231l-372.923-372.923c-4.923-4.923-10.667-7.385-17.231-7.385s-12.308 2.461-17.231 7.385l-7.385 7.385-205.539 206.769c-4.923 4.923-7.385 10.667-7.385 17.231s2.462 12.308 7.385 17.231l50.461 50.462c4.923 4.923 10.667 7.385 17.231 7.385s12.308-2.462 17.231-7.385l145.231-146.461 305.231 305.231c4.923 4.923 10.667 7.384 17.231 7.384s12.308-2.461 17.231-7.384l50.461-50.462c4.923-4.923 7.385-10.667 7.385-17.231s-2.462-12.308-7.385-17.231v0z" />
<glyph unicode="&#xe906;" glyph-name="delete" d="M641.531 770.219v125.781c0 35.2-23.953 64-56.445 64h-136.469c-32.492 0-66.070-28.8-66.070-64v-125.781h-203.347c7.877 0-51.2-12.885-51.2-66.219 0-35.2 26.585-64 59.077-64h649.846c32.492 0 59.077 28.8 59.077 64 0 53.333-59.077 66.219-59.077 66.219h-195.392zM448 768v64c0 44.578 28.406 64 64 64 36.406 0 64-19.656 64-64v-64h-128zM320-64h384c70.4 0 128 57.6 128 128v512h-640v-512c0-70.4 57.6-128 128-128zM643.765 419.556c0 15.644 11.859 28.444 26.353 28.444s26.353-12.8 26.353-28.444v-341.333c0-15.644-11.859-28.444-26.353-28.444s-26.353 12.8-26.353 28.444v341.333zM485.647 419.556c0 15.644 11.859 28.444 26.353 28.444s26.353-12.8 26.353-28.444v-341.333c0-15.644-11.859-28.444-26.353-28.444s-26.353 12.8-26.353 28.444v341.333zM327.529 419.556c0 15.644 11.859 28.444 26.353 28.444s26.353-12.8 26.353-28.444v-341.333c0-15.644-11.859-28.444-26.353-28.444s-26.353 12.8-26.353 28.444v341.333z" />
<glyph unicode="&#xe907;" glyph-name="d-arrow-left" d="M5.61 424.22c-10.037 24.359-6.751 54.162 11.024 73.751l402.97 444.579c21.974 24.229 56.615 23.078 77.424-2.515 20.77-25.631 19.818-66.037-2.156-90.31l-361.568-398.974 360.142-404.895c21.757-24.487 22.415-64.894 1.427-90.31-10.733-13.033-25.076-19.545-39.425-19.545-13.686 0-27.376 5.958-37.998 17.881l-399.317 448.926c-0.768 0.889-1.059 2.126-1.827 3.059-0.586 0.645-1.203 1.111-1.787 1.794-3.104 3.788-4.747 8.428-6.863 12.774-0.583 1.32-1.533 2.424-2.044 3.787zM517.61 424.22c-10.037 24.359-6.751 54.162 11.024 73.751l402.97 444.579c21.974 24.229 56.615 23.078 77.424-2.515 20.77-25.631 19.818-66.037-2.156-90.31l-361.568-398.974 360.142-404.895c21.757-24.487 22.415-64.894 1.427-90.31-10.733-13.033-25.076-19.545-39.425-19.545-13.686 0-27.376 5.958-37.998 17.881l-399.317 448.926c-0.768 0.889-1.059 2.126-1.827 3.059-0.586 0.645-1.203 1.111-1.787 1.794-3.104 3.788-4.747 8.428-6.863 12.774-0.583 1.32-1.533 2.424-2.044 3.787z" />
<glyph unicode="&#xe908;" glyph-name="d-arrow-right" d="M1018.39 424.22c10.037 24.359 6.751 54.162-11.024 73.751l-402.97 444.579c-21.974 24.229-56.615 23.078-77.424-2.515-20.77-25.631-19.818-66.037 2.156-90.31l361.568-398.974-360.142-404.895c-21.757-24.487-22.415-64.894-1.427-90.31 10.733-13.033 25.076-19.545 39.425-19.545 13.686 0 27.376 5.958 37.998 17.881l399.317 448.926c0.768 0.889 1.059 2.126 1.827 3.059 0.586 0.645 1.203 1.111 1.787 1.794 3.104 3.788 4.747 8.428 6.863 12.774 0.583 1.32 1.533 2.424 2.044 3.787zM506.39 424.22c10.037 24.359 6.751 54.162-11.024 73.751l-402.97 444.579c-21.974 24.229-56.615 23.078-77.424-2.515-20.77-25.631-19.818-66.037 2.156-90.31l361.568-398.974-360.142-404.895c-21.757-24.487-22.415-64.894-1.427-90.31 10.733-13.033 25.076-19.545 39.425-19.545 13.686 0 27.376 5.958 37.998 17.881l399.317 448.926c0.768 0.889 1.059 2.126 1.827 3.059 0.586 0.645 1.203 1.111 1.787 1.794 3.104 3.788 4.747 8.428 6.863 12.774 0.583 1.32 1.533 2.424 2.044 3.787z" />
<glyph unicode="&#xe909;" glyph-name="picture" d="M146.714 874.667c-81.028 0-146.714-65.543-146.714-146.693v-559.947c0-81.016 65.614-146.693 146.714-146.693h730.572c81.028 0 146.714 65.543 146.714 146.693v559.947c0 81.016-65.614 146.693-146.714 146.693h-730.572zM743.124 494.961c0 0-11.661 22.216-52.655 22.216-46.512 0-60.496-21.529-60.496-21.529l-175.921-278.521c0 0-9.57-18.661-33.046-18.661-24.574 0-36.311 18.661-36.311 18.661l-92.512 108.458c0 0-23.705 32.196-54.506 32.196-30.678 0-56.159-35.626-56.159-35.626l-71.803-87.488v460.294c0 40.339 32.537 73.039 72.819 73.039h658.933c40.217 0 72.819-32.661 72.819-73.449v-424.329l-171.162 224.739zM475.429 554.688c0-58.942-49.109-106.688-109.697-106.688-60.586 0-109.732 47.784-109.732 106.688 0 58.863 49.147 106.646 109.732 106.646 60.587-0.036 109.697-47.782 109.697-106.646v0 0z" />
<glyph unicode="&#xe90a;" glyph-name="cloud" d="M565.493 64l213.97 0.114c135.74 4.060 244.537 115.924 244.537 253.326 0 139.971-112.904 253.44-252.179 253.44-2.596 0-5.182-0.039-7.759-0.118 0.078 2.59 0.117 5.189 0.117 7.798 0 139.971-112.904 253.44-252.179 253.44s-252.179-113.469-252.179-253.44c0-2.609 0.039-5.208 0.117-7.798-2.577 0.078-5.163 0.118-7.759 0.118-139.275 0-252.179-113.469-252.179-253.44 0-137.402 108.798-249.266 244.537-253.326v-0.114h229.254v171.675h-90.21c-25.518 0-34.812 17.285-20.819 38.607l140.064 213.426c8.986 13.693 24.345 14.152 33.632 0l140.064-213.426c13.938-21.238 4.672-38.607-20.819-38.607h-90.21v-171.675z" />
<glyph unicode="&#xe90b;" glyph-name="menu" d="M358.4 410.764h-244.364c-62.836 0-114.036-51.2-114.036-114.036v-244.364c0-65.164 51.2-116.364 114.036-116.364h244.364c62.836 0 114.036 51.2 114.036 114.036v244.364c2.327 65.164-48.873 116.364-114.036 116.364v0zM358.4 960h-244.364c-62.836 0-114.036-51.2-114.036-114.036v-244.364c0-62.836 51.2-114.036 114.036-114.036h244.364c62.836 0 114.036 51.2 114.036 114.036v244.364c2.327 62.836-48.873 114.036-114.036 114.036v0zM909.964 410.764h-244.364c-62.836 0-114.036-51.2-114.036-114.036v-244.364c0-62.836 51.2-114.036 114.036-114.036h244.364c62.836 0 114.036 51.2 114.036 114.036v242.036c0 65.164-51.2 116.364-114.036 116.364v0zM909.964 960h-244.364c-62.836 0-114.036-51.2-114.036-114.036v-244.364c0-62.836 51.2-114.036 114.036-114.036h244.364c62.836 0 114.036 51.2 114.036 114.036v244.364c0 62.836-51.2 114.036-114.036 114.036v0z" />
<glyph unicode="&#xe90c;" glyph-name="time" d="M512-64c-282.781 0-512 229.275-512 512.016s229.219 511.984 512 511.984c282.75 0 512-229.243 512-511.984s-229.25-512.016-512-512.016v0zM512 850.286c-222.175 0-402.286-180.104-402.286-402.271s180.11-402.301 402.286-402.301c222.175 0 402.286 180.134 402.286 402.301s-180.109 402.271-402.286 402.271v0zM512.815 380.429c-26.499 0-48 21.5-48 47.999v228.161c0 26.499 21.501 47.999 48 47.999s48-21.5 48-47.999v-180.163h160c26.499 0 48-21.5 48-47.999s-21.499-47.999-48-47.999h-208z" />
<glyph unicode="&#xe90d;" glyph-name="circle-close" d="M521.974 493.004l202.2 202.2c14.296 14.296 37.88 13.889 51.744 0.025 14.282-14.282 14.298-37.422-0.025-51.744l-202.2-202.2 202.2-202.2c14.296-14.296 13.889-37.88 0.025-51.744-14.282-14.282-37.422-14.298-51.744 0.025l-202.2 202.2-202.2-202.2c-14.296-14.296-37.88-13.889-51.744-0.025-14.282 14.282-14.298 37.422 0.025 51.744l202.2 202.2-202.2 202.2c-14.296 14.296-13.889 37.88-0.025 51.744 14.282 14.282 37.422 14.298 51.744-0.025l202.2-202.2zM512-64c282.77 0 512 229.23 512 512s-229.23 512-512 512c-282.77 0-512-229.23-512-512s229.23-512 512-512z" />
<glyph unicode="&#xe90e;" glyph-name="search" d="M591.269 337.673v0c99.974 99.974 99.974 262.064 0 362.039s-262.064 99.974-362.039 0c-99.974-99.974-99.974-262.064 0-362.039s262.064-99.974 362.039 0v0zM649.951 218.651c-150.771-120.755-371.467-111.251-511.231 28.513-149.961 149.961-149.961 393.097 0 543.058s393.097 149.961 543.058 0c129.223-129.223 147.093-327.631 53.611-475.99l202.266-202.266c25.307-25.307 25.735-65.909 0.567-91.076-24.994-24.994-65.050-25.46-91.076 0.567l-197.195 197.195z" />
<glyph unicode="&#xe90f;" glyph-name="arrow-down" d="M488.22 197.61c24.359-10.037 54.162-6.751 73.751 11.024l444.579 402.97c24.229 21.974 23.078 56.615-2.515 77.424-25.631 20.77-66.037 19.818-90.31-2.156l-398.974-361.568-404.895 360.142c-24.487 21.757-64.894 22.415-90.31 1.427-13.033-10.733-19.545-25.076-19.545-39.425 0-13.686 5.958-27.376 17.881-37.998l448.926-399.317c0.889-0.768 2.126-1.059 3.059-1.827 0.645-0.586 1.111-1.203 1.794-1.787 3.788-3.104 8.428-4.747 12.774-6.863 1.32-0.583 2.424-1.533 3.787-2.044z" />
<glyph unicode="&#xe910;" glyph-name="arrow-up" d="M535.78 698.39c-24.359 10.037-54.162 6.751-73.751-11.024l-444.579-402.97c-24.229-21.974-23.078-56.615 2.515-77.424 25.631-20.77 66.037-19.818 90.31 2.156l398.974 361.568 404.895-360.142c24.487-21.757 64.894-22.415 90.31-1.427 13.033 10.733 19.545 25.076 19.545 39.425 0 13.686-5.958 27.376-17.881 37.998l-448.926 399.317c-0.889 0.768-2.126 1.059-3.059 1.827-0.645 0.586-1.111 1.203-1.794 1.787-3.788 3.104-8.428 4.747-12.774 6.863-1.32 0.583-2.424 1.533-3.787 2.044z" />
<glyph unicode="&#xe911;" glyph-name="arrow-right" d="M762.39 424.22c10.037 24.359 6.751 54.162-11.024 73.751l-402.97 444.579c-21.974 24.229-56.615 23.078-77.424-2.515-20.77-25.631-19.818-66.037 2.156-90.31l361.568-398.974-360.142-404.895c-21.757-24.487-22.415-64.894-1.427-90.31 10.733-13.033 25.076-19.545 39.425-19.545 13.686 0 27.376 5.958 37.998 17.881l399.317 448.926c0.768 0.889 1.059 2.126 1.827 3.059 0.586 0.645 1.203 1.111 1.787 1.794 3.104 3.788 4.747 8.428 6.863 12.774 0.583 1.32 1.533 2.424 2.044 3.787z" />
<glyph unicode="&#xe912;" glyph-name="arrow-left" d="M261.61 424.22c-10.037 24.359-6.751 54.162 11.024 73.751l402.97 444.579c21.974 24.229 56.615 23.078 77.424-2.515 20.77-25.631 19.818-66.037-2.156-90.31l-361.568-398.974 360.142-404.895c21.757-24.487 22.415-64.894 1.427-90.31-10.733-13.033-25.076-19.545-39.425-19.545-13.686 0-27.376 5.958-37.998 17.881l-399.317 448.926c-0.768 0.889-1.059 2.126-1.827 3.059-0.586 0.645-1.203 1.111-1.787 1.794-3.104 3.788-4.747 8.428-6.863 12.774-0.583 1.32-1.533 2.424-2.044 3.787z" />
<glyph unicode="&#xe913;" glyph-name="close" d="M512 548.055l-391.169 391.169c-27.707 27.707-72.473 27.677-100.103 0.048-26.822-26.822-27.608-72.447 0.048-100.103l391.169-391.169-391.169-391.169c-27.708-27.707-27.677-72.474-0.048-100.103 26.821-26.822 72.447-27.608 100.103 0.048l391.169 391.169 391.169-391.169c27.707-27.707 72.473-27.677 100.103-0.048 26.822 26.822 27.608 72.447-0.048 100.103l-391.169 391.169 391.169 391.169c27.708 27.707 27.677 72.474 0.048 100.103-26.821 26.822-72.447 27.608-100.103-0.048l-391.169-391.169z" />
<glyph unicode="&#xe914;" glyph-name="document" d="M440.889 960l-355.556-365.714v-519.027c0-76.594 62.654-139.259 139.227-139.259h574.877c76.574 0 139.229 62.665 139.229 139.259v745.478c0 76.614-62.654 139.263-139.229 139.263h-358.549zM832 117.115c0-39.433-32.618-71.4-70.936-71.4h-498.127c-39.177 0-70.936 31.194-70.936 71.176v404.252h248.982c39.222 0 71.018 31.56 71.018 71.419v257.724h248.982c39.222 0 71.018-32.537 71.018-71.4v-661.771z" />
<glyph unicode="&#xe915;" glyph-name="d-caret" d="M440.191-34.583c34.080-32.082 89.298-32.115 123.414 0l301.306 283.64c68.598 64.576 47.744 116.924-45.528 116.924h-634.971c-93.742 0-113.844-52.613-45.528-116.924l301.306-283.64zM440.191 937.212c34.080 32.082 89.298 32.115 123.414 0l301.306-283.64c68.598-64.576 47.744-116.924-45.528-116.924h-634.971c-93.742 0-113.844 52.613-45.528 116.924l301.306 283.64z" />
<glyph unicode="&#xe916;" glyph-name="date" d="M713.143 846.222h-402.286v113.778h-150.857v-113.778h-50.441c-36.944 0-66.892-30.285-66.892-66.931v-776.361c0-36.965 29.122-66.931 66.005-66.931h806.656c36.454 0 66.005 30.285 66.005 66.931v776.361c0 36.965-29.608 66.931-66.892 66.931h-50.441v113.778h-150.857v-113.778zM160 45.714v572.952h704v-572.952h-704zM554.667 362.667v-256h256v256h-256z" />
<glyph unicode="&#xe917;" glyph-name="message" d="M896.005 874.667h-768.005c-50.498 0-128.001-42.181-128.001-93.344v-18.512c0 0 432.753-371.093 512-371.093 79.257 0 512 369.92 512 369.92v19.685c0 51.163-77.497 93.344-127.995 93.344v0zM0 613.104v-526.128c0 0 47.504-65.643 128.001-65.643h768.005c76.498 0 127.995 65.643 127.995 65.643v527.786c0 0-364.175-333.38-512-333.38-146.284 0-512 331.722-512 331.722v0z" />
<glyph unicode="&#xe918;" glyph-name="loading" d="M0 448c0-282.77 229.23-512 512-512s512 229.23 512 512c0 282.77-229.23 512-512 512-21.752 0-39.385-17.633-39.385-39.385s17.633-39.385 39.385-39.385c239.267 0 433.231-193.964 433.231-433.231s-193.964-433.231-433.231-433.231c-239.267 0-433.231 193.964-433.231 433.231 0 21.752-17.633 39.385-39.385 39.385s-39.385-17.633-39.385-39.385v0z" />
<glyph unicode="&#xe919;" glyph-name="more" d="M118.154 329.846c65.255 0 118.154 52.899 118.154 118.154s-52.899 118.154-118.154 118.154c-65.255 0-118.154-52.899-118.154-118.154s52.899-118.154 118.154-118.154zM512 329.846c65.255 0 118.154 52.899 118.154 118.154s-52.899 118.154-118.154 118.154c-65.255 0-118.154-52.899-118.154-118.154s52.899-118.154 118.154-118.154zM905.846 329.846c65.255 0 118.154 52.899 118.154 118.154s-52.899 118.154-118.154 118.154c-65.255 0-118.154-52.899-118.154-118.154s52.899-118.154 118.154-118.154z" />
<glyph unicode="&#xe91a;" glyph-name="plus" d="M438.857 521.143h-365.214c-40.733 0-73.644-32.747-73.644-73.143 0-40.677 32.971-73.143 73.644-73.143h365.214v-365.214c0-40.733 32.747-73.644 73.143-73.644 40.677 0 73.143 32.971 73.143 73.644v365.214h365.214c40.733 0 73.644 32.747 73.644 73.143 0 40.677-32.971 73.143-73.644 73.143h-365.214v365.214c0 40.733-32.747 73.644-73.143 73.644-40.677 0-73.143-32.971-73.143-73.644v-365.214z" />
<glyph unicode="&#xe91b;" glyph-name="caret-left" d="M293.836 356.5c-36.187 37.19-35.83 97.855 0 134.678l357.276 367.178c71.513 73.495 129.486 49.602 129.486-53.106v-762.822c0-102.825-58.060-126.512-129.486-53.106l-357.276 367.178z" />
<glyph unicode="&#xe91c;" glyph-name="caret-right" d="M753.591 356.5c36.187 37.19 35.83 97.855 0 134.678l-357.276 367.178c-71.513 73.495-129.486 49.602-129.486-53.106v-762.822c0-102.825 58.060-126.512 129.486-53.106l357.276 367.178z" />
<glyph unicode="&#xe91d;" glyph-name="caret-bottom" d="M409.826 240.51c37.19-36.187 97.855-35.83 134.678 0l367.178 357.276c73.495 71.513 49.602 129.486-53.106 129.486h-762.822c-102.825 0-126.512-58.060-53.106-129.486l367.178-357.276z" />
<glyph unicode="&#xe91e;" glyph-name="edit" d="M84.186 243.909l-84.186-307.909 306.998 85.375 484.852 484.209-225.523 219.804-482.141-481.48zM755.070 913.917l-120.787-120.643 226.275-219.096 117.282 117.171c61.546 61.477 61.546 161.098 0 222.569-61.532 61.443-161.309 61.443-222.77 0z" />
<glyph unicode="&#xe91f;" glyph-name="caret-top" d="M409.826 700.266c37.19 36.187 97.855 35.83 134.678 0l367.178-357.276c73.495-71.513 49.602-129.486-53.106-129.486h-762.822c-102.825 0-126.512 58.060-53.106 129.486l367.178 357.276z" />
<glyph unicode="&#xe920;" glyph-name="check" horiz-adv-x="1365" d="M569.942 138.091c-19.251 0-38.43 7.354-53.122 21.979l-300.554 300.519c-29.301 29.327-29.301 76.928 0 106.265 29.373 29.327 76.95 29.327 106.25 0l247.431-247.392 472.796 472.724c29.301 29.412 76.874 29.412 106.25 0 29.301-29.327 29.301-76.856 0-106.182l-525.913-525.94c-14.686-14.631-33.941-21.979-53.122-21.979v0z" />
<glyph unicode="&#xe921;" glyph-name="minus" d="M78.769 526.769h866.462c43.503 0 78.769-35.266 78.769-78.769s-35.266-78.769-78.769-78.769h-866.462c-43.503 0-78.769 35.266-78.769 78.769s35.266 78.769 78.769 78.769z" />
<glyph unicode="&#xe922;" glyph-name="truck" d="M794.624 593.76c-5.952 8.896-15.936 14.24-26.624 14.24h-32c-17.696 0-32-14.304-32-32v-192c0-17.696 14.304-32 32-32h128c17.696 0 32 14.304 32 32v48c0 6.304-1.888 12.512-5.376 17.76l-96 144zM864 384h-128v192h32l96-144v-48zM1007.872 469.248l-128 192c-17.856 26.784-47.744 42.752-79.872 42.752h-128v64c0 52.928-43.072 96-96 96h-480c-52.928 0-96-43.072-96-96v-352c0-52.928 43.072-96 96-96v0-96c0-52.928 43.072-96 96-96h36.544c14.304-55.072 64-96 123.488-96 59.424 0 109.12 40.928 123.424 96h169.024c14.304-55.072 64-96 123.488-96 59.424 0 109.12 40.928 123.424 96h36.608c52.928 0 96 43.072 96 96v192c0 19.008-5.568 37.44-16.128 53.248zM96 384c-17.664 0-32 14.304-32 32v352c0 17.696 14.336 32 32 32h480c17.696 0 32-14.304 32-32v-352c0-17.696-14.304-32-32-32h-480zM352.032 96c-35.36 0-64 28.672-64 64s28.64 64 64 64c35.328 0 64-28.672 64-64s-28.704-64-64-64zM768 96c-35.36 0-64 28.672-64 64s28.64 64 64 64c35.328 0 64-28.672 64-64s-28.672-64-64-64zM960 224c0-17.696-14.304-32-32-32h-36.576c-14.304 55.072-64 96-123.424 96-59.488 0-109.184-40.928-123.488-96h-169.024c-14.304 55.072-64 96-123.424 96-59.488 0-109.184-40.928-123.488-96h-36.576c-17.664 0-32 14.304-32 32v96h416c52.928 0 96 43.072 96 96v224h128c10.688 0 20.672-5.344 26.624-14.24l128-192c3.488-5.248 5.376-11.456 5.376-17.76v-192z" />
<glyph unicode="&#xf104;" glyph-name="angle-left" horiz-adv-x="384" d="M384.002 164.382q0 8.578-6.598 15.176l-259.3 259.3 259.3 259.3q6.598 6.598 6.598 15.176t-6.598 15.176l-32.989 32.989q-6.598 6.598-15.176 6.598t-15.176-6.598l-307.466-307.466q-6.598-6.598-6.598-15.176t6.598-15.176l307.466-307.466q6.598-6.598 15.176-6.598t15.176 6.598l32.989 32.989q6.598 6.598 6.598 15.176z" />
<glyph unicode="&#xf105;" glyph-name="angle-right" horiz-adv-x="347" d="M340 438.858q0-7.429-5.714-13.143l-266.286-266.286q-5.714-5.714-13.143-5.714t-13.143 5.714l-28.571 28.571q-5.714 5.714-5.714 13.143t5.714 13.143l224.571 224.571-224.571 224.571q-5.714 5.714-5.714 13.143t5.714 13.143l28.571 28.571q5.714 5.714 13.143 5.714t13.143-5.714l266.286-266.286q5.714-5.714 5.714-13.143z" />
</font>
</defs>
</svg>
