<?xml version="1.0" standalone="no"?>
<!DOCTYPE svg PUBLIC "-//W3C//DTD SVG 1.1//EN" "http://www.w3.org/Graphics/SVG/1.1/DTD/svg11.dtd" >
<svg xmlns="http://www.w3.org/2000/svg">
<metadata>
<json>
{
	"fontFamily": "devicons",
	"majorVersion": 1,
	"minorVersion": 3,
	"fontURL": "http://vorillaz.github.io/devicons/",
	"designer": "Theodore Vorillas",
	"designerURL": "http://www.vorillaz.com",
	"license": "MIT License",
	"licenseURL": "http://opensource.org/licenses/mit-license.html",
	"version": "Version 1.3",
	"fontId": "devicons",
	"psName": "devicons",
	"subFamily": "Regular",
	"fullName": "devicons",
	"description": "Font generated by IcoMoon."
}
</json>
</metadata>
<defs>
<font id="devicons" horiz-adv-x="512">
<font-face units-per-em="512" ascent="480" descent="-32" />
<missing-glyph horiz-adv-x="512" />
<glyph unicode="&#x20;" d="" horiz-adv-x="256" />
<glyph unicode="&#xe600;" d="M219.295 305.309l36.298-78.707 53.636-24.264-193.467-101.783 79.271 70.663v201.449l-81.637 25.008v-299.616l81.137-56.876 204.071 121.551v87.624z" />
<glyph unicode="&#xe601;" d="M245.802 408.387c-13.8-4.5-22.9-15.1-25.2-29.3-0.8-4.8 0.1-14.9 5-59.3 3.3-29.4 5.8-54.1 5.7-54.8-0.2-0.7-21 14-46.8 32.9-25.5 18.7-48.7 35.2-51.5 36.7-6.8 3.5-18.9 4.2-27 1.6-11.9-3.7-22-13.8-25.7-25.6-3.3-10.9-1.9-20.599 4.6-30.4 6.3-9.4 10.5-11.7 67-36.8 29-12.8 52.7-23.7 52.6-24.2 0-0.5-22.7-10.7-50.3-22.601-27.6-11.899-52.5-23-55.3-24.7-6.7-4-13.9-11.899-17.2-18.899-2.3-4.8-2.7-7-2.7-14.2 0-7.401 0.4-9.3 3.2-15.2 4-8.399 9.7-14.7 17-18.599 11.7-6.2 22.6-6.101 35.3 0.3 3.6 1.8 26.8 18.099 51.5 36.3 32.6 23.901 45.1 32.601 45.3 31.401 0.1-0.901-2.4-25.8-5.7-55.2-6.4-58-6.5-60-1.9-69.8 3-6.3 9.7-12.8 16.6-16 5-2.401 7-2.7 15.7-2.7 8.901 0 10.6 0.3 15.7 2.8 10.7 5.3 17.7 14.601 19.899 26.8 1 5.801 0.5 11.801-5 60.801-3.399 29.899-6 54.5-5.8 54.699s18.7-13.199 41.3-29.8c54.901-40.399 57.301-41.899 67.4-43.8 20.3-3.8 42.2 13.7 43.8 35 0.601 8.901-1.099 15.599-5.899 23-6.601 10.2-10.401 12.3-67.401 36.901-28.599 12.3-52.401 22.699-52.8 23.099-0.5 0.401 21.8 10.8 49.5 23 60.599 26.8 58.8 26 65.5 32.2 7.099 6.8 10.5 13.9 11.099 23.2 1.101 17.8-10.2 34.4-26.7 39.2-8.099 2.4-20.199 1.5-27.3-1.9-2.899-1.5-26.3-18-51.7-36.7-25.5-18.7-46.599-33.9-46.8-33.7s2.401 25.1 5.8 55.3c6.601 59.8 6.7 61.1 1.7 71.2-3 6.3-9.8 12.8-16.399 15.9-6.901 3.1-19.601 4.1-26.101 1.9z" />
<glyph unicode="&#xe602;" d="M429.638 235.501l-157.57 157.564c-9.071 9.076-23.787 9.076-32.87 0l-32.717-32.723 41.503-41.506c9.648 3.258 20.709 1.072 28.396-6.616 7.731-7.735 9.898-18.892 6.559-28.572l40.003-40c9.68 3.337 20.843 1.18 28.574-6.562 10.801-10.799 10.801-28.303 0-39.108-10.808-10.807-28.309-10.807-39.121 0-8.124 8.131-10.135 20.068-6.015 30.077l-37.311 37.308v-98.174c2.631-1.305 5.115-3.042 7.311-5.23 10.801-10.798 10.801-28.3 0-39.115-10.801-10.798-28.315-10.798-39.108 0-10.8 10.815-10.8 28.317 0 39.115 2.67 2.668 5.76 4.686 9.060 6.036v99.082c-3.3 1.351-6.383 3.351-9.060 6.036-8.181 8.177-10.148 20.185-5.954 30.232l-40.915 40.923-108.045-108.036c-9.074-9.084-9.074-23.801 0-32.878l157.578-157.562c9.070-9.073 23.784-9.073 32.869 0l156.833 156.833c9.079 9.077 9.079 23.802 0 32.876z" />
<glyph unicode="&#xe603;" d="M255.998 420.208v0c-98.009 0-178.036-26.352-178.036-59.067 0-8.619 21.373-132.176 29.849-181.178 3.803-21.976 60.592-54.198 148.144-54.198l0.090 0.264v-0.264c87.552 0 144.341 32.223 148.143 54.198 8.479 49.002 29.852 172.559 29.852 181.178-0.002 32.716-80.031 59.067-178.042 59.067zM255.998 165.459c-31.255 0-56.594 25.344-56.594 56.597 0 31.261 25.339 56.597 56.594 56.597 31.258 0 56.595-25.338 56.595-56.597 0-31.253-25.337-56.597-56.595-56.597zM255.966 342.885c-62.97 0.102-113.999 11.042-113.979 24.441 0.021 13.403 51.091 24.18 114.060 24.076 62.972-0.103 114.001-11.039 113.979-24.442s-51.088-24.176-114.060-24.075zM383.962 140.326c-2.708 0-4.876-1.915-4.876-1.915s-43.847-34.719-123.089-34.722c-79.241 0.003-123.087 34.722-123.087 34.722s-2.168 1.915-4.874 1.915c-3.232 0-6.299-2.171-6.299-6.963 0-0.509 0.048-1.011 0.142-1.507 6.806-36.422 11.776-62.262 12.652-66.196 5.939-26.793 58.346-47.008 121.461-47.011v0h0.012c63.115 0.003 115.522 20.218 121.461 47.011 0.876 3.935 5.847 29.777 12.652 66.196 0.092 0.496 0.14 0.998 0.14 1.507 0.001 4.793-3.065 6.963-6.295 6.963zM288.479 221.597c0-17.029-13.805-30.834-30.834-30.834s-30.834 13.805-30.834 30.834c0 17.029 13.805 30.834 30.834 30.834s30.834-13.805 30.834-30.834z" />
<glyph unicode="&#xe604;" d="M81.305 390.505c-9.025-9.025-6.769-19.403 9.024-42.867 8.121-12.181 17.6-31.135 21.209-41.964 3.609-11.281 10.831-26.622 15.793-34.293 9.025-12.633 9.025-15.341 3.159-38.354-3.609-14.44-4.966-32.49-3.159-43.769 2.706-18.953 18.050-46.476 27.523-49.635 8.125-2.705 19.856 11.736 20.305 24.819 0 11.279 0.453 11.735 5.415 3.61 8.576-13.988 35.649-43.767 37.905-41.51 0.904 0.899-4.966 12.634-13.536 25.717-8.121 13.537-17.6 31.137-21.208 39.258-4.962 13.536-6.768 14.44-12.634 8.121-3.609-3.608-8.121-13.986-9.479-23.46-3.608-21.663-11.73-24.368-18.049-5.87-6.315 18.503-6.315 50.090 0 71.748 4.513 14.889 4.064 18.952-3.608 30.233-4.962 6.768-12.634 23.011-16.697 36.098-4.058 12.634-13.537 31.587-21.204 41.512-17.6 24.817-17.6 33.842 0.898 30.233 7.672-1.355 19.407-6.768 26.625-11.733 6.768-4.964 18.499-9.024 25.72-9.024 21.658 0 59.563-21.209 87.085-48.732 21.209-21.208 32.036-38.354 55.050-84.832 27.074-55.048 29.331-58.207 46.026-63.622 19.851-6.769 61.366-32.035 61.366-37.451 0-1.808-10.377-4.514-23.010-5.416-33.843-3.61-37.004-9.928-14.896-29.779 10.384-9.026 29.785-23.014 43.771-30.683l25.272-14.44-11.735 14.889c-6.769 8.121-20.755 20.754-31.585 27.522-10.827 6.769-19.402 13.991-19.402 15.794 0 1.807 7.671 4.966 17.147 6.32 25.27 4.512 32.488 6.767 32.488 11.279 0 6.769-45.57 41.062-67.234 50.539-18.498 8.572-20.755 12.185-44.669 61.365-21.208 45.123-29.783 57.758-56.856 84.831-34.742 34.744-58.66 49.635-89.343 54.147-10.378 1.805-24.817 7.22-31.132 11.733-14.894 11.281-45.123 15.341-52.346 7.67z" />
<glyph unicode="&#xe605;" d="M256 253.186c-94.646 0-168.788 33.362-168.788 75.954s74.142 75.955 168.788 75.955 168.788-33.362 168.788-75.955c0-42.591-74.142-75.954-168.788-75.954zM256 388.216c-71.854 0-151.908-24.263-151.908-59.076s80.054-59.074 151.908-59.074c71.851 0 151.91 24.262 151.91 59.075s-80.059 59.075-151.91 59.075zM256 185.671c-94.646 0-168.788 33.362-168.788 75.955v67.515c0 4.666 3.771 8.44 8.439 8.44 4.669 0 8.44-3.774 8.44-8.44v-67.515c0-34.812 80.054-59.076 151.908-59.076 71.851 0 151.91 24.263 151.91 59.076v67.515c0 4.666 3.773 8.44 8.438 8.44 4.667 0 8.44-3.774 8.44-8.44v-67.515c0.001-42.593-74.141-75.955-168.787-75.955zM256 109.716c-94.646 0-168.788 33.363-168.788 75.955v75.955c0 4.664 3.771 8.44 8.439 8.44 4.669 0 8.44-3.776 8.44-8.44v-75.955c0-34.812 80.054-59.076 151.908-59.076 71.851 0 151.91 24.264 151.91 59.076v75.955c0 4.664 3.773 8.44 8.438 8.44 4.667 0 8.44-3.776 8.44-8.44v-75.955c0.001-42.592-74.141-75.955-168.787-75.955zM256 33.763c-94.646 0-168.788 33.361-168.788 75.953v75.955c0 4.664 3.771 8.439 8.439 8.439 4.669 0 8.44-3.775 8.44-8.439v-75.955c0-34.812 80.054-59.076 151.908-59.076 71.851 0 151.91 24.264 151.91 59.076v75.955c0 4.664 3.773 8.439 8.438 8.439 4.667 0 8.44-3.775 8.44-8.439v-75.955c0.001-42.592-74.141-75.953-168.787-75.953z" />
<glyph unicode="&#xe606;" d="M256 39.462c-85.176 0-154.258 23.047-154.258 51.418 0 15.518 0 32.49 0 51.42 0 4.469 2.234 8.713 5.448 12.855 17.199-22.145 77.004-38.564 148.81-38.564s131.61 16.42 148.81 38.564c3.213-4.143 5.448-8.387 5.448-12.855 0-14.889 0-30.682 0-51.42 0-28.371-69.095-51.418-154.258-51.418zM256 142.3c-85.176 0-154.258 23.049-154.258 51.42 0 15.527 0 32.475 0 51.418 0 2.724 1.029 5.373 2.41 7.997v0c0.779 1.644 1.808 3.263 3.038 4.858 17.199-22.132 77.004-38.564 148.81-38.564s131.61 16.433 148.81 38.565c1.229-1.595 2.26-3.214 3.038-4.858v0c1.38-2.624 2.41-5.273 2.41-7.997 0-14.889 0-30.668 0-51.418 0-28.372-69.095-51.421-154.258-51.421zM256 245.138c-85.176 0-154.258 23.036-154.258 51.418 0 8.123 0 16.709 0 25.71 0 8.172 0 16.659 0 25.709 0 28.384 69.082 51.42 154.258 51.42 85.163 0 154.258-23.036 154.258-51.42 0-8.021 0-16.533 0-25.709 0-7.871 0-16.169 0-25.71 0-28.382-69.095-51.418-154.258-51.418zM256 373.686c-56.792 0-102.838-11.486-102.838-25.709s46.046-25.709 102.838-25.709c56.792 0 102.839 11.486 102.839 25.709s-46.047 25.709-102.839 25.709z" />
<glyph unicode="&#xe607;" d="M76.643 200.521l105.516-68.857 73.848 61.585-106.405 65.667zM182.159 386.16l-105.516-68.822 72.959-58.422 106.405 65.673zM435.357 317.338l-105.516 68.822-73.834-61.571 106.386-65.673zM256.007 193.249l73.834-61.585 105.516 68.857-72.964 58.395zM256.219 180.006l-74.060-61.417-31.69 20.698v-23.218l105.75-63.371 105.742 63.371v23.218l-31.69-20.698z" />
<glyph unicode="&#xe608;" d="M318.491 194.454c6.863 0 12.639-3.354 17.632-10.182 4.955-6.746 7.487-15.098 7.487-24.963 0-9.908-2.492-18.256-7.487-25.008-4.993-6.746-10.847-10.139-17.632-10.139-7.218 0-13.42 3.354-18.413 10.139-4.915 6.752-7.448 15.1-7.448 25.008 0 9.904 2.454 18.217 7.448 24.963 4.993 6.829 11.234 10.182 18.413 10.182zM406.804 285.89c19.234-20.851 28.946-46.148 28.946-75.813 0-19.25-2.265-36.572-6.633-51.979-4.443-15.332-10.061-27.893-16.774-37.486-6.825-9.674-15.093-18.178-25.041-25.355-9.948-7.373-19.116-12.639-27.384-16.031-8.268-3.395-17.79-6.012-28.555-7.842-10.647-1.875-18.686-2.887-24.264-3.16-5.381-0.232-11.234-0.35-17.554-0.35-1.404 0-6.162-0.158-14.062-0.391-7.704-0.312-14.334-0.471-19.483-0.471-5.151 0-11.782 0.158-19.486 0.471-7.838 0.232-12.639 0.391-14.062 0.391-6.319 0-12.226 0.078-17.574 0.35-5.597 0.273-13.63 1.285-24.224 3.16-10.822 1.791-20.281 4.371-28.592 7.842-8.271 3.354-17.419 8.658-27.325 16.031-9.987 7.256-18.256 15.721-25.083 25.355-6.709 9.594-12.345 22.154-16.772 37.486-4.35 15.406-6.631 32.729-6.631 51.979 0 29.665 9.673 54.962 28.962 75.813-2.125 1.033-2.241 11.428-0.329 31.226 1.714 19.817 5.927 38.073 12.754 54.729 24.047-2.556 53.635-16.129 89.077-40.629 11.973 3.123 28.355 4.721 49.246 4.721 21.924 0 38.306-1.598 49.269-4.721 16.148 10.902 31.596 19.817 46.341 26.606 14.98 6.709 25.743 10.667 32.531 11.7l10.144 2.323c6.863-16.655 11.076-34.953 12.795-54.729 1.987-19.797 1.869-30.192-0.237-31.226zM256.838 85.075c43.24 0 75.854 5.188 98.007 15.562 22.083 10.416 33.317 31.834 33.317 64.133 0 18.721-7.062 34.404-21.145 46.906-7.258 6.787-15.762 10.902-25.514 12.5-9.514 1.562-24.221 1.562-44.077 0-19.778-1.598-33.313-2.32-40.589-2.32-9.907 0-20.653 0.525-33.994 1.562-13.341 0.994-23.797 1.637-31.268 1.949-7.645 0.235-15.776-0.722-24.614-2.75-8.912-2.127-16.129-5.715-21.96-10.903-13.437-11.996-20.264-27.602-20.264-46.906 0-32.299 10.94-53.719 32.807-64.094 21.842-10.453 54.355-15.604 97.619-15.604zM194.29 194.454c6.788 0 12.619-3.354 17.57-10.182 4.954-6.746 7.473-15.098 7.473-24.963 0-9.908-2.48-18.256-7.473-25.008-4.952-6.746-10.824-10.139-17.57-10.139-7.274 0-13.459 3.354-18.453 10.139-4.952 6.752-7.471 15.1-7.471 25.008 0 9.904 2.478 18.217 7.471 24.963 4.994 6.829 11.179 10.182 18.453 10.182z" />
<glyph unicode="&#xe609;" d="M256 394.505c-99.129 0-179.502-80.373-179.502-179.5 0-79.32 51.428-146.59 122.762-170.321 8.972-1.642 12.249 3.901 12.249 8.635 0 4.272-0.165 18.428-0.252 33.415-49.916-10.846-60.466 21.168-60.466 21.168-8.172 20.728-19.929 26.249-19.929 26.249-16.313 11.131 1.237 10.912 1.237 10.912 18.022-1.249 27.512-18.493 27.512-18.493 16.018-27.435 42.026-19.502 52.237-14.9 1.631 11.569 6.277 19.502 11.394 23.972-39.846 4.535-81.764 19.939-81.764 88.719 0 19.612 7.001 35.606 18.461 48.173-1.83 4.558-8.009 22.822 1.774 47.526 0 0 15.054 4.821 49.368-18.406 14.308 4 29.657 5.971 44.919 6.038 15.25-0.066 30.609-2.060 44.941-6.059 34.248 23.249 49.322 18.406 49.322 18.406 9.816-24.727 3.639-42.968 1.799-47.504 11.504-12.567 18.449-28.562 18.449-48.173 0-68.956-41.984-84.14-81.973-88.587 6.465-5.566 12.182-16.479 12.182-33.219 0-23.994-0.238-43.341-0.238-49.257 0-4.778 3.264-10.365 12.357-8.613 71.279 23.776 122.662 91.044 122.662 170.321 0.001 99.125-80.372 179.498-179.501 179.498z" />
<glyph unicode="&#xe60a;" d="M256 40.929c-98.431 0-178.5 80.088-178.5 178.5 0 98.411 80.069 178.5 178.5 178.5s178.5-80.089 178.5-178.5c0-98.412-80.070-178.5-178.5-178.5zM256 358.262c-76.535 0-138.833-62.279-138.833-138.833 0-76.545 62.299-138.834 138.833-138.834 76.544 0 138.834 62.289 138.834 138.834 0 76.554-62.29 138.833-138.834 138.833zM287.028 207.014c3.408 0 6.275-1.665 8.755-5.056 2.46-3.35 3.718-7.496 3.718-12.395 0-4.92-1.238-9.064-3.718-12.417-2.479-3.35-5.386-5.034-8.755-5.034-3.584 0-6.663 1.665-9.143 5.034-2.44 3.353-3.698 7.497-3.698 12.417 0 4.918 1.219 9.045 3.698 12.395 2.48 3.391 5.579 5.056 9.143 5.056zM330.878 252.414c9.55-10.353 14.372-22.914 14.372-37.643 0-9.558-1.124-18.158-3.293-25.809-2.207-7.612-4.996-13.849-8.329-18.612-3.389-4.804-7.494-9.025-12.434-12.59-4.939-3.661-9.491-6.275-13.597-7.96s-8.833-2.984-14.178-3.894c-5.287-0.931-9.278-1.434-12.048-1.569-2.672-0.115-5.578-0.174-8.716-0.174-0.697 0-3.060-0.078-6.982-0.193-3.825-0.155-7.117-0.233-9.674-0.233-2.558 0-5.85 0.078-9.675 0.233-3.892 0.115-6.275 0.193-6.982 0.193-3.138 0-6.070 0.039-8.726 0.174-2.779 0.136-6.768 0.639-12.028 1.569-5.373 0.89-10.070 2.17-14.196 3.894-4.107 1.665-8.649 4.299-13.567 7.96-4.959 3.603-9.064 7.806-12.455 12.59-3.331 4.764-6.13 11-8.328 18.612-2.16 7.65-3.292 16.251-3.292 25.809 0 14.729 4.803 27.29 14.38 37.643-1.056 0.513-1.113 5.674-0.163 15.504 0.851 9.84 2.942 18.904 6.333 27.174 11.94-1.269 26.631-8.009 44.229-20.173 5.945 1.551 14.079 2.344 24.452 2.344 10.886 0 19.020-0.793 24.463-2.344 8.019 5.414 15.688 9.84 23.010 13.21 7.438 3.332 12.782 5.296 16.152 5.81l5.036 1.153c3.408-8.27 5.5-17.355 6.354-27.174 0.986-9.83 0.928-14.991-0.118-15.504zM256.416 152.704c21.47 0 37.663 2.576 48.663 7.728 10.964 5.172 16.542 15.806 16.542 31.843 0 9.296-3.506 17.083-10.498 23.29-3.604 3.37-7.826 5.414-12.668 6.207-4.725 0.775-12.026 0.775-21.886 0-9.82-0.793-16.541-1.152-20.153-1.152-4.919 0-10.254 0.261-16.878 0.775-6.624 0.494-11.816 0.813-15.525 0.968-3.796 0.117-7.833-0.358-12.222-1.365-4.425-1.056-8.009-2.837-10.904-5.414-6.671-5.956-10.062-13.704-10.062-23.29 0-16.037 5.432-26.672 16.29-31.823 10.845-5.19 26.988-7.748 48.47-7.748zM225.359 207.014c3.371 0 6.266-1.665 8.724-5.056 2.46-3.35 3.711-7.496 3.711-12.395 0-4.92-1.231-9.064-3.711-12.417-2.458-3.35-5.375-5.034-8.724-5.034-3.612 0-6.683 1.665-9.162 5.034-2.458 3.353-3.709 7.497-3.709 12.417 0 4.918 1.23 9.045 3.709 12.395 2.48 3.391 5.551 5.056 9.162 5.056z" />
<glyph unicode="&#xe60b;" d="M74.897 219.676c0-71.561 41.596-133.465 101.938-162.739l-86.264 236.364c-10.050-22.509-15.674-47.386-15.674-73.625zM377.861 228.815c0 22.351-8.047 37.844-14.913 49.881-9.168 14.913-17.746 27.51-17.746 42.429 0 16.627 12.566 32.092 30.372 32.092 0.767 0 1.549-0.106 2.316-0.157-32.165 29.474-75.032 47.493-122.116 47.493-63.203 0-118.786-32.437-151.109-81.53 4.253-0.136 8.235-0.229 11.628-0.229 18.923 0 48.204 2.324 48.204 2.324 9.727 0.544 10.881-13.745 1.132-14.92 0 0-9.784-1.133-20.695-1.721l65.873-195.885 39.587 118.687-28.19 77.199c-9.741 0.588-18.966 1.721-18.966 1.721-9.755 0.588-8.594 15.464 1.162 14.92 0 0 29.848-2.324 47.609-2.324 18.906 0 48.23 2.324 48.23 2.324 9.706 0.544 10.867-13.745 1.113-14.92 0 0-9.771-1.133-20.679-1.721l65.367-194.393 18.048 60.253c9.168 23.515 13.773 42.983 13.773 58.477zM258.946 203.851l-54.28-157.699c16.196-4.758 33.312-7.348 51.103-7.348 21.044 0 41.259 3.644 60.059 10.271-0.486 0.768-0.933 1.579-1.298 2.467l-55.584 152.309zM414.46 306.471c0.796-5.782 1.247-11.951 1.247-18.622 0-18.342-3.442-38.965-13.771-64.781l-55.24-159.697c53.755 31.333 89.907 89.573 89.907 156.297 0.006 31.469-8.027 61.023-22.143 86.803z" />
<glyph unicode="&#xe60c;" d="M277.111 329.377c-39.111-39.111-72.005-70.967-73.558-70.967-1.295 0-22.791 15.798-47.398 34.965l-44.551 34.967-36.261-18.132v-181.302l36.261-18.132 41.181 32.119c22.794 17.867 43.77 33.926 46.621 35.743 5.183 3.108 10.359-1.558 77.444-68.381l71.744-71.743 44.031 17.873 44.029 17.611v291.122l-33.668 13.466c-18.389 7.513-38.333 15.282-44.288 17.615l-10.621 4.143-70.966-70.966zM347.301 219.557c0-39.885-0.519-72.519-1.555-72.519-3.624 0-91.685 70.966-90.911 73.296 0.779 2.849 87.544 71.486 90.649 71.486 1.041 0.26 1.818-32.375 1.818-72.263zM141.392 245.459l25.901-25.902-25.901-25.899c-14.245-14.246-26.677-25.899-27.714-25.899-1.296 0-2.073 23.31-2.073 51.798 0 28.49 0.776 51.804 2.073 51.804 1.037 0 13.469-11.657 27.714-25.902z" />
<glyph unicode="&#xe60d;" d="M196.92 75.677c-1.363-16.226 6.823-28.356 22.139-32.451 12.584-3.336 27.141 2.578 33.358 13.8 1.82 3.183 22.443 56.105 45.795 117.669 39.274 103.416 42.912 112.362 48.371 117.973 3.337 3.488 6.067 6.974 6.067 7.885s-2.881 4.247-6.368 7.279c-13.951 12.584-46.704 23.048-60.656 19.409-2.272-0.606-2.729-2.426-2.729-9.401 0-8.796-1.515-14.253-10.615-37.303-2.577-6.673-6.824-18.195-9.399-25.779-2.428-7.43-6.522-18.044-8.947-23.503-2.277-5.457-7.28-18.043-11.070-28.055-3.793-10.007-10.916-28.959-15.922-42.305-5.003-13.19-10.614-25.777-12.585-27.746zM320.047 318.142c15.315-6.368 23.202-14.101 16.832-16.529-6.063-2.274-33.206 7.429-40.336 14.557-2.729 2.73-2.88 3.639-1.365 5.611 2.578 2.881 12.587 1.516 24.868-3.639zM294.876 298.885c5.46-5.763 16.529-9.856 28.66-10.311 6.067-0.303 10.916-0.608 10.916-0.91 0-0.152-1.062-1.972-2.272-3.791-1.213-1.821-6.218-14.103-11.224-27.143-7.883-20.623-9.854-24.567-15.313-29.569-8.341-7.582-21.533-15.012-31.086-17.285-4.094-1.062-10.463-3.034-14.101-4.701-3.639-1.517-7.278-2.729-7.885-2.729-1.367 0 2.881 12.433 17.437 50.041 4.701 12.129 10.92 28.356 13.799 36.089 3.033 7.582 5.914 13.95 6.524 13.95 0.604 0 2.726-1.668 4.546-3.638zM308.219 222.46c-0.453-0.607-14.555-37.302-31.235-81.428-26.992-71.267-31.085-80.976-35.786-85.219-2.882-2.729-6.519-5.005-7.885-4.853-1.821 0-1.213 0.606 1.516 1.666 2.427 0.91 4.094 2.579 4.094 4.248 0 1.517 0.608 3.183 1.365 3.791 0.76 0.454 1.971 3.034 2.577 5.611 0.454 2.728 1.516 5.912 2.122 7.277 2.275 4.246 9.098 21.988 9.098 23.199 0 0.758 0.909 3.49 2.125 6.068 1.212 2.728 5.005 12.433 8.493 21.532 3.485 9.247 7.731 20.469 9.401 25.019 1.82 4.548 3.788 8.948 4.548 9.704 0.606 0.91 1.211 2.879 1.211 4.397 0 1.514 1.065 5.156 2.276 8.037 4.549 10.315 6.522 15.166 9.099 22.594 1.365 4.247 3.183 8.793 3.94 10.159 1.519 2.879 1.82 7.279 0.61 7.279-0.455 0-2.731-1.063-5.004-2.425-3.642-2.125-3.642-2.125 0.455 1.060 2.574 1.971 6.974 5.762 9.854 8.491 4.853 4.551 8.796 6.671 7.125 3.791zM266.217 200.927c0-0.756-1.062-1.514-2.426-1.514-2.88 0-7.128-9.858-7.128-16.226 0.152-2.728-0.454-5.003-1.213-5.003-2.428 0-7.732-12.435-8.491-20.471-0.76-6.976-0.454-8.19 2.124-9.707 4.094-2.12 5.154-6.822 2.424-10.613-2.274-3.336-8.643-4.243-10.31-1.669-2.275 3.642-3.941 1.214-3.035-4.244 0.76-5.157 0.458-6.065-2.726-7.43-2.429-1.212-4.702-4.399-6.371-9.099-5.308-14.404-10.157-27.14-13.040-34.572-1.667-4.094-3.489-10.921-3.942-14.861-0.76-6.219-0.305-7.736 2.73-11.221l3.638-4.094-4.851 3.334c-5.003 3.49-11.071 14.256-11.071 19.715 0 1.82 4.4 15.165 9.857 29.875 5.459 14.555 9.857 27.445 9.857 28.353 0 1.062 5.003 6.825 10.919 12.892 6.063 6.063 10.006 11.065 8.793 11.065-1.214 0-4.399-2.123-7.127-4.851s-5.005-4.094-5.005-3.034c0 4.552 14.255 37.912 17.895 41.853 3.333 3.64 16.374 13.043 18.042 13.043 0.305-0.002 0.457-0.611 0.457-1.519z" />
<glyph unicode="&#xe60e;" d="M108.825 155.466c0-19.684-13.712-35.787-30.47-35.787-16.761 0-30.475 16.104-30.475 35.787v117.13c0 19.686 13.713 35.79 30.475 35.79 16.758 0 30.47-16.104 30.47-35.79v-117.13zM464.119 155.466c0-19.684-13.713-35.787-30.473-35.787s-30.476 16.104-30.476 35.787v117.13c0 19.686 13.717 35.79 30.476 35.79s30.473-16.104 30.473-35.79v-117.13zM322.625 421.609l19.553 35.083c1.597 2.866 1.127 6.201-1.045 7.412s-5.258-0.145-6.854-3.010l-20.006-35.896c-17.836 7.018-37.83 10.952-58.95 10.952-21.276 0-41.412-3.994-59.354-11.114l-20.096 36.058c-1.596 2.866-4.68 4.22-6.85 3.010-2.174-1.21-2.642-4.546-1.046-7.412l19.649-35.26c-40.881-19.199-68.42-55.253-68.42-96.567 0-4.198 0.296-8.338 0.847-12.414h270.537c0.553 4.076 0.848 8.215 0.848 12.414 0 41.443-27.715 77.592-68.813 96.744zM193.552 360.371c-6.575 0-11.904 5.329-11.904 11.904 0 6.574 5.329 11.905 11.904 11.905s11.904-5.331 11.904-11.905c0.001-6.575-5.33-11.904-11.904-11.904zM317.77 360.371c-6.575 0-11.905 5.329-11.905 11.904 0 6.574 5.33 11.905 11.905 11.905s11.904-5.331 11.904-11.905c0-6.575-5.33-11.904-11.904-11.904zM119.208 300.616v-199.542h0.115c1.398-16.855 16.902-30.248 35.674-30.248h200.649c18.771 0 34.272 13.393 35.676 30.248h0.115v199.542h-272.229zM235.833 71.835v-61.734c0-19.684-13.713-35.79-30.473-35.79s-30.471 16.106-30.471 35.79v61.672zM337.412 71.867v-61.766c0-19.684-13.715-35.79-30.475-35.79s-30.474 16.106-30.474 35.79v61.766z" />
<glyph unicode="&#xe60f;" d="M221.139 227.822h-144.609v123.95l144.609 20.657zM435.47 227.822h-194.963v147.167l194.963 28.429zM221.139 211.036h-144.609v-123.95l144.609-20.659zM435.47 211.036h-194.963v-147.166l194.963-28.43z" />
<glyph unicode="&#xe610;" d="M367.611 422.624l-10.836-2.060 13.93-78.419c11.865-68.613 14.444-78.418 23.215-79.964 24.249-3.099 25.281 3.613 13.411 74.287-17.537 99.574-13.411 91.316-39.721 86.156zM269.072 381.352l-11.865-7.738 45.397-66.549c24.764-36.632 46.433-66.553 47.978-66.553 2.067 0 8.772 4.126 15.478 9.804l11.87 9.285-43.853 63.454c-24.248 35.081-45.916 64.489-48.497 65.002-3.092 1.033-10.317-2.060-16.51-6.705zM195.811 302.935c-3.093-5.674-5.673-12.38-5.673-14.959s30.441-22.702 68.101-44.37c51.591-30.435 68.615-38.173 72.228-33.014 15.476 22.697 15.99 21.669-51.591 61.389-35.601 21.154-68.101 38.692-71.714 39.724-3.093 1.034-8.252-3.093-11.351-8.77zM161.764 219.362c-2.066-8.772-2.579-16.51-1.547-17.029 3.094-2.58 140.841-39.208 147.547-39.208 6.193 0 19.091 25.283 14.965 29.409-2.067 1.546-151.16 42.819-155.805 42.819-1.032 0-3.093-7.225-5.159-15.99zM97.277 98.638v-85.123h268.27v170.762l-13.93-1.549-14.445-1.547-1.545-70.678-1.548-71.194h-211.006v144.452h-25.795v-85.124zM148.867 145.069c0-15.991 1.547-18.057 14.444-18.57 7.739 0 43.338-3.099 79.451-6.192l65.003-6.705 3.099 15.476c1.547 8.252 2.58 15.991 1.547 17.024-1.547 1.033-147.552 17.024-159.417 17.024-2.579 0-4.126-8.252-4.126-18.055zM143.708 85.74v-15.476h165.090v30.954h-165.089v-15.478z" />
<glyph unicode="&#xe611;" d="M368.368 206.509c-0.523 52.145 42.519 77.154 44.438 78.412-24.185 35.37-61.866 40.224-75.281 40.771-32.037 3.26-62.554-18.875-78.812-18.875-16.22 0-41.335 18.4-67.905 17.935-34.961-0.523-67.177-20.336-85.169-51.628-36.3-62.971-9.281-156.301 26.088-207.415 17.298-24.978 37.919-53.092 64.972-52.062 26.079 1.030 35.917 16.873 67.446 16.873 31.521 0 40.379-16.873 67.962-16.341 28.040 0.505 45.82 25.458 62.979 50.541 19.846 29.021 28.023 57.12 28.506 58.551-0.605 0.277-54.66 20.988-55.224 83.238zM316.534 359.517c14.349 17.419 24.071 41.628 21.432 65.723-20.712-0.842-45.778-13.767-60.642-31.17-13.316-15.442-24.969-40.027-21.847-63.689 23.098-1.789 46.661 11.749 61.057 29.136z" />
<glyph unicode="&#xe612;" d="M248.542 345.426c0-1.63-1.63-1.63-1.63-1.63h-1.633c-1.631 0-1.631 1.63-3.264 3.263 0 0-1.631 1.632-1.631 3.264s0 1.632 1.631 1.632l3.264-1.632c1.633-1.632 3.263-3.264 3.263-4.897zM219.17 361.745c0 8.159-3.263 13.054-8.159 13.054 0 0 0-1.632-1.632-1.632v-3.264h4.896c0-3.264 1.632-4.895 1.632-8.159h3.263zM276.283 369.903c3.264 0 4.896-3.264 6.527-8.159h3.264c-1.632 1.632-1.632 3.264-1.632 4.895 0 1.632 0 3.264-1.632 4.896s-3.264 3.264-4.896 3.264c0 0-1.632-1.632-3.264-1.632 0.001-1.632 1.633-1.632 1.633-3.264zM227.331 343.795c-1.633 0-1.633 0-1.633 1.63 0 1.633 0 3.265 1.633 4.896 3.263 0 4.894 1.632 4.894 1.632 1.633 0 1.633-1.632 1.633-1.632 0-1.632-1.633-3.264-4.896-6.527h-1.631zM209.38 345.426c-6.527 3.265-8.159 8.16-8.159 16.319 0 4.895 0 8.159 3.264 11.422 1.632 3.263 4.895 4.895 8.159 4.895s4.895-1.632 8.159-4.895c1.632-4.896 3.264-9.791 3.264-14.686v-3.264h1.632v1.632c1.633 0 1.633 3.264 1.633 9.791 0 4.896 0 9.791-3.265 14.686-3.264 4.896-6.527 8.16-13.054 8.16-4.895 0-9.791-3.264-11.422-8.16-3.264-6.527-3.917-11.422-3.917-19.581 0-6.527 2.285-13.054 8.812-19.582 1.631 1.632 3.262 1.632 4.894 3.263zM413.352 115.345c1.632 0 1.632 0.652 1.632 2.121 0 3.59-1.632 7.832-6.526 12.565-4.896 4.895-13.055 7.994-22.845 9.3-1.632 0.163-3.264 0.163-3.264 0.163-1.632 0.327-1.632 0.327-3.264 0.327-1.632 0.163-4.896 0.489-6.527 0.815 4.896 15.177 6.527 28.557 6.527 40.305 0 16.319-3.264 27.74-9.791 37.532-6.527 9.79-13.055 14.686-21.213 16.317-1.632-1.632-1.632-1.632-1.632-3.264 8.158-3.264 16.317-9.79 21.214-19.581 4.895-11.422 6.526-21.213 6.526-32.636 0-9.139-1.632-22.682-8.159-39.979-6.527-2.609-13.055-8.647-17.949-18.112 0-1.469 0-2.285 1.631-2.285 0 0 1.632 1.469 3.264 4.243 3.264 2.773 4.896 5.548 8.159 8.322 4.896 2.774 8.159 4.243 13.055 4.243 8.159 0 16.318-1.143 21.213-3.428 6.527-2.12 9.791-4.405 11.423-7.017 1.632-2.447 3.264-4.731 4.896-6.854 0-2.119 1.63-3.097 1.63-3.097zM263.229 351.954c-1.632 1.632-1.632 4.895-1.632 8.159 0 6.527 0 9.791 3.264 14.686 3.263 3.263 6.526 4.895 9.79 4.895 4.896 0 8.159-3.264 11.423-6.527 1.631-4.896 3.263-8.159 3.263-13.054 0-8.159-3.263-13.054-9.79-14.687 0 0 1.632-1.63 3.264-1.63 3.264 0 4.895-1.633 8.159-3.264 1.631 9.791 3.264 16.317 3.264 24.477 0 9.791-1.633 16.317-4.896 21.213-4.895 4.896-9.79 6.528-16.317 6.528-4.896 0-9.79-1.632-14.686-4.896-3.265-4.896-4.896-8.16-4.896-13.055 0-8.159 1.631-14.686 4.896-21.213 1.631 0 3.263-1.632 4.894-1.632zM282.81 325.845c-21.213-14.686-37.532-21.213-50.586-21.213-11.422 0-22.845 4.896-32.635 13.054 1.632-3.264 3.264-6.527 4.896-8.159l9.791-9.791c6.527-6.527 14.686-9.791 22.846-9.791 11.421 0 24.477 6.527 40.794 17.949l14.686 9.791c3.264 3.265 6.527 6.528 6.527 11.422 0 1.633 0 3.264-1.631 3.264-1.633 3.263-9.792 8.16-26.109 13.054-14.686 6.528-26.109 9.792-32.636 9.792-4.894 0-13.054-3.263-24.476-9.792-9.791-6.527-16.318-13.054-16.318-19.581 0 0 1.632-1.631 3.264-4.894 9.791-8.16 19.581-13.055 29.373-13.055 13.054 0 29.372 6.527 50.585 22.846v-3.264c1.629 0.001 1.629-1.632 1.629-1.632zM320.342-3.776c6.527-12.271 17.949-18.438 31.003-18.438 3.264 0 6.527 0.489 9.791 1.468 3.264 0.653 6.528 1.796 8.159 3.101 1.633 1.143 3.264 2.285 4.896 3.591 3.264 1.142 3.264 1.958 4.896 2.773l27.74 23.987c6.526 5.205 13.054 9.758 21.213 13.707 6.527 3.917 13.055 6.526 16.318 7.995 4.896 1.306 8.159 3.264 11.422 5.875 1.632 2.447 3.264 5.548 3.264 9.465 0 4.731-3.264 8.321-6.526 10.933-3.264 2.61-6.527 4.405-9.791 5.548s-6.527 3.754-11.422 8.158c-3.265 4.243-6.528 10.117-8.16 17.788l-1.632 9.464c-1.632 4.405-1.632 7.669-3.264 9.465 0 0.489 0 0.652-1.632 0.652s-4.895-1.469-6.526-4.243c-3.264-2.773-6.527-5.874-9.791-9.138-1.632-3.263-6.527-6.2-9.79-8.975-4.896-2.774-9.791-4.243-13.055-4.243-13.055 0-19.582 3.591-24.478 10.606-3.264 5.222-4.895 11.26-6.526 18.113-3.264 2.773-4.896 4.242-8.159 4.242-8.159 0-11.422-8.485-11.422-25.618v-50.75c0-1.469-1.632-4.732-1.632-9.791-1.632-5.059-1.632-10.803-1.632-17.297l-3.264-18.113v-0.277zM83.732 4.905c15.175-2.218 32.635-6.967 52.38-14.212 19.744-7.18 31.82-10.934 36.225-10.934 11.423 0 20.888 5.059 28.72 14.833 1.632 3.166 1.632 6.887 1.632 11.162 0 15.42-9.301 34.92-27.904 58.581l-11.096 14.849c-2.284 3.101-5.059 7.833-8.648 14.197-3.427 6.363-6.528 11.259-8.975 14.686-2.121 3.754-5.548 7.507-9.954 11.26-4.243 3.752-9.138 6.2-14.522 7.506-6.854-1.306-11.586-3.591-13.871-6.69-2.285-3.101-3.59-6.527-3.917-10.117-0.489-3.427-1.469-5.712-3.101-6.854-1.631-0.979-4.405-1.795-8.159-2.611-0.815 0-2.284 0-4.405-0.163h-4.406c-8.649 0-14.523-0.978-17.623-2.61-4.080-4.731-6.201-10.117-6.201-15.829 0-2.61 0.652-7.016 1.958-13.217 1.306-6.037 1.958-10.934 1.958-14.359 0-6.69-1.958-13.381-6.038-20.070-4.079-7.018-6.2-12.239-6.2-15.96 1.632-6.331 12.401-10.786 32.146-13.396zM138.071 153.284c0 11.26 2.938 23.661 8.975 38.347 5.874 14.687 11.749 24.478 17.46 31.005-0.327 1.631-1.142 1.631-2.448 1.631l-1.632 1.633c-4.732-4.896-10.444-16.318-17.297-32.637-6.853-14.686-10.443-28.229-10.443-38.184 0-7.343 1.795-13.707 5.059-19.255 3.59-5.385 12.238-13.218 25.945-23.172l17.297-11.259c18.438-15.992 28.23-27.088 28.23-33.615 0-3.427-1.632-6.853-6.527-10.606-3.265-3.916-7.669-5.874-11.423-5.874-0.326 0-0.489-0.326-0.489-1.143 0-0.163 1.632-3.427 5.059-9.79 6.854-9.302 21.54-13.871 41.122-13.871 35.898 0 63.64 14.687 84.853 44.059 0 8.159 0 13.218-1.632 15.339v6.037c0 10.606 1.632 18.602 4.896 23.823 3.264 5.223 6.526 7.67 11.422 7.67 3.264 0 6.527-1.143 9.791-3.59 1.632 12.564 1.632 23.498 1.632 33.288 0 14.85 0 27.088-3.264 38.51-1.632 9.791-4.896 17.95-8.159 24.478-3.264 4.895-6.527 9.791-9.79 14.685-3.264 4.896-4.896 9.792-8.159 14.687-1.632 6.527-3.264 11.422-3.264 19.581-4.896 8.16-8.158 16.317-13.055 24.478-3.264 8.158-6.527 16.317-9.791 22.845l-14.686-11.424c-16.318-11.421-29.373-16.317-40.794-16.317-9.792 0-17.951 1.633-22.846 8.16l-9.791 8.158c0-4.894-1.632-11.421-4.896-17.948l-10.28-19.582c-4.569-11.422-7.016-17.949-7.506-22.845-0.652-3.264-1.142-6.528-1.469-6.528l-12.238-24.476c-13.219-24.478-19.909-47.16-19.909-65.925 0-3.753 0.326-7.67 0.979-11.587-7.342 5.059-10.932 12.076-10.932 21.214zM254.906-1.082c-21.212 0-37.531-2.872-48.953-8.568v0.49c-8.16-9.79-17.297-14.85-30.025-14.85-7.996 0-20.561 3.101-37.531 9.302-17.134 5.874-32.309 10.378-45.526 13.348-1.306 0.375-4.243 0.931-8.975 1.681-4.569 0.735-8.812 1.485-12.565 2.235-3.426 0.735-7.343 1.845-11.585 3.346-4.080 1.289-7.343 2.97-9.791 5.009-2.252 2.057-3.362 4.374-3.362 6.969 0 2.61 0.555 5.4 1.665 8.371 1.044 1.795 2.187 3.59 3.329 5.222 1.142 1.794 2.121 3.426 2.773 5.058 0.979 1.469 1.632 2.938 2.285 4.569 0.652 1.469 1.306 2.938 1.632 4.732 0.326 1.632 0.652 3.264 0.652 4.896s-0.652 6.527-1.958 15.176c-1.306 8.484-1.958 13.87-1.958 16.154 0 7.181 1.632 12.891 5.221 16.971 3.59 4.079 7.017 6.201 10.607 6.201h18.765c1.468 0 3.753 0.815 7.18 2.774 1.143 2.61 2.121 4.731 2.774 6.69 0.815 1.957 1.141 3.426 1.468 4.078 0.326 0.979 0.652 1.959 0.979 2.774 0.653 1.142 1.469 2.448 2.611 3.753-1.306 1.633-1.958 3.753-1.958 6.364 0 1.796 0 3.427 0.326 4.406 0 5.874 2.774 14.196 8.648 25.129l5.712 10.281c4.732 8.811 8.322 15.338 10.933 21.865 2.774 6.527 5.71 16.318 8.974 29.372 2.611 11.422 8.812 22.845 18.603 34.268l12.239 14.686c8.485 9.791 14.034 17.951 17.134 24.478s4.732 14.686 4.732 21.213c0 3.264-0.816 13.054-2.611 29.373-1.632 16.318-2.448 32.635-2.448 47.321 0 11.423 0.979 19.582 3.1 27.741 2.122 8.159 5.875 16.318 11.422 22.845 4.896 6.527 11.423 13.054 21.214 16.317 9.791 3.265 21.213 4.896 34.267 4.896 4.896 0 9.791 0 14.687-1.632 4.896 0 11.423-1.633 19.581-4.896 6.527-3.264 13.055-6.527 17.951-11.422 6.526-4.896 11.422-13.054 16.317-21.213 3.264-9.791 6.526-19.581 8.158-32.636 1.632-8.159 1.632-16.318 3.264-27.74 0-9.791 1.632-16.317 1.632-21.214 1.632-4.894 1.632-11.422 3.264-19.581 1.632-6.527 3.264-13.054 6.527-17.949 3.264-6.527 6.526-13.055 11.422-19.582 4.896-8.158 11.423-16.318 17.949-26.108 14.688-16.317 26.109-34.268 32.637-52.216 8.158-16.318 13.054-37.531 13.054-60.213 0-11.261-1.632-22.192-4.896-32.8 3.264 0 4.896-1.305 6.527-3.59 1.632-2.284 3.264-7.18 4.896-14.85l1.632-12.074c1.632-3.59 3.264-7.018 8.159-9.954 3.264-2.937 6.527-5.385 11.423-7.343 3.264-1.632 8.158-3.917 11.422-6.854 3.264-3.264 4.896-6.69 4.896-10.279 0-5.548-1.632-9.628-4.896-12.565-3.264-3.264-6.526-5.548-11.422-7.017-3.264-1.631-9.792-4.895-19.582-9.497-8.159-4.829-16.318-10.688-24.477-17.623l-16.317-13.886c-6.527-6.364-13.056-10.934-17.951-13.708-4.895-2.938-11.422-4.406-17.949-4.406l-11.422 1.306c-13.054 3.427-21.213 9.954-26.108 19.908-26.109 3.165-47.322 4.732-60.377 4.732z" />
<glyph unicode="&#xe613;" d="M223.216 226.217l30.677 53.438c2.292 3.995 0.905 9.132-3.089 11.459l-21.826 12.486c-3.98 2.306-9.139 0.919-11.423-3.075l-101.063-176.008c-2.307-3.995-0.906-9.117 3.089-11.409l21.812-12.544c3.995-2.291 9.146-0.904 11.459 3.075l70.364 122.578zM428.903 242.26h-73.64c8.664-16.236 16.703-31.517 22.357-42.329 3.909-7.472 7.013-13.37 8.111-15.36 1.143-2.099 1.969-4.268 2.516-6.48h40.655c4.182 0 7.587 3.392 7.587 7.572v49.025c0.001 4.181-3.404 7.572-7.586 7.572zM249.898 242.26l-36.841-64.17h99.978c-7.25 14.325-16.869 34.814-29.786 64.17h-33.351zM166.632 242.26h-84.769c-4.181 0-7.572-3.391-7.572-7.565v-49.025c0-4.182 3.391-7.572 7.572-7.572h47.927l36.842 64.162zM134.273 90.966l-21.812 12.516c-3.995 2.29-7.688 0.416-8.219-4.153l-3.772-32.847c-0.525-4.569 2.163-6.207 5.97-3.621l28.177 19.211c3.817 2.572 3.652 6.587-0.344 8.894zM372.448 177.272c-0.129 0.214-0.287 0.517-0.445 0.818v0c-2.026 3.75-7.111 13.507-13.779 26.166-0.072 0.172-0.158 0.322-0.244 0.488-0.503 0.977-1.020 1.954-1.551 2.96-0.389 0.718-0.77 1.443-1.165 2.184-0.315 0.633-0.659 1.264-0.991 1.911-0.589 1.12-1.192 2.241-1.797 3.391-0.186 0.36-0.373 0.72-0.56 1.077-0.676 1.295-1.365 2.588-2.069 3.901-0.194 0.38-0.388 0.754-0.597 1.135-15.367 29.054-34.664 64.824-46.568 83.633-20.85 32.955-48.682 87.894-56.462 83.986-10.877-5.417 22.811-75.148 33.954-101.357 11.155-26.194 54.679-126.602 63.394-130.985 8.744-4.368 12.113-1.939 17.94 0.469 5.833 2.434 16.279 10.502 10.94 20.223zM397.32 125.537l-10.387 19.942c-2.351 4.506-7.882 6.344-12.3 4.096l-12.53-6.452c-4.412-2.285-5.798-7.63-3.090-11.939l13.147-20.763c2.716-4.282 8.45-5.684 12.71-3.118l8.937 5.373c4.276 2.558 5.856 8.349 3.513 12.861zM394.118 96.662c-3.276-3.132-11.051-9.942-1.639-23.155 9.375-13.248 30.347-13.836 33.119-22.63 0.008 0 6.582 67.261-31.48 45.785z" />
<glyph unicode="&#xe614;" d="M77.744 361.585v-33.848h212.102v67.692h-212.101v-33.844zM366.562 361.585v-33.848h67.695v67.692h-67.695v-33.844zM77.744 217.176v-33.844h356.511v67.69h-356.512v-33.844zM77.744 75.016v-31.587h139.898v63.183h-139.898v-31.596zM294.36 75.016v-31.587h139.897v63.183h-139.897v-31.596z" />
<glyph unicode="&#xe615;" d="M124.586 265.566l-0.012-0.004 0.013 0.009c-3.824-1.338-6.942-1.259-10.699-0.004l-0.013 0.008c-12.369-31.038-26.619-66.071-39.437-92.197l0.114 0.038-0.062-0.027c5.86 1.455 11.456 1.006 15.153 0.005-0.008 0.004-0.015 0.009-0.024 0.014l0.020-0.008c3.267 8.258 6.988 17.613 10.708 27.021l0.020-0.014c12.595 0.361 25.188 0.409 37.783 0l0.006 0.005c3.577-9.008 7.167-18.021 10.67-27.041v-0.004c0.001 0 0 0 0.001 0 5.605 1.465 11.184 1.067 15.307 0.031h0.001l0.014-0.006-0.016 0.008c-9.234 17.245-27.767 62.361-39.547 92.166zM135.57 206.846c-10.892-0.381-21.785-0.387-32.677 0l-0.008-0.005c6.666 16.91 12.999 33.225 16.339 42.839 5.092-14.198 10.699-28.506 16.388-42.854l-0.042 0.020zM74.44 173.366l0.052 0.022c-0.019-0.003-0.035-0.005-0.052-0.011v-0.011zM96.679 277.822c-0.003-0.003-0.006-0.006-0.010-0.006l0.006 0.006c-5.533-1.253-10.523-1.298-15.477 0-4.367-8.133-20.471-34.449-30.719-51.302-10.395 17.218-22.703 37.091-30.718 51.302-6.357-1.355-9.018-1.443-15.361 0 12.59-18.971 32.764-55.106 39.626-66.968l-0.919-49.459c0 0 4.427 0.742 7.385 0.742 3.278 0 7.36-0.742 7.36-0.742l-0.922 49.459c12.806 22.469 33.946 59.126 39.749 66.968zM303.623 266.777c-32.586 0-49.68-20.661-49.68-47.441 0-29.313 18.662-47.191 49.629-47.191 33.48 0 49.834 20.148 49.834 46.884 0 29.809-19.527 47.748-49.783 47.748zM303.719 177.365c-21.723 0-34.482 15.564-34.482 41.817 0 29.692 15.725 41.642 33.586 42.008 0.285 0.007 0.57 0 0.855 0 19.928 0 34.559-13.57 34.559-41.931-0.001-28.323-14.612-41.894-34.518-41.894zM483.533 175.752c-4.832 0-7.242-3.684-7.242-7.646 0-4.675 3.73-7.070 8.346-7.070 3.338 0 6.98 2.028 6.98 7.533 0 4.42-3.461 7.183-8.084 7.183zM501.164 276.478l-0.006-0.006v0.005c0 0-0.955 0.133-1.6 0.133-3.686 0-7.34-2.162-7.34-7.688-2.188-27.738-4.465-55.552-8.211-82.021l-0.016-0.018c0.004 0 0.008 0 0.014 0.002v-0.002l0.016 0.004c2.266 0.388 4.023-0.203 5.729-0.892l-0.010 0.020c4.252 26.884 14.35 67.149 16.936 78.544 0.371 1.602 0.924 3.497 0.924 4.845 0 4.065-2.579 6.429-6.436 7.074zM416.109 272.327c-32.447 0-57.25-18.427-57.25-52.686 0-28.221 16.498-53.065 57.52-53.065 34.729 0 57.406 19.095 57.406 52.569 0 31.565-21.154 53.182-57.676 53.182zM416.188 172.144c-21.975 0-41.988 12.896-41.988 47.701 0 36.076 22.186 46.75 41.949 46.75 24.367 0 42.318-14.802 42.318-47.451-0.002-35.489-21.713-47-42.279-47zM234.153 265.533c0.745-14.326 1.115-28.663 1.167-43.010-17.171-0.399-34.327-0.435-51.46 0 0.053 14.347 0.423 28.686 1.167 43.010-5.030-1.214-10.147-1.249-15.357 0 1.336-30.774 1.221-61.486 0-92.157 4.989 1.2 10.096 1.253 15.341 0l-0.029 0.017 0.045-0.017c-0.756 14.3-1.116 28.586-1.164 42.862 17.151 0.239 34.303 0.25 51.455 0.021-0.047-14.286-0.409-28.576-1.166-42.884l0.051 0.021-0.031-0.021c5.245 1.255 10.354 1.201 15.339 0-1.219 30.669-1.339 61.383 0 92.157-5.209-1.248-10.328-1.212-15.358 0.001z" />
<glyph unicode="&#xe616;" d="M435.866 277.003c-0.081 0.438-0.156 0.872-0.27 1.299-0.070 0.255-0.161 0.499-0.241 0.753-0.123 0.379-0.246 0.759-0.399 1.128-0.108 0.255-0.227 0.504-0.345 0.753-0.166 0.351-0.337 0.694-0.53 1.028-0.138 0.247-0.289 0.481-0.441 0.718-0.209 0.322-0.423 0.635-0.654 0.94-0.17 0.227-0.346 0.448-0.53 0.666-0.241 0.292-0.502 0.569-0.769 0.841-0.203 0.206-0.407 0.41-0.62 0.604-0.279 0.256-0.573 0.498-0.875 0.735-0.233 0.18-0.46 0.362-0.701 0.53-0.086 0.062-0.166 0.135-0.257 0.193l-164.649 109.767c-5.197 3.468-11.973 3.468-17.17 0l-164.649-109.767c-0.090-0.059-0.166-0.132-0.256-0.193-0.242-0.168-0.469-0.351-0.701-0.53-0.298-0.237-0.597-0.479-0.876-0.735-0.213-0.195-0.417-0.398-0.616-0.604-0.271-0.272-0.526-0.549-0.773-0.841-0.185-0.217-0.359-0.438-0.53-0.666-0.232-0.306-0.446-0.618-0.654-0.94-0.151-0.237-0.303-0.472-0.44-0.718-0.195-0.333-0.365-0.677-0.526-1.028-0.118-0.249-0.241-0.498-0.346-0.753-0.152-0.369-0.28-0.749-0.403-1.128-0.081-0.254-0.17-0.498-0.237-0.753-0.114-0.427-0.194-0.86-0.27-1.299-0.042-0.223-0.094-0.442-0.128-0.667-0.085-0.668-0.137-1.341-0.137-2.023v-109.764c0-0.682 0.052-1.354 0.137-2.023 0.034-0.227 0.085-0.443 0.128-0.668 0.076-0.436 0.156-0.871 0.27-1.297 0.066-0.256 0.156-0.502 0.237-0.754 0.123-0.379 0.251-0.758 0.403-1.133 0.104-0.256 0.228-0.502 0.346-0.748 0.161-0.35 0.332-0.691 0.526-1.033 0.137-0.242 0.289-0.479 0.44-0.711 0.208-0.32 0.422-0.635 0.654-0.941 0.171-0.232 0.346-0.451 0.53-0.668 0.247-0.289 0.502-0.568 0.773-0.84 0.198-0.203 0.402-0.412 0.616-0.602 0.279-0.256 0.578-0.502 0.876-0.738 0.232-0.182 0.459-0.361 0.701-0.531 0.090-0.062 0.166-0.133 0.256-0.189l164.648-109.766c2.602-1.734 5.591-2.605 8.585-2.605s5.988 0.871 8.585 2.605l164.648 109.766c0.091 0.057 0.171 0.127 0.257 0.189 0.241 0.17 0.468 0.35 0.701 0.531 0.302 0.236 0.596 0.482 0.875 0.738 0.213 0.189 0.417 0.398 0.62 0.602 0.267 0.271 0.527 0.551 0.769 0.84 0.185 0.217 0.36 0.436 0.53 0.668 0.231 0.307 0.445 0.621 0.654 0.941 0.152 0.232 0.304 0.469 0.441 0.711 0.193 0.342 0.364 0.684 0.53 1.033 0.118 0.246 0.236 0.492 0.345 0.748 0.153 0.375 0.276 0.754 0.399 1.133 0.080 0.252 0.171 0.498 0.241 0.754 0.113 0.426 0.188 0.861 0.27 1.297 0.037 0.225 0.095 0.441 0.123 0.668 0.085 0.67 0.138 1.342 0.138 2.023v109.763c0 0.682-0.053 1.354-0.138 2.023-0.026 0.225-0.084 0.445-0.121 0.668zM256 182.808l-54.75 36.621 54.75 36.623 54.755-36.623-54.755-36.621zM240.521 282.942l-67.116-44.888-54.177 36.237 121.293 80.86v-72.209zM145.562 219.429l-38.727-25.904v51.811l38.727-25.907zM173.405 200.802l67.116-44.885v-72.211l-121.293 80.861 54.177 36.235zM271.479 155.917l67.115 44.885 54.182-36.234-121.297-80.861v72.21zM366.438 219.429l38.731 25.906v-51.811l-38.731 25.905zM338.594 238.054l-67.115 44.888v72.209l121.297-80.86-54.182-36.237z" />
<glyph unicode="&#xe617;" d="M101.891 229.263h-42.445c-1.092 0-1.979-0.887-1.979-1.988v-20.744c0-1.103 0.887-1.986 1.979-1.986h16.563v-25.788c0 0-3.72-1.241-13.989-1.241-12.128 0-29.064 4.442-29.064 41.671 0 37.245 17.634 42.146 34.195 42.146 14.337 0 20.504-2.517 24.439-3.738 1.233-0.389 2.359 0.85 2.359 1.953l4.743 20.048c0 0.512-0.183 1.129-0.75 1.545-1.601 1.125-11.336 6.572-35.922 6.572-28.339 0-57.401-12.055-57.401-69.998 0-57.939 33.27-66.568 61.31-66.568 23.21 0 37.312 9.913 37.312 9.913 0.574 0.315 0.635 1.125 0.635 1.489v64.723c-0.009 1.097-0.902 1.991-1.985 1.991zM316.531 282.764h-23.881c-1.102 0-1.984-0.889-1.984-1.99v-46.176h-37.243v46.176c0 1.102-0.892 1.99-1.967 1.99h-23.905c-1.075 0-1.951-0.889-1.951-1.99v-125.031c0-1.107 0.883-1.993 1.951-1.993h23.905c1.091 0 1.967 0.895 1.967 1.993v53.472h37.243l-0.086-53.479c0-1.109 0.883-1.985 1.951-1.985h23.912c1.102 0 1.959 0.895 1.959 1.985l0.086 125.041c0.018 1.099-0.875 1.987-1.957 1.987zM130.437 279.93c-8.509 0-15.41-6.962-15.41-15.558 0-8.598 6.901-15.562 15.41-15.562s15.403 6.963 15.403 15.562c0.001 8.596-6.891 15.558-15.403 15.558zM144.149 239.825c0 1.092-0.883 1.998-1.958 1.998h-23.83c-1.119 0-2.068-1.126-2.068-2.231 0 0 0-69.452 0-82.688 0-2.417 1.51-3.152 3.468-3.152 0 0 10.152 0 21.464 0 2.341 0 2.957 1.15 2.957 3.203-0.015 4.433-0.015 21.785-0.015 25.152-0.018 3.204-0.018 57.718-0.018 57.718zM409.025 241.635h-23.705c-1.084 0-1.951-0.897-1.951-1.997v-61.297c0 0-6.023-4.438-14.596-4.438-8.541 0-10.824 3.878-10.824 12.272 0 8.367 0 53.469 0 53.469 0 1.103-0.891 1.998-1.961 1.998h-24.045c-1.102 0-1.967-0.896-1.967-1.998 0 0 0-32.647 0-57.513 0-24.862 13.859-30.957 32.906-30.957 15.635 0 28.268 8.646 28.268 8.646s0.592-4.536 0.887-5.077c0.256-0.543 0.965-1.083 1.736-1.083h15.236c1.082 0 1.969 0.893 1.969 1.992l0.066 83.994c-0.052 1.092-0.937 1.989-2.019 1.989zM473.959 244.451c-13.471 0-22.631-6.011-22.631-6.011v42.333c0 1.102-0.893 1.99-1.959 1.99h-23.98c-1.074 0-1.957-0.889-1.957-1.99l-0.068-125.039c0-1.111 0.893-1.985 1.975-1.985 0 0 16.682 0 16.697 0 0.742 0 1.299 0.384 1.725 1.052 0.418 0.673 1.010 5.769 1.010 5.769s9.777-9.288 28.34-9.288c21.785 0 34.271 11.051 34.271 49.612-0.001 38.511-19.954 43.557-33.423 43.557zM464.605 173.988c-8.219 0.253-13.787 3.986-13.787 3.986v39.608c0 0 5.508 3.381 12.264 3.978 8.539 0.759 16.795-1.819 16.795-22.196-0.045-21.476-3.762-25.717-15.272-25.376zM213.182 174.441c-1.051 0-3.735-0.418-6.485-0.418-8.787 0-11.787 4.092-11.787 9.387 0 5.317 0 35.169 0 35.169h17.937c1.1 0 1.967 0.888 1.967 1.997v19.267c0.017 1.107-0.868 1.998-1.967 1.998h-17.937l-0.026 23.675c0 0.896-0.475 1.342-1.509 1.342h-24.415c-0.942 0-1.466-0.423-1.466-1.333v-24.469c0 0-12.245-2.956-13.070-3.2-0.815-0.233-1.416-1.003-1.416-1.903v-15.386c0-1.1 0.892-1.996 1.968-1.996h12.519c0 0 0-16.074 0-36.996 0-27.475 19.278-30.173 32.282-30.173 5.936 0 13.039 1.936 14.228 2.35 0.716 0.252 1.126 0.991 1.126 1.783l0.009 16.914c0.002 1.106-0.925 2.005-1.958 1.992z" />
<glyph unicode="&#xe618;" d="M255.96 17.682c-5.395 0-10.774 1.414-15.51 4.151l-49.381 29.215c-7.363 4.115-3.754 5.576-1.331 6.427 9.832 3.416 11.824 4.199 22.309 10.155 1.102 0.612 2.551 0.384 3.689-0.283l37.915-22.507c1.385-0.771 3.314-0.771 4.585 0l147.861 85.334c1.379 0.788 2.252 2.379 2.252 3.995v170.648c0 1.672-0.881 3.236-2.287 4.079l-147.796 85.263c-1.373 0.794-3.19 0.794-4.562 0l-147.754-85.294c-1.432-0.812-2.339-2.436-2.339-4.048v-170.648c0-1.624 0.901-3.171 2.321-3.952l40.508-23.396c21.977-10.992 35.436 1.948 35.436 14.955v168.482c0 2.381 1.92 4.259 4.297 4.259h18.753c2.339 0 4.276-1.877 4.276-4.259v-168.482c0-29.329-15.974-46.157-43.781-46.157-8.542 0-15.275 0-34.065 9.261l-38.767 22.32c-9.573 5.54-15.505 15.889-15.505 26.97v170.647c0 11.082 5.932 21.43 15.505 26.947l147.868 85.444c9.362 5.291 21.79 5.291 31.075 0l147.852-85.444c9.576-5.541 15.533-15.865 15.533-26.947v-170.648c0-11.081-5.957-21.394-15.533-26.97l-147.852-85.366c-4.729-2.737-10.094-4.151-15.572-4.151zM301.643 135.241c-64.723 0-78.265 29.709-78.265 54.623 0 2.364 1.895 4.253 4.259 4.253h19.126c2.13 0 3.917-1.541 4.241-3.622 2.882-19.464 11.479-29.288 50.627-29.288 31.141 0 44.395 7.058 44.395 23.572 0 9.53-3.748 16.593-52.166 21.346-40.443 3.995-65.484 12.941-65.484 45.303 0 29.841 25.157 47.625 67.318 47.625 47.371 0 70.801-16.437 73.783-51.722 0.109-1.198-0.318-2.371-1.141-3.279-0.809-0.861-1.934-1.372-3.129-1.372h-19.195c-1.979 0-3.734 1.407-4.137 3.345-4.615 20.479-15.805 27.020-46.182 27.020-34.010 0-37.965-11.847-37.965-20.715 0-10.768 4.676-13.897 50.58-19.974 45.447-6.004 67.035-14.504 67.035-46.44 0.007-32.216-26.851-50.675-73.7-50.675z" />
<glyph unicode="&#xe619;" d="M84.868 214.992c0 1.525-0.802 2.926-2.117 3.681l-35.064 20.18c-0.592 0.35-1.258 0.531-1.929 0.559-0.062 0-0.314 0-0.362 0-0.671-0.028-1.335-0.208-1.937-0.559l-35.062-20.18c-1.309-0.755-2.121-2.154-2.121-3.681l0.077-54.338c0-0.753 0.394-1.459 1.056-1.828 0.653-0.391 1.458-0.391 2.105 0l20.838 11.931c1.318 0.783 2.12 2.165 2.12 3.677v25.388c0 1.51 0.802 2.911 2.114 3.666l8.873 5.111c0.661 0.379 1.383 0.565 2.124 0.565 0.722 0 1.463-0.187 2.105-0.565l8.872-5.111c1.312-0.755 2.117-2.154 2.117-3.666v-25.388c0-1.512 0.813-2.901 2.124-3.677l20.833-11.931c0.655-0.391 1.469-0.391 2.118 0 0.646 0.372 1.052 1.075 1.052 1.828l0.064 54.338zM272.1 289.689c-0.656 0.365-1.457 0.357-2.104-0.024-0.646-0.378-1.045-1.074-1.045-1.827v-53.811c0-0.526-0.283-1.018-0.738-1.284-0.463-0.264-1.027-0.264-1.484 0l-8.781 5.061c-1.314 0.755-2.923 0.752-4.235-0.001l-35.075-20.244c-1.313-0.756-2.121-2.156-2.121-3.665v-40.503c0-1.512 0.807-2.906 2.117-3.668l35.078-20.256c1.311-0.757 2.926-0.757 4.234 0l35.084 20.256c1.311 0.762 2.117 2.156 2.117 3.668v100.95c0 1.535-0.83 2.95-2.174 3.7l-20.873 11.648zM268.846 186.701c0-0.377-0.199-0.729-0.527-0.917l-12.047-6.942c-0.323-0.19-0.731-0.19-1.056 0l-12.043 6.942c-0.331 0.188-0.531 0.54-0.531 0.917v13.905c0 0.378 0.201 0.729 0.531 0.917l12.041 6.959c0.327 0.188 0.733 0.188 1.061 0l12.044-6.959c0.328-0.188 0.527-0.539 0.527-0.917v-13.905zM397.598 200.973c1.303 0.754 2.105 2.152 2.105 3.659v9.814c0 1.512-0.803 2.904-2.107 3.665l-34.854 20.235c-1.312 0.762-2.932 0.764-4.244 0.006l-35.066-20.243c-1.309-0.759-2.115-2.156-2.115-3.669v-40.485c0-1.521 0.814-2.93 2.139-3.683l34.848-19.856c1.287-0.729 2.857-0.74 4.156-0.022l21.078 11.717c0.664 0.371 1.080 1.073 1.086 1.835 0.004 0.765-0.4 1.472-1.062 1.852l-35.289 20.256c-0.658 0.375-1.062 1.079-1.062 1.835v12.69c0 0.755 0.404 1.455 1.059 1.835l10.986 6.328c0.652 0.376 1.459 0.376 2.111 0l10.99-6.328c0.654-0.38 1.059-1.080 1.059-1.835v-9.987c0-0.757 0.402-1.455 1.062-1.834 0.656-0.378 1.465-0.374 2.121 0.006l20.999 12.209zM148.652 238.565c1.311 0.756 2.925 0.756 4.235 0l35.076-20.241c1.308-0.756 2.117-2.151 2.117-3.667v-40.513c0-1.513-0.809-2.909-2.117-3.67l-35.076-20.256c-1.311-0.753-2.926-0.753-4.235 0l-35.066 20.256c-1.311 0.759-2.117 2.157-2.117 3.67v40.513c0 1.516 0.807 2.911 2.119 3.667l35.064 20.241zM465.697 149.641c-1.207 0-2.412 0.315-3.471 0.928l-11.045 6.535c-1.646 0.92-0.84 1.247-0.297 1.437 2.199 0.765 2.645 0.939 4.99 2.271 0.246 0.138 0.57 0.087 0.824-0.062l8.48-5.034c0.311-0.172 0.742-0.172 1.025 0l33.074 19.087c0.307 0.176 0.502 0.532 0.502 0.894v38.169c0 0.375-0.195 0.725-0.512 0.913l-33.059 19.071c-0.307 0.178-0.713 0.178-1.020 0l-33.049-19.078c-0.32-0.182-0.523-0.545-0.523-0.906v-38.169c0-0.363 0.203-0.709 0.52-0.884l9.061-5.232c4.916-2.459 7.926 0.435 7.926 3.345v37.683c0 0.533 0.43 0.952 0.961 0.952h4.195c0.523 0 0.957-0.419 0.957-0.952v-37.685c0-6.561-3.572-10.324-9.793-10.324-1.91 0-3.418 0-7.619 2.070l-8.672 4.993c-2.141 1.238-3.469 3.554-3.469 6.032v38.169c0 2.479 1.328 4.794 3.469 6.027l33.074 19.112c2.094 1.183 4.875 1.183 6.951 0l33.070-19.112c2.143-1.238 3.475-3.548 3.475-6.027v-38.169c0-2.479-1.332-4.784-3.475-6.032l-33.070-19.095c-1.056-0.612-2.255-0.927-3.48-0.927zM475.914 175.936c-14.477 0-17.506 6.646-17.506 12.217 0 0.529 0.424 0.952 0.953 0.952h4.277c0.477 0 0.877-0.346 0.949-0.81 0.645-4.354 2.568-6.552 11.324-6.552 6.965 0 9.93 1.578 9.93 5.272 0 2.132-0.838 3.712-11.668 4.774-9.047 0.894-14.646 2.895-14.646 10.134 0 6.675 5.625 10.651 15.057 10.651 10.596 0 15.836-3.676 16.502-11.568 0.025-0.268-0.070-0.53-0.254-0.733-0.182-0.192-0.432-0.307-0.701-0.307h-4.293c-0.441 0-0.834 0.314-0.926 0.748-1.031 4.581-3.533 6.044-10.328 6.044-7.607 0-8.492-2.65-8.492-4.634 0-2.408 1.047-3.109 11.314-4.468 10.164-1.343 14.994-3.244 14.994-10.387 0-7.205-6.005-11.333-16.486-11.333zM360.104 202.867c0.252 0.144 0.559 0.144 0.814 0l6.73-3.882c0.25-0.146 0.408-0.416 0.408-0.706v-7.773c0-0.291-0.158-0.559-0.408-0.702l-6.73-3.888c-0.256-0.142-0.562-0.142-0.814 0l-6.725 3.888c-0.25 0.144-0.406 0.411-0.406 0.702v7.773c0 0.29 0.156 0.56 0.406 0.706l6.725 3.882z" />
<glyph unicode="&#xe61a;" d="M405.417 381.346v-300.833h-300.834v300.833h300.834zM435.5 411.429h-361v-361h361v361zM293.262 322.119h42.587l-60.073-112.812v-67.688h-37.509v67.688l-62.236 112.812h44.278l37.322-78.592 35.631 78.592z" />
<glyph unicode="&#xe61b;" d="M352.309 171.75c0 0-2.329 8.26 6.352 24.144 8.683 15.88 15.461 7.198 15.461 7.198s7.411-8.045-1.060-20.115c-8.469-12.076-20.753-11.227-20.753-11.227zM285.603 160.316c-9.953-26.049-34.096-15.46-34.096-15.46s-2.753 9.318 5.081 35.365c7.838 26.050 26.26 15.882 26.26 15.882s12.706-9.74 2.755-35.787zM267.603 269.374c0 0 15.036 39.177 18.634 20.117 3.598-19.059-31.553-75.81-31.553-75.81 0.421 12.706 12.919 55.693 12.919 55.693zM52.66 171.75c0.634 25.201 17.153 36.213 22.872 30.708 5.718-5.507 3.6-17.367-7.202-24.778-10.8-7.411-15.67-5.93-15.67-5.93zM508.167 175.934c-0.849 8.471-8.473 5.322-8.473 5.322s-12.281-9.523-23.083-8.466c-10.799 1.060-7.411 25.21-7.411 25.21s2.329 22.131-4.022 23.988c-6.354 1.855-14.189-5.767-14.189-5.767s-9.74-10.801-14.4-24.566l-1.271-0.423c0 0 1.485 24.141-0.207 29.645-1.272 2.754-12.917 2.543-14.824-2.328s-11.224-38.754-11.86-52.94c0 0-18.212-15.461-34.095-18.003-15.883-2.54-19.694 7.414-19.694 7.414s43.203 12.070 41.719 46.588c-1.481 34.518-34.838 21.752-38.607 18.914-3.651-2.744-23.152-14.5-28.835-47.059-0.195-1.11-0.533-5.949-0.533-5.949s-16.729-11.222-26.050-14.189c0 0 26.050 43.836-5.715 63.744-14.398 8.68-25.834-9.533-25.834-9.533s42.985 47.86 33.457 88.307c-4.54 19.262-14.164 21.328-23.003 18.212-13.417-5.294-18.501-13.13-18.501-13.13s-17.368-25.2-21.39-62.683c-4.024-37.48-9.954-82.8-9.954-82.8s-8.257-8.047-15.881-8.468c-7.624-0.425-4.235 22.655-4.235 22.655s5.929 35.154 5.507 41.082c-0.425 5.93-0.848 9.106-7.837 11.224-6.989 2.115-14.61-6.777-14.61-6.777s-20.118-30.494-21.811-35.15l-1.059-1.907-1.057 1.272c0 0 14.188 41.505 0.634 42.14-13.552 0.634-22.448-14.822-22.448-14.822s-15.461-25.832-16.096-28.797l-1.059 1.271c0 0 6.354 30.069 5.081 37.479-1.271 7.412-8.257 5.93-8.257 5.93s-8.894 1.060-11.224-4.658c-2.331-5.718-10.8-43.625-11.86-55.695 0 0-22.236-15.882-36.849-16.093-14.611-0.212-13.129 9.266-13.129 9.266s53.576 18.339 38.965 54.549c-6.565 9.317-14.189 12.248-24.988 12.038-10.799-0.211-24.2-6.801-32.884-26.285-4.15-9.293-5.658-18.11-6.505-24.784 0 0-9.378-1.913-14.46 2.32s-7.698 0-7.698 0-8.726-11.12-0.043-14.509c8.682-3.389 22.236-4.972 22.236-4.972h-0.010c1.245-5.932 4.872-16.005 15.44-24.034 15.882-12.070 46.368 1.11 46.368 1.11l12.495 7.013c0 0 0.424-11.46 9.53-13.136 9.106-1.668 12.917 0.025 28.8 38.566 9.319 19.692 9.954 18.644 9.954 18.644l1.059 0.21c0 0-7.2-37.693-4.448-47.859 2.753-10.162 14.823-9.105 14.823-9.105s6.563-1.271 11.858 17.365c5.296 18.637 15.462 39.177 15.462 39.177h1.27c0 0-4.447-38.542 2.331-50.822 6.777-12.283 24.352-4.135 24.352-4.135s12.284 6.201 14.189 8.106c0 0 14.578-12.408 35.146-10.155 45.963 9.046 62.31 21.262 62.31 21.262s7.896-20.009 32.357-21.86c27.955-2.123 43.2 15.466 43.2 15.466s-0.212-11.437 9.531-15.459c9.739-4.024 16.303 18.584 16.303 18.584l16.305 44.945h1.483c0 0 0.847-29.225 16.94-33.884 16.096-4.658 37.059 10.907 37.059 10.907s5.082 2.809 4.235 11.277z" />
<glyph unicode="&#xe61c;" d="M130.76 335.105c0-0.471 0-30.628 0-67.191v-66.438l-3.016-6.124c-4.147-8.198-14.23-18.283-22.9-22.805-9.802-5.089-16.492-6.786-26.858-6.786-15.737 0-27.328 4.901-38.731 16.305-14.23 14.322-19.884 33.642-15.455 52.772 2.45 10.46 6.691 17.718 15.078 26.103 12.345 12.44 24.219 16.964 41.936 16.115 11.591-0.565 18.754-2.733 27.422-8.292 3.206-2.074 5.844-3.677 6.032-3.488 0.094 0.188 0.659 4.147 1.319 8.763 0.659 4.712 1.415 9.33 1.697 10.462 0.376 1.601-0.754 2.45-6.974 5.37-10.931 5.089-18.566 6.691-32.323 6.691-14.606 0-21.674-1.603-34.491-7.917-19.6-9.518-33.642-27.423-39.391-50.038-2.26-9.142-2.073-27.612 0.471-36.659 6.785-24.69 24.69-43.349 49.852-52.019 8.575-2.922 9.612-3.017 23.088-3.11 12.251 0 15.078 0.282 21.203 2.262 9.331 2.826 16.963 6.69 24.785 12.437 3.487 2.546 6.407 4.619 6.597 4.619 0.094 0 0.188-3.488 0.188-7.728v-7.822l24.031-0.565v185.741h-11.78c-6.501 0-11.779-0.282-11.779-0.659zM324.889 316.446v-14.607h18.849v29.214h-18.849v-14.607zM208.223 324.551c-0.753-0.471-1.132-2.073-0.942-3.958l0.282-3.205 31.758-0.282 31.852-0.189 0.565 2.262c0.283 1.224 0.379 3.111 0.19 4.052-0.283 1.603-2.166 1.697-31.381 1.886-17.153 0.188-31.664-0.095-32.325-0.565zM402.353 324.267c-1.224-1.224-1.414-3.486-0.568-5.841 0.473-1.321 4.242-1.51 32.041-1.51h31.476l1.037 2.262c0.754 1.602 0.754 2.732 0 4.24-1.131 1.979-1.412 1.979-31.947 1.979-22.805 0-31.194-0.282-32.039-1.132zM225.468 295.809c-14.511-2.827-27.516-9.237-37.13-18.189-11.213-10.271-17.716-21.108-22.239-36.469-1.978-6.88-2.356-10.272-2.356-19.791 0-14.324 1.507-20.825 7.632-33.454 4.148-8.575 5.939-10.93 13.382-18.469 10.084-10.084 17.905-15.079 30.816-19.508 8.577-2.922 9.517-3.017 23.559-3.11 14.136 0 14.889 0.093 23.56 3.11 31.945 11.12 51.83 38.356 52.017 71.339 0.096 13.38-1.885 21.767-7.916 34.396-4.24 8.764-5.746 10.837-13.851 18.847-7.351 7.351-10.651 9.895-17.717 13.476-4.807 2.452-12.065 5.373-16.020 6.409-9.518 2.45-25.067 3.11-33.738 1.413zM257.887 274.51c13.476-4.806 25.726-15.832 32.132-28.932 15.174-31.191-1.883-67.944-36.281-78.121-7.632-2.262-21.673-2.262-29.119 0-19.601 5.843-34.962 22.149-39.579 42.031-6.785 28.836 10.932 58.238 40.050 66.437 7.541 2.073 24.88 1.32 32.798-1.414zM419.598 295.809c-28.931-5.75-49.569-24.219-58.332-52.208-2.17-7.068-2.451-9.329-2.451-22.617 0-15.455 0.848-19.884 5.467-30.532 8.387-19.131 26.103-34.397 47.777-41.276 9.988-3.205 27.517-3.677 38.353-1.036 44.293 10.553 69.453 55.505 54.942 98.195-8.010 23.466-26.858 41.089-51.358 47.967-9.142 2.545-25.351 3.299-34.399 1.509zM447.303 275.924c14.701-3.488 29.592-15.268 36.281-28.743 4.619-9.424 6.221-15.833 6.221-25.445 0-14.418-4.713-26.764-14.228-37.13-7.164-7.728-14.326-12.438-24.41-16.020-6.783-2.356-9.424-2.731-17.431-2.827-15.928 0-27.424 4.713-38.639 15.927-7.16 7.067-12.252 15.738-15.172 25.442-2.545 8.389-2.262 23.467 0.473 31.572 6.313 18.094 20.353 31.758 38.258 36.847 7.162 2.072 20.639 2.262 28.649 0.377zM334.125 292.604l-9.236-0.281v-68.512c0-75.296 0.096-73.6-5.748-85.192-1.697-3.297-5.654-8.669-8.951-12.156-3.299-3.392-6.033-6.501-6.033-6.879 0-1.13 11.308-16.584 12.063-16.491 2.074 0.094 16.681 20.731 21.299 29.968 6.596 13.195 6.221 8.010 6.031 87.735l-0.281 72.092-9.142-0.284z" />
<glyph unicode="&#xe61d;" d="M62.139 286.736v-20.986l-1.562 0.296c-9.629 1.688-19.889 1.012-28.63-1.9-19.34-6.461-30.192-23.603-29.22-46.195 0.465-10.134 2.492-17.101 6.883-23.688 6.249-9.417 16.384-15.032 31.205-17.354 10.893-1.731 33.062-0.507 48.053 2.659l1.139 0.255v127.858h-27.869v-20.944zM60.156 243.919l1.984-0.506v-44.548l-2.83-0.254c-11.020-1.055-18.282 0.805-22.928 5.913-3.63 3.969-5.489 9.628-5.489 16.594 0 12.329 5.868 20.69 16.214 23.055 2.998 0.674 10.008 0.548 13.049-0.254zM106.476 293.536v-14.147h27.869l-0.084 14.060-0.125 14.021-13.809 0.125-13.85 0.084v-14.144zM182.060 266.889c-9.839-0.718-20.142-3.25-28.798-7.052l-2.448-1.098v-10.64c0-8.319 0.126-10.557 0.548-10.388 14.906 6.377 22.295 8.151 32.683 7.855 4.391-0.127 5.321-0.296 6.333-1.055 2.028-1.478 2.659-3.294 2.659-7.644 0-2.153-0.083-3.927-0.21-3.927-1.224 0-9.458-1.055-13.386-1.732-20.226-3.377-30.698-10.303-33.486-21.996-0.802-3.506-0.802-11.95 0-15.455 1.352-5.659 4.223-9.882 8.784-12.796 9.459-6.121 23.73-6.755 61.016-2.66l2.619 0.296v31.712c0 17.439-0.213 33.442-0.423 35.553-1.268 11.865-6.925 17.818-19.298 20.184-3.464 0.634-12.626 1.098-16.595 0.844zM194.306 205.537v-9.248l-3.675-0.549c-5.743-0.844-13.427-0.76-15.833 0.169-4.393 1.69-6.124 6.631-3.885 10.937 1.224 2.366 4.222 4.307 8.698 5.618 2.197 0.632 11.612 2.193 13.765 2.279l0.929 0.043v-9.248zM269.047 266.848c-10.009-0.423-24.956-2.828-35.555-5.658l-1.604-0.423v-83.565h27.869l0.085 32.853 0.128 32.808 2.953 0.803c2.113 0.549 4.56 0.802 8.657 0.844 5.154 0.042 5.913-0.042 7.94-0.971 2.743-1.224 4.476-3.167 5.447-6.038 0.675-2.026 0.76-4.856 0.885-31.244l0.127-29.053h27.447l-0.169 33.022c-0.124 29.683-0.211 33.358-0.843 35.764-1.267 4.772-3.169 7.981-6.63 11.486-5.406 5.447-12.668 8.277-23.774 9.205-5.152 0.422-6.629 0.464-12.963 0.168zM454.586 266.51c-16.254-2.956-27.911-12.71-32.808-27.574-2.322-6.967-2.956-11.907-2.703-20.731 0.172-5.279 0.465-8.488 1.057-11.065 3.463-14.736 12.626-25.080 26.305-29.724 11.697-4.012 27.828-3.338 38.468 1.604 13.598 6.247 21.916 18.494 23.942 35.132 2.365 19.252-4.012 36.649-16.51 45.263-5.445 3.759-9.795 5.532-16.932 6.925-4.899 0.972-16.046 1.056-20.818 0.17zM470.125 243.919c4.478-1.647 7.853-5.995 9.713-12.456 0.844-2.914 0.973-4.349 0.973-10.345 0-5.954-0.128-7.431-0.973-10.26-1.86-6.503-4.687-10.303-9.289-12.456-2.070-0.971-2.958-1.139-6.419-1.139-3.42 0-4.349 0.169-6.334 1.098-4.56 2.113-7.303 5.531-9.204 11.274-1.435 4.392-1.817 14.566-0.76 19.76 1.267 6.040 3.798 10.43 7.642 13.048 4.096 2.829 9.585 3.379 14.651 1.478zM375.244 266.468c-11.106-1.183-19.424-3.209-26.685-6.546-17.315-7.938-26.308-22.38-26.308-42.182 0-19.425 8.869-33.485 24.493-38.933 8.867-3.081 20.817-3.208 29.26-0.294 2.070 0.717 3.801 1.223 3.885 1.139 0.34-0.338-0.633-8.318-1.308-10.474-2.154-7.219-6.462-11.317-14.103-13.384-3.927-1.099-17.271-1.099-22.379 0-4.476 0.928-10.685 2.955-14.654 4.772l-3.083 1.394v-25.59l4.983-1.521c8.445-2.576 15.582-3.673 24.704-3.673 20.817-0.041 35.637 6.376 44.335 19.172 3.885 5.742 6.377 13.046 7.56 22.336 0.589 4.731 0.717 53.541 0.169 64.856l-0.296 6.041 3.252-0.127 3.293-0.17 4.603 9.627c2.533 5.279 4.519 9.713 4.433 9.839-0.379 0.338-8.782 1.858-15.284 2.744-4.731 0.635-9.333 0.887-17.779 1.014-6.249 0.042-12.159 0.042-13.090-0.042zM379.425 237.923c0.127-3.8 0.339-13.765 0.464-22.167l0.254-15.283-1.604-0.426c-6.248-1.688-12.414-1.688-16.721-0.084-7.177 2.745-10.81 8.909-11.19 18.916-0.295 8.36 1.31 13.724 5.49 18.115 4.603 4.857 11.695 7.474 20.86 7.727l2.197 0.042 0.253-6.84zM106.476 232.856c0-47.841-0.591-54.090-5.786-64.223-3.25-6.335-9.246-11.613-18.239-16.132-2.281-1.14-2.999-1.647-2.534-1.899 0.338-0.211 6.123-2.956 12.838-6.123l12.245-5.786 2.576 1.31c16.385 8.488 23.816 20.351 25.928 41.635 0.295 2.786 0.591 20.226 0.717 44.039l0.254 39.356h-27.996v-32.177z" />
<glyph unicode="&#xe61e;" d="M5.119 233.507v-83.963h139.768v-28.155h111.615v28.155h250.378v167.925h-501.762v-83.962zM144.887 233.507v-55.808h-28.154v83.46h-27.149v-83.46h-57.316v111.615h112.62v-55.807zM284.457 233.405l-0.302-55.808-54.803 0.2v-28.254h-57.315v139.769h112.62l-0.2-55.908zM479.731 233.507v-55.808h-28.157v83.46h-28.156v-83.964l-28.154 0.603v83.361h-27.149v-83.46h-56.31v111.615h167.926v-55.807zM229.352 233.507v-27.654h26.144v55.305h-26.144v-27.651z" />
<glyph unicode="&#xe61f;" d="M224.093 297.588l-7.318-1.076v-119.232h19.369v60.046l3.336 2.798c1.831 1.614 4.843 3.658 6.673 4.627 4.737 2.366 13.667 2.366 17.324-0.108 5.596-3.552 6.027-6.565 6.027-38.309v-29.055h20.445v28.839c0 31.207-0.861 37.663-5.81 44.981-8.5 12.59-28.517 14.85-42.399 4.736-2.474-1.721-4.736-3.228-5.057-3.228-0.217 0-0.646 10.33-0.754 22.921-0.323 26.149 0.861 23.889-11.837 22.060zM474.182 284.998c-2.583-0.43-5.058-1.399-5.49-2.153-0.538-0.753-1.507-5.488-2.151-10.653-1.829-13.021-1.938-13.13-5.488-13.13-6.24 0-8.287-1.613-10.117-7.855-0.966-3.228-1.721-6.242-1.721-6.565s3.445-0.646 7.533-0.646h7.532v-23.136c0-12.698 0.538-25.501 1.183-28.623 3.014-13.99 19.908-20.017 36.157-12.805l4.521 2.043-1.615 5.705c-0.969 3.119-1.937 5.918-2.154 6.134-0.214 0.322-3.014-0.108-6.026-0.863-5.060-1.075-5.919-1.075-8.394 0.755l-2.688 2.046-0.323 24.424-0.218 24.321h19.371v16.142h-19.262l-0.323 12.698c-0.322 14.312 0 13.882-10.329 12.16zM5.859 254.222v-8.072h50.577v16.142h-50.577v-8.071zM74.728 254.222v-8.072h16.142v16.142h-16.142v-8.071zM154.792 261.108c-2.367-0.538-6.994-2.583-10.223-4.519-4.626-2.69-6.349-4.736-8.931-9.685-6.026-11.731-3.659-27.763 5.273-34.865l3.444-2.798-3.982-3.981c-4.951-4.949-6.349-10.76-3.874-16.463 0.862-2.152 2.475-4.413 3.551-5.166 1.937-1.185 1.614-1.613-3.551-6.889-6.242-6.24-7.641-10.115-6.458-18.185 1.077-6.67 6.565-12.805 14.421-15.817 5.166-2.046 8.286-2.476 19.047-2.476 28.41-0.106 44.552 10.762 44.659 30.13 0 8.072-2.691 12.7-9.578 16.142-5.917 2.906-9.576 3.552-28.408 4.736-8.393 0.536-15.603 1.506-16.464 2.259-0.861 0.646-1.507 2.583-1.507 4.197 0 5.057 2.583 6.135 15.065 6.671 16.358 0.646 24.966 4.95 30.454 15.389 1.829 3.442 2.26 6.025 2.151 12.912-0.107 4.735-0.322 9.793-0.537 11.299-0.322 2.368 0.215 2.798 4.304 3.767l4.627 0.969-0.323 6.456c-0.429 8.179-1.614 8.61-11.191 3.874-6.241-3.013-6.994-3.228-9.255-1.722-6.457 4.197-22.489 6.026-32.714 3.767zM174.054 246.796c5.703-2.367 7.641-5.381 8.071-13.021 0.431-6.456 0.323-6.886-3.335-10.868-3.552-3.874-4.089-4.089-11.084-4.519-8.824-0.432-13.666 1.936-16.141 7.855-5.919 14.312 7.64 26.903 22.49 20.553zM186.107 174.696c7.748-3.335 5.488-12.803-4.304-17.861-4.52-2.26-6.78-2.69-15.066-2.69-11.406 0-16.034 1.937-18.293 7.424-1.936 4.628-0.431 10.44 3.551 13.668 2.798 2.151 3.659 2.26 16.679 1.613 7.964-0.322 15.281-1.29 17.433-2.152zM326.539 260.57c-17.865-4.735-28.086-19.8-28.086-41.323 0-11.621 2.152-19.474 7.639-27.44 13.774-20.014 50.899-20.552 65.966-0.968 10.974 14.313 11.406 40.354 0.861 55.743-8.824 12.804-28.517 18.723-46.38 13.988zM345.801 246.15c9.147-2.583 14.096-12.053 14.096-26.904 0-4.519-0.754-10.652-1.615-13.557-5.486-18.509-31.315-19.047-37.555-0.754-2.26 6.563-2.26 22.060-0.11 28.516 3.661 10.653 14.098 15.926 25.183 12.697zM407.246 260.677c-12.913-3.658-19.585-11.729-19.585-23.458 0-13.129 5.489-19.046 22.708-24.427 11.943-3.765 15.817-5.919 17.43-10.009 1.831-4.305-0.43-8.285-5.488-10.115-4.411-1.613-15.927-0.969-23.458 1.397-8.072 2.367-8.608 2.26-10.547-4.626-1.723-5.81-1.723-6.135 0.215-7.532 6.994-5.060 29.486-6.889 40.139-3.121 11.192 3.874 18.294 13.236 18.401 23.996 0 12.591-5.38 18.186-23.135 23.998-4.090 1.399-9.363 3.336-11.515 4.412-6.563 3.336-8.072 8.501-3.765 12.698 3.659 3.336 11.514 3.982 21.63 1.721 4.628-0.969 8.933-1.615 9.577-1.292 0.753 0.323 2.045 3.013 2.798 6.135 1.401 5.273 1.291 5.811-0.538 7.21-5.487 3.981-25.18 5.703-34.866 3.012zM5.859 219.787v-8.071h85.013v16.141h-85.013v-8.070zM5.859 185.888v-7.532h33.359v15.067h-33.359v-7.534zM57.511 185.888v-7.532h33.359v15.067h-33.359v-7.534z" />
<glyph unicode="&#xe620;" d="M5.135 99.012v80.28h80.275v80.278h80.277v80.276h80.278v-240.834zM266.034 339.846c133.010 0 240.831-107.825 240.831-240.826h-240.831v240.826z" />
<glyph unicode="&#xe621;" d="M356.913 393.99c-19.613-4.994-52.062-12.838-72.031-18.19l-36.727-9.269-10.697-18.898-10.696-19.256h-44.574l-106.974-106.974 106.974-106.971h43.858l11.055-19.256c6.064-10.701 13.551-20.323 17.116-21.399 6.063-1.779 52.058-14.264 113.392-30.664 15.331-3.923 28.167-6.776 28.529-6.418 0.712 0.712 6.060 19.615 12.12 42.073 6.063 22.467 14.978 55.272 19.613 72.748l8.555 31.375-10.337 17.833c-5.707 9.626-10.342 18.894-10.342 20.678 0 1.787 4.635 11.413 10.697 21.043l10.34 17.823-7.488 26.035c-14.62 52.054-27.813 94.493-32.092 105.19l-4.635 10.698-35.658-8.202zM340.151 346.21c-0.709-1.432-14.615-26.392-31.377-54.916l-30.31-52.058h-63.827c-35.299 0-63.114 0.711-62.401 1.779 1.069 0.718 19.256 19.969 39.936 42.434 32.093 34.232 40.651 41.010 51.704 43.146 7.132 1.072 29.241 6.779 48.85 12.125 39.224 10.699 49.208 12.125 47.424 7.491zM379.733 316.967c1.782-6.419 8.558-30.663 14.976-53.841l11.409-42.434-9.981-36.015c-5.351-19.968-12.126-44.93-14.979-55.272-2.853-10.693-6.774-17.829-8.199-16.046-1.428 1.425-16.047 25.676-32.093 53.844-19.613 34.233-28.527 52.769-26.743 57.050 4.279 11.767 57.051 103.772 59.548 104.123 1.070 0 3.923-5.346 6.062-11.41zM293.799 175.049c37.796-63.472 48.135-82.371 46.351-83.795-0.709-0.712-25.671 4.992-55.267 12.478l-53.844 14.262-38.867 39.579c-21.037 21.757-39.225 41.007-39.578 42.791-0.716 2.144 23.178 2.856 62.043 2.498l63.471-1.072 15.692-26.742z" />
<glyph unicode="&#xe622;" d="M390.044 238.455l-2.929 5.218c0.116 37.484-17.015 52.761-36.989 64.375 6.041 1.616 12.284 2.948 13.995 10.656 10.387 2.697 12.56 7.58 13.602 12.749 2.714 1.841 11.808 7.003 10.854 15.878 5.091 3.567 7.928 8.146 6.486 14.63 5.469 6.057 6.907 11.063 4.585 15.678 6.565 8.281 3.653 12.573 0.852 16.92 4.916 9.055 0.579 18.767-13.174 17.14-5.466 8.16-17.39 6.305-19.234 6.268-2.062 2.618-4.787 4.862-13.165 3.775-5.429 4.913-11.496 4.075-17.757 1.662-7.431 5.864-12.351 1.164-17.97-0.614-8.998 2.941-11.057-1.087-15.477-2.727-9.814 2.073-12.798-2.443-17.502-7.208l-5.473 0.11c-14.803-8.724-22.155-26.486-24.762-35.618-2.607 9.132-9.944 26.896-24.745 35.618l-5.473-0.11c-4.71 4.765-7.691 9.281-17.505 7.208-4.423 1.64-6.477 5.668-15.479 2.727-3.688 1.167-7.078 3.593-11.071 3.467l0.006-0.001c-2.090-0.064-4.344-0.837-6.9-2.853-6.258 2.413-12.327 3.252-17.754-1.662-8.381 1.087-11.105-1.157-13.167-3.775-1.838 0.039-13.767 1.891-19.236-6.267-13.745 1.625-18.088-8.084-13.167-17.14-2.807-4.347-5.715-8.642 0.851-16.924-2.324-4.613-0.883-9.621 4.585-15.678-1.442-6.485 1.396-11.062 6.486-14.631-0.954-8.875 8.139-14.037 10.854-15.875 1.042-5.173 3.216-10.052 13.602-12.752 1.711-7.708 7.952-9.038 13.997-10.656-19.976-11.611-37.107-26.889-36.99-64.376l-2.926-5.217c-22.904-13.929-43.513-58.698-11.289-95.086 2.104-11.392 5.637-19.572 8.778-28.628 4.702-36.486 35.382-53.573 43.475-55.594 11.859-9.031 24.487-17.602 41.578-23.607 16.11-16.616 33.564-22.948 51.114-22.937 0.258 0 0.519-0.002 0.779 0 17.547-0.012 35 6.32 51.112 22.937 17.091 6.006 29.72 14.576 41.578 23.607 8.091 2.021 38.774 19.107 43.475 55.594 3.143 9.056 6.675 17.236 8.779 28.628 32.226 36.391 11.618 81.161-11.289 95.091zM369.33 244.861c-1.194-15.101-78.695 52.576-65.316 54.822 36.316 6.134 66.535-15.442 65.316-54.822zM284.245 402.614c0.671-3.392 1.43-5.537 2.297-6.167 4.31 4.688 7.831 9.49 13.377 14.002 0.019-2.651-1.319-5.525 1.986-7.63 2.973 4.063 6.993 7.688 12.329 10.763-2.57-4.5-0.441-5.867 0.94-7.73 4.077 3.548 7.95 7.142 15.465 9.925-2.055-2.541-4.925-5.021-1.88-7.94 4.197 2.661 8.421 5.317 18.392 7.209-2.246-2.541-6.894-5.083-4.075-7.628 5.27 2.044 11.101 3.528 17.554 4.391-3.089-2.58-5.667-5.108-3.135-7.106 5.64 1.761 13.41 4.134 21.002 2.089l-4.807-4.911c-0.532-0.656 11.247-0.512 19.021-0.626-2.839-4.003-5.729-7.864-7.419-14.734 0.771-0.793 4.624-0.354 8.254 0-3.723-7.962-10.19-9.97-11.704-13.377 2.278-1.749 5.431-1.293 8.884-0.104-2.679-5.608-8.305-9.451-12.748-14.002 1.125-0.81 3.088-1.291 7.731-0.731-4.105-4.428-9.064-8.478-14.94-12.119 1.040-1.223 4.619-1.172 7.94-1.254-5.323-5.291-12.177-8.033-18.603-11.495 3.202-2.223 5.49-1.702 7.942-1.674-4.54-3.788-12.267-5.759-19.435-8.044 1.363-2.152 2.726-2.739 5.643-3.345-7.59-4.264-18.46-2.313-21.526-4.491 0.738-2.144 2.828-3.54 5.33-4.705-12.218-0.718-45.635 0.453-52.039 26.126 12.506 13.949 35.334 30.321 74.591 50.566-30.547-10.378-58.106-24.214-81.175-43.253-27.124 12.82-8.424 45.155 4.808 57.995zM255.839 310.023v0.002c19.234 0.21 43.047-14.353 42.953-28.075-0.083-12.109-16.726-21.913-42.804-21.725-25.539 0.303-42.738 12.319-42.678 24.053 0.052 9.658 20.853 26.309 42.529 25.745zM158.626 320.375c2.914 0.605 4.279 1.192 5.643 3.345-7.171 2.285-14.894 4.256-19.436 8.044 2.453-0.028 4.741-0.549 7.941 1.674-6.422 3.462-13.275 6.204-18.599 11.495 3.319 0.082 6.9 0.031 7.941 1.254-5.878 3.642-10.838 7.691-14.943 12.119 4.647-0.56 6.609-0.078 7.733 0.731-4.443 4.551-10.067 8.394-12.749 14.002 3.45-1.188 6.607-1.645 8.881 0.104-1.509 3.407-7.979 5.415-11.701 13.377 3.63-0.354 7.483-0.793 8.254 0-1.687 6.867-4.579 10.729-7.417 14.73 7.773 0.115 19.552-0.029 19.018 0.627l-4.806 4.911c7.592 2.045 15.362-0.329 21.002-2.089 2.534 1.999-0.045 4.525-3.134 7.104 6.454-0.862 12.284-2.343 17.556-4.39 2.815 2.545-1.829 5.088-4.077 7.628 9.97-1.89 14.194-4.548 18.391-7.209 3.047 2.918 0.176 5.399-1.879 7.941 7.517-2.785 11.39-6.377 15.465-9.927 1.382 1.865 3.512 3.231 0.941 7.731 5.338-3.075 9.355-6.7 12.33-10.763 3.303 2.105 1.969 4.98 1.986 7.63 5.547-4.511 9.066-9.313 13.375-14.001 0.869 0.632 1.627 2.772 2.299 6.165 13.232-12.838 31.931-45.172 4.806-57.995-23.071 19.028-50.622 32.86-81.15 43.239 39.243-20.235 62.062-36.606 74.563-50.55-6.403-25.673-39.819-26.844-52.038-26.126 2.502 1.165 4.588 2.562 5.33 4.705-3.067 2.18-13.937 0.23-21.526 4.494zM203.673 300.84c13.379-2.246-64.121-69.921-65.316-54.827-1.22 39.377 28.996 60.959 65.316 54.827zM122.305 150.044c-18.834 15.146-24.901 59.512 10.019 79.452 21.041 5.641 7.102-87.059-10.019-79.452zM195.722 70.639c-10.623-6.407-36.419-3.768-54.754 22.573-12.365 22.102-10.773 44.592-2.089 51.199 12.983 7.911 33.044-2.773 48.484-20.688 13.455-16.211 19.586-44.687 8.359-53.084zM174.849 167.314c-19.491 12.77-23.005 41.715-7.847 64.649 15.157 22.939 43.245 31.182 62.735 18.411 19.492-12.771 23.006-41.714 7.849-64.652-15.156-22.935-43.244-31.179-62.737-18.408zM255.91 25.496c-23.365-1.008-46.279 19.138-45.977 26.121-0.35 10.239 28.449 18.234 47.229 17.766 18.898 0.824 44.258-6.089 44.305-15.258 0.314-8.903-22.995-29.019-45.557-28.629zM303.996 126.461c0.14-23.957-20.812-43.481-46.794-43.605-25.979-0.126-47.149 19.191-47.285 43.147 0 0.151 0 0.305 0 0.458-0.138 23.955 20.812 43.478 46.792 43.606 25.978 0.124 47.151-19.194 47.287-43.148 0.002-0.153 0.002-0.307 0-0.458zM274.499 188.034c-15.157 22.937-11.644 51.882 7.848 64.65 19.492 12.771 47.58 4.53 62.737-18.408 15.155-22.938 11.642-51.882-7.849-64.649-19.492-12.771-47.579-4.528-62.736 18.407zM369.773 91.939c-20.134-27.938-47.391-29.029-57.544-21.245-10.621 10.019-2.515 41.115 12.043 58.168l-0.002 0.004c16.657 18.809 34.468 31.091 46.873 21.492 8.353-8.32 13.252-39.657-1.37-58.419zM385.533 151.196c-17.123-7.609-31.065 85.094-10.018 79.456 34.919-19.939 28.851-64.307 10.018-79.456z" />
<glyph unicode="&#xe623;" d="M386.834 228.257c-23.691 0-49.232 0-49.232 0l13.42 62.358c0 0 34.655 0 47.286 0 30.679 0 37.941-15.148 37.941-27.136 0-16.961-10.921-35.222-49.415-35.222zM417.926 174.635c0-16.959-10.918-35.22-49.414-35.22-23.69 0-49.232 0-49.232 0l13.42 62.403c0 0 34.656 0 47.241 0 30.674 0.001 37.985-15.241 37.985-27.183zM272.225 284.063c-23.691 0-49.185 0-49.185 0l13.417 62.357c0 0 34.609 0 47.194 0 30.723 0 38.033-15.147 38.033-27.137 0.003-16.958-10.965-35.22-49.459-35.22zM304.565 225.424c0-16.962-10.918-35.223-49.414-35.223-23.668 0-49.186 0-49.186 0l13.395 62.312c0 0 34.656 0 47.265 0 30.678 0 37.94-15.102 37.94-27.089zM286.289 127.658c0-17.004-10.919-35.22-49.322-35.22-23.737 0-49.3 0-49.3 0l13.417 62.404c0 0 34.657 0 47.288 0 30.654 0 37.917-15.193 37.917-27.184zM140.495 284.063c-23.667 0-49.161 0-49.161 0l13.349 62.357c0 0 34.656 0 47.288 0 30.677 0 38.010-15.147 38.010-27.137-0.002-16.958-10.991-35.22-49.486-35.22zM172.906 225.424c0-16.962-10.988-35.223-49.393-35.223-23.759 0-49.3 0-49.3 0l13.442 62.312c0 0 34.68 0 47.242 0 30.699 0 38.009-15.102 38.009-27.089z" />
<glyph unicode="&#xe624;" d="M246.875 425.185c-1.942-0.242-11.289-1.336-20.636-2.427-25.127-2.914-46.733-10.076-62.393-20.758-5.097-3.52-5.34-3.642-9.104-1.699-5.463 2.791-19.906 3.276-27.069 0.849-9.954-3.276-16.509-10.682-18.451-20.877-1.456-7.649 0.122-16.63 4.127-22.578 2.427-3.642 11.288-10.075 16.63-12.139 0.364-0.243-0.363-7.768-1.7-16.751-2.064-13.716-2.305-20.392-1.82-40.664 0.364-13.353 1.457-29.497 2.427-35.809 1.093-6.313 2.306-15.659 2.671-20.757l0.85-9.226-5.219-0.85c-8.256-1.214-20.879-8.010-22.215-11.772-1.578-4.492-0.121-8.74 4.614-13.839 4.855-5.099 7.767-4.976 15.901 0.486l4.855 3.276v-55.838c0-55.473 0-56.079 2.792-62.756 3.642-9.103 11.167-20.514 18.451-28.404l6.070-6.313-6.070-3.885c-6.676-4.369-12.138-12.259-12.138-17.721 0-2.308 1.335-4.613 4.369-7.404 3.642-3.522 5.22-4.128 10.197-4.128 5.341 0 6.676 0.606 12.381 5.462 3.519 3.035 8.74 6.677 11.531 8.134l5.22 2.671 11.167-3.764c18.935-6.433 30.468-8.134 54.988-8.012 31.074 0.122 56.808 4.613 75.745 13.231 3.519 1.578 7.404 2.913 8.374 2.913 1.094 0 6.192-4.492 11.411-9.832 9.346-9.833 9.468-9.953 14.445-9.226 7.163 0.971 12.019 5.949 12.019 12.139 0 6.677-2.914 12.139-9.955 18.452l-5.947 5.341 5.703 7.647c10.805 14.688 16.995 30.832 21.243 55.353 2.428 14.688 2.913 42.728 1.336 74.045-0.486 8.133-0.728 14.81-0.728 14.81 0.122 0 2.67-1.335 5.462-3.035 7.042-4.005 11.289-3.885 15.173 0.243 3.522 3.762 4.492 6.919 3.885 12.624-0.486 5.219-5.219 8.495-16.387 11.53-4.491 1.094-8.496 2.307-8.861 2.671-0.365 0.243-0.971 22.093-1.457 48.554-0.849 49.525-0.849 50.255-6.676 75.26-0.363 1.578-0.121 2.671 0.849 2.671 3.034 0 12.259 7.647 15.052 12.503 5.947 9.954 5.219 22.699-1.82 32.41-7.284 10.075-23.063 13.595-37.995 8.618l-7.647-2.549-6.19 4.006c-8.619 5.826-23.185 11.654-36.052 14.446-10.56 2.305-44.426 4.005-53.409 2.671zM293.728 419.237c39.938-6.919 61.422-25.613 74.046-64.092 7.526-22.942 8.497-33.017 9.59-98.565 0.606-32.654 1.7-70.646 2.428-84.362s0.971-30.346 0.606-37.024c-1.577-24.156-6.919-46.49-14.687-61.3-5.221-9.953-15.296-22.576-18.937-23.669-1.578-0.486-4.976-2.915-7.647-5.463-13.96-13.231-44.185-21.365-83.757-22.7-24.156-0.728-38.358 0.971-57.173 6.92-10.56 3.399-12.625 4.613-17.48 9.589-6.070 6.435-11.653 9.833-16.266 9.833-6.069 0-22.334 21.122-27.433 35.445-3.642 10.317-4.249 36.173-2.428 95.046l1.577 51.466-2.912 22.82c-7.648 59.964-0.122 106.577 21.85 133.888 9.71 12.018 24.762 20.757 46.612 26.948 21.486 6.070 71.011 8.982 92.010 5.219zM377.486 401.515c15.295-7.769 16.022-31.925 1.336-41.272-3.034-1.943-5.826-3.521-6.192-3.521-0.486 0-1.942 3.399-3.399 7.404l-2.791 7.526 3.156 3.642c2.307 2.671 2.913 4.491 2.307 6.798-1.457 5.827-4.735 7.526-11.532 5.947-2.548-0.607-3.762 0.243-8.254 5.948-2.913 3.642-5.099 6.797-4.856 7.161 0.243 0.243 3.519 1.214 7.162 2.306 7.889 2.185 16.509 1.457 23.063-1.941zM147.824 397.874c3.399-0.729 6.434-1.822 6.797-2.307 0.364-0.606-1.7-4.127-4.492-7.769-4.976-6.433-5.462-6.676-9.589-6.070-3.763 0.607-4.734 0.243-6.919-2.549-3.399-4.369-3.399-6.919 0.243-11.046l2.792-3.399-2.307-7.040c-1.334-3.886-3.034-7.041-3.762-7.041-2.428 0-10.198 5.219-12.745 8.497-10.318 13.595-3.641 33.867 12.745 38.357 7.404 1.942 9.711 2.064 17.237 0.365zM394.844 220.407c8.376-3.156 12.381-7.526 11.167-12.26l-0.728-3.034-4.128 2.428c-2.428 1.456-4.49 1.942-4.856 1.214-0.485-0.608 0.243-1.456 1.58-1.942 3.883-1.214 5.582-3.884 3.762-6.070-2.428-2.913-7.647-2.185-13.717 1.942l-5.705 3.762v8.376c0 7.888 0.121 8.374 2.792 8.253 1.457 0 5.948-1.214 9.832-2.671zM132.165 215.674c0-9.832-1.334-13.11-6.677-16.751-7.404-5.099-10.682-5.706-14.081-2.308-2.549 2.55-2.671 2.793-0.606 4.007 4.976 3.035 5.947 4.006 4.733 4.735-0.728 0.486-2.671-0.365-4.491-1.699-2.669-2.065-3.277-2.187-3.883-0.608-2.186 5.705 2.063 10.438 12.987 14.201 9.954 3.399 12.018 3.156 12.018-1.577zM358.793 44.883c6.433-4.733 12.017-15.537 10.438-20.269-1.698-5.099-3.156-4.615-6.433 2.305-1.7 3.399-3.642 6.435-4.369 6.555-0.729 0.243 0.241-2.792 2.305-6.798 1.943-4.005 3.156-7.767 2.67-8.497-0.363-0.728-2.548-1.334-4.854-1.334-3.399 0-5.099 1.213-11.532 8.496-4.005 4.613-8.496 8.74-9.831 9.103-3.642 1.214-2.793 3.521 3.156 8.983 6.798 6.19 11.41 6.554 18.451 1.455zM170.887 44.155c1.942-0.971 5.463-4.128 7.89-6.919l4.49-5.099-4.733-2.185c-2.55-1.214-7.89-4.976-11.895-8.375-8.133-6.919-11.167-8.012-16.266-5.948-3.155 1.335-3.399 1.7-2.307 4.613 0.729 1.82 2.671 5.098 4.37 7.283 1.698 2.183 2.792 4.37 2.428 4.733-0.97 0.849-6.555-5.584-8.254-9.589-1.7-4.249-3.278-4.37-4.249-0.365-1.7 6.919 3.155 14.201 13.352 20.029 6.918 4.006 10.196 4.492 15.173 1.82zM290.817 404.063c-12.26-3.156-22.942-11.896-27.919-22.942-3.764-8.132-3.521-21.727 0.365-29.861 4.128-8.497 12.988-16.873 21.486-20.029 9.467-3.521 25.004-3.034 33.137 1.094 13.474 6.918 19.665 16.387 20.392 31.924 0.486 9.225 0.123 11.168-2.428 16.993-4.248 9.225-9.71 14.931-18.329 19.179-8.375 4.006-19.057 5.462-26.704 3.642zM314.608 399.451c20.515-9.104 28.283-34.352 16.51-53.046-11.169-17.601-39.937-20.879-56.324-6.434-14.080 12.382-16.508 31.197-6.070 46.491 9.954 14.566 29.74 20.149 45.883 12.988zM270.301 372.624c-9.832-8.739-0.243-24.277 12.867-20.635 4.856 1.336 9.224 6.919 9.224 11.774 0 11.047-13.594 16.509-22.092 8.861zM191.644 399.329c-9.711-3.034-19.301-11.046-24.034-20.029-2.792-5.219-3.278-7.767-3.278-16.508 0-8.497 0.486-11.411 2.913-16.267 11.531-23.427 42.727-29.374 62.029-12.016 9.346 8.375 12.745 15.657 12.745 27.676 0 8.254-0.487 10.803-3.399 16.63-6.676 13.595-20.15 21.728-35.809 21.486-4.491 0-9.468-0.486-11.167-0.972zM221.020 393.989c26.583-15.537 25.127-50.738-2.671-64.334-8.498-4.128-22.578-3.764-31.804 0.728-27.554 13.595-27.19 51.468 0.729 64.82 5.463 2.548 7.525 2.913 17.115 2.548 9.347-0.363 11.895-0.971 16.631-3.762zM178.899 372.867c-3.642-0.849-8.74-6.19-9.468-9.832-0.85-4.249 1.698-10.318 5.34-12.868 1.579-1.091 5.099-1.941 7.891-1.941 14.081 0 17.601 18.328 4.613 23.791-4.248 1.82-4.37 1.82-8.376 0.849zM247.238 339.85c-6.312-1.335-10.681-4.49-11.531-8.739-0.364-2.307-1.941-4.249-4.005-5.341-7.648-4.006-11.653-12.503-8.983-19.423 1.093-2.548 6.798-5.462 11.167-5.462h3.52l-1.093-6.313c-1.335-8.011-0.364-13.716 2.792-16.872 3.156-3.156 7.526-2.914 11.531 0.607l3.399 2.792 2.063-2.428c2.55-3.278 9.954-3.278 13.474 0 2.185 1.942 2.428 3.278 1.942 12.26l-0.485 9.954h3.762c13.839 0 13.596 18.087-0.365 24.885-3.397 1.577-5.098 3.155-5.098 4.856-0.121 3.52-2.671 6.433-7.647 8.497-4.734 1.942-7.282 2.063-14.445 0.728zM272.851 323.949c6.555-3.278 9.831-7.769 9.831-13.595 0-4.249-0.486-4.976-4.005-6.434-4.249-1.82-9.468-1.092-19.422 2.428-5.462 1.942-6.069 1.942-14.082-0.486-14.444-4.369-20.756-2.669-20.999 5.584-0.121 4.856 1.943 8.134 7.040 11.41 4.249 2.55 4.491 2.55 8.74 0.486 2.428-1.094 7.162-2.307 10.561-2.671 4.976-0.485 7.040 0 11.531 2.428 3.035 1.7 5.583 3.157 5.826 3.157 0.122 0.12 2.428-0.972 4.978-2.307zM252.822 294.573c-0.971-12.867-1.821-15.173-5.948-16.265-7.284-1.821-9.954 3.156-8.376 14.93l1.093 8.255 6.070 2.064c3.399 1.091 6.433 2.064 6.919 2.185 0.485 0 0.607-5.099 0.243-11.168zM262.169 303.192c6.070-2.063 7.162-4.127 7.162-13.474 0-7.283-0.365-8.375-2.914-10.075-4.126-2.671-9.103-1.214-9.952 2.913-0.365 1.698-0.971 4.005-1.214 4.976-0.85 2.428 0.849 16.994 1.942 16.994 0.486 0 2.671-0.607 4.976-1.335z" />
<glyph unicode="&#xe625;" d="M344 366.096c-32.369 0-58.666-26.283-58.666-58.667 0-21.643 11.858-40.362 29.333-50.546v-8.121c0 0 0-58.666-58.668-58.666-24.32 0-43.383-5.214-58.666-13.207v138.661c17.489 10.184 29.333 28.903 29.333 50.546 0 32.384-26.283 58.666-58.667 58.666s-58.666-26.282-58.666-58.666c0-21.643 11.846-40.362 29.333-50.546v-192.256c-17.488-10.17-29.333-28.875-29.333-50.532 0-32.369 26.282-58.666 58.666-58.666 32.385 0 58.667 26.297 58.667 58.666 0 15.355-6.044 29.219-15.699 39.704 8.537 10.484 22.416 18.963 45.032 18.963 116.418 0 117.334 117.333 117.334 117.333v8.121c17.474 10.184 29.334 28.903 29.334 50.546 0 32.384-26.297 58.667-58.667 58.667zM167.999 395.429c16.229 0 29.334-13.105 29.334-29.333s-13.105-29.334-29.334-29.334c-16.228 0-29.333 13.105-29.333 29.334 0.001 16.228 13.105 29.333 29.333 29.333zM167.999 43.43c-16.228 0-29.333 13.119-29.333 29.332 0 16.185 13.105 29.334 29.333 29.334 16.229 0 29.334-13.149 29.334-29.334 0-16.213-13.105-29.332-29.334-29.332zM344 278.096c-16.214 0-29.333 13.104-29.333 29.333s13.119 29.333 29.333 29.333 29.333-13.105 29.333-29.333c0-16.229-13.119-29.333-29.333-29.333z" />
<glyph unicode="&#xe626;" d="M146.711 397.023c-30.164 0-54.645-24.48-54.645-54.644 0-20.158 11.060-37.594 27.322-47.081v-179.076c-16.263-9.472-27.322-26.896-27.322-47.066 0-30.15 24.48-54.645 54.645-54.645 30.163 0 54.644 24.494 54.644 54.645 0 20.171-11.032 37.595-27.321 47.066v179.077c16.289 9.486 27.321 26.922 27.321 47.081-0.001 30.163-24.481 54.643-54.644 54.643zM146.711 41.834c-15.075 0-27.322 12.22-27.322 27.322 0 15.075 12.247 27.322 27.322 27.322 15.115 0 27.322-12.247 27.322-27.322 0-15.102-12.207-27.322-27.322-27.322zM146.711 315.056c-15.075 0-27.322 12.207-27.322 27.323s12.247 27.322 27.322 27.322c15.115 0 27.322-12.207 27.322-27.322s-12.207-27.323-27.322-27.323zM392.61 116.223v171.512c0 82.18-81.966 81.967-81.966 81.967h-27.322v54.644l-81.968-81.967 81.968-81.967v54.645c0 0 11.392 0 27.322 0 24.093 0 27.321-27.322 27.321-27.322v-171.512c-16.275-9.472-27.321-26.868-27.321-47.066 0-30.15 24.493-54.645 54.644-54.645s54.646 24.494 54.646 54.645c0 20.17-11.048 37.594-27.324 47.066zM365.288 41.834c-15.074 0-27.322 12.22-27.322 27.322 0 15.075 12.248 27.322 27.322 27.322 15.104 0 27.322-12.247 27.322-27.322 0-15.102-12.218-27.322-27.322-27.322z" />
<glyph unicode="&#xe627;" d="M372.936 248.662c-21.754 0-40.482-12.019-50.531-29.647-2.627 0.185-5.197 0.414-7.938 0.414-59.865 0-116.678 45.606-137.403 102.060 12.46 10.72 20.47 26.422 20.47 44.108 0 32.274-26.194 58.468-58.468 58.468s-58.468-26.194-58.468-58.468c0-21.568 11.806-40.226 29.234-50.375v-191.603c-17.429-10.135-29.234-28.776-29.234-50.359 0-32.26 26.193-58.467 58.468-58.467 32.273 0 58.468 26.207 58.468 58.467 0 21.583-11.806 40.225-29.234 50.359v105.187c38.441-40.666 91.527-67.845 146.168-67.845 2.912 0 5.311 0.199 7.938 0.285 10.107-17.557 28.834-29.518 50.531-29.518 32.26 0 58.467 26.207 58.467 58.466-0.002 32.275-26.209 58.468-58.468 58.468zM139.065 44.027c-16.13 0-29.233 13.075-29.233 29.233 0 16.13 13.104 29.233 29.233 29.233 16.173 0 29.233-13.104 29.233-29.233 0.001-16.158-13.060-29.233-29.233-29.233zM139.065 336.363c-16.13 0-29.233 13.061-29.233 29.234 0 16.172 13.104 29.233 29.233 29.233 16.173 0 29.233-13.061 29.233-29.233 0.001-16.173-13.060-29.234-29.233-29.234zM372.936 160.961c-16.131 0-29.234 13.075-29.234 29.233 0 16.173 13.104 29.234 29.234 29.234 16.156 0 29.232-13.062 29.232-29.234 0-16.158-13.076-29.233-29.232-29.233z" />
<glyph unicode="&#xe628;" d="M407.247 139.436v158.239c0 75.82-75.623 75.623-75.623 75.623h-25.208v50.416l-75.624-75.624 75.624-75.624v50.416c0 0 10.511 0 25.208 0 22.229 0 25.207-25.207 25.207-25.207v-158.239c-15.017-8.74-25.207-24.765-25.207-43.424 0-27.817 22.598-50.417 50.416-50.417 27.816 0 50.415 22.6 50.415 50.417 0 18.609-10.191 34.684-25.208 43.424zM382.040 70.804c-13.909 0-25.209 11.274-25.209 25.208 0 13.908 11.3 25.207 25.209 25.207 13.933 0 25.207-11.299 25.207-25.207 0-13.934-11.274-25.208-25.207-25.208zM104.753 299.41v-158.228c0-75.819 75.624-75.624 75.624-75.624h25.208v-50.415l75.622 75.624-75.622 75.624v-50.416c0 0-10.513 0-25.208 0-22.229 0-25.208 25.207-25.208 25.207v158.228c15.028 8.751 25.208 24.776 25.208 43.437 0 27.829-22.586 50.416-50.416 50.416s-50.416-22.587-50.416-50.416c0-18.623 10.18-34.686 25.208-43.437zM129.961 316.58c-13.909 0-25.208 11.263-25.208 25.208 0 13.908 11.299 25.208 25.208 25.208 13.945 0 25.208-11.3 25.208-25.208 0-13.945-11.263-25.208-25.208-25.208z" />
<glyph unicode="&#xe629;" d="M354.57 244.983c-11.378 44.007-51.008 76.661-98.57 76.661-47.551 0-87.191-32.653-98.583-76.661h-80.292v-51.108h80.292c11.392-44.020 51.033-76.66 98.583-76.66 47.562 0 87.192 32.641 98.57 76.66h80.305v51.108h-80.305zM256 168.324c-28.211 0-51.107 22.908-51.107 51.106 0 28.211 22.896 51.107 51.107 51.107 28.198 0 51.107-22.896 51.107-51.107 0-28.198-22.909-51.106-51.107-51.106z" />
<glyph unicode="&#xe62a;" d="M218.112 395.381c-9.81-2.065-29.174-9.036-42.6-15.75-20.398-9.81-28.142-15.49-46.731-34.079s-24.269-26.334-34.081-46.731c-26.335-53.962-26.335-105.599 0-160.075 9.811-20.654 15.231-28.142 34.081-46.728 18.847-18.849 26.076-24.014 46.731-34.082 31.5-14.974 46.731-18.59 80.037-18.59s48.539 3.615 80.037 18.59c20.397 9.81 27.627 15.233 46.731 34.082 18.849 19.103 24.27 26.332 34.081 46.728 12.392 26.078 16.008 38.213 18.846 64.031l1.808 16.008h-51.12l-3.356-19.881c-16.264-103.531-142.518-145.101-217.392-71.519-60.673 59.385-47.507 160.075 26.852 203.709 13.941 8.262 42.084 16.782 54.993 16.782h8.519v51.637l-9.554-0.259c-5.421 0-17.813-1.805-27.883-3.872zM227.405 325.673c-54.733-14.717-90.364-69.196-81.069-123.928 10.584-60.674 67.385-102.244 126.251-92.174 60.416 10.328 102.243 67.387 92.173 125.737-11.36 65.837-74.358 107.404-137.356 90.365z" />
<glyph unicode="&#xe62b;" d="M366.486 274.103c2.006 0.398 4.988 1.061 8.355 1.793h26.080l4.059 6.001c0.084 0.042 0.242 0.056 0.328 0.056l10.094 14.578c-0.145 0-0.385 0.029-0.492 0.029l1.055 1.58h-141.358l5.438-22.237h38.58l-64.917-58.595c-13.254 18.293-44.303 56.417-65.955 87.972h48.594v16.919l0.556 3.737c-0.15 0.028-0.42 0.071-0.556 0.071v1.523h-161.18v-22.25h47.797c18.557-14.507 89.509-103.106 92.457-111.946 1.182-8.271 2.264-57.115-1.21-60.802-6.976-7.382-38.794-5.425-46.467-5.965l-2.655-15.133c14.016-0.413 59.635 1.139 73.807 1.139 27.944 0 76.888 0.128 83.794-0.398l0.854 15.872c-7.061 1.196-45.584 0.143-50.908 1.353-1.182 7.695-2.477 59.108-1.295 64.426 5.323 15.345 86.276 77.885 95.145 80.277zM389.955 152.57l21.652-1.723 25.227 97.445c-4.215 0.143-42.496 3.759-47.463 4.727l0.584-100.449zM386.203 136.945l0.135-23.781 10.955-0.955 11.846-0.882 3.472 23.29-12.486 0.612z" />
<glyph unicode="&#xe62c;" d="M74.769 279.839v-30.205h60.41v-120.82h60.411v120.82h60.41v-120.82h181.232v60.41h-120.82v60.41h120.82v60.411h-120.82v-60.411h-60.411v60.411h-181.232v-30.206z" />
<glyph unicode="&#xe62d;" d="M361.954 397.674c6.308-2.579 12.615-8.314 15.625-13.904 1.863-3.584 11.467-44.435 49.881-211.28 5.16-22.217 9.317-43.718 9.317-47.874 0-9.031-3.010-15.481-10.177-21.93-5.733-5.303-8.887-6.451-37.842-13.331l-17.2-4.012 4.587 8.742c6.306 11.754 9.317 25.658 9.317 42.142 0 31.676-11.754 57.908-35.404 78.978-13.76 12.329-34.115 23.652-65.219 36.409-43.287 17.63-55.901 28.524-55.901 48.161 0.143 21.787 17.344 32.968 47.301 30.962 14.907-1.147 30.675-5.017 47.014-11.754 6.88-2.867 13.474-5.447 14.621-5.877 1.721-0.573 4.443 5.59 12.041 26.231 5.447 14.764 10.177 27.664 10.464 28.525 0.858 2.293-22.935 12.756-38.988 17.2-18.776 5.017-19.208 5.16-16.485 5.877 36.264 9.173 48.017 10.606 57.048 6.736zM159.993 349.512c-4.3-6.163-8.6-15.051-10.893-21.93-3.297-9.89-3.869-13.904-3.869-29.384 0-15.767 0.429-19.207 3.726-28.381 12.47-34.688 41.711-59.628 94.316-80.556 23.508-9.317 39.275-18.204 47.302-26.66 8.17-8.601 10.608-15.767 9.747-28.667-0.717-12.041-5.447-19.065-16.485-24.512-8.026-3.871-9.031-4.012-29.814-4.012-19.924 0-22.647 0.286-37.268 4.586-8.601 2.438-20.641 6.593-26.517 9.031-5.877 2.58-11.897 4.731-13.33 4.874-1.864 0.144-5.447-6.164-15.337-26.948-7.167-14.906-12.9-27.664-12.9-28.094 0-1.721 22.504-11.466 37.124-16.053 7.597-2.437 14.764-4.731 15.911-5.017 1.147-0.428-5.59-2.579-15.050-4.871-29.815-7.312-43.862-4.158-51.745 11.61-2.006 4.012-14.477 55.185-32.108 131.728-31.677 136.887-30.817 131.583-23.078 143.767 5.591 8.887 14.191 12.613 42.428 19.064 19.781 4.3 43.862 10.034 44.721 10.606 0.143 0.144-2.866-4.443-6.881-10.177z" />
<glyph unicode="&#xe62e;" d="M361.922 295.517c-2.911-2.547-3.002-3.729-1.728-18.556 0.728-8.733 0.090-11.189-2.911-11.189-4.548 0-14.826-7.368-16.101-11.643-0.909-2.82 1.274-9.279 3.639-10.825 1.092-0.728 4.367-1.546 7.187-1.819 3.82-0.364 5.367-1 6.094-2.365 1.092-2.183 0.272-15.918-1.637-27.106-1.274-7.004-1.274-8.551 0-15.282 0.818-4.183 1.456-9.187 1.456-11.188s0.363-4.365 0.909-5.276c0.455-0.909 1.091-5.276 1.274-9.733 0.546-11.279 1.91-15.553 6.368-19.374 5.731-5.003 7.094-5.367 18.101-5.459 5.639 0 11.188-0.090 12.462-0.090 9.187-0.092 20.921 1.728 21.558 3.365 0.272 0.637 3.183 3.458 6.458 6.277 8.459 7.187 10.733 10.733 11.642 19.103 0.728 6.003-1.091 16.099-3.365 19.012-0.91 1.182-2.548 4.093-3.549 6.367-1.274 3.092-2.274 4.183-3.728 4.183-1.001 0-2.548 0.82-3.365 1.82-1.547 1.818-1.637 1.818-4.64 0.182-1.728-0.909-3.639-2.456-4.094-3.456-0.545-0.909-1.726-2.82-2.546-4.185-0.909-1.274-1.637-3.457-1.637-4.731 0-1.272-0.728-4.276-1.728-6.639-0.91-2.365-1.91-5.913-2.276-7.731-0.817-4.457-2.637-6.187-6.729-6.187-4.912 0-5.64 0.82-5.55 6.004 0.274 18.010 0 25.197-1.365 29.744-2.455 8.551-0.363 27.107 3.276 29.381 0.637 0.454 7.822 0.728 15.827 0.819 13.371 0 14.917 0.182 16.738 1.82 1.728 1.547 1.909 2.456 1.454 5.912-0.272 2.274-0.909 6.822-1.365 10.097-0.363 3.365-1.091 6.549-1.455 7.094-0.455 0.819-4.093 1.001-14.008 0.637-7.277-0.274-14.19-0.728-15.282-1.092-2.728-0.727-5.457 4.275-4.001 7.55 0.545 1.182 1 3.729 1 5.731 0 1.909 0.454 3.82 0.909 4.093 1.365 0.819 1.092 6.277-0.455 8.278-0.728 0.909-1.365 2.456-1.365 3.275 0 2.274-1.637 2.911-9.551 3.729-19.194 1.91-19.103 1.91-21.922-0.546zM296.974 263.043c-1.274-0.364-3.822-0.728-5.639-0.819-4.276-0.091-21.922-6.368-23.469-8.369-0.272-0.272-1.274-0.818-2.274-1.181-2.185-0.637-15.191-12.826-17.192-16.101-1.364-2.183-2.183-6.368-4.185-20.829-0.546-3.729-1.364-8.005-1.819-9.461-2.274-6.822 0.182-25.56 4.002-29.563 1.183-1.272 2.637-3.274 3.184-4.366 1.091-2.092 1-2.092-6.185-2.092h-7.185l-0.092 10.824c0 6.004-0.454 11.917-1 13.19-0.546 1.546-0.546 4.822 0.182 9.824 1.274 9.733 1 20.738-0.637 24.831-0.727 1.728-1.364 4.458-1.364 6.095 0 6.185-5.821 17.738-9.095 18.101-0.728 0.091-1.728 0.272-2.274 0.364-0.456 0.182-1.637 0.273-2.457 0.363-0.819 0-3.365 1.728-5.639 3.639-5.731 4.912-9.006 5.912-16.192 4.639-9.369-1.637-14.917-3.547-17.555-5.912-1.273-1.274-3.093-2.274-3.911-2.274-2.093 0-2.82-0.637-6.913-5.639-1.911-2.456-4.094-4.365-4.822-4.365-2.001 0-3.911 2.365-3.911 4.821 0 1.183-0.91 2.911-1.911 3.912-1.728 1.546-3.548 1.728-14.371 1.82-6.823 0.091-14.008 0.454-16.010 0.819-8.096 1.364-11.916-3.548-10.824-13.918 0.272-3.365 1.001-7.095 1.455-8.277 0.728-2.093 1.001-2.183 7.823-1.637l7.095 0.546 1.182-2.729c1.183-2.729 1.093-4.821-0.727-12.642-1.183-5.185-1.183-21.741 0-27.744 2.637-13.281 2.728-15.373 1.091-16.555-0.819-0.728-4.185-1.182-7.732-1.182-5.549 0-6.276-0.182-7.641-2.274-1.637-2.547-3.911-12.007-4.002-16.555 0-2.457 0.546-3.093 4.094-4.822 3.821-1.82 8.55-2.092 20.922-1.001 4.184 0.363 13.008-0.363 14.008-1.183 1.547-1.182 19.921-0.91 23.286 0.363 3.911 1.456 5.912 4.276 5.912 8.096 0 2-0.454 3.911-0.909 4.185-0.546 0.272-0.91 3.093-0.91 6.276 0 7.094-1.182 8.823-6.64 9.369-3.73 0.454-4.275 0.817-4.275 2.546 0 1.183-0.546 2.365-1.091 2.548-0.91 0.363-0.91 0.726-0.091 1.274 2.001 1.455 2.274 5.912 1.182 18.92-1.091 11.825-1.091 13.281 0.273 15.373 0.91 1.272 1.547 3.912 1.547 5.82 0 2.093 0.546 4.094 1.364 4.73 0.727 0.637 1.364 1.637 1.364 2.274 0 3.457 13.281 3.911 19.557 0.637 1.547-0.728 3.365-1.637 4.093-2.002s1.455-1.728 1.637-3.001c0.182-1.274 0.91-2.821 1.637-3.365 1.456-1.274 1.82-13.007 0.455-16.644-1-2.548-1.364-17.83-0.546-22.924 0.819-5.185-1.547-7.277-8.459-7.277-7.823 0-8.096-1.182-4.821-19.010 1.456-7.913 1.82-8.187 11.007-7.367s5.912 0.82 30.927 0l20.466-0.728 2.092 2.911c1.637 2.274 2.002 3.818 1.82 7.639l-0.273 4.822 9.552-6.367c11.642-7.733 16.009-8.915 33.384-8.733 9.823 0.092 12.916 0.456 17.738 2.093 3.092 1.182 6.276 2.457 7.004 2.911 0.728 0.365 3.457 1.274 6.094 1.909 6.733 1.547 11.735 5.823 14.009 11.917 1 2.728 2.637 6.55 3.639 8.459 1 2.002 1.82 4.185 1.82 4.913 0 1.909-4.458 6.913-6.276 6.913-0.818 0-3.003 0.82-4.912 1.818-3.548 1.91-6.185 1.82-8.823-0.454-0.728-0.637-2.82-1.365-4.639-1.728-1.82-0.274-4.093-1.456-5.004-2.455-1-1.093-3.274-2.549-5.183-3.276-1.82-0.728-4.185-2.548-5.185-3.912-1.365-1.82-3.094-2.728-7.096-3.637-3.001-0.637-6.366-0.82-7.549-0.455-2.729 0.82-10.825 6.003-10.825 6.822 0 0.365-1.728 2.456-3.729 4.548-3.548 3.639-3.729 4.094-3.183 8.005 0.728 5.731 1.728 6.55 7.55 6.55 2.728 0 6.185 0.635 7.733 1.454 4.093 2.185 18.101 2.002 21.467-0.18 2-1.365 4.457-1.637 12.916-1.637 11.006-0.091 16.101 0.909 19.921 3.82 2.365 1.728 2.365 2.001 2.365 13.007 0 12.189-1.274 18.465-4.548 23.104-1.092 1.547-2.729 4.276-3.639 6.185-0.909 2.002-2.274 3.73-3.094 4.094-0.817 0.274-3.001 2.184-4.82 4.276-2.365 2.729-4.365 4.002-6.639 4.366-1.728 0.273-5.731 1.728-8.823 3.275-11.826 5.639-14.555 6.276-19.83 4.639zM302.614 239.575c3.092-2.093 13.463-13.736 13.463-15.191 0-2.002-2.365-3.184-8.733-4.549-8.368-1.818-20.376-1.818-22.741 0-0.909 0.728-2.365 1.365-3.183 1.365-1.456 0-2.637 1.728-2.637 3.638 0 0.455 1.363 2.274 3.001 4.002 1.547 1.728 4.003 4.639 5.368 6.276 4.548 5.64 10.823 7.459 15.463 4.458zM85.487 175.356c-3.547-1.637-7.277-5.639-9.005-9.824-5.549-13.281 7.094-27.288 21.102-23.468 15.1 4.002 17.465 25.924 3.638 32.656-4.638 2.183-11.552 2.455-15.737 0.636z" />
<glyph unicode="&#xe62f;" d="M220.606 397.763c-58.3-12.428-110.047-54.911-131.741-108.24-18.303-44.743-18.303-95.812 0-140.554 19.207-47.004 62.142-86.322 112.534-103.044 18.077-5.875 22.372-6.327 54.685-6.327s36.608 0.452 54.685 6.327c76.154 25.083 126.092 93.553 126.092 173.32 0 79.091-48.36 146.429-123.832 172.416-17.401 5.876-23.051 6.779-51.297 7.457-17.4 0.452-35.929-0.226-41.127-1.356zM276.422 279.355c31.183-54.686 40.901-81.576 36.608-100.784-6.779-28.924-32.089-47.454-61.013-44.517-14.237 1.582-29.602 10.168-38.19 21.014l-5.423 7.231h9.038c24.631 0.453 43.613 23.728 39.771 49.036-1.356 10.395-9.038 30.959-18.077 48.584l-5.197 10.169 11.524 19.661c6.327 10.845 12.202 19.207 13.106 18.529 0.905-0.452 9.039-13.559 17.853-28.923zM228.968 257.661c19.434-38.641 22.823-55.588 14.462-70.051-15.139-25.534-51.070-18.303-58.526 11.976-1.13 3.617-0.226 10.846 2.26 18.078 4.067 12.881 28.246 58.075 30.958 58.075 0.905 0 5.875-8.135 10.846-18.078z" />
<glyph unicode="&#xe630;" d="M254.772 398.849c-8.261-3.057-13.631-9.089-16.274-18.175-1.819-6.197-1.819-8.097 1.983-125.247 1.817-56.346 3.8-121.613 4.543-144.993 0.909-30.733 1.653-44.199 2.56-48.495 3.058-14.376 14.541-23.381 29.907-23.381 5.783 0 132.765 21.563 139.209 23.629 5.865 1.901 12.889 8.757 16.11 15.779 4.957 10.822 4.957 10.656 1.57 60.639-4.627 67.911-11.152 167.713-12.557 193.076-1.488 25.116-2.397 29.66-7.435 37.177-3.637 5.37-11.485 11.236-17.185 12.971-2.394 0.661-16.935 3.139-32.385 5.369-96.745 14.046-102.197 14.624-110.047 11.65zM341.356 331.517c42.795-3.304 47.916-3.801 51.057-5.37 5.205-2.726 9.666-7.188 12.144-12.144 2.149-4.379 2.231-5.288 4.131-38.169 1.074-18.507 3.305-55.105 4.875-81.461 2.726-44.2 2.89-48.082 1.735-52.13-2.315-7.683-9.83-14.377-19.084-16.856-5.783-1.488-100.463-10.988-105.832-10.574-9.668 0.743-17.349 6.94-20.572 16.688-1.074 3.058-1.57 9.336-2.149 24.784-0.412 11.401-1.901 51.968-3.305 90.219-2.313 64.109-2.478 69.894-1.238 73.942 1.652 5.7 5.535 10.327 10.74 12.722 5.865 2.726 11.152 2.644 67.498-1.652zM278.236 330.029c-6.776-1.817-11.318-8.675-11.318-16.937 0-3.965-1.074-3.718 17.348-5.287 11.651-0.991 16.36-2.809 20.738-8.178 4.627-5.536 4.709-6.528 7.683-74.768 2.973-69.234 3.057-67.58-1.488-73.53-1.238-1.57-4.461-3.883-7.435-5.37-4.543-2.231-6.856-2.726-17.928-3.883-7.022-0.661-12.889-1.404-13.053-1.57-0.66-0.578 1.901-9.254 3.799-12.558 1.076-1.899 3.389-4.461 5.041-5.535 5.369-3.552 9.172-3.718 30.651-1.486 10.74 1.073 19.746 2.313 19.994 2.56 0.33 0.33-1.57 46.512-4.131 102.61l-4.627 102.032-17.349 1.404c-20.076 1.57-23.629 1.653-27.924 0.495zM180.252 364.398c-6.196-1.653-9.749-4.048-12.558-8.51-5.040-7.931-4.874 3.882-2.396-131.030 2.231-122.108 2.479-129.296 4.957-134.914 3.552-8.26 10.988-13.135 22.306-14.622 3.387-0.414 47.588 4.709 48.496 5.7 0.331 0.331-1.321 56.097-1.734 56.428-0.083 0.165-7.601-0.496-16.69-1.406-17.019-1.735-21.397-1.57-26.602 1.158-4.709 2.478-8.593 8.096-9.996 14.622-0.413 1.983-1.405 36.020-2.231 75.677-1.653 81.212-1.9 76.502 4.626 82.368 5.122 4.626 7.931 5.039 26.024 3.883 8.675-0.578 16.607-1.239 17.679-1.488l1.901-0.495-0.496 18.093c-0.249 9.997-0.744 21.067-0.991 24.702l-0.414 6.692-22.058 2.231c-24.951 2.561-23.794 2.561-29.825 0.909zM118.455 323.668c-6.444-1.652-11.235-6.444-12.309-12.392-0.33-1.653-0.165-28.255 0.413-59.153 1.652-92.118 2.395-116.572 3.552-120.373 1.487-5.040 6.196-9.418 11.979-11.070 4.544-1.322 5.618-1.322 19.25 0 7.931 0.826 16.028 1.652 17.927 1.899l3.553 0.496-0.495 19.911c-0.331 10.904-0.661 19.992-0.744 20.076-0.083 0.165-5.37-0.166-11.815-0.662-14.458-1.156-18.258-0.66-22.224 2.808-5.535 4.876-5.287 3.139-6.611 60.643l-1.156 52.13 1.736 3.47c1.322 2.561 2.727 3.883 5.535 5.123 3.469 1.57 4.791 1.652 18.259 1.073l14.457-0.661-0.578 16.854c-0.248 9.17-0.744 16.936-0.909 17.183-0.496 0.413-17.515 1.983-30.567 2.892-3.635 0.249-7.766 0.083-9.254-0.248zM194.545 308.467c-5.617-2.644-8.261-9.006-7.352-17.928l0.578-5.535 9.171-0.413c10.988-0.495 15.036-2.065 18.506-7.435l2.313-3.469v-98.727l-2.478-2.644c-3.718-3.966-8.674-5.783-17.267-6.445l-7.518-0.494-0.248-4.544c-0.661-10.327 2.974-17.514 10.244-20.323 3.304-1.24 4.792-1.322 16.358-0.331 7.023 0.579 13.136 1.322 13.715 1.652 1.239 0.745 1.156 10.822-0.413 80.966-1.736 80.716-1.9 83.277-5.37 85.094-0.827 0.413-7.436 0.991-14.624 1.239-10.244 0.413-13.631 0.248-15.614-0.661zM80.534 274.841c-0.991-0.33-2.561-1.735-3.552-2.974-1.735-2.149-1.735-2.727-1.735-37.012 0-19.084 0.248-40.153 0.579-46.679 0.495-10.74 0.66-12.062 2.395-14.126 2.643-3.058 6.775-3.966 16.771-3.471l8.427 0.413-0.249 10.411-0.247 10.408-7.601 0.414c-12.145 0.661-11.318-1.57-11.648 31.891-0.248 31.311-0.331 30.981 5.701 32.55 1.9 0.578 5.287 0.661 7.848 0.33l4.462-0.495v18.175l-2.561 0.496c-3.718 0.744-16.523 0.495-18.588-0.33zM124.817 265.423v-8.757h2.561c3.387 0 8.013-2.231 9.171-4.462 1.487-2.56 2.065-51.719 0.661-54.941-1.074-2.642-5.205-5.038-8.593-5.038h-2.148v-7.353c0-4.048 0.248-8.51 0.496-9.914 0.496-2.478 0.66-2.562 5.204-2.562 5.287 0 9.501 1.817 11.898 5.123 1.652 2.147 1.652 2.892 0.661 44.613-0.909 36.599-1.239 42.796-2.397 45.191-2.231 4.545-5.205 6.197-11.732 6.527l-5.783 0.331v-8.757z" />
<glyph unicode="&#xe631;" d="M202.378 153.174h-2.016l-0.981-1.739-51.922-90.794h236.368l0.982 1.748 51.937 90.785h-5.972zM329.173 174.808l0.997-1.727h2.016l104.574 0.446-2.986 5.148-115.184 199.542-2.016-0.006-104.595-0.432 2.985-5.157zM247.114 275.377l-1.010 1.747-52.673 90.341-2.98-5.157-115.211-199.526 1.019-1.742 52.664-90.362 2.979 5.165 114.202 197.807z" />
<glyph unicode="&#xe632;" d="M437.287 358.478h-80.055l-56.558-56.562h80.055zM256.332 301.916l56.562 56.562h-80.033l-56.584-56.562zM380.866 136.994h-249.732v164.385l57.085 57.099h-80.057l-33.643-33.651v-244.447h362.962v221.536h-56.615z" />
<glyph unicode="&#xe633;" d="M337.472 316.703l73.432 73.432h-78.699l-76.208-76.202-76.2 76.202h-78.702l73.438-73.432h-99.58v-267.98h131.024l50.021 50.028 50.029-50.028h131.024v267.98h-99.579zM255.996 177.488l-73.079-73.105h-52.312v156.665h250.786v-156.666h-52.311l-73.084 73.106z" />
<glyph unicode="&#xe634;" d="M346.879 150.901h44.819v107.612l-50.495 50.494-31.692-31.692 37.368-37.369v-89.045zM391.816 128.432h-156.334l-37.368 37.369 15.846 15.846 30.865-30.864h63.501l-62.556 62.675 15.965 15.965 62.556-62.557v63.502l-30.745 30.747 15.729 15.728-77.695 78.048h-156.096l44.701-44.7v-0.119h92.712l32.757-32.757-47.894-47.893-32.757 32.756v25.425h-44.818v-43.991l77.575-77.575-31.574-31.574 50.494-50.495h219.835l-44.699 44.464z" />
<glyph unicode="&#xe635;" d="M271.307 383.009l-92.932-30.076 201.279-65.127v-128.438l-134.127-43.371-113.181 36.594v125.813l109.383-35.401 92.932 30.057-201.571 65.235-57.952-18.752v-208.575l170.389-55.119 191.335 61.9v211.681z" />
<glyph unicode="&#xe636;" d="M74.633 425.429l33.011-370.814 148.134-41.186 148.543 41.243 33.046 370.757h-362.734zM143.219 337.429l-1.087 12.201h113.711v-45.479h-64.083l4.15-46.57h59.933v-45.479h-101.463l-11.161 125.327zM360.291 245.367l-10.671-119.731-0.683-7.683-93.146-25.862-93.020 25.862-6.362 71.408h45.585l3.233-36.271 50.616-13.662 50.647 13.69 5.271 58.983h-55.761v45.479h105.399l-1.108-12.213zM368.511 337.429l-2.068-23.056-0.911-10.223h-109.532v45.479h113.597l-1.086-12.2z" />
<glyph unicode="&#xe637;" d="M137.174 363.081c0 0 237.652 23.766 237.652 63.374v-95.062c0 0 0-39.608-237.652-63.373zM138.174 236.331c0 0 237.652 23.766 237.652 63.375v-95.059c0 0 0-39.609-237.652-63.375zM138.174 109.584c0 0 237.652 23.765 237.652 63.373v-95.061c0 0 0-39.608-237.652-63.374z" />
</font>
</defs>
</svg>
