<?xml version="1.0" encoding="UTF-8"?>
<svg height="100%" width="100%" xmlns="http://www.w3.org/2000/svg">
	<defs>
		<font horiz-adv-x="610" id="web">
			<font-face alphabetic="0" ascent="992" descent="-290" font-family="" panose-1="2 11 3 5 2 2 2 2 2 3"/>
			<missing-glyph d="M49 718H561V0H49ZM99 667V50H511V667ZM308 609Q363 609 397 573T432 478Q432 444 419 418T369 358Q344 335 334 321T322 290T320 234H274L272 251Q272 300 283 327T331 391Q358 417 369 434T381 474Q381 515 359 537T305 559Q272 559 250 536T223 464L173 472Q179 541 215 575T308 609ZM271 184H327V117H271Z"/>
			<glyph d="" horiz-adv-x="248" unicode=" "/>
			<glyph d="M127 708H177V374L173 208H131L127 374ZM152 69Q190 69 190 31Q190 -6 152 -6Q114 -6 114 31Q114 69 152 69Z" horiz-adv-x="304" unicode="!"/>
			<glyph d="M87 708H130L126 472H87ZM242 708H285L281 472H242Z" horiz-adv-x="372" unicode="&quot;"/>
			<glyph d="M301 648H343L296 469H512L559 648H601L554 469H671V434H545L488 215H614V179H479L432 0H390L437 179H221L174 0H132L179 179H64V215H188L245 434H121V469H254ZM287 434L230 215H446L503 434Z" horiz-adv-x="735" unicode="#"/>
			<glyph d="M292 752H334V681Q391 679 437 663T524 619L500 588Q458 614 415 627T319 640Q244 640 200 610T157 523Q157 486 174 463T225 425T318 395Q424 370 475 329T527 207Q527 129 473 83T334 33V-44H292V32Q225 35 175 53T84 106L111 138Q155 105 200 90T301 75Q382 75 429 108T476 206Q476 250 456 278T398 322T299 354Q197 379 151 415T106 522Q106 591 157 633T292 680Z" unicode="$"/>
			<glyph d="M311 722Q375 722 421 693T491 616T515 512Q515 457 491 409T421 332T311 304Q246 304 199 332T128 408T105 512Q105 568 129 616T199 693T311 722ZM793 709H842L424 0H375ZM310 680Q259 680 223 656T171 594T154 512Q154 444 194 395T310 346Q386 346 426 395T466 512Q466 556 449 594T396 656T310 680ZM911 407Q975 407 1021 378T1091 301T1115 197Q1115 142 1091 94T1021 17T911 -11Q846 -11 799 17T728 93T705 197Q705 253 729 301T799 378T911 407ZM910 365Q859 365 823 341T771 279T754 197Q754 129 794 80T910 31Q986 31 1026 80T1066 197Q1066 241 1049 279T996 341T910 365Z" horiz-adv-x="1220" unicode="%"/>
			<glyph d="M282 723Q334 723 373 703T432 649T453 573Q453 505 409 462T273 376L501 151Q548 235 561 332L603 325Q588 211 532 121L637 18L606 -14L506 85Q465 37 410 11T277 -14Q213 -14 162 10T83 78T55 180Q55 248 90 297T202 384Q151 435 129 473T108 566Q108 636 157 679T282 723ZM283 683Q227 683 192 652T158 566Q158 519 175 486T243 405Q302 432 335 454T386 504T403 572Q403 619 370 651T283 683ZM232 354Q162 318 134 279T107 182Q107 109 154 70T277 31Q344 31 392 52T476 114Z" horiz-adv-x="654" unicode="&amp;"/>
			<glyph d="M87 708H130L126 472H87Z" horiz-adv-x="217" unicode="'"/>
			<glyph d="M248 826L282 805Q206 697 164 590T122 354Q122 224 164 118T282 -97L248 -118Q163 -4 116 105T70 354Q70 493 116 602T248 826Z" horiz-adv-x="352" unicode="("/>
			<glyph d="M104 826Q189 712 235 602T282 354Q282 215 235 105T104 -118L70 -97Q146 12 188 118T230 354Q230 484 188 590T70 805Z" horiz-adv-x="352" unicode=")"/>
			<glyph d="M178 708H219L214 586L328 629L341 591L225 558L301 461L267 437L199 539L130 437L97 461L173 558L57 591L70 629L183 587Z" horiz-adv-x="398" unicode="*"/>
			<glyph d="M283 488H327V309H505V267H327V88H283V267H105V309H283Z" unicode="+"/>
			<glyph d="M126 69Q146 69 156 57T167 21Q167 -28 148 -70T78 -165L58 -148Q95 -103 109 -69T126 0Q89 3 89 34Q89 50 99 59T126 69Z" horiz-adv-x="254" unicode=","/>
			<glyph d="M47 313H261V272H47Z" horiz-adv-x="308" unicode="-"/>
			<glyph d="M126 69Q164 69 164 31Q164 -6 126 -6Q88 -6 88 31Q88 69 126 69Z" horiz-adv-x="252" unicode="."/>
			<glyph d="M352 782H397L175 -78H130Z" horiz-adv-x="526" unicode="/"/>
			<glyph d="M305 723Q435 723 499 625T563 354Q563 181 499 83T305 -15Q175 -15 111 83T47 354Q47 527 111 625T305 723ZM305 679Q197 679 147 593T98 354Q98 200 147 114T305 29Q412 29 461 114T511 354Q511 508 461 593T305 679Z" unicode="0"/>
			<glyph d="M318 708H363V44H521V0H118V43H311V652L110 543L88 582Z" unicode="1"/>
			<glyph d="M293 723Q364 723 415 697T493 627T519 530Q519 457 486 396T377 261T136 44H545V0H67V41Q243 194 322 272T434 406T466 526Q466 594 419 637T289 680Q227 680 181 658T90 592L59 620Q113 673 165 698T293 723Z" unicode="2"/>
			<glyph d="M291 723Q393 723 450 673T508 542Q508 466 469 426T374 375V373Q438 367 484 324T530 198Q530 100 463 42T280 -15Q199 -15 143 7T39 77L67 107Q115 64 163 46T280 28Q373 28 425 73T478 199Q478 277 430 313T304 350H197V393H291Q365 393 411 429T457 537Q457 605 412 642T286 680Q227 680 180 663T88 611L61 641Q110 683 164 703T291 723Z" unicode="3"/>
			<glyph d="M289 708H343L91 232H404V446H454V232H573V188H454V0H404V188H33V228Z" unicode="4"/>
			<glyph d="M105 708H511V665H155V400Q231 436 321 436Q425 436 485 379T545 225Q545 116 477 50T286 -15Q210 -15 156 7T51 77L81 107Q129 65 176 46T286 28Q385 28 439 81T493 224Q493 305 445 349T312 394Q260 394 221 384T142 354H105Z" unicode="5"/>
			<glyph d="M345 723Q395 723 432 711T506 676L485 641Q453 662 421 671T345 681Q232 681 171 592T106 353Q150 402 204 430T333 458Q435 458 497 399T560 238Q560 123 494 54T310 -15Q179 -15 116 73T54 310Q54 503 129 613T345 723ZM325 417Q254 417 201 386T106 299Q108 170 155 99T311 28Q406 28 457 84T508 236Q508 322 459 369T325 417Z" unicode="6"/>
			<glyph d="M44 707H573V666Q427 508 348 346T251 0H194Q220 183 296 345T510 663H44Z" unicode="7"/>
			<glyph d="M306 723Q366 723 416 702T496 642T526 548Q526 489 493 447T388 368Q453 345 490 320T544 262T561 179Q561 121 530 77T440 9T304 -15Q224 -15 166 9T79 78T49 179Q49 254 91 303T223 384Q148 413 116 450T85 548Q85 600 115 640T195 701T306 723ZM306 683Q234 683 185 646T136 546Q136 510 149 485T193 441T281 403L343 383Q414 419 444 455T475 545Q475 610 427 646T306 683ZM271 367Q179 336 140 293T101 183Q101 109 155 67T305 26Q399 26 454 68T509 181Q509 226 491 255T435 304T327 348Z" unicode="8"/>
			<glyph d="M304 723Q432 723 494 639T556 399Q556 271 507 178T364 35T138 -14V30Q250 30 330 69T455 182T504 356Q419 251 281 251Q214 251 162 278T80 357T50 480Q50 550 79 605T166 691T304 723ZM303 681Q206 681 154 626T102 481Q102 390 153 341T289 292Q360 292 414 323T504 409Q503 546 456 613T303 681Z" unicode="9"/>
			<glyph d="M126 69Q164 69 164 31Q164 -6 126 -6Q88 -6 88 31Q88 69 126 69ZM128 452Q166 452 166 414Q166 377 128 377Q90 377 90 414Q90 452 128 452Z" horiz-adv-x="252" unicode=":"/>
			<glyph d="M134 452Q172 452 172 414Q172 377 134 377Q96 377 96 414Q96 452 134 452ZM126 69Q146 69 156 57T167 21Q167 -28 148 -70T78 -165L58 -148Q95 -103 109 -69T126 0Q89 3 89 34Q89 50 99 59T126 69Z" horiz-adv-x="262" unicode=";"/>
			<glyph d="M478 519L499 485L160 284L499 83L478 49L111 264V303Z" unicode="&lt;"/>
			<glyph d="M105 213H505V172H105ZM105 413H505V372H105Z" unicode="="/>
			<glyph d="M132 519L499 303V264L132 49L111 83L450 284L111 485Z" unicode="&gt;"/>
			<glyph d="M238 723Q297 723 342 700T411 636T436 545Q436 501 419 467T380 410T320 357Q277 323 256 298T236 241V208H189V247Q189 288 212 317T281 382Q315 409 335 429T370 477T384 543Q384 605 343 642T234 680Q173 680 129 657T49 592L17 620Q61 670 112 696T238 723ZM212 69Q250 69 250 31Q250 -6 212 -6Q174 -6 174 31Q174 69 212 69Z" horiz-adv-x="483" unicode="?"/>
			<glyph d="M489 678Q610 678 694 636T822 523T865 359Q865 228 821 161T709 95Q654 95 626 128T596 203Q574 156 530 126T428 97Q360 97 321 142T283 262Q283 331 308 386T384 472T507 504Q554 504 594 490T665 458L631 251Q628 236 628 221Q628 179 649 154T708 129Q757 129 788 184T820 357Q820 440 783 504T673 604T489 640Q380 640 301 593T181 466T140 290Q140 186 181 110T300 -6T488 -47Q593 -47 682 -14L694 -49Q595 -86 486 -86Q367 -86 278 -40T142 90T95 290Q95 396 143 484T280 625T489 678ZM504 469Q417 469 372 409T328 262Q328 201 356 167T438 133Q500 133 541 179T593 288L619 439Q561 469 504 469Z" horiz-adv-x="960" unicode="@"/>
			<glyph d="M295 708H353L638 0H582L508 189H138L64 0H10ZM324 663L155 230H492Z" horiz-adv-x="649" unicode="A"/>
			<glyph d="M98 708H330Q421 708 476 667T532 538Q532 473 493 430T399 376V374Q474 365 519 319T564 194Q564 94 500 47T337 0H98ZM149 667V391H312Q386 391 433 427T481 534Q481 667 320 667ZM149 352V41H324Q408 41 460 78T512 198Q512 273 462 312T328 352Z" horiz-adv-x="614" unicode="B"/>
			<glyph d="M400 724Q537 724 632 640L601 606Q560 641 509 660T402 679Q307 679 240 637T141 522T108 354Q108 260 141 187T240 72T401 31Q463 31 518 54T616 117L647 83Q601 37 537 11T400 -15Q290 -15 212 31T95 161T55 354Q55 463 95 546T212 677T400 724Z" horiz-adv-x="671" unicode="C"/>
			<glyph d="M98 708H310Q483 708 576 619T670 354Q670 180 576 90T311 0H98ZM150 665V43H305Q456 43 537 120T618 354Q618 512 538 588T305 665Z" horiz-adv-x="725" unicode="D"/>
			<glyph d="M98 708H512V666H149V387H469V346H149V43H528V0H98Z" horiz-adv-x="558" unicode="E"/>
			<glyph d="M98 708H514V665H150V384H476V342H150V0H98Z" horiz-adv-x="533" unicode="F"/>
			<glyph d="M407 723Q476 723 534 701T638 639L608 605Q567 641 516 660T408 679Q312 679 244 637T141 521T107 354Q107 205 183 116T404 28Q466 28 514 41T612 78V302H431V343H660V50Q599 19 540 2T404 -15Q291 -15 212 31T94 161T55 354Q55 463 96 546T217 676T407 723Z" horiz-adv-x="749" unicode="G"/>
			<glyph d="M98 708H150V387H581V708H633V0H581V344H150V0H98Z" horiz-adv-x="731" unicode="H"/>
			<glyph d="M59 708H283V668H196V41H283V0H59V41H145V668H59Z" horiz-adv-x="342" unicode="I"/>
			<glyph d="M270 708H322V194Q322 101 275 43T131 -15Q64 -15 8 16L28 54Q49 42 76 35T128 29Q201 29 235 74T270 194Z" horiz-adv-x="411" unicode="J"/>
			<glyph d="M98 708H150V358L488 708H551L239 386L572 0H508L205 351L150 293V0H98Z" horiz-adv-x="582" unicode="K"/>
			<glyph d="M98 708H150V44H489V0H98Z" horiz-adv-x="494" unicode="L"/>
			<glyph d="M98 708H177L454 71H456L733 708H812V0H761L762 648H760L474 0H434L148 648H146L147 0H98Z" horiz-adv-x="910" unicode="M"/>
			<glyph d="M98 708H159L625 69H627L626 708H676V0H614L148 639H146L147 0H98Z" horiz-adv-x="774" unicode="N"/>
			<glyph d="M404 723Q514 723 592 676T712 546T753 354Q753 245 712 161T592 31T404 -15Q294 -15 215 31T96 161T55 354Q55 463 96 546T215 676T404 723ZM404 679Q309 679 242 637T142 523T108 354Q108 258 142 185T242 70T404 29Q499 29 566 70T667 185T701 354Q701 450 667 523T566 637T404 679Z" horiz-adv-x="809" unicode="O"/>
			<glyph d="M98 708H321Q425 708 494 654T563 483Q563 410 529 359T441 283T324 258H150V0H98ZM150 666V300H322Q372 300 415 320T484 382T511 483Q511 579 455 622T318 666Z" horiz-adv-x="596" unicode="P"/>
			<glyph d="M404 723Q514 723 592 676T712 546T753 354Q753 250 716 169T607 40T435 -14Q455 -59 485 -85T568 -124T707 -137V-180Q607 -180 543 -162T443 -108T382 -15Q279 -10 205 37T93 167T55 354Q55 463 96 546T215 676T404 723ZM404 679Q309 679 242 637T142 523T108 354Q108 258 142 185T242 70T404 29Q499 29 566 70T667 185T701 354Q701 450 667 523T566 637T404 679Z" horiz-adv-x="809" unicode="Q"/>
			<glyph d="M98 708H319Q381 708 433 684T518 611T550 489Q550 402 501 349T376 281L563 0H504L325 275H150V0H98ZM150 666V316H317Q395 316 446 361T498 489Q498 577 445 621T317 666Z" unicode="R"/>
			<glyph d="M283 723Q345 723 394 706T486 658L461 624Q422 652 379 666T283 680Q205 680 157 644T110 544Q110 484 150 453T281 398Q353 379 400 354T473 288T500 185Q500 121 469 76T386 8T267 -15Q130 -15 33 69L60 101Q106 64 155 46T266 29Q346 29 397 69T448 183Q448 234 425 266T362 319T258 356Q155 383 107 424T59 543Q59 626 121 674T283 723Z" horiz-adv-x="545" unicode="S"/>
			<glyph d="M5 708H523V663H290V0H238V663H5Z" horiz-adv-x="528" unicode="T"/>
			<glyph d="M89 708H141V256Q141 145 195 87T366 30Q483 30 537 87T592 256V708H644V253Q644 124 574 54T366 -15Q227 -15 158 54T89 253Z" horiz-adv-x="732" unicode="U"/>
			<glyph d="M9 708H64L306 54H309L550 708H604L335 0H277Z" horiz-adv-x="614" unicode="V"/>
			<glyph d="M20 708H73L260 62H262L449 708H509L700 62H702L889 708H941L731 0H672L479 647H477L289 0H230Z" horiz-adv-x="962" unicode="W"/>
			<glyph d="M42 708H102L297 407L494 708H552L328 372L577 0H516L296 334L78 0H17L265 372L266 373Z" horiz-adv-x="594" unicode="X"/>
			<glyph d="M-4 708H55L267 351H269L480 708H538L292 306V0H240V308Z" horiz-adv-x="533" unicode="Y"/>
			<glyph d="M52 708H524V661L97 44H535V0H39V48L466 666H52Z" horiz-adv-x="585" unicode="Z"/>
			<glyph d="M80 804H271V763H127V-71H271V-111H80Z" horiz-adv-x="352" unicode="["/>
			<glyph d="M129 782H174L396 -78H351Z" horiz-adv-x="526" unicode="\"/>
			<glyph d="M81 804H272V-111H81V-71H225V763H81Z" horiz-adv-x="352" unicode="]"/>
			<glyph d="M284 708H327L482 508L456 488L306 673L155 488L129 508Z" unicode="^"/>
			<glyph d="M57 -106H553V-147H57Z" unicode="_"/>
			<glyph d="M56 736L206 613L185 586L30 698Z" horiz-adv-x="236" unicode="`"/>
			<glyph d="M254 513Q350 513 396 466T443 325V109Q443 62 449 0H403Q399 35 397 83H395Q369 36 321 10T206 -15Q131 -15 88 23T46 133Q46 198 78 235T173 287T338 303Q374 303 393 302V335Q393 473 252 473Q206 473 169 461T96 428L78 462Q153 513 254 513ZM343 266Q255 266 202 254T123 214T97 135Q97 82 128 54T216 26Q274 26 314 50T373 109T393 177V265Z" horiz-adv-x="525" unicode="a"/>
			<glyph d="M94 708H144V405H146Q171 457 220 485T333 513Q404 513 454 478T530 384T556 249Q556 174 528 114T448 20T322 -14Q215 -14 142 67L135 0H94ZM327 473Q272 473 230 447T166 379T144 288V117Q181 70 222 48T317 27Q407 27 456 89T505 249Q505 349 458 411T327 473Z" horiz-adv-x="611" unicode="b"/>
			<glyph d="M295 513Q342 513 385 499T459 459L437 425Q379 471 295 471Q202 471 153 410T105 250Q105 152 153 90T294 28Q369 28 437 75L457 41Q384 -14 292 -14Q213 -14 160 21T81 116T55 250Q55 370 118 441T295 513Z" horiz-adv-x="497" unicode="c"/>
			<glyph d="M467 708H517V109Q517 62 523 0H476Q470 54 470 95H468Q440 39 391 12T279 -14Q172 -14 113 59T55 250Q55 324 83 384T163 478T286 513Q347 513 390 491T467 431ZM291 472Q235 472 193 443T128 363T106 250Q106 150 154 88T287 27Q341 27 382 51T445 118T467 212V377Q434 424 391 448T291 472Z" unicode="d"/>
			<glyph d="M282 513Q388 513 443 444T499 259Q499 243 498 234H105Q108 142 156 84T292 27Q341 27 379 40T455 80L478 47Q437 17 391 1T290 -14Q178 -14 116 59T55 253Q55 330 82 388T160 480T282 513ZM281 474Q199 474 153 416T105 273H451Q449 366 406 420T281 474Z" horiz-adv-x="553" unicode="e"/>
			<glyph d="M260 722Q300 722 336 712L326 676Q296 682 264 682Q211 681 185 650T159 562V499H290V460H159V0H109V460H15V492L109 499V563Q109 640 148 681T260 722Z" horiz-adv-x="307" unicode="f"/>
			<glyph d="M250 511Q276 511 294 508T334 499H501V459L379 466Q410 449 429 414T449 329Q449 246 397 200T248 155Q198 155 164 139T131 99Q131 52 230 52Q373 51 434 17T496 -85Q496 -167 427 -212T237 -258Q131 -258 77 -220T23 -111Q23 -66 49 -31T141 31Q85 51 85 96Q85 122 105 141T164 171Q111 186 81 226T51 333Q51 415 103 463T250 511ZM249 472Q178 472 138 434T98 334Q98 266 135 229T249 193Q326 193 363 229T401 332Q401 397 361 434T249 472ZM185 13Q123 -10 97 -39T72 -109Q72 -218 238 -218Q339 -218 392 -184T446 -89Q446 -53 423 -31T343 2T185 13Z" horiz-adv-x="525" unicode="g"/>
			<glyph d="M94 708H144V409H146Q169 455 215 484T328 513Q422 513 468 457T514 317V0H464V308Q464 378 429 424T318 471Q266 471 226 447T165 383T144 294V0H94Z" horiz-adv-x="599" unicode="h"/>
			<glyph d="M94 499H144V0H94ZM119 721Q157 721 157 684Q157 648 119 648Q81 648 81 684Q81 721 119 721Z" horiz-adv-x="238" unicode="i"/>
			<glyph d="M94 499H144V-110Q144 -185 112 -221T15 -258Q-8 -258 -26 -253L-17 -215Q-3 -217 10 -217Q55 -217 74 -191T94 -111ZM119 721Q157 721 157 684Q157 648 119 648Q81 648 81 684Q81 721 119 721Z" horiz-adv-x="238" unicode="j"/>
			<glyph d="M94 708H144V268L395 499H458L234 293L484 0H420L198 260L144 210V0H94Z" horiz-adv-x="488" unicode="k"/>
			<glyph d="M94 708H144V0H94Z" horiz-adv-x="238" unicode="l"/>
			<glyph d="M318 513Q450 513 483 387H485Q507 446 556 479T671 513Q760 513 805 457T850 321V0H800V315Q800 380 766 426T663 472Q611 472 572 444T514 372T494 275V0H445V310Q445 378 412 425T308 472Q258 472 220 448T163 383T143 294V0H93V391Q93 439 87 499H134Q140 447 140 407H142Q164 455 210 484T318 513Z" horiz-adv-x="936" unicode="m"/>
			<glyph d="M327 513Q421 513 467 457T513 317V0H463V308Q463 378 428 424T317 471Q265 471 225 447T164 383T143 294V0H93V391Q93 439 87 499H134Q140 447 140 406H142Q166 455 212 484T327 513Z" horiz-adv-x="598" unicode="n"/>
			<glyph d="M297 514Q412 514 476 442T540 251Q540 173 511 113T428 19T297 -14Q221 -14 166 19T83 113T55 251Q55 371 118 442T297 514ZM296 473Q202 473 154 412T106 251Q106 151 154 89T296 27Q391 27 440 88T489 251Q489 351 440 412T296 473Z" horiz-adv-x="595" unicode="o"/>
			<glyph d="M333 513Q404 513 454 478T529 384T555 249Q555 174 527 114T448 20T324 -14Q265 -14 221 7T143 67V-244H93V391Q93 439 87 499H134Q140 445 140 398H142Q167 453 216 483T333 513ZM326 473Q271 473 229 447T165 379T143 288V117Q181 70 221 48T316 27Q406 27 455 89T504 249Q504 348 457 410T326 473Z" unicode="p"/>
			<glyph d="M285 513Q398 513 469 430L476 499H517V-244H467V91H465Q438 38 390 12T281 -14Q173 -14 114 59T55 250Q55 324 83 384T164 478T285 513ZM291 472Q235 472 193 443T128 363T106 250Q106 150 154 88T287 27Q341 27 382 51T445 118T467 212V376Q434 424 391 448T291 472Z" horiz-adv-x="611" unicode="q"/>
			<glyph d="M307 513Q322 513 332 511L330 469Q320 470 303 470Q226 470 184 415T143 274V0H93V391Q93 439 87 499H134Q140 445 140 403H142Q184 513 307 513Z" horiz-adv-x="339" unicode="r"/>
			<glyph d="M211 513Q306 513 370 461L347 429Q290 474 212 474Q157 474 125 451T93 387Q93 345 122 322T229 282Q309 263 345 228T382 134Q382 66 332 26T205 -14Q150 -14 107 1T28 45L52 76Q88 50 122 38T204 26Q262 26 296 54T331 131Q331 163 319 183T278 217T196 245Q114 264 78 296T43 384Q43 444 89 478T211 513Z" horiz-adv-x="427" unicode="s"/>
			<glyph d="M159 648V499H300V460H159V116Q159 70 180 48T240 27Q266 27 294 35L302 -2Q271 -14 232 -14Q175 -14 142 19T109 113V460H15V493L109 499V630Z" horiz-adv-x="332" unicode="t"/>
			<glyph d="M85 499H135V201Q135 124 170 75T279 26Q332 26 372 54T433 131T455 237V499H505V109Q505 62 511 0H464Q458 54 458 108H456Q431 49 384 17T270 -15Q177 -15 131 43T85 195Z" horiz-adv-x="598" unicode="u"/>
			<glyph d="M10 499H64L234 50H236L400 499H453L264 0H205Z" horiz-adv-x="464" unicode="v"/>
			<glyph d="M24 499H76L196 53H198L340 499H398L540 53H542L663 499H714L572 0H513L369 446H367L224 0H165Z" horiz-adv-x="738" unicode="w"/>
			<glyph d="M35 499H92L243 293L391 499H447L273 262L475 0H415L240 230L72 0H13L209 262Z" horiz-adv-x="488" unicode="x"/>
			<glyph d="M10 499H63L231 54H232L388 499H440L206 -142Q185 -203 153 -230T70 -258Q39 -258 15 -249L25 -211Q43 -216 65 -216Q103 -216 125 -194T162 -129L205 -3Z" horiz-adv-x="450" unicode="y"/>
			<glyph d="M52 499H382V458L94 40H394V0H37V42L325 460H52Z" horiz-adv-x="431" unicode="z"/>
			<glyph d="M297 804V762Q249 762 220 732T192 647V476Q192 416 169 388T95 348V346Q146 333 169 305T192 217V46Q192 -10 220 -39T297 -69V-111Q229 -111 186 -71T143 50V237Q143 278 121 298T55 324V369Q143 380 143 456V643Q143 723 187 763T297 804Z" horiz-adv-x="352" unicode="{"/>
			<glyph d="M144 808H191V-100H144Z" horiz-adv-x="334" unicode="|"/>
			<glyph d="M55 804Q121 804 165 763T209 643V456Q209 380 297 369V324Q253 319 231 298T209 237V50Q209 -31 166 -71T55 -111V-69Q103 -69 131 -39T160 46V217Q160 277 183 305T257 346V348Q206 360 183 388T160 476V647Q160 703 131 732T55 762Z" horiz-adv-x="352" unicode="}"/>
			<glyph d="M223 330Q247 330 267 322T314 300Q340 287 356 280T390 274Q415 274 436 286T483 328L507 311Q459 238 390 238Q367 238 347 245T300 268Q275 281 258 287T223 294Q199 294 176 281T128 240L104 257Q155 330 223 330Z" unicode="~"/>
			<glyph d="" horiz-adv-x="248" unicode=" "/>
			<glyph d="M131 300H173L177 134V-200H127V134ZM152 514Q190 514 190 477Q190 439 152 439Q114 439 114 477Q114 514 152 514Z" horiz-adv-x="304" unicode="¡"/>
			<glyph d="M322 708H364L363 617Q405 615 442 601T507 563L485 530Q427 576 343 576Q250 576 201 515T153 354Q153 256 201 194T342 133Q418 133 485 179L505 145Q442 98 363 91L364 0H322L323 90Q214 96 158 170T103 354Q103 468 161 539T323 617Z" unicode="¢"/>
			<glyph d="M329 723Q391 723 438 700T523 637L490 608Q457 644 419 661T329 679Q259 679 220 641T182 539Q182 496 193 464T232 379H425V339H250Q273 284 273 230Q273 163 238 118T147 47V45H520V0H81V42Q149 78 185 120T221 230Q221 286 197 339H82V379H178Q153 430 141 462T130 540Q130 621 182 672T329 723Z" unicode="£"/>
			<glyph d="M135 513L207 419Q247 442 305 442Q363 442 403 419L475 513L507 490L433 398Q482 351 482 271Q482 190 432 143L507 51L475 27L402 122Q362 99 305 99Q248 99 208 122L135 27L103 51L178 143Q129 190 129 271Q129 310 141 343T178 398L103 490ZM305 407Q237 407 204 371T171 271Q171 207 204 170T305 133Q372 133 406 170T440 271Q440 335 406 371T305 407Z" unicode="¤"/>
			<glyph d="M36 708H93L301 349H303L508 708H564L343 338H475V302H324V232H475V196H324V0H274V196H125V232H274V302H125V338H256Z" horiz-adv-x="600" unicode="¥"/>
			<glyph d="M144 808H191V427H144ZM144 281H191V-100H144Z" horiz-adv-x="334" unicode="¦"/>
			<glyph d="M312 723Q366 723 406 710T483 671L460 639Q427 661 393 672T314 683Q261 683 229 661T197 603Q197 578 209 561T250 529T332 499Q391 482 424 464T473 422T489 360Q489 313 459 282T378 236Q437 217 463 190T489 119Q489 55 438 20T305 -14Q247 -14 203 0T121 45L145 76Q184 50 219 38T306 26Q368 26 403 49T438 116Q438 142 426 158T385 187T299 215Q238 232 203 249T152 292T136 357Q136 400 167 433T251 481Q195 502 171 530T147 600Q147 656 192 689T312 723ZM298 465Q244 452 215 425T185 361Q185 330 198 311T242 278T328 250Q439 278 439 357Q439 387 427 405T386 435T300 465Z" unicode="§"/>
			<glyph d="M66 696Q102 696 102 660Q102 625 66 625Q30 625 30 660Q30 696 66 696ZM235 696Q271 696 271 660Q271 625 235 625Q199 625 199 660Q199 696 235 696Z" horiz-adv-x="301" unicode="¨"/>
			<glyph d="M471 723Q591 723 676 675T804 544T848 354Q848 247 804 163T676 32T471 -15Q351 -15 266 32T138 163T95 354Q95 461 138 544T266 675T471 723ZM472 687Q361 687 285 644T173 525T136 354Q136 258 173 182T285 64T472 21Q583 21 658 64T771 182T808 354Q808 450 771 525T658 644T472 687ZM480 570Q559 570 617 526L599 497Q572 516 543 525T480 534Q403 534 363 485T323 356Q323 275 363 226T480 177Q543 177 598 214L615 186Q588 165 552 153T478 141Q380 141 330 201T280 356Q280 453 333 511T480 570Z" horiz-adv-x="944" unicode="©"/>
			<glyph d="M274 722Q368 722 413 676T458 538V328Q458 282 464 222H419Q416 256 414 303H412Q386 257 340 232T228 207Q155 207 113 244T72 352Q72 415 103 451T196 502T356 517Q391 517 410 516V548Q410 683 272 683Q228 683 192 671T120 639L103 672Q176 722 274 722ZM361 481Q275 481 223 470T146 431T121 353Q121 302 151 274T237 247Q294 247 333 270T391 328T410 394V480ZM84 48H497V7H84Z" horiz-adv-x="568" unicode="ª"/>
			<glyph d="M210 472L236 451L127 309L235 167L210 147L85 297V321ZM366 472L392 451L283 309L391 167L366 147L241 297V321Z" horiz-adv-x="477" unicode="«"/>
			<glyph d="M105 364H505V182H459V323H105Z" unicode="¬"/>
			<glyph d="M47 313H261V272H47Z" horiz-adv-x="308" unicode="­"/>
			<glyph d="M173 722Q233 722 266 688T299 600Q299 546 266 512T173 478Q114 478 81 512T48 600Q48 654 81 688T173 722ZM174 702Q123 702 97 674T71 600Q71 554 97 526T174 498Q225 498 251 526T277 600Q277 646 251 674T174 702ZM130 671H177Q200 671 214 660T228 628Q228 597 198 586L232 535H207L175 583H152V535H130ZM152 653V601H172Q188 601 197 608T206 628Q206 653 173 653Z" horiz-adv-x="347" unicode="®"/>
			<glyph d="M30 653H281V617H30Z" horiz-adv-x="311" unicode="¯"/>
			<glyph d="M179 723Q236 723 270 690T304 602Q304 546 270 513T179 480Q121 480 87 513T53 602Q53 658 87 690T179 723ZM179 690Q138 690 115 667T93 602Q93 559 115 536T179 514Q219 514 241 536T264 602Q264 645 242 667T179 690Z" horiz-adv-x="357" unicode="°"/>
			<glyph d="M283 577H327V398H505V357H327V177H283V357H105V398H283ZM105 48H505V7H105Z" unicode="±"/>
			<glyph d="M267 719Q347 719 391 677T435 575Q435 523 412 480T333 384T159 233H453V191H94V230Q224 340 281 394T362 488T386 571Q386 618 353 648T263 678Q216 678 182 662T115 615L86 642Q125 681 166 700T267 719Z" horiz-adv-x="540" unicode="²"/>
			<glyph d="M273 719Q352 719 396 682T441 586Q441 531 412 502T342 464V463Q390 458 424 427T458 336Q458 265 407 222T266 180Q204 180 161 196T81 248L108 277Q143 247 178 234T266 221Q332 221 370 251T408 337Q408 391 374 416T283 442H200V482H273Q327 482 359 506T392 580Q392 627 360 652T269 678Q225 678 190 666T122 629L97 657Q134 689 176 704T273 719Z" horiz-adv-x="540" unicode="³"/>
			<glyph d="M180 736L206 698L51 586L30 613Z" horiz-adv-x="236" unicode="´"/>
			<glyph d="M91 499H141V201Q141 124 176 75T285 27Q338 27 378 55T439 131T461 237V499H511V109Q511 62 517 0H470Q464 54 464 108H462Q437 50 391 17T282 -15Q181 -15 141 70H139V-133Q139 -199 132 -244H85Q91 -182 91 -135Z" horiz-adv-x="604" unicode="µ"/>
			<glyph d="M243 708H351V-130H302V347H240Q146 347 91 393T36 527Q36 615 91 661T243 708ZM473 708H522V-130H473ZM240 666Q165 666 124 631T83 527Q83 457 123 423T240 389H302V666Z" horiz-adv-x="621" unicode="¶"/>
			<glyph d="M126 365Q164 365 164 327Q164 290 126 290Q88 290 88 327Q88 365 126 365Z" horiz-adv-x="252" unicode="·"/>
			<glyph d="M107 0H143L115 -76Q130 -72 150 -72Q187 -72 209 -91T231 -146Q231 -188 200 -210T122 -232Q71 -232 30 -209L44 -181Q63 -190 80 -194T122 -199Q155 -199 173 -185T191 -146Q191 -124 177 -112T139 -100Q119 -100 95 -107H65Z" horiz-adv-x="261" unicode="¸"/>
			<glyph d="M277 708H320V233H437V191H126V232H271V656L123 580L103 616Z" horiz-adv-x="540" unicode="¹"/>
			<glyph d="M304 723Q416 723 478 653T541 466Q541 390 513 332T432 241T304 208Q230 208 177 241T96 332T69 466Q69 583 130 653T304 723ZM303 683Q212 683 165 623T118 466Q118 369 165 308T303 248Q396 248 443 308T491 466Q491 564 443 623T303 683ZM108 48H521V7H108Z" horiz-adv-x="619" unicode="º"/>
			<glyph d="M110 472L236 321V297L111 147L86 167L194 309H193L85 451ZM266 472L392 321V297L267 147L242 167L350 309H349L241 451Z" horiz-adv-x="477" unicode="»"/>
			<glyph d="M234 708H277V233H394V191H83V232H228V656L80 580L60 616ZM790 709H839L421 0H372ZM921 517H973L792 174H1009V325H1057V174H1140V132H1057V0H1009V132H737V170Z" horiz-adv-x="1200" unicode="¼"/>
			<glyph d="M228 708H271V233H388V191H77V232H222V656L74 580L54 616ZM783 709H832L414 0H365ZM960 528Q1040 528 1084 486T1128 384Q1128 332 1105 289T1026 193T852 42H1146V0H787V39Q917 149 974 203T1055 297T1079 380Q1079 427 1046 457T956 487Q909 487 875 471T808 424L779 451Q818 490 859 509T960 528Z" horiz-adv-x="1200" unicode="½"/>
			<glyph d="M241 719Q320 719 364 682T409 586Q409 531 380 502T310 464V463Q358 458 392 427T426 336Q426 265 375 222T234 180Q172 180 129 196T49 248L76 277Q111 247 146 234T234 221Q300 221 338 251T376 337Q376 391 342 416T251 442H168V482H241Q295 482 327 506T360 580Q360 627 328 652T237 678Q193 678 158 666T90 629L65 657Q102 689 144 704T241 719ZM800 709H849L431 0H382ZM931 517H983L802 174H1019V325H1067V174H1150V132H1067V0H1019V132H747V170Z" horiz-adv-x="1200" unicode="¾"/>
			<glyph d="M247 300H294V261Q294 220 271 191T202 126Q168 99 147 79T113 30T99 -35Q99 -97 139 -134T249 -172Q310 -172 353 -149T434 -84L466 -112Q422 -162 370 -188T245 -215Q186 -215 141 -192T71 -128T47 -37Q47 7 63 41T102 97T163 151Q206 185 226 209T247 267ZM271 514Q309 514 309 477Q309 439 271 439Q233 439 233 477Q233 514 271 514Z" horiz-adv-x="483" unicode="¿"/>
			<glyph d="M295 708H353L638 0H582L508 189H138L64 0H10ZM324 663L155 230H492ZM245 915L406 812L389 784L222 877Z" horiz-adv-x="649" unicode="À"/>
			<glyph d="M295 708H353L638 0H582L508 189H138L64 0H10ZM324 663L155 230H492ZM403 915L426 877L260 784L242 812Z" horiz-adv-x="649" unicode="Á"/>
			<glyph d="M295 708H353L638 0H582L508 189H138L64 0H10ZM324 663L155 230H492ZM304 906H346L469 809L449 785L325 872L201 785L181 809Z" horiz-adv-x="649" unicode="Â"/>
			<glyph d="M295 708H353L638 0H582L508 189H138L64 0H10ZM324 663L155 230H492ZM269 874Q285 874 299 867T333 847Q348 836 358 831T379 826Q396 826 410 836T439 872L467 860Q450 824 428 807T380 790Q365 790 353 795T318 816Q315 818 305 824T286 834T270 838Q253 838 239 827T210 792L182 804Q216 874 269 874Z" horiz-adv-x="649" unicode="Ã"/>
			<glyph d="M295 708H353L638 0H582L508 189H138L64 0H10ZM324 663L155 230H492ZM242 893Q278 893 278 857Q278 822 242 822Q206 822 206 857Q206 893 242 893ZM411 893Q447 893 447 857Q447 822 411 822Q375 822 375 857Q375 893 411 893Z" horiz-adv-x="649" unicode="Ä"/>
			<glyph d="M325 871Q369 871 397 844T425 776Q425 744 408 720T362 686L638 0H582L508 189H138L64 0H10L286 686Q258 696 241 720T225 776Q225 818 253 844T325 871ZM325 841Q295 841 278 823T261 776Q261 747 278 729T325 711Q354 711 371 729T388 776Q388 805 371 823T325 841ZM324 663L155 230H492Z" horiz-adv-x="649" unicode="Å"/>
			<glyph d="M295 708H812V666H367L464 387H781V346H478L582 43H869V0H543L481 189H139L64 0H10ZM324 663L155 230H467Z" horiz-adv-x="890" unicode="Æ"/>
			<glyph d="M400 724Q537 724 632 640L601 606Q560 641 509 660T402 679Q307 679 240 637T141 522T108 354Q108 260 141 187T240 72T401 31Q463 31 518 54T616 117L647 83Q604 39 544 13T416 -15L393 -76Q408 -72 428 -72Q465 -72 487 -91T509 -146Q509 -188 478 -210T400 -232Q349 -232 308 -209L322 -181Q341 -190 358 -194T400 -199Q433 -199 451 -185T469 -146Q469 -124 455 -112T417 -100Q397 -100 373 -107H343L379 -15Q276 -10 203 37T92 167T55 354Q55 463 95 546T212 677T400 724Z" horiz-adv-x="671" unicode="Ç"/>
			<glyph d="M98 708H512V666H149V387H469V346H149V43H528V0H98ZM239 915L400 812L383 784L216 877Z" horiz-adv-x="558" unicode="È"/>
			<glyph d="M98 708H512V666H149V387H469V346H149V43H528V0H98ZM397 915L420 877L254 784L236 812Z" horiz-adv-x="558" unicode="É"/>
			<glyph d="M98 708H512V666H149V387H469V346H149V43H528V0H98ZM298 906H340L463 809L443 785L319 872L195 785L175 809Z" horiz-adv-x="558" unicode="Ê"/>
			<glyph d="M98 708H512V666H149V387H469V346H149V43H528V0H98ZM236 893Q272 893 272 857Q272 822 236 822Q200 822 200 857Q200 893 236 893ZM405 893Q441 893 441 857Q441 822 405 822Q369 822 369 857Q369 893 405 893Z" horiz-adv-x="558" unicode="Ë"/>
			<glyph d="M59 708H283V668H196V41H283V0H59V41H145V668H59ZM91 915L252 812L235 784L68 877Z" horiz-adv-x="342" unicode="Ì"/>
			<glyph d="M59 708H283V668H196V41H283V0H59V41H145V668H59ZM249 915L272 877L106 784L88 812Z" horiz-adv-x="342" unicode="Í"/>
			<glyph d="M59 708H283V668H196V41H283V0H59V41H145V668H59ZM150 906H192L315 809L295 785L171 872L47 785L27 809Z" horiz-adv-x="342" unicode="Î"/>
			<glyph d="M59 708H283V668H196V41H283V0H59V41H145V668H59ZM88 893Q124 893 124 857Q124 822 88 822Q52 822 52 857Q52 893 88 893ZM257 893Q293 893 293 857Q293 822 257 822Q221 822 221 857Q221 893 257 893Z" horiz-adv-x="342" unicode="Ï"/>
			<glyph d="M98 708H310Q483 708 576 619T670 354Q670 180 576 90T311 0H98V335H15V371H98ZM150 665V371H316V335H150V43H305Q456 43 537 120T618 354Q618 512 538 588T305 665Z" horiz-adv-x="725" unicode="Ð"/>
			<glyph d="M98 708H159L625 69H627L626 708H676V0H614L148 639H146L147 0H98ZM331 874Q347 874 361 867T395 847Q410 836 420 831T441 826Q458 826 472 836T501 872L529 860Q512 824 490 807T442 790Q427 790 415 795T380 816Q377 818 367 824T348 834T332 838Q315 838 301 827T272 792L244 804Q278 874 331 874Z" horiz-adv-x="774" unicode="Ñ"/>
			<glyph d="M404 723Q514 723 592 676T712 546T753 354Q753 245 712 161T592 31T404 -15Q294 -15 215 31T96 161T55 354Q55 463 96 546T215 676T404 723ZM404 679Q309 679 242 637T142 523T108 354Q108 258 142 185T242 70T404 29Q499 29 566 70T667 185T701 354Q701 450 667 523T566 637T404 679ZM325 915L486 812L469 784L302 877Z" horiz-adv-x="809" unicode="Ò"/>
			<glyph d="M404 723Q514 723 592 676T712 546T753 354Q753 245 712 161T592 31T404 -15Q294 -15 215 31T96 161T55 354Q55 463 96 546T215 676T404 723ZM404 679Q309 679 242 637T142 523T108 354Q108 258 142 185T242 70T404 29Q499 29 566 70T667 185T701 354Q701 450 667 523T566 637T404 679ZM483 915L506 877L340 784L322 812Z" horiz-adv-x="809" unicode="Ó"/>
			<glyph d="M404 723Q514 723 592 676T712 546T753 354Q753 245 712 161T592 31T404 -15Q294 -15 215 31T96 161T55 354Q55 463 96 546T215 676T404 723ZM404 679Q309 679 242 637T142 523T108 354Q108 258 142 185T242 70T404 29Q499 29 566 70T667 185T701 354Q701 450 667 523T566 637T404 679ZM384 906H426L549 809L529 785L405 872L281 785L261 809Z" horiz-adv-x="809" unicode="Ô"/>
			<glyph d="M404 723Q514 723 592 676T712 546T753 354Q753 245 712 161T592 31T404 -15Q294 -15 215 31T96 161T55 354Q55 463 96 546T215 676T404 723ZM404 679Q309 679 242 637T142 523T108 354Q108 258 142 185T242 70T404 29Q499 29 566 70T667 185T701 354Q701 450 667 523T566 637T404 679ZM349 874Q365 874 379 867T413 847Q428 836 438 831T459 826Q476 826 490 836T519 872L547 860Q530 824 508 807T460 790Q445 790 433 795T398 816Q395 818 385 824T366 834T350 838Q333 838 319 827T290 792L262 804Q296 874 349 874Z" horiz-adv-x="809" unicode="Õ"/>
			<glyph d="M404 723Q514 723 592 676T712 546T753 354Q753 245 712 161T592 31T404 -15Q294 -15 215 31T96 161T55 354Q55 463 96 546T215 676T404 723ZM404 679Q309 679 242 637T142 523T108 354Q108 258 142 185T242 70T404 29Q499 29 566 70T667 185T701 354Q701 450 667 523T566 637T404 679ZM322 893Q358 893 358 857Q358 822 322 822Q286 822 286 857Q286 893 322 893ZM491 893Q527 893 527 857Q527 822 491 822Q455 822 455 857Q455 893 491 893Z" horiz-adv-x="809" unicode="Ö"/>
			<glyph d="M178 441L305 314L432 441L461 412L334 285L461 158L432 129L305 255L179 129L149 158L276 285L149 411Z" unicode="×"/>
			<glyph d="M493 787L538 778L518 708Q631 675 692 581T753 354Q753 245 712 161T592 31T404 -15Q371 -15 334 -10L316 -83L271 -74L291 0Q178 32 116 125T55 354Q55 463 96 546T215 676T404 723Q442 723 475 717ZM404 679Q309 679 242 637T142 523T108 354Q108 235 158 153T305 42L467 674Q434 679 404 679ZM505 665L343 34Q375 29 404 29Q499 29 566 70T667 185T701 354Q701 473 650 554T505 665Z" horiz-adv-x="809" unicode="Ø"/>
			<glyph d="M89 708H141V256Q141 145 195 87T366 30Q483 30 537 87T592 256V708H644V253Q644 124 574 54T366 -15Q227 -15 158 54T89 253ZM287 915L448 812L431 784L264 877Z" horiz-adv-x="732" unicode="Ù"/>
			<glyph d="M89 708H141V256Q141 145 195 87T366 30Q483 30 537 87T592 256V708H644V253Q644 124 574 54T366 -15Q227 -15 158 54T89 253ZM445 915L468 877L302 784L284 812Z" horiz-adv-x="732" unicode="Ú"/>
			<glyph d="M89 708H141V256Q141 145 195 87T366 30Q483 30 537 87T592 256V708H644V253Q644 124 574 54T366 -15Q227 -15 158 54T89 253ZM346 906H388L511 809L491 785L367 872L243 785L223 809Z" horiz-adv-x="732" unicode="Û"/>
			<glyph d="M89 708H141V256Q141 145 195 87T366 30Q483 30 537 87T592 256V708H644V253Q644 124 574 54T366 -15Q227 -15 158 54T89 253ZM284 893Q320 893 320 857Q320 822 284 822Q248 822 248 857Q248 893 284 893ZM453 893Q489 893 489 857Q489 822 453 822Q417 822 417 857Q417 893 453 893Z" horiz-adv-x="732" unicode="Ü"/>
			<glyph d="M-4 708H55L267 351H269L480 708H538L292 306V0H240V308ZM345 915L368 877L202 784L184 812Z" horiz-adv-x="533" unicode="Ý"/>
			<glyph d="M98 708H150V591H321Q424 591 493 538T563 371Q563 301 529 251T441 176T324 151H150V0H98ZM150 549V193H321Q372 193 415 213T484 274T511 371Q511 464 455 506T318 549Z" horiz-adv-x="602" unicode="Þ"/>
			<glyph d="M282 722Q380 722 467 651L373 413Q452 396 505 345T558 200Q558 134 528 85T448 11T342 -14Q276 -14 226 10L242 46Q289 27 340 27Q387 27 425 48T485 108T508 200Q508 283 461 325T329 383V416L415 637Q383 662 351 672T283 683Q218 683 188 650T159 561V0H109V460H15V492L109 499V561Q109 640 153 681T282 722Z" horiz-adv-x="594" unicode="ß"/>
			<glyph d="M254 513Q350 513 396 466T443 325V109Q443 62 449 0H403Q399 35 397 83H395Q369 36 321 10T206 -15Q131 -15 88 23T46 133Q46 198 78 235T173 287T338 303Q374 303 393 302V335Q393 473 252 473Q206 473 169 461T96 428L78 462Q153 513 254 513ZM343 266Q255 266 202 254T123 214T97 135Q97 82 128 54T216 26Q274 26 314 50T373 109T393 177V265ZM188 736L338 613L317 586L162 698Z" horiz-adv-x="525" unicode="à"/>
			<glyph d="M254 513Q350 513 396 466T443 325V109Q443 62 449 0H403Q399 35 397 83H395Q369 36 321 10T206 -15Q131 -15 88 23T46 133Q46 198 78 235T173 287T338 303Q374 303 393 302V335Q393 473 252 473Q206 473 169 461T96 428L78 462Q153 513 254 513ZM343 266Q255 266 202 254T123 214T97 135Q97 82 128 54T216 26Q274 26 314 50T373 109T393 177V265ZM335 736L361 698L206 586L185 613Z" horiz-adv-x="525" unicode="á"/>
			<glyph d="M254 513Q350 513 396 466T443 325V109Q443 62 449 0H403Q399 35 397 83H395Q369 36 321 10T206 -15Q131 -15 88 23T46 133Q46 198 78 235T173 287T338 303Q374 303 393 302V335Q393 473 252 473Q206 473 169 461T96 428L78 462Q153 513 254 513ZM343 266Q255 266 202 254T123 214T97 135Q97 82 128 54T216 26Q274 26 314 50T373 109T393 177V265ZM239 727H281L404 609L383 586L260 692L137 586L115 609Z" horiz-adv-x="525" unicode="â"/>
			<glyph d="M254 513Q350 513 396 466T443 325V109Q443 62 449 0H403Q399 35 397 83H395Q369 36 321 10T206 -15Q131 -15 88 23T46 133Q46 198 78 235T173 287T338 303Q374 303 393 302V335Q393 473 252 473Q206 473 169 461T96 428L78 462Q153 513 254 513ZM343 266Q255 266 202 254T123 214T97 135Q97 82 128 54T216 26Q274 26 314 50T373 109T393 177V265ZM205 677Q221 677 235 670T269 650Q284 639 294 634T315 629Q332 629 346 639T375 675L403 663Q386 627 364 610T316 593Q301 593 289 598T254 619Q251 621 241 627T222 637T206 641Q189 641 175 630T146 595L118 607Q152 677 205 677Z" horiz-adv-x="525" unicode="ã"/>
			<glyph d="M254 513Q350 513 396 466T443 325V109Q443 62 449 0H403Q399 35 397 83H395Q369 36 321 10T206 -15Q131 -15 88 23T46 133Q46 198 78 235T173 287T338 303Q374 303 393 302V335Q393 473 252 473Q206 473 169 461T96 428L78 462Q153 513 254 513ZM343 266Q255 266 202 254T123 214T97 135Q97 82 128 54T216 26Q274 26 314 50T373 109T393 177V265ZM176 696Q212 696 212 660Q212 625 176 625Q140 625 140 660Q140 696 176 696ZM345 696Q381 696 381 660Q381 625 345 625Q309 625 309 660Q309 696 345 696Z" horiz-adv-x="525" unicode="ä"/>
			<glyph d="M254 513Q350 513 396 466T443 325V109Q443 62 449 0H403Q399 35 397 83H395Q369 36 321 10T206 -15Q131 -15 88 23T46 133Q46 198 78 235T173 287T338 303Q374 303 393 302V335Q393 473 252 473Q206 473 169 461T96 428L78 462Q153 513 254 513ZM343 266Q255 266 202 254T123 214T97 135Q97 82 128 54T216 26Q274 26 314 50T373 109T393 177V265ZM261 770Q305 770 333 743T361 675Q361 634 333 606T261 579Q216 579 188 606T161 675Q161 717 189 743T261 770ZM261 740Q231 740 214 722T197 675Q197 646 214 628T261 610Q290 610 307 628T324 675Q324 704 307 722T261 740Z" horiz-adv-x="525" unicode="å"/>
			<glyph d="M253 513Q319 513 358 483T413 391Q438 450 486 481T596 513Q694 513 748 442T802 260Q802 243 801 234H426Q429 143 476 85T606 27Q649 27 684 40T758 80L781 47Q697 -14 604 -14Q533 -14 481 22T405 120Q381 53 331 19T219 -15Q138 -15 92 23T46 133Q46 228 114 265T326 303Q359 303 377 302V335Q377 473 251 473Q206 473 169 461T96 428L78 462Q155 513 253 513ZM595 474Q517 474 472 416T426 273H754Q753 364 711 419T595 474ZM331 266Q249 266 198 254T122 214T97 135Q97 82 130 54T223 26Q273 26 308 50T360 109T377 177V265Z" horiz-adv-x="857" unicode="æ"/>
			<glyph d="M295 513Q342 513 385 499T459 459L437 425Q379 471 295 471Q202 471 153 410T105 250Q105 152 153 90T294 28Q369 28 437 75L457 41Q389 -11 300 -14L277 -76Q292 -72 312 -72Q349 -72 371 -91T393 -146Q393 -188 362 -210T284 -232Q233 -232 192 -209L206 -181Q225 -190 242 -194T284 -199Q317 -199 335 -185T353 -146Q353 -124 339 -112T301 -100Q282 -100 257 -107H227L264 -13Q161 -4 108 69T55 250Q55 370 118 441T295 513Z" horiz-adv-x="497" unicode="ç"/>
			<glyph d="M282 513Q388 513 443 444T499 259Q499 243 498 234H105Q108 142 156 84T292 27Q341 27 379 40T455 80L478 47Q437 17 391 1T290 -14Q178 -14 116 59T55 253Q55 330 82 388T160 480T282 513ZM281 474Q199 474 153 416T105 273H451Q449 366 406 420T281 474ZM213 736L363 613L342 586L187 698Z" horiz-adv-x="553" unicode="è"/>
			<glyph d="M282 513Q388 513 443 444T499 259Q499 243 498 234H105Q108 142 156 84T292 27Q341 27 379 40T455 80L478 47Q437 17 391 1T290 -14Q178 -14 116 59T55 253Q55 330 82 388T160 480T282 513ZM281 474Q199 474 153 416T105 273H451Q449 366 406 420T281 474ZM360 736L386 698L231 586L210 613Z" horiz-adv-x="553" unicode="é"/>
			<glyph d="M282 513Q388 513 443 444T499 259Q499 243 498 234H105Q108 142 156 84T292 27Q341 27 379 40T455 80L478 47Q437 17 391 1T290 -14Q178 -14 116 59T55 253Q55 330 82 388T160 480T282 513ZM281 474Q199 474 153 416T105 273H451Q449 366 406 420T281 474ZM265 727H307L430 609L409 586L286 692L163 586L141 609Z" horiz-adv-x="553" unicode="ê"/>
			<glyph d="M282 513Q388 513 443 444T499 259Q499 243 498 234H105Q108 142 156 84T292 27Q341 27 379 40T455 80L478 47Q437 17 391 1T290 -14Q178 -14 116 59T55 253Q55 330 82 388T160 480T282 513ZM281 474Q199 474 153 416T105 273H451Q449 366 406 420T281 474ZM202 696Q238 696 238 660Q238 625 202 625Q166 625 166 660Q166 696 202 696ZM371 696Q407 696 407 660Q407 625 371 625Q335 625 335 660Q335 696 371 696Z" horiz-adv-x="553" unicode="ë"/>
			<glyph d="M94 499H144V0H94ZM47 736L197 613L176 586L21 698Z" horiz-adv-x="238" unicode="ì"/>
			<glyph d="M94 499H144V0H94ZM193 736L219 698L64 586L43 613Z" horiz-adv-x="238" unicode="í"/>
			<glyph d="M94 499H144V0H94ZM98 727H140L263 609L242 586L119 692L-4 586L-26 609Z" horiz-adv-x="238" unicode="î"/>
			<glyph d="M94 499H144V0H94ZM35 696Q71 696 71 660Q71 625 35 625Q-1 625 -1 660Q-1 696 35 696ZM204 696Q240 696 240 660Q240 625 204 625Q168 625 168 660Q168 696 204 696Z" horiz-adv-x="238" unicode="ï"/>
			<glyph d="M229 723Q299 700 345 676L436 723L453 694L380 656Q553 549 553 319Q553 170 491 78T302 -14Q187 -14 121 53T55 234Q55 312 85 370T169 459T294 491Q362 491 412 463T501 380Q487 546 339 635L238 582L222 611L303 654Q272 669 210 689ZM297 451Q209 451 158 393T107 232Q107 137 158 83T301 29Q405 29 453 107T502 324Q462 385 412 418T297 451Z" horiz-adv-x="614" unicode="ð"/>
			<glyph d="M327 513Q421 513 467 457T513 317V0H463V308Q463 378 428 424T317 471Q265 471 225 447T164 383T143 294V0H93V391Q93 439 87 499H134Q140 447 140 406H142Q166 455 212 484T327 513ZM252 677Q268 677 282 670T316 650Q331 639 341 634T362 629Q379 629 393 639T422 675L450 663Q433 627 411 610T363 593Q348 593 336 598T301 619Q298 621 288 627T269 637T253 641Q236 641 222 630T193 595L165 607Q199 677 252 677Z" horiz-adv-x="598" unicode="ñ"/>
			<glyph d="M297 514Q412 514 476 442T540 251Q540 173 511 113T428 19T297 -14Q221 -14 166 19T83 113T55 251Q55 371 118 442T297 514ZM296 473Q202 473 154 412T106 251Q106 151 154 89T296 27Q391 27 440 88T489 251Q489 351 440 412T296 473ZM225 736L375 613L354 586L199 698Z" horiz-adv-x="595" unicode="ò"/>
			<glyph d="M297 514Q412 514 476 442T540 251Q540 173 511 113T428 19T297 -14Q221 -14 166 19T83 113T55 251Q55 371 118 442T297 514ZM296 473Q202 473 154 412T106 251Q106 151 154 89T296 27Q391 27 440 88T489 251Q489 351 440 412T296 473ZM372 736L398 698L243 586L222 613Z" horiz-adv-x="595" unicode="ó"/>
			<glyph d="M297 514Q412 514 476 442T540 251Q540 173 511 113T428 19T297 -14Q221 -14 166 19T83 113T55 251Q55 371 118 442T297 514ZM296 473Q202 473 154 412T106 251Q106 151 154 89T296 27Q391 27 440 88T489 251Q489 351 440 412T296 473ZM276 727H318L441 609L420 586L297 692L174 586L152 609Z" horiz-adv-x="595" unicode="ô"/>
			<glyph d="M297 514Q412 514 476 442T540 251Q540 173 511 113T428 19T297 -14Q221 -14 166 19T83 113T55 251Q55 371 118 442T297 514ZM296 473Q202 473 154 412T106 251Q106 151 154 89T296 27Q391 27 440 88T489 251Q489 351 440 412T296 473ZM242 677Q258 677 272 670T306 650Q321 639 331 634T352 629Q369 629 383 639T412 675L440 663Q423 627 401 610T353 593Q338 593 326 598T291 619Q288 621 278 627T259 637T243 641Q226 641 212 630T183 595L155 607Q189 677 242 677Z" horiz-adv-x="595" unicode="õ"/>
			<glyph d="M297 514Q412 514 476 442T540 251Q540 173 511 113T428 19T297 -14Q221 -14 166 19T83 113T55 251Q55 371 118 442T297 514ZM296 473Q202 473 154 412T106 251Q106 151 154 89T296 27Q391 27 440 88T489 251Q489 351 440 412T296 473ZM213 696Q249 696 249 660Q249 625 213 625Q177 625 177 660Q177 696 213 696ZM382 696Q418 696 418 660Q418 625 382 625Q346 625 346 660Q346 696 382 696Z" horiz-adv-x="595" unicode="ö"/>
			<glyph d="M105 313H505V272H105ZM305 117Q342 117 342 80Q342 43 305 43Q268 43 268 80Q268 117 305 117ZM305 527Q342 527 342 490Q342 453 305 453Q268 453 268 490Q268 527 305 527Z" unicode="÷"/>
			<glyph d="M361 582L405 573L385 501Q460 477 500 411T540 251Q540 173 511 113T428 19T297 -14Q273 -14 252 -11L235 -83L191 -74L211 -1Q136 24 95 91T55 251Q55 371 118 442T297 514Q322 514 343 511ZM297 474Q202 474 154 413T106 251Q106 171 136 115T224 38L336 471Q318 474 297 474ZM371 462L259 29Q277 26 297 26Q392 26 441 88T490 251Q490 330 460 385T371 462Z" horiz-adv-x="595" unicode="ø"/>
			<glyph d="M85 499H135V201Q135 124 170 75T279 26Q332 26 372 54T433 131T455 237V499H505V109Q505 62 511 0H464Q458 54 458 108H456Q431 49 384 17T270 -15Q177 -15 131 43T85 195ZM230 736L380 613L359 586L204 698Z" horiz-adv-x="598" unicode="ù"/>
			<glyph d="M85 499H135V201Q135 124 170 75T279 26Q332 26 372 54T433 131T455 237V499H505V109Q505 62 511 0H464Q458 54 458 108H456Q431 49 384 17T270 -15Q177 -15 131 43T85 195ZM377 736L403 698L248 586L227 613Z" horiz-adv-x="598" unicode="ú"/>
			<glyph d="M85 499H135V201Q135 124 170 75T279 26Q332 26 372 54T433 131T455 237V499H505V109Q505 62 511 0H464Q458 54 458 108H456Q431 49 384 17T270 -15Q177 -15 131 43T85 195ZM282 727H324L447 609L426 586L303 692L180 586L158 609Z" horiz-adv-x="598" unicode="û"/>
			<glyph d="M85 499H135V201Q135 124 170 75T279 26Q332 26 372 54T433 131T455 237V499H505V109Q505 62 511 0H464Q458 54 458 108H456Q431 49 384 17T270 -15Q177 -15 131 43T85 195ZM219 696Q255 696 255 660Q255 625 219 625Q183 625 183 660Q183 696 219 696ZM388 696Q424 696 424 660Q424 625 388 625Q352 625 352 660Q352 696 388 696Z" horiz-adv-x="598" unicode="ü"/>
			<glyph d="M10 499H63L231 54H232L388 499H440L206 -142Q185 -203 153 -230T70 -258Q39 -258 15 -249L25 -211Q43 -216 65 -216Q103 -216 125 -194T162 -129L205 -3ZM300 736L326 698L171 586L150 613Z" horiz-adv-x="450" unicode="ý"/>
			<glyph d="M94 708H145V403H147Q170 455 219 484T334 513Q405 513 455 478T530 384T556 249Q556 174 528 114T449 20T325 -14Q266 -14 222 7T144 67V-244H94ZM327 473Q272 473 230 447T166 377T144 281V117Q182 70 222 48T317 27Q407 27 456 89T505 249Q505 348 458 410T327 473Z" horiz-adv-x="611" unicode="þ"/>
			<glyph d="M10 499H63L231 54H232L388 499H440L206 -142Q185 -203 153 -230T70 -258Q39 -258 15 -249L25 -211Q43 -216 65 -216Q103 -216 125 -194T162 -129L205 -3ZM141 696Q177 696 177 660Q177 625 141 625Q105 625 105 660Q105 696 141 696ZM310 696Q346 696 346 660Q346 625 310 625Q274 625 274 660Q274 696 310 696Z" horiz-adv-x="450" unicode="ÿ"/>
			<glyph d="M295 708H353L638 0H582L508 189H138L64 0H10ZM324 663L155 230H492ZM200 850H451V814H200Z" horiz-adv-x="649" unicode="Ā"/>
			<glyph d="M254 513Q350 513 396 466T443 325V109Q443 62 449 0H403Q399 35 397 83H395Q369 36 321 10T206 -15Q131 -15 88 23T46 133Q46 198 78 235T173 287T338 303Q374 303 393 302V335Q393 473 252 473Q206 473 169 461T96 428L78 462Q153 513 254 513ZM343 266Q255 266 202 254T123 214T97 135Q97 82 128 54T216 26Q274 26 314 50T373 109T393 177V265ZM135 653H386V617H135Z" horiz-adv-x="525" unicode="ā"/>
			<glyph d="M295 708H353L638 0H582L508 189H138L64 0H10ZM324 663L155 230H492ZM226 891Q237 854 262 835T325 816Q363 816 388 835T424 891L457 887Q446 835 412 806T325 778Q272 778 238 806T193 887Z" horiz-adv-x="649" unicode="Ă"/>
			<glyph d="M254 513Q350 513 396 466T443 325V109Q443 62 449 0H403Q399 35 397 83H395Q369 36 321 10T206 -15Q131 -15 88 23T46 133Q46 198 78 235T173 287T338 303Q374 303 393 302V335Q393 473 252 473Q206 473 169 461T96 428L78 462Q153 513 254 513ZM343 266Q255 266 202 254T123 214T97 135Q97 82 128 54T216 26Q274 26 314 50T373 109T393 177V265ZM160 709Q171 662 196 640T261 619Q341 619 361 709L395 705Q384 643 350 611T261 580Q206 580 171 611T127 705Z" horiz-adv-x="525" unicode="ă"/>
			<glyph d="M295 708H353L638 0H625Q571 -40 547 -72T523 -139Q523 -166 538 -180T582 -194Q617 -194 651 -176L663 -206Q624 -230 578 -230Q536 -230 509 -207T482 -144Q482 -68 581 2L508 189H138L64 0H10ZM324 663L155 230H492Z" horiz-adv-x="649" unicode="Ą"/>
			<glyph d="M254 513Q350 513 396 466T443 325V109Q443 62 449 0H440Q386 -40 362 -72T338 -139Q338 -166 353 -180T397 -194Q432 -194 466 -176L478 -206Q439 -230 393 -230Q351 -230 324 -207T297 -144Q297 -104 324 -66T402 6L397 83H395Q369 36 321 10T206 -15Q131 -15 88 23T46 133Q46 198 78 235T173 287T338 303Q374 303 393 302V335Q393 473 252 473Q206 473 169 461T96 428L78 462Q153 513 254 513ZM343 266Q255 266 202 254T123 214T97 135Q97 82 128 54T216 26Q274 26 314 50T373 109T393 177V265Z" horiz-adv-x="525" unicode="ą"/>
			<glyph d="M400 724Q537 724 632 640L601 606Q560 641 509 660T402 679Q307 679 240 637T141 522T108 354Q108 260 141 187T240 72T401 31Q463 31 518 54T616 117L647 83Q601 37 537 11T400 -15Q290 -15 212 31T95 161T55 354Q55 463 95 546T212 677T400 724ZM471 915L494 877L328 784L310 812Z" horiz-adv-x="671" unicode="Ć"/>
			<glyph d="M295 513Q342 513 385 499T459 459L437 425Q379 471 295 471Q202 471 153 410T105 250Q105 152 153 90T294 28Q369 28 437 75L457 41Q384 -14 292 -14Q213 -14 160 21T81 116T55 250Q55 370 118 441T295 513ZM367 736L393 698L238 586L217 613Z" horiz-adv-x="497" unicode="ć"/>
			<glyph d="M400 724Q537 724 632 640L601 606Q560 641 509 660T402 679Q307 679 240 637T141 522T108 354Q108 260 141 187T240 72T401 31Q463 31 518 54T616 117L647 83Q601 37 537 11T400 -15Q290 -15 212 31T95 161T55 354Q55 463 95 546T212 677T400 724ZM372 906H414L537 809L517 785L393 872L269 785L249 809Z" horiz-adv-x="671" unicode="Ĉ"/>
			<glyph d="M295 513Q342 513 385 499T459 459L437 425Q379 471 295 471Q202 471 153 410T105 250Q105 152 153 90T294 28Q369 28 437 75L457 41Q384 -14 292 -14Q213 -14 160 21T81 116T55 250Q55 370 118 441T295 513ZM272 727H314L437 609L416 586L293 692L170 586L148 609Z" horiz-adv-x="497" unicode="ĉ"/>
			<glyph d="M400 724Q537 724 632 640L601 606Q560 641 509 660T402 679Q307 679 240 637T141 522T108 354Q108 260 141 187T240 72T401 31Q463 31 518 54T616 117L647 83Q601 37 537 11T400 -15Q290 -15 212 31T95 161T55 354Q55 463 95 546T212 677T400 724ZM392 899Q430 899 430 862Q430 826 392 826Q354 826 354 862Q354 899 392 899Z" horiz-adv-x="671" unicode="Ċ"/>
			<glyph d="M295 513Q342 513 385 499T459 459L437 425Q379 471 295 471Q202 471 153 410T105 250Q105 152 153 90T294 28Q369 28 437 75L457 41Q384 -14 292 -14Q213 -14 160 21T81 116T55 250Q55 370 118 441T295 513ZM293 721Q331 721 331 684Q331 648 293 648Q255 648 255 684Q255 721 293 721Z" horiz-adv-x="497" unicode="ċ"/>
			<glyph d="M400 724Q537 724 632 640L601 606Q560 641 509 660T402 679Q307 679 240 637T141 522T108 354Q108 260 141 187T240 72T401 31Q463 31 518 54T616 117L647 83Q601 37 537 11T400 -15Q290 -15 212 31T95 161T55 354Q55 463 95 546T212 677T400 724ZM268 907L392 820L516 907L536 883L413 786H371L248 883Z" horiz-adv-x="671" unicode="Č"/>
			<glyph d="M295 513Q342 513 385 499T459 459L437 425Q379 471 295 471Q202 471 153 410T105 250Q105 152 153 90T294 28Q369 28 437 75L457 41Q384 -14 292 -14Q213 -14 160 21T81 116T55 250Q55 370 118 441T295 513ZM170 728L292 621L415 728L437 705L314 588V587H271L148 705Z" horiz-adv-x="497" unicode="č"/>
			<glyph d="M98 708H310Q483 708 576 619T670 354Q670 180 576 90T311 0H98ZM150 665V43H305Q456 43 537 120T618 354Q618 512 538 588T305 665ZM209 907L333 820L457 907L477 883L354 786H312L189 883Z" horiz-adv-x="725" unicode="Ď"/>
			<glyph d="M467 708H517V109Q517 62 523 0H476Q470 54 470 95H468Q440 39 391 12T279 -14Q172 -14 113 59T55 250Q55 324 83 384T163 478T286 513Q347 513 390 491T467 431ZM291 472Q235 472 193 443T128 363T106 250Q106 150 154 88T287 27Q341 27 382 51T445 118T467 212V377Q434 424 391 448T291 472ZM599 723L644 712L605 556L574 563Z" horiz-adv-x="652" unicode="ď"/>
			<glyph d="M98 708H310Q483 708 576 619T670 354Q670 180 576 90T311 0H98V335H15V371H98ZM150 665V371H316V335H150V43H305Q456 43 537 120T618 354Q618 512 538 588T305 665Z" horiz-adv-x="725" unicode="Đ"/>
			<glyph d="M467 708H517V633H595V597H517V109Q517 62 523 0H476Q470 54 470 95H468Q440 39 391 12T279 -14Q172 -14 113 59T55 250Q55 324 83 384T163 478T286 513Q347 513 390 491T467 431V597H306V633H467ZM291 472Q235 472 193 443T128 363T106 250Q106 150 154 88T287 27Q341 27 382 51T445 118T467 212V377Q434 424 391 448T291 472Z" unicode="đ"/>
			<glyph d="M98 708H512V666H149V387H469V346H149V43H528V0H98ZM195 850H446V814H195Z" horiz-adv-x="558" unicode="Ē"/>
			<glyph d="M282 513Q388 513 443 444T499 259Q499 243 498 234H105Q108 142 156 84T292 27Q341 27 379 40T455 80L478 47Q437 17 391 1T290 -14Q178 -14 116 59T55 253Q55 330 82 388T160 480T282 513ZM281 474Q199 474 153 416T105 273H451Q449 366 406 420T281 474ZM160 653H411V617H160Z" horiz-adv-x="553" unicode="ē"/>
			<glyph d="M98 708H512V666H149V387H469V346H149V43H528V0H98ZM220 891Q231 854 256 835T319 816Q357 816 382 835T418 891L451 887Q440 835 406 806T319 778Q266 778 232 806T187 887Z" horiz-adv-x="558" unicode="Ĕ"/>
			<glyph d="M282 513Q388 513 443 444T499 259Q499 243 498 234H105Q108 142 156 84T292 27Q341 27 379 40T455 80L478 47Q437 17 391 1T290 -14Q178 -14 116 59T55 253Q55 330 82 388T160 480T282 513ZM281 474Q199 474 153 416T105 273H451Q449 366 406 420T281 474ZM185 709Q196 662 221 640T286 619Q366 619 386 709L420 705Q409 643 375 611T286 580Q231 580 196 611T152 705Z" horiz-adv-x="553" unicode="ĕ"/>
			<glyph d="M98 708H512V666H149V387H469V346H149V43H528V0H98ZM319 899Q357 899 357 862Q357 826 319 826Q281 826 281 862Q281 899 319 899Z" horiz-adv-x="558" unicode="Ė"/>
			<glyph d="M282 513Q388 513 443 444T499 259Q499 243 498 234H105Q108 142 156 84T292 27Q341 27 379 40T455 80L478 47Q437 17 391 1T290 -14Q178 -14 116 59T55 253Q55 330 82 388T160 480T282 513ZM281 474Q199 474 153 416T105 273H451Q449 366 406 420T281 474ZM286 721Q324 721 324 684Q324 648 286 648Q248 648 248 684Q248 721 286 721Z" horiz-adv-x="553" unicode="ė"/>
			<glyph d="M98 708H512V666H149V387H469V346H149V43H528V0H485Q431 -40 407 -72T383 -139Q383 -166 398 -180T442 -194Q476 -194 511 -176L523 -206Q484 -230 438 -230Q396 -230 369 -207T342 -144Q342 -69 438 0H98Z" horiz-adv-x="558" unicode="Ę"/>
			<glyph d="M282 513Q388 513 443 444T499 259Q499 243 498 234H105Q108 142 156 84T292 27Q341 27 379 40T455 80L478 47Q441 20 404 6Q348 -36 322 -70T296 -139Q296 -166 311 -180T355 -194Q390 -194 424 -176L436 -206Q397 -230 351 -230Q309 -230 282 -207T255 -144Q255 -74 341 -10Q320 -14 290 -14Q178 -14 116 59T55 253Q55 330 82 388T160 480T282 513ZM281 474Q199 474 153 416T105 273H451Q449 366 406 420T281 474Z" horiz-adv-x="553" unicode="ę"/>
			<glyph d="M98 708H512V666H149V387H469V346H149V43H528V0H98ZM195 907L319 820L443 907L463 883L340 786H298L175 883Z" horiz-adv-x="558" unicode="Ě"/>
			<glyph d="M282 513Q388 513 443 444T499 259Q499 243 498 234H105Q108 142 156 84T292 27Q341 27 379 40T455 80L478 47Q437 17 391 1T290 -14Q178 -14 116 59T55 253Q55 330 82 388T160 480T282 513ZM281 474Q199 474 153 416T105 273H451Q449 366 406 420T281 474ZM164 728L286 621L409 728L431 705L308 588V587H265L142 705Z" horiz-adv-x="553" unicode="ě"/>
			<glyph d="M407 723Q476 723 534 701T638 639L608 605Q567 641 516 660T408 679Q312 679 244 637T141 521T107 354Q107 205 183 116T404 28Q466 28 514 41T612 78V302H431V343H660V50Q599 19 540 2T404 -15Q291 -15 212 31T94 161T55 354Q55 463 96 546T217 676T407 723ZM382 906H424L547 809L527 785L403 872L279 785L259 809Z" horiz-adv-x="749" unicode="Ĝ"/>
			<glyph d="M250 511Q276 511 294 508T334 499H501V459L379 466Q410 449 429 414T449 329Q449 246 397 200T248 155Q198 155 164 139T131 99Q131 52 230 52Q373 51 434 17T496 -85Q496 -167 427 -212T237 -258Q131 -258 77 -220T23 -111Q23 -66 49 -31T141 31Q85 51 85 96Q85 122 105 141T164 171Q111 186 81 226T51 333Q51 415 103 463T250 511ZM249 472Q178 472 138 434T98 334Q98 266 135 229T249 193Q326 193 363 229T401 332Q401 397 361 434T249 472ZM185 13Q123 -10 97 -39T72 -109Q72 -218 238 -218Q339 -218 392 -184T446 -89Q446 -53 423 -31T343 2T185 13ZM231 727H273L396 609L375 586L252 692L129 586L107 609Z" horiz-adv-x="525" unicode="ĝ"/>
			<glyph d="M407 723Q476 723 534 701T638 639L608 605Q567 641 516 660T408 679Q312 679 244 637T141 521T107 354Q107 205 183 116T404 28Q466 28 514 41T612 78V302H431V343H660V50Q599 19 540 2T404 -15Q291 -15 212 31T94 161T55 354Q55 463 96 546T217 676T407 723ZM304 891Q315 854 340 835T403 816Q441 816 466 835T502 891L535 887Q524 835 490 806T403 778Q350 778 316 806T271 887Z" horiz-adv-x="749" unicode="Ğ"/>
			<glyph d="M250 511Q276 511 294 508T334 499H501V459L379 466Q410 449 429 414T449 329Q449 246 397 200T248 155Q198 155 164 139T131 99Q131 52 230 52Q373 51 434 17T496 -85Q496 -167 427 -212T237 -258Q131 -258 77 -220T23 -111Q23 -66 49 -31T141 31Q85 51 85 96Q85 122 105 141T164 171Q111 186 81 226T51 333Q51 415 103 463T250 511ZM249 472Q178 472 138 434T98 334Q98 266 135 229T249 193Q326 193 363 229T401 332Q401 397 361 434T249 472ZM185 13Q123 -10 97 -39T72 -109Q72 -218 238 -218Q339 -218 392 -184T446 -89Q446 -53 423 -31T343 2T185 13ZM151 709Q162 662 187 640T252 619Q332 619 352 709L386 705Q375 643 341 611T252 580Q197 580 162 611T118 705Z" horiz-adv-x="525" unicode="ğ"/>
			<glyph d="M407 723Q476 723 534 701T638 639L608 605Q567 641 516 660T408 679Q312 679 244 637T141 521T107 354Q107 205 183 116T404 28Q466 28 514 41T612 78V302H431V343H660V50Q599 19 540 2T404 -15Q291 -15 212 31T94 161T55 354Q55 463 96 546T217 676T407 723ZM403 899Q441 899 441 862Q441 826 403 826Q365 826 365 862Q365 899 403 899Z" horiz-adv-x="749" unicode="Ġ"/>
			<glyph d="M250 511Q276 511 294 508T334 499H501V459L379 466Q410 449 429 414T449 329Q449 246 397 200T248 155Q198 155 164 139T131 99Q131 52 230 52Q373 51 434 17T496 -85Q496 -167 427 -212T237 -258Q131 -258 77 -220T23 -111Q23 -66 49 -31T141 31Q85 51 85 96Q85 122 105 141T164 171Q111 186 81 226T51 333Q51 415 103 463T250 511ZM249 472Q178 472 138 434T98 334Q98 266 135 229T249 193Q326 193 363 229T401 332Q401 397 361 434T249 472ZM185 13Q123 -10 97 -39T72 -109Q72 -218 238 -218Q339 -218 392 -184T446 -89Q446 -53 423 -31T343 2T185 13ZM252 721Q290 721 290 684Q290 648 252 648Q214 648 214 684Q214 721 252 721Z" horiz-adv-x="525" unicode="ġ"/>
			<glyph d="M407 723Q476 723 534 701T638 639L608 605Q567 641 516 660T408 679Q312 679 244 637T141 521T107 354Q107 205 183 116T404 28Q466 28 514 41T612 78V302H431V343H660V50Q599 19 540 2T404 -15Q291 -15 212 31T94 161T55 354Q55 463 96 546T217 676T407 723ZM415 -68Q450 -68 450 -104Q450 -139 436 -171T387 -249L365 -238Q388 -203 397 -179T408 -127Q381 -124 381 -99Q381 -85 389 -76T415 -68Z" horiz-adv-x="749" unicode="Ģ"/>
			<glyph d="M250 511Q276 511 294 508T334 499H501V459L379 466Q410 449 429 414T449 329Q449 246 397 200T248 155Q198 155 164 139T131 99Q131 52 230 52Q373 51 434 17T496 -85Q496 -167 427 -212T237 -258Q131 -258 77 -220T23 -111Q23 -66 49 -31T141 31Q85 51 85 96Q85 122 105 141T164 171Q111 186 81 226T51 333Q51 415 103 463T250 511ZM249 472Q178 472 138 434T98 334Q98 266 135 229T249 193Q326 193 363 229T401 332Q401 397 361 434T249 472ZM185 13Q123 -10 97 -39T72 -109Q72 -218 238 -218Q339 -218 392 -184T446 -89Q446 -53 423 -31T343 2T185 13ZM277 806L299 795Q276 760 267 736T256 684Q283 681 283 656Q283 642 274 633T249 625Q214 625 214 661Q214 696 228 728T277 806Z" horiz-adv-x="525" unicode="ģ"/>
			<glyph d="M98 708H150V387H581V708H633V0H581V344H150V0H98ZM345 906H387L510 809L490 785L366 872L242 785L222 809Z" horiz-adv-x="731" unicode="Ĥ"/>
			<glyph d="M94 708H144V409H146Q169 455 215 484T328 513Q422 513 468 457T514 317V0H464V308Q464 378 429 424T318 471Q266 471 226 447T165 383T144 294V0H94ZM279 906H321L444 809L424 785L300 872L176 785L156 809Z" horiz-adv-x="599" unicode="ĥ"/>
			<glyph d="M98 708H150V589H581V708H633V589H725V553H633V0H581V344H150V0H98V553H11V589H98ZM150 553V387H581V553Z" horiz-adv-x="731" unicode="Ħ"/>
			<glyph d="M94 708H144V633H304V597H144V409H146Q169 455 215 484T328 513Q422 513 468 457T514 317V0H464V308Q464 378 429 424T318 471Q266 471 226 447T165 383T144 294V0H94V597H15V633H94Z" horiz-adv-x="599" unicode="ħ"/>
			<glyph d="M59 708H283V668H196V41H283V0H59V41H145V668H59ZM116 874Q132 874 146 867T180 847Q195 836 205 831T226 826Q243 826 257 836T286 872L314 860Q297 824 275 807T227 790Q212 790 200 795T165 816Q162 818 152 824T133 834T117 838Q100 838 86 827T57 792L29 804Q63 874 116 874Z" horiz-adv-x="342" unicode="Ĩ"/>
			<glyph d="M94 499H144V0H94ZM64 677Q80 677 94 670T128 650Q143 639 153 634T174 629Q191 629 205 639T234 675L262 663Q245 627 223 610T175 593Q160 593 148 598T113 619Q110 621 100 627T81 637T65 641Q48 641 34 630T5 595L-23 607Q11 677 64 677Z" horiz-adv-x="238" unicode="ĩ"/>
			<glyph d="M59 708H283V668H196V41H283V0H59V41H145V668H59ZM47 850H298V814H47Z" horiz-adv-x="342" unicode="Ī"/>
			<glyph d="M94 499H144V0H94ZM-7 653H244V617H-7Z" horiz-adv-x="238" unicode="ī"/>
			<glyph d="M59 708H283V668H196V41H283V0H59V41H145V668H59ZM72 891Q83 854 108 835T171 816Q209 816 234 835T270 891L303 887Q292 835 258 806T171 778Q118 778 84 806T39 887Z" horiz-adv-x="342" unicode="Ĭ"/>
			<glyph d="M94 499H144V0H94ZM19 709Q30 662 55 640T120 619Q200 619 220 709L254 705Q243 643 209 611T120 580Q65 580 30 611T-14 705Z" horiz-adv-x="238" unicode="ĭ"/>
			<glyph d="M59 708H283V668H196V41H283V0H190Q136 -40 112 -72T88 -139Q88 -166 103 -180T147 -194Q182 -194 216 -176L228 -206Q189 -230 143 -230Q101 -230 74 -207T47 -144Q47 -69 143 0H59V41H145V668H59Z" horiz-adv-x="342" unicode="Į"/>
			<glyph d="M119 721Q157 721 157 684Q157 648 119 648Q81 648 81 684Q81 721 119 721ZM94 499H144V0H135Q81 -40 57 -72T33 -139Q33 -166 48 -180T92 -194Q127 -194 161 -176L173 -206Q134 -230 88 -230Q46 -230 19 -207T-8 -144Q-8 -105 18 -67T94 4Z" horiz-adv-x="238" unicode="į"/>
			<glyph d="M59 708H283V668H196V41H283V0H59V41H145V668H59ZM171 899Q209 899 209 862Q209 826 171 826Q133 826 133 862Q133 899 171 899Z" horiz-adv-x="342" unicode="İ"/>
			<glyph d="M94 499H144V0H94Z" horiz-adv-x="238" unicode="ı"/>
			<glyph d="M59 708H283V668H196V41H283V0H59V41H145V668H59ZM612 708H664V194Q664 101 617 43T473 -15Q406 -15 350 16L370 54Q391 42 418 35T470 29Q543 29 577 74T612 194Z" horiz-adv-x="752" unicode="Ĳ"/>
			<glyph d="M119 721Q157 721 157 684Q157 648 119 648Q81 648 81 684Q81 721 119 721ZM357 721Q395 721 395 684Q395 648 357 648Q319 648 319 684Q319 721 357 721ZM94 499H144V0H94ZM332 499H382V-110Q382 -185 350 -221T253 -258Q230 -258 212 -253L221 -215Q235 -217 248 -217Q293 -217 312 -191T332 -111Z" horiz-adv-x="476" unicode="ĳ"/>
			<glyph d="M270 708H322V194Q322 101 275 43T131 -15Q64 -15 8 16L28 54Q49 42 76 35T128 29Q201 29 235 74T270 194ZM276 906H318L441 809L421 785L297 872L173 785L153 809Z" horiz-adv-x="411" unicode="Ĵ"/>
			<glyph d="M94 499H144V-110Q144 -185 112 -221T15 -258Q-8 -258 -26 -253L-17 -215Q-3 -217 10 -217Q55 -217 74 -191T94 -111ZM98 727H140L263 609L242 586L119 692L-4 586L-26 609Z" horiz-adv-x="238" unicode="ĵ"/>
			<glyph d="M98 708H150V358L488 708H551L239 386L572 0H508L205 351L150 293V0H98ZM320 -68Q355 -68 355 -104Q355 -139 341 -171T292 -249L270 -238Q293 -203 302 -179T313 -127Q286 -124 286 -99Q286 -85 294 -76T320 -68Z" horiz-adv-x="582" unicode="Ķ"/>
			<glyph d="M94 708H144V268L395 499H458L234 293L484 0H420L198 260L144 210V0H94ZM283 -68Q318 -68 318 -104Q318 -139 304 -171T255 -249L233 -238Q256 -203 265 -179T276 -127Q249 -124 249 -99Q249 -85 257 -76T283 -68Z" horiz-adv-x="488" unicode="ķ"/>
			<glyph d="M94 499H144V248L395 499H458L231 276L484 0H421L197 243L144 191V0H94Z" horiz-adv-x="488" unicode="ĸ"/>
			<glyph d="M98 708H150V44H489V0H98ZM202 915L225 877L59 784L41 812Z" horiz-adv-x="494" unicode="Ĺ"/>
			<glyph d="M94 708H144V0H94ZM197 915L220 877L54 784L36 812Z" horiz-adv-x="238" unicode="ĺ"/>
			<glyph d="M98 708H150V44H489V0H98ZM295 -68Q330 -68 330 -104Q330 -139 316 -171T267 -249L245 -238Q268 -203 277 -179T288 -127Q261 -124 261 -99Q261 -85 269 -76T295 -68Z" horiz-adv-x="494" unicode="Ļ"/>
			<glyph d="M94 708H144V0H94ZM120 -68Q155 -68 155 -104Q155 -139 141 -171T92 -249L70 -238Q93 -203 102 -179T113 -127Q86 -124 86 -99Q86 -85 94 -76T120 -68Z" horiz-adv-x="238" unicode="ļ"/>
			<glyph d="M98 708H150V44H489V0H98ZM265 723L310 712L271 556L240 563Z" horiz-adv-x="494" unicode="Ľ"/>
			<glyph d="M94 708H144V0H94ZM222 723L267 712L228 556L197 563Z" horiz-adv-x="274" unicode="ľ"/>
			<glyph d="M98 708H150V44H489V0H98ZM367 419Q405 419 405 382Q405 346 367 346Q329 346 329 382Q329 419 367 419Z" horiz-adv-x="494" unicode="Ŀ"/>
			<glyph d="M94 708H144V0H94ZM243 377Q281 377 281 340Q281 304 243 304Q205 304 205 340Q205 377 243 377Z" horiz-adv-x="250" unicode="ŀ"/>
			<glyph d="M98 708H150V351L367 468L385 435L150 308V44H489V0H98V280L43 251L25 284L98 323Z" horiz-adv-x="494" unicode="Ł"/>
			<glyph d="M99 708H149V359L219 397L235 364L149 317V0H99V290L29 252L13 285L99 332Z" horiz-adv-x="247" unicode="ł"/>
			<glyph d="M98 708H159L625 69H627L626 708H676V0H614L148 639H146L147 0H98ZM465 915L488 877L322 784L304 812Z" horiz-adv-x="774" unicode="Ń"/>
			<glyph d="M327 513Q421 513 467 457T513 317V0H463V308Q463 378 428 424T317 471Q265 471 225 447T164 383T143 294V0H93V391Q93 439 87 499H134Q140 447 140 406H142Q166 455 212 484T327 513ZM382 736L408 698L253 586L232 613Z" horiz-adv-x="598" unicode="ń"/>
			<glyph d="M98 708H159L625 69H627L626 708H676V0H614L148 639H146L147 0H98ZM388 -68Q423 -68 423 -104Q423 -139 409 -171T360 -249L338 -238Q361 -203 370 -179T381 -127Q354 -124 354 -99Q354 -85 362 -76T388 -68Z" horiz-adv-x="774" unicode="Ņ"/>
			<glyph d="M327 513Q421 513 467 457T513 317V0H463V308Q463 378 428 424T317 471Q265 471 225 447T164 383T143 294V0H93V391Q93 439 87 499H134Q140 447 140 406H142Q166 455 212 484T327 513ZM300 -68Q335 -68 335 -104Q335 -139 321 -171T272 -249L250 -238Q273 -203 282 -179T293 -127Q266 -124 266 -99Q266 -85 274 -76T300 -68Z" horiz-adv-x="598" unicode="ņ"/>
			<glyph d="M98 708H159L625 69H627L626 708H676V0H614L148 639H146L147 0H98ZM263 907L387 820L511 907L531 883L408 786H366L243 883Z" horiz-adv-x="774" unicode="Ň"/>
			<glyph d="M327 513Q421 513 467 457T513 317V0H463V308Q463 378 428 424T317 471Q265 471 225 447T164 383T143 294V0H93V391Q93 439 87 499H134Q140 447 140 406H142Q166 455 212 484T327 513ZM185 728L307 621L430 728L452 705L329 588V587H286L163 705Z" horiz-adv-x="598" unicode="ň"/>
			<glyph d="M327 513Q421 513 467 457T513 317V0H463V308Q463 378 428 424T317 471Q265 471 225 447T164 383T143 294V0H93V391Q93 439 87 499H134Q140 447 140 406H142Q166 455 212 484T327 513ZM105 762Q140 762 140 725Q140 690 126 659T78 581L56 592Q78 627 86 651T97 702Q71 705 71 731Q71 762 105 762Z" horiz-adv-x="598" unicode="ŉ"/>
			<glyph d="M98 708H159L625 69H627L626 708H676V-110Q676 -258 547 -258Q523 -258 506 -253L514 -215Q530 -217 542 -217Q587 -217 606 -191T626 -111V0H614L148 639H146L147 0H98Z" horiz-adv-x="774" unicode="Ŋ"/>
			<glyph d="M327 513Q421 513 467 457T513 317V-110Q513 -258 384 -258Q360 -258 343 -253L351 -215Q367 -217 379 -217Q424 -217 443 -191T463 -111V308Q463 378 428 424T317 471Q265 471 225 447T164 383T143 294V0H93V391Q93 439 87 499H134Q140 447 140 406H142Q166 455 212 484T327 513Z" horiz-adv-x="598" unicode="ŋ"/>
			<glyph d="M404 723Q514 723 592 676T712 546T753 354Q753 245 712 161T592 31T404 -15Q294 -15 215 31T96 161T55 354Q55 463 96 546T215 676T404 723ZM404 679Q309 679 242 637T142 523T108 354Q108 258 142 185T242 70T404 29Q499 29 566 70T667 185T701 354Q701 450 667 523T566 637T404 679ZM280 850H531V814H280Z" horiz-adv-x="809" unicode="Ō"/>
			<glyph d="M297 514Q412 514 476 442T540 251Q540 173 511 113T428 19T297 -14Q221 -14 166 19T83 113T55 251Q55 371 118 442T297 514ZM296 473Q202 473 154 412T106 251Q106 151 154 89T296 27Q391 27 440 88T489 251Q489 351 440 412T296 473ZM172 653H423V617H172Z" horiz-adv-x="595" unicode="ō"/>
			<glyph d="M404 723Q514 723 592 676T712 546T753 354Q753 245 712 161T592 31T404 -15Q294 -15 215 31T96 161T55 354Q55 463 96 546T215 676T404 723ZM404 679Q309 679 242 637T142 523T108 354Q108 258 142 185T242 70T404 29Q499 29 566 70T667 185T701 354Q701 450 667 523T566 637T404 679ZM305 891Q316 854 341 835T404 816Q442 816 467 835T503 891L536 887Q525 835 491 806T404 778Q351 778 317 806T272 887Z" horiz-adv-x="809" unicode="Ŏ"/>
			<glyph d="M297 514Q412 514 476 442T540 251Q540 173 511 113T428 19T297 -14Q221 -14 166 19T83 113T55 251Q55 371 118 442T297 514ZM296 473Q202 473 154 412T106 251Q106 151 154 89T296 27Q391 27 440 88T489 251Q489 351 440 412T296 473ZM197 709Q208 662 233 640T298 619Q378 619 398 709L432 705Q421 643 387 611T298 580Q243 580 208 611T164 705Z" horiz-adv-x="595" unicode="ŏ"/>
			<glyph d="M404 723Q514 723 592 676T712 546T753 354Q753 245 712 161T592 31T404 -15Q294 -15 215 31T96 161T55 354Q55 463 96 546T215 676T404 723ZM404 679Q309 679 242 637T142 523T108 354Q108 258 142 185T242 70T404 29Q499 29 566 70T667 185T701 354Q701 450 667 523T566 637T404 679ZM411 942L446 922L352 776L326 790ZM527 934L562 912L461 771L435 787Z" horiz-adv-x="809" unicode="Ő"/>
			<glyph d="M297 514Q412 514 476 442T540 251Q540 173 511 113T428 19T297 -14Q221 -14 166 19T83 113T55 251Q55 371 118 442T297 514ZM296 473Q202 473 154 412T106 251Q106 151 154 89T296 27Q391 27 440 88T489 251Q489 351 440 412T296 473ZM303 745L338 725L244 579L218 593ZM419 737L454 715L353 574L327 590Z" horiz-adv-x="595" unicode="ő"/>
			<glyph d="M391 723Q446 723 493 708H965V666H564Q625 626 662 553T705 387H921V346H706Q705 243 667 164T561 43H981V0H492Q446 -15 391 -15Q287 -15 211 31T95 161T55 354Q55 463 95 546T211 676T391 723ZM391 679Q302 679 238 637T141 522T108 354Q108 259 141 185T238 70T391 29Q475 29 534 70T623 185T654 354Q654 449 623 522T534 637T391 679Z" horiz-adv-x="1012" unicode="Œ"/>
			<glyph d="M288 514Q364 514 416 476T495 370Q520 438 569 475T689 513Q787 513 841 443T896 259Q896 243 895 234H520Q523 143 569 85T697 27Q741 27 777 40T852 80L875 47Q789 -14 696 -14Q622 -14 571 24T495 132Q470 63 417 24T288 -14Q216 -14 163 19T83 113T55 251Q55 370 117 442T288 514ZM688 474Q637 474 599 447T541 374T520 273H847Q847 364 805 419T688 474ZM287 473Q199 473 152 411T106 251Q106 152 153 89T287 27Q373 27 422 88T472 253Q472 352 422 412T287 473Z" horiz-adv-x="950" unicode="œ"/>
			<glyph d="M98 708H319Q381 708 433 684T518 611T550 489Q550 402 501 349T376 281L563 0H504L325 275H150V0H98ZM150 666V316H317Q395 316 446 361T498 489Q498 577 445 621T317 666ZM373 915L396 877L230 784L212 812Z" unicode="Ŕ"/>
			<glyph d="M307 513Q322 513 332 511L330 469Q320 470 303 470Q226 470 184 415T143 274V0H93V391Q93 439 87 499H134Q140 445 140 403H142Q184 513 307 513ZM277 736L303 698L148 586L127 613Z" horiz-adv-x="339" unicode="ŕ"/>
			<glyph d="M98 708H319Q381 708 433 684T518 611T550 489Q550 402 501 349T376 281L563 0H504L325 275H150V0H98ZM150 666V316H317Q395 316 446 361T498 489Q498 577 445 621T317 666ZM318 -68Q353 -68 353 -104Q353 -139 339 -171T290 -249L268 -238Q291 -203 300 -179T311 -127Q284 -124 284 -99Q284 -85 292 -76T318 -68Z" unicode="Ŗ"/>
			<glyph d="M307 513Q322 513 332 511L330 469Q320 470 303 470Q226 470 184 415T143 274V0H93V391Q93 439 87 499H134Q140 445 140 403H142Q184 513 307 513ZM119 -68Q154 -68 154 -104Q154 -139 140 -171T91 -249L69 -238Q92 -203 101 -179T112 -127Q85 -124 85 -99Q85 -85 93 -76T119 -68Z" horiz-adv-x="339" unicode="ŗ"/>
			<glyph d="M98 708H319Q381 708 433 684T518 611T550 489Q550 402 501 349T376 281L563 0H504L325 275H150V0H98ZM150 666V316H317Q395 316 446 361T498 489Q498 577 445 621T317 666ZM171 907L295 820L419 907L439 883L316 786H274L151 883Z" unicode="Ř"/>
			<glyph d="M307 513Q322 513 332 511L330 469Q320 470 303 470Q226 470 184 415T143 274V0H93V391Q93 439 87 499H134Q140 445 140 403H142Q184 513 307 513ZM80 728L202 621L325 728L347 705L224 588V587H181L58 705Z" horiz-adv-x="339" unicode="ř"/>
			<glyph d="M283 723Q345 723 394 706T486 658L461 624Q422 652 379 666T283 680Q205 680 157 644T110 544Q110 484 150 453T281 398Q353 379 400 354T473 288T500 185Q500 121 469 76T386 8T267 -15Q130 -15 33 69L60 101Q106 64 155 46T266 29Q346 29 397 69T448 183Q448 234 425 266T362 319T258 356Q155 383 107 424T59 543Q59 626 121 674T283 723ZM366 915L389 877L223 784L205 812Z" horiz-adv-x="545" unicode="Ś"/>
			<glyph d="M211 513Q306 513 370 461L347 429Q290 474 212 474Q157 474 125 451T93 387Q93 345 122 322T229 282Q309 263 345 228T382 134Q382 66 332 26T205 -14Q150 -14 107 1T28 45L52 76Q88 50 122 38T204 26Q262 26 296 54T331 131Q331 163 319 183T278 217T196 245Q114 264 78 296T43 384Q43 444 89 478T211 513ZM289 736L315 698L160 586L139 613Z" horiz-adv-x="427" unicode="ś"/>
			<glyph d="M283 723Q345 723 394 706T486 658L461 624Q422 652 379 666T283 680Q205 680 157 644T110 544Q110 484 150 453T281 398Q353 379 400 354T473 288T500 185Q500 121 469 76T386 8T267 -15Q130 -15 33 69L60 101Q106 64 155 46T266 29Q346 29 397 69T448 183Q448 234 425 266T362 319T258 356Q155 383 107 424T59 543Q59 626 121 674T283 723ZM267 906H309L432 809L412 785L288 872L164 785L144 809Z" horiz-adv-x="545" unicode="Ŝ"/>
			<glyph d="M211 513Q306 513 370 461L347 429Q290 474 212 474Q157 474 125 451T93 387Q93 345 122 322T229 282Q309 263 345 228T382 134Q382 66 332 26T205 -14Q150 -14 107 1T28 45L52 76Q88 50 122 38T204 26Q262 26 296 54T331 131Q331 163 319 183T278 217T196 245Q114 264 78 296T43 384Q43 444 89 478T211 513ZM194 727H236L359 609L338 586L215 692L92 586L70 609Z" horiz-adv-x="427" unicode="ŝ"/>
			<glyph d="M283 723Q345 723 394 706T486 658L461 624Q422 652 379 666T283 680Q205 680 157 644T110 544Q110 484 150 453T281 398Q353 379 400 354T473 288T500 185Q500 97 443 45T294 -14L271 -76Q286 -72 306 -72Q343 -72 365 -91T387 -146Q387 -188 356 -210T278 -232Q227 -232 186 -209L200 -181Q219 -190 236 -194T278 -199Q311 -199 329 -185T347 -146Q347 -124 333 -112T295 -100Q276 -100 251 -107H221L257 -15Q127 -12 33 69L60 101Q106 64 155 46T266 29Q346 29 397 69T448 183Q448 234 425 266T362 319T258 356Q155 383 107 424T59 543Q59 626 121 674T283 723Z" horiz-adv-x="545" unicode="Ş"/>
			<glyph d="M211 513Q306 513 370 461L347 429Q290 474 212 474Q157 474 125 451T93 387Q93 345 122 322T229 282Q309 263 345 228T382 134Q382 70 337 30T221 -14L198 -76Q213 -72 233 -72Q270 -72 292 -91T314 -146Q314 -188 283 -210T205 -232Q154 -232 113 -209L127 -181Q146 -190 163 -194T205 -199Q238 -199 256 -185T274 -146Q274 -124 260 -112T222 -100Q203 -100 178 -107H148L185 -13Q96 -9 28 45L52 76Q88 50 122 38T204 26Q262 26 296 54T331 131Q331 163 319 183T278 217T196 245Q114 264 78 296T43 384Q43 444 89 478T211 513Z" horiz-adv-x="427" unicode="ş"/>
			<glyph d="M283 723Q345 723 394 706T486 658L461 624Q422 652 379 666T283 680Q205 680 157 644T110 544Q110 484 150 453T281 398Q353 379 400 354T473 288T500 185Q500 121 469 76T386 8T267 -15Q130 -15 33 69L60 101Q106 64 155 46T266 29Q346 29 397 69T448 183Q448 234 425 266T362 319T258 356Q155 383 107 424T59 543Q59 626 121 674T283 723ZM164 907L288 820L412 907L432 883L309 786H267L144 883Z" horiz-adv-x="545" unicode="Š"/>
			<glyph d="M211 513Q306 513 370 461L347 429Q290 474 212 474Q157 474 125 451T93 387Q93 345 122 322T229 282Q309 263 345 228T382 134Q382 66 332 26T205 -14Q150 -14 107 1T28 45L52 76Q88 50 122 38T204 26Q262 26 296 54T331 131Q331 163 319 183T278 217T196 245Q114 264 78 296T43 384Q43 444 89 478T211 513ZM92 728L214 621L337 728L359 705L236 588V587H193L70 705Z" horiz-adv-x="427" unicode="š"/>
			<glyph d="M5 708H523V663H290V0H283L255 -76Q270 -72 290 -72Q327 -72 349 -91T371 -146Q371 -188 340 -210T262 -232Q211 -232 170 -209L184 -181Q203 -190 220 -194T262 -199Q295 -199 313 -185T331 -146Q331 -124 317 -112T279 -100Q259 -100 235 -107H205L247 0H238V663H5Z" horiz-adv-x="528" unicode="Ţ"/>
			<glyph d="M159 648V499H300V460H159V116Q159 70 180 48T240 27Q266 27 294 35L302 -2Q271 -14 232 -14H228L205 -76Q220 -72 240 -72Q277 -72 299 -91T321 -146Q321 -188 290 -210T212 -232Q161 -232 120 -209L134 -181Q153 -190 170 -194T212 -199Q245 -199 263 -185T281 -146Q281 -124 267 -112T229 -100Q210 -100 185 -107H155L193 -10Q153 1 131 32T109 113V460H15V493L109 499V630Z" horiz-adv-x="332" unicode="ţ"/>
			<glyph d="M5 708H523V663H290V0H238V663H5ZM140 907L264 820L388 907L408 883L285 786H243L120 883Z" horiz-adv-x="528" unicode="Ť"/>
			<glyph d="M159 648V499H300V460H159V116Q159 70 180 48T240 27Q266 27 294 35L302 -2Q271 -14 232 -14Q175 -14 142 19T109 113V460H15V493L109 499V630ZM272 723L317 712L278 556L247 563Z" horiz-adv-x="332" unicode="ť"/>
			<glyph d="M5 708H523V663H290V372H415V336H290V0H238V336H114V372H238V663H5Z" horiz-adv-x="528" unicode="Ŧ"/>
			<glyph d="M159 648V499H300V460H159V330H270V292H159V116Q159 70 180 48T240 27Q266 27 294 35L302 -2Q271 -14 232 -14Q175 -14 142 19T109 113V292H15V330H109V460H15V493L109 499V630Z" horiz-adv-x="332" unicode="ŧ"/>
			<glyph d="M89 708H141V256Q141 145 195 87T366 30Q483 30 537 87T592 256V708H644V253Q644 124 574 54T366 -15Q227 -15 158 54T89 253ZM311 874Q327 874 341 867T375 847Q390 836 400 831T421 826Q438 826 452 836T481 872L509 860Q492 824 470 807T422 790Q407 790 395 795T360 816Q357 818 347 824T328 834T312 838Q295 838 281 827T252 792L224 804Q258 874 311 874Z" horiz-adv-x="732" unicode="Ũ"/>
			<glyph d="M85 499H135V201Q135 124 170 75T279 26Q332 26 372 54T433 131T455 237V499H505V109Q505 62 511 0H464Q458 54 458 108H456Q431 49 384 17T270 -15Q177 -15 131 43T85 195ZM248 677Q264 677 278 670T312 650Q327 639 337 634T358 629Q375 629 389 639T418 675L446 663Q429 627 407 610T359 593Q344 593 332 598T297 619Q294 621 284 627T265 637T249 641Q232 641 218 630T189 595L161 607Q195 677 248 677Z" horiz-adv-x="598" unicode="ũ"/>
			<glyph d="M89 708H141V256Q141 145 195 87T366 30Q483 30 537 87T592 256V708H644V253Q644 124 574 54T366 -15Q227 -15 158 54T89 253ZM243 850H494V814H243Z" horiz-adv-x="732" unicode="Ū"/>
			<glyph d="M85 499H135V201Q135 124 170 75T279 26Q332 26 372 54T433 131T455 237V499H505V109Q505 62 511 0H464Q458 54 458 108H456Q431 49 384 17T270 -15Q177 -15 131 43T85 195ZM177 653H428V617H177Z" horiz-adv-x="598" unicode="ū"/>
			<glyph d="M89 708H141V256Q141 145 195 87T366 30Q483 30 537 87T592 256V708H644V253Q644 124 574 54T366 -15Q227 -15 158 54T89 253ZM268 891Q279 854 304 835T367 816Q405 816 430 835T466 891L499 887Q488 835 454 806T367 778Q314 778 280 806T235 887Z" horiz-adv-x="732" unicode="Ŭ"/>
			<glyph d="M85 499H135V201Q135 124 170 75T279 26Q332 26 372 54T433 131T455 237V499H505V109Q505 62 511 0H464Q458 54 458 108H456Q431 49 384 17T270 -15Q177 -15 131 43T85 195ZM202 709Q213 662 238 640T303 619Q383 619 403 709L437 705Q426 643 392 611T303 580Q248 580 213 611T169 705Z" horiz-adv-x="598" unicode="ŭ"/>
			<glyph d="M89 708H141V256Q141 145 195 87T366 30Q483 30 537 87T592 256V708H644V253Q644 124 574 54T366 -15Q227 -15 158 54T89 253ZM367 967Q411 967 439 940T467 872Q467 831 439 803T367 776Q322 776 294 803T267 872Q267 914 295 940T367 967ZM367 937Q337 937 320 919T303 872Q303 843 320 825T367 807Q396 807 413 825T430 872Q430 901 413 919T367 937Z" horiz-adv-x="732" unicode="Ů"/>
			<glyph d="M85 499H135V201Q135 124 170 75T279 26Q332 26 372 54T433 131T455 237V499H505V109Q505 62 511 0H464Q458 54 458 108H456Q431 49 384 17T270 -15Q177 -15 131 43T85 195ZM303 770Q347 770 375 743T403 675Q403 634 375 606T303 579Q258 579 230 606T203 675Q203 717 231 743T303 770ZM303 740Q273 740 256 722T239 675Q239 646 256 628T303 610Q332 610 349 628T366 675Q366 704 349 722T303 740Z" horiz-adv-x="598" unicode="ů"/>
			<glyph d="M89 708H141V256Q141 145 195 87T366 30Q483 30 537 87T592 256V708H644V253Q644 124 574 54T366 -15Q227 -15 158 54T89 253ZM374 942L409 922L315 776L289 790ZM490 934L525 912L424 771L398 787Z" horiz-adv-x="732" unicode="Ű"/>
			<glyph d="M85 499H135V201Q135 124 170 75T279 26Q332 26 372 54T433 131T455 237V499H505V109Q505 62 511 0H464Q458 54 458 108H456Q431 49 384 17T270 -15Q177 -15 131 43T85 195ZM309 745L344 725L250 579L224 593ZM425 737L460 715L359 574L333 590Z" horiz-adv-x="598" unicode="ű"/>
			<glyph d="M89 708H141V256Q141 145 195 87T366 30Q483 30 537 87T592 256V708H644V253Q644 156 604 92T485 2Q432 -38 407 -71T383 -139Q383 -166 398 -180T442 -194Q476 -194 511 -176L523 -206Q484 -230 438 -230Q396 -230 369 -207T342 -144Q342 -76 427 -11Q402 -15 366 -15Q227 -15 158 54T89 253Z" horiz-adv-x="732" unicode="Ų"/>
			<glyph d="M85 499H135V201Q135 124 170 75T279 26Q332 26 372 54T433 131T455 237V499H505V109Q505 62 511 0H503Q449 -40 425 -72T401 -139Q401 -166 416 -180T460 -194Q495 -194 529 -176L541 -206Q502 -230 456 -230Q414 -230 387 -207T360 -144Q360 -66 463 5Q458 70 458 108H456Q431 49 384 17T270 -15Q177 -15 131 43T85 195Z" horiz-adv-x="598" unicode="ų"/>
			<glyph d="M20 708H73L260 62H262L449 708H509L700 62H702L889 708H941L731 0H672L479 647H477L289 0H230ZM460 906H502L625 809L605 785L481 872L357 785L337 809Z" horiz-adv-x="962" unicode="Ŵ"/>
			<glyph d="M24 499H76L196 53H198L340 499H398L540 53H542L663 499H714L572 0H513L369 446H367L224 0H165ZM348 727H390L513 609L492 586L369 692L246 586L224 609Z" horiz-adv-x="738" unicode="ŵ"/>
			<glyph d="M-4 708H55L267 351H269L480 708H538L292 306V0H240V308ZM246 906H288L411 809L391 785L267 872L143 785L123 809Z" horiz-adv-x="533" unicode="Ŷ"/>
			<glyph d="M10 499H63L231 54H232L388 499H440L206 -142Q185 -203 153 -230T70 -258Q39 -258 15 -249L25 -211Q43 -216 65 -216Q103 -216 125 -194T162 -129L205 -3ZM205 727H247L370 609L349 586L226 692L103 586L81 609Z" horiz-adv-x="450" unicode="ŷ"/>
			<glyph d="M-4 708H55L267 351H269L480 708H538L292 306V0H240V308ZM184 893Q220 893 220 857Q220 822 184 822Q148 822 148 857Q148 893 184 893ZM353 893Q389 893 389 857Q389 822 353 822Q317 822 317 857Q317 893 353 893Z" horiz-adv-x="533" unicode="Ÿ"/>
			<glyph d="M52 708H524V661L97 44H535V0H39V48L466 666H52ZM371 915L394 877L228 784L210 812Z" horiz-adv-x="585" unicode="Ź"/>
			<glyph d="M52 499H382V458L94 40H394V0H37V42L325 460H52ZM294 736L320 698L165 586L144 613Z" horiz-adv-x="431" unicode="ź"/>
			<glyph d="M52 708H524V661L97 44H535V0H39V48L466 666H52ZM293 899Q331 899 331 862Q331 826 293 826Q255 826 255 862Q255 899 293 899Z" horiz-adv-x="585" unicode="Ż"/>
			<glyph d="M52 499H382V458L94 40H394V0H37V42L325 460H52ZM220 721Q258 721 258 684Q258 648 220 648Q182 648 182 684Q182 721 220 721Z" horiz-adv-x="431" unicode="ż"/>
			<glyph d="M52 708H524V661L97 44H535V0H39V48L466 666H52ZM169 907L293 820L417 907L437 883L314 786H272L149 883Z" horiz-adv-x="585" unicode="Ž"/>
			<glyph d="M52 499H382V458L94 40H394V0H37V42L325 460H52ZM97 728L219 621L342 728L364 705L241 588V587H198L75 705Z" horiz-adv-x="431" unicode="ž"/>
			<glyph d="M405 722Q445 722 482 712L471 676Q441 682 409 682Q356 681 330 650T304 562V499H435V462H304V-110Q304 -258 175 -258Q151 -258 134 -253L142 -215Q158 -217 170 -217Q215 -217 234 -191T254 -111V462H160V499H254V563Q254 640 293 681T405 722Z" unicode="ƒ"/>
			<glyph d="M283 723Q345 723 394 706T486 658L461 624Q422 652 379 666T283 680Q205 680 157 644T110 544Q110 484 150 453T281 398Q353 379 400 354T473 288T500 185Q500 121 469 76T386 8T267 -15Q130 -15 33 69L60 101Q106 64 155 46T266 29Q346 29 397 69T448 183Q448 234 425 266T362 319T258 356Q155 383 107 424T59 543Q59 626 121 674T283 723ZM281 -68Q316 -68 316 -104Q316 -139 302 -171T253 -249L231 -238Q254 -203 263 -179T274 -127Q247 -124 247 -99Q247 -85 255 -76T281 -68Z" horiz-adv-x="545" unicode="Ș"/>
			<glyph d="M211 513Q306 513 370 461L347 429Q290 474 212 474Q157 474 125 451T93 387Q93 345 122 322T229 282Q309 263 345 228T382 134Q382 66 332 26T205 -14Q150 -14 107 1T28 45L52 76Q88 50 122 38T204 26Q262 26 296 54T331 131Q331 163 319 183T278 217T196 245Q114 264 78 296T43 384Q43 444 89 478T211 513ZM208 -68Q243 -68 243 -104Q243 -139 229 -171T180 -249L158 -238Q181 -203 190 -179T201 -127Q174 -124 174 -99Q174 -85 182 -76T208 -68Z" horiz-adv-x="427" unicode="ș"/>
			<glyph d="M5 708H523V663H290V0H238V663H5ZM265 -68Q300 -68 300 -104Q300 -139 286 -171T237 -249L215 -238Q238 -203 247 -179T258 -127Q231 -124 231 -99Q231 -85 239 -76T265 -68Z" horiz-adv-x="528" unicode="Ț"/>
			<glyph d="M159 648V499H300V460H159V116Q159 70 180 48T240 27Q266 27 294 35L302 -2Q271 -14 232 -14Q175 -14 142 19T109 113V460H15V493L109 499V630ZM215 -68Q250 -68 250 -104Q250 -139 236 -171T187 -249L165 -238Q188 -203 197 -179T208 -127Q181 -124 181 -99Q181 -85 189 -76T215 -68Z" horiz-adv-x="332" unicode="ț"/>
			<glyph d="M94 499H144V-110Q144 -185 112 -221T15 -258Q-8 -258 -26 -253L-17 -215Q-3 -217 10 -217Q55 -217 74 -191T94 -111Z" horiz-adv-x="238" unicode="ȷ"/>
			<glyph d="M154 727H196L319 609L298 586L175 692L52 586L30 609Z" horiz-adv-x="350" unicode="ˆ"/>
			<glyph d="M52 728L174 621L297 728L319 705L196 588V587H153L30 705Z" horiz-adv-x="349" unicode="ˇ"/>
			<glyph d="M30 653H281V617H30Z" horiz-adv-x="311" unicode="ˉ"/>
			<glyph d="M63 709Q74 662 99 640T164 619Q244 619 264 709L298 705Q287 643 253 611T164 580Q109 580 74 611T30 705Z" horiz-adv-x="327" unicode="˘"/>
			<glyph d="M68 721Q106 721 106 684Q106 648 68 648Q30 648 30 684Q30 721 68 721Z" horiz-adv-x="136" unicode="˙"/>
			<glyph d="M130 770Q174 770 202 743T230 675Q230 634 202 606T130 579Q85 579 57 606T30 675Q30 717 58 743T130 770ZM130 740Q100 740 83 722T66 675Q66 646 83 628T130 610Q159 610 176 628T193 675Q193 704 176 722T130 740Z" horiz-adv-x="259" unicode="˚"/>
			<glyph d="M138 8L173 0Q119 -40 95 -72T71 -139Q71 -166 86 -180T130 -194Q165 -194 199 -176L211 -206Q172 -230 126 -230Q84 -230 57 -207T30 -144Q30 -65 138 8Z" horiz-adv-x="241" unicode="˛"/>
			<glyph d="M117 677Q133 677 147 670T181 650Q196 639 206 634T227 629Q244 629 258 639T287 675L315 663Q298 627 276 610T228 593Q213 593 201 598T166 619Q163 621 153 627T134 637T118 641Q101 641 87 630T58 595L30 607Q64 677 117 677Z" horiz-adv-x="345" unicode="˜"/>
			<glyph d="M115 745L150 725L56 579L30 593ZM231 737L266 715L165 574L139 590Z" horiz-adv-x="295" unicode="˝"/>
			<glyph d="M-56 806L-34 795Q-57 760 -66 736T-77 684Q-50 681 -50 656Q-50 642 -58 633T-84 625Q-119 625 -119 661Q-119 696 -105 728T-56 806Z" horiz-adv-x="0" unicode="̒"/>
			<glyph d="M-63 -68Q-28 -68 -28 -104Q-28 -139 -42 -171T-91 -249L-113 -238Q-90 -203 -81 -179T-70 -127Q-97 -124 -97 -99Q-97 -85 -88 -76T-63 -68Z" horiz-adv-x="0" unicode="̦"/>
			<glyph d="M295 708H353L638 0H10ZM324 663L80 42H566Z" horiz-adv-x="649" unicode="Δ"/>
			<glyph d="M394 723Q499 723 575 676T692 547T733 356Q733 248 687 168T563 45H734V0H478V44L477 45Q573 76 626 158T680 354Q680 449 646 522T548 637T394 679Q304 679 239 637T140 522T107 354Q107 241 161 158T310 45V0H55V45H225Q146 88 100 168T55 356Q55 464 95 547T212 676T394 723Z" horiz-adv-x="789" unicode="Ω"/>
			<glyph d="M91 499H141V201Q141 124 176 75T285 27Q338 27 378 55T439 131T461 237V499H511V109Q511 62 517 0H470Q464 54 464 108H462Q437 50 391 17T282 -15Q181 -15 141 70H139V-133Q139 -199 132 -244H85Q91 -182 91 -135Z" horiz-adv-x="604" unicode="μ"/>
			<glyph d="M545 513L553 474Q511 459 457 459V122Q457 84 462 56T477 0H428Q418 28 412 55T407 123V459L150 458V0H100V458H8V499H449Q498 499 545 513Z" horiz-adv-x="569" unicode="π"/>
			<glyph d="M20 708H73L260 62H262L449 708H509L700 62H702L889 708H941L731 0H672L479 647H477L289 0H230ZM400 915L561 812L544 784L377 877Z" horiz-adv-x="962" unicode="Ẁ"/>
			<glyph d="M24 499H76L196 53H198L340 499H398L540 53H542L663 499H714L572 0H513L369 446H367L224 0H165ZM297 736L447 613L426 586L271 698Z" horiz-adv-x="738" unicode="ẁ"/>
			<glyph d="M20 708H73L260 62H262L449 708H509L700 62H702L889 708H941L731 0H672L479 647H477L289 0H230ZM558 915L581 877L415 784L397 812Z" horiz-adv-x="962" unicode="Ẃ"/>
			<glyph d="M24 499H76L196 53H198L340 499H398L540 53H542L663 499H714L572 0H513L369 446H367L224 0H165ZM444 736L470 698L315 586L294 613Z" horiz-adv-x="738" unicode="ẃ"/>
			<glyph d="M20 708H73L260 62H262L449 708H509L700 62H702L889 708H941L731 0H672L479 647H477L289 0H230ZM397 893Q433 893 433 857Q433 822 397 822Q361 822 361 857Q361 893 397 893ZM566 893Q602 893 602 857Q602 822 566 822Q530 822 530 857Q530 893 566 893Z" horiz-adv-x="962" unicode="Ẅ"/>
			<glyph d="M24 499H76L196 53H198L340 499H398L540 53H542L663 499H714L572 0H513L369 446H367L224 0H165ZM285 696Q321 696 321 660Q321 625 285 625Q249 625 249 660Q249 696 285 696ZM454 696Q490 696 490 660Q490 625 454 625Q418 625 418 660Q418 696 454 696Z" horiz-adv-x="738" unicode="ẅ"/>
			<glyph d="M315 723Q388 723 448 697T566 619L411 418Q522 397 582 345T643 195Q643 93 579 39T414 -15Q321 -15 247 25L267 62Q335 28 412 28Q493 28 542 70T591 195Q591 281 535 325T359 387V419L507 614Q461 647 415 663T317 680Q235 680 185 638T135 509V0H83V513Q84 616 148 669T315 723Z" horiz-adv-x="687" unicode="ẞ"/>
			<glyph d="M-4 708H55L267 351H269L480 708H538L292 306V0H240V308ZM187 915L348 812L331 784L164 877Z" horiz-adv-x="533" unicode="Ỳ"/>
			<glyph d="M10 499H63L231 54H232L388 499H440L206 -142Q185 -203 153 -230T70 -258Q39 -258 15 -249L25 -211Q43 -216 65 -216Q103 -216 125 -194T162 -129L205 -3ZM153 736L303 613L282 586L127 698Z" horiz-adv-x="450" unicode="ỳ"/>
			<glyph d="M105 313H505V272H105Z" unicode="–"/>
			<glyph d="M47 313H543V272H47Z" horiz-adv-x="591" unicode="—"/>
			<glyph d="M171 723L189 707Q156 669 142 640T126 575Q161 572 161 542Q161 528 152 518T126 509Q108 509 98 521T88 555Q88 602 106 640T171 723Z" horiz-adv-x="247" unicode="‘"/>
			<glyph d="M117 726Q135 726 145 714T155 680Q155 633 137 595T72 512L54 528Q87 566 101 595T117 660Q82 663 82 693Q82 707 91 716T117 726Z" horiz-adv-x="212" unicode="’"/>
			<glyph d="M121 66Q139 66 149 54T159 20Q159 -27 141 -65T76 -148L58 -132Q91 -94 105 -65T121 0Q86 3 86 33Q86 47 95 56T121 66Z" horiz-adv-x="247" unicode="‚"/>
			<glyph d="M317 723L335 707Q302 669 288 640T272 575Q307 572 307 542Q307 528 298 518T272 509Q254 509 244 521T234 555Q234 602 252 640T317 723ZM171 723L189 707Q156 669 142 640T126 575Q161 572 161 542Q161 528 152 518T126 509Q108 509 98 521T88 555Q88 602 106 640T171 723Z" horiz-adv-x="392" unicode="“"/>
			<glyph d="M266 723Q284 723 294 711T304 677Q304 630 286 592T221 509L203 525Q236 563 250 592T266 657Q231 660 231 690Q231 704 240 713T266 723ZM121 723Q139 723 149 711T159 677Q159 630 141 592T76 509L58 525Q91 563 105 592T121 657Q86 660 86 690Q86 704 95 713T121 723Z" horiz-adv-x="392" unicode="”"/>
			<glyph d="M121 66Q139 66 149 54T159 20Q159 -27 141 -65T76 -148L58 -132Q91 -94 105 -65T121 0Q86 3 86 33Q86 47 95 56T121 66ZM267 66Q285 66 295 54T305 20Q305 -27 287 -65T222 -148L204 -132Q237 -94 251 -65T267 0Q232 3 232 33Q232 47 241 56T267 66Z" horiz-adv-x="392" unicode="„"/>
			<glyph d="M255 708H305V524H483V483H305V0H255V483H77V524H255Z" horiz-adv-x="560" unicode="†"/>
			<glyph d="M255 708H305V524H483V483H305V306H483V265H305V0H255V265H77V306H255V483H77V524H255Z" horiz-adv-x="560" unicode="‡"/>
			<glyph d="M157 393Q225 393 225 324Q225 258 157 258Q88 258 88 324Q88 393 157 393Z" horiz-adv-x="313" unicode="•"/>
			<glyph d="M381 69Q419 69 419 31Q419 -6 381 -6Q343 -6 343 31Q343 69 381 69ZM638 69Q676 69 676 31Q676 -6 638 -6Q600 -6 600 31Q600 69 638 69ZM126 69Q164 69 164 31Q164 -6 126 -6Q88 -6 88 31Q88 69 126 69Z" horiz-adv-x="764" unicode="…"/>
			<glyph d="M382 722Q446 722 492 693T562 616T586 512Q586 457 562 409T492 332T382 304Q317 304 270 332T199 408T176 512Q176 568 200 616T270 693T382 722ZM863 709H912L494 0H445ZM381 680Q330 680 294 656T242 594T225 512Q225 444 265 395T381 346Q457 346 497 395T537 512Q537 556 520 594T467 656T381 680ZM982 407Q1046 407 1092 378T1162 301T1186 197Q1186 142 1162 94T1092 17T982 -11Q917 -11 870 17T799 93T776 197Q776 253 800 301T870 378T982 407ZM1450 407Q1514 407 1560 378T1630 301T1654 197Q1654 142 1630 94T1560 17T1450 -11Q1385 -11 1338 17T1267 93T1244 197Q1244 253 1268 301T1338 378T1450 407ZM981 365Q930 365 894 341T842 279T825 197Q825 129 865 80T981 31Q1057 31 1097 80T1137 197Q1137 241 1120 279T1067 341T981 365ZM1449 365Q1398 365 1362 341T1310 279T1293 197Q1293 129 1333 80T1449 31Q1525 31 1565 80T1605 197Q1605 241 1588 279T1535 341T1449 365Z" horiz-adv-x="1830" unicode="‰"/>
			<glyph d="M210 472L236 451L127 309L235 167L210 147L85 297V321Z" horiz-adv-x="321" unicode="‹"/>
			<glyph d="M110 472L236 321V297L111 147L86 167L194 309H193L85 451Z" horiz-adv-x="321" unicode="›"/>
			<glyph d="M292 709H341L-77 0H-126Z" horiz-adv-x="202" unicode="⁄"/>
			<glyph d="M270 719Q378 719 432 646T487 449Q487 325 432 252T270 180Q164 180 109 252T54 449Q54 574 109 646T270 719ZM270 678Q184 678 143 617T103 449Q103 342 143 281T270 221Q356 221 396 281T437 449Q437 557 396 617T270 678Z" horiz-adv-x="540" unicode="⁰"/>
			<glyph d="M252 708H304L123 365H340V516H388V365H471V323H388V191H340V323H68V361Z" horiz-adv-x="540" unicode="⁴"/>
			<glyph d="M122 708H433V667H169V487Q220 511 290 511Q369 511 414 469T460 355Q460 275 408 227T260 180Q200 180 158 196T80 248L108 277Q143 247 178 234T261 221Q332 221 371 257T410 354Q410 410 375 441T280 472Q243 472 214 465T156 444H122Z" horiz-adv-x="540" unicode="⁵"/>
			<glyph d="M301 719Q340 719 368 710T425 685L406 652Q382 666 358 673T302 680Q220 680 174 620T124 458Q155 491 196 509T293 527Q371 527 418 483T466 365Q466 282 415 231T274 180Q173 180 123 244T74 418Q74 558 133 638T301 719ZM285 489Q232 489 193 468T123 409Q125 318 160 269T274 220Q343 220 379 258T416 364Q416 424 381 456T285 489Z" horiz-adv-x="540" unicode="⁶"/>
			<glyph d="M87 707H453V668Q354 558 301 441T237 191H181Q200 326 250 442T393 665H87Z" horiz-adv-x="540" unicode="⁷"/>
			<glyph d="M271 719Q346 719 395 685T444 591Q444 549 418 518T339 461Q411 436 441 405T472 323Q472 259 416 219T269 180Q175 180 121 219T68 322Q68 376 101 411T201 470Q145 491 121 518T97 590Q97 648 146 683T271 719ZM271 682Q215 682 180 657T145 588Q145 552 169 530T253 489L298 474Q350 499 373 525T396 588Q396 632 362 657T271 682ZM245 455Q179 434 148 403T118 327Q118 275 158 247T270 219Q341 219 381 247T422 324Q422 355 407 375T365 409T285 441Z" horiz-adv-x="540" unicode="⁸"/>
			<glyph d="M270 719Q466 719 466 482Q466 340 381 260T141 181V222Q267 222 338 281T416 443Q354 374 250 374Q172 374 123 418T74 540Q74 619 125 669T270 719ZM270 679Q199 679 161 641T123 542Q123 479 159 445T259 411Q311 411 351 432T417 491Q415 587 381 633T270 679Z" horiz-adv-x="540" unicode="⁹"/>
			<glyph d="M249 632H290V506H420V467H290V340H249V467H120V506H249Z" horiz-adv-x="540" unicode="⁺"/>
			<glyph d="M120 506H420V467H120Z" horiz-adv-x="540" unicode="⁻"/>
			<glyph d="M120 584H420V545H120ZM120 428H420V389H120Z" horiz-adv-x="540" unicode="⁼"/>
			<glyph d="M323 797L354 777Q298 699 267 621T237 449Q237 355 267 277T354 122L323 102Q258 185 222 266T187 449Q187 550 223 633T323 797Z" horiz-adv-x="540" unicode="⁽"/>
			<glyph d="M218 797Q282 716 318 633T354 449Q354 348 318 266T218 102L187 122Q243 200 273 277T304 449Q304 544 273 621T187 777Z" horiz-adv-x="540" unicode="⁾"/>
			<glyph d="M270 398Q378 398 432 325T487 128Q487 4 432 -68T270 -141Q164 -141 109 -68T54 128Q54 253 109 325T270 398ZM270 357Q184 357 143 296T103 128Q103 21 143 -39T270 -100Q356 -100 396 -39T437 128Q437 236 396 296T270 357Z" horiz-adv-x="540" unicode="₀"/>
			<glyph d="M277 387H320V-88H437V-130H126V-89H271V335L123 259L103 295Z" horiz-adv-x="540" unicode="₁"/>
			<glyph d="M267 398Q347 398 391 356T435 254Q435 202 412 159T333 63T159 -88H453V-130H94V-91Q224 19 281 73T362 167T386 250Q386 297 353 327T263 357Q216 357 182 341T115 294L86 321Q125 360 166 379T267 398Z" horiz-adv-x="540" unicode="₂"/>
			<glyph d="M273 398Q352 398 396 361T441 265Q441 210 412 181T342 143V142Q390 137 424 106T458 15Q458 -56 407 -98T266 -141Q204 -141 161 -124T81 -73L108 -44Q143 -74 178 -87T266 -100Q332 -100 370 -69T408 16Q408 70 374 95T283 121H200V161H273Q327 161 359 185T392 259Q392 306 360 331T269 357Q225 357 190 345T122 308L97 336Q134 368 176 383T273 398Z" horiz-adv-x="540" unicode="₃"/>
			<glyph d="M252 387H304L123 44H340V195H388V44H471V2H388V-130H340V2H68V40Z" horiz-adv-x="540" unicode="₄"/>
			<glyph d="M122 387H433V346H169V166Q220 190 290 190Q369 190 414 148T460 34Q460 -46 408 -93T260 -141Q200 -141 158 -124T80 -73L108 -44Q143 -74 178 -87T261 -100Q332 -100 371 -64T410 33Q410 89 375 120T280 151Q243 151 214 144T156 123H122Z" horiz-adv-x="540" unicode="₅"/>
			<glyph d="M301 398Q340 398 368 389T425 364L406 331Q382 345 358 352T302 359Q220 359 174 299T124 137Q155 170 196 188T293 206Q371 206 418 162T466 44Q466 -39 415 -90T274 -141Q173 -141 123 -76T74 97Q74 237 133 317T301 398ZM285 168Q232 168 193 147T123 88Q125 -3 160 -52T274 -101Q343 -101 379 -62T416 43Q416 103 381 135T285 168Z" horiz-adv-x="540" unicode="₆"/>
			<glyph d="M87 386H453V347Q354 237 301 120T237 -130H181Q200 5 250 121T393 344H87Z" horiz-adv-x="540" unicode="₇"/>
			<glyph d="M271 398Q346 398 395 364T444 270Q444 228 418 197T339 140Q411 115 441 84T472 2Q472 -62 416 -101T269 -141Q175 -141 121 -102T68 1Q68 55 101 90T201 149Q145 170 121 197T97 269Q97 327 146 362T271 398ZM271 361Q215 361 180 336T145 267Q145 231 169 209T253 168L298 153Q350 178 373 204T396 267Q396 311 362 336T271 361ZM245 134Q179 113 148 82T118 6Q118 -46 158 -74T270 -102Q341 -102 381 -74T422 3Q422 34 407 54T365 88T285 120Z" horiz-adv-x="540" unicode="₈"/>
			<glyph d="M270 398Q466 398 466 161Q466 19 381 -60T141 -140V-99Q267 -99 338 -40T416 122Q354 53 250 53Q172 53 123 97T74 219Q74 298 125 348T270 398ZM270 358Q199 358 161 320T123 221Q123 158 159 124T259 90Q311 90 351 111T417 170Q415 266 381 312T270 358Z" horiz-adv-x="540" unicode="₉"/>
			<glyph d="M249 291H290V165H420V126H290V-1H249V126H120V165H249Z" horiz-adv-x="540" unicode="₊"/>
			<glyph d="M120 165H420V126H120Z" horiz-adv-x="540" unicode="₋"/>
			<glyph d="M120 243H420V204H120ZM120 87H420V48H120Z" horiz-adv-x="540" unicode="₌"/>
			<glyph d="M323 476L354 456Q298 378 267 300T237 128Q237 34 267 -43T354 -199L323 -219Q258 -136 222 -54T187 128Q187 229 223 312T323 476Z" horiz-adv-x="540" unicode="₍"/>
			<glyph d="M218 476Q282 395 318 312T354 128Q354 27 318 -54T218 -219L187 -199Q243 -121 273 -43T304 128Q304 223 273 300T187 456Z" horiz-adv-x="540" unicode="₎"/>
			<glyph d="M383 725Q504 725 590 641L563 607Q527 642 481 661T385 680Q286 680 225 615T147 441H473V404H143Q141 372 141 355Q141 330 142 318H443V281H145Q160 163 220 97T384 32Q438 32 487 54T574 116L603 82Q561 36 504 11T383 -14Q259 -14 185 64T95 281H5V318H92Q91 330 91 355Q91 372 93 404H6V441H97Q115 572 189 648T383 725Z" unicode="€"/>
			<glyph d="M69 708H540V672H350Q428 637 452 561H540V525H460Q462 503 462 489Q462 401 413 348T287 281L474 0H415L236 275H69V316H229Q307 316 358 360T409 490Q409 503 407 525H69V561H398Q379 615 333 642T228 670H69Z" unicode="₹"/>
			<glyph d="M158 708H210V439L447 542L462 507L210 398V310L447 413L462 378L210 269V45Q324 45 389 68T480 136T506 248L553 249Q553 167 521 112T413 29T210 0H158V246L69 208L55 243L158 288V375L69 337L55 372L158 417Z" unicode="₺"/>
			<glyph d="M113 708H321Q422 708 485 657T549 498Q549 397 485 344T324 291H164V199H424V161H164V0H113V161H49V199H113V291H49V328H113ZM164 666V328H321Q398 328 447 371T497 498Q497 585 446 625T318 666Z" unicode="₽"/>
			<glyph d="M232 723Q286 723 316 690T347 604Q347 523 300 443T150 274V116Q150 71 171 49T231 27Q256 27 286 35L293 -2Q262 -14 224 -14Q166 -14 133 19T100 113V238L41 191L27 217Q83 260 100 274V570Q100 644 137 683T232 723ZM233 690Q195 690 172 662T150 576V318Q231 394 268 462T305 604Q305 644 286 667T233 690Z" horiz-adv-x="394" unicode="ℓ"/>
			<glyph d="M471 723Q591 723 676 675T804 544T848 354Q848 247 804 163T676 32T471 -15Q351 -15 266 32T138 163T95 354Q95 461 138 544T266 675T471 723ZM472 687Q361 687 285 644T173 525T136 354Q136 258 173 182T285 64T472 21Q583 21 658 64T771 182T808 354Q808 450 771 525T658 644T472 687ZM344 566H491Q562 566 604 533T646 430Q646 365 603 328T493 292H385V145H344ZM385 531V327H493Q542 327 573 353T605 430Q605 485 573 508T491 531Z" horiz-adv-x="944" unicode="℗"/>
			<glyph d="M214 718Q257 718 296 706T367 670L345 638Q287 678 216 678Q162 678 135 659T108 606Q108 573 133 553T232 518Q309 501 341 473T373 397Q373 338 326 304T203 271Q152 271 111 283T35 322L56 354Q91 332 123 321T201 311Q256 311 289 332T322 391Q322 417 312 432T277 457T200 481Q122 499 91 529T60 603Q60 656 100 687T214 718ZM450 708H522L675 345H677L830 708H902V283H854L855 654H854L694 283H655L496 654H495L496 283H450Z" horiz-adv-x="969" unicode="℠"/>
			<glyph d="M36 708H229V680H149V492H116V680H36ZM258 708H308L385 535H387L463 708H511V492H478L479 673H477L397 492H370L291 673H289L290 492H258Z" horiz-adv-x="577" unicode="™"/>
			<glyph d="M394 723Q499 723 575 676T692 547T733 356Q733 248 687 168T563 45H734V0H478V44L477 45Q573 76 626 158T680 354Q680 449 646 522T548 637T394 679Q304 679 239 637T140 522T107 354Q107 241 161 158T310 45V0H55V45H225Q146 88 100 168T55 356Q55 464 95 547T212 676T394 723Z" horiz-adv-x="789" unicode="Ω"/>
			<glyph d="M450 683Q588 683 673 631T795 500T832 330H215Q210 330 210 325V149Q210 129 217 121Q255 73 314 47T449 22Q525 22 584 50T698 130H765Q706 60 636 28T452 -3Q335 -3 248 42T115 164T70 332Q70 423 116 504T249 634T450 683ZM447 659Q387 659 327 635T219 562Q210 553 210 536V355Q210 350 215 350H687Q692 350 692 355V535Q692 548 682 560Q639 614 574 636T447 659Z" horiz-adv-x="902" unicode="℮"/>
			<glyph d="M202 723Q301 723 381 673T507 531T554 319Q554 168 492 77T303 -14Q184 -14 120 55T56 241Q56 359 121 425T295 491Q361 491 410 463T500 383Q491 470 450 538T344 645T198 683ZM298 451Q209 451 158 396T108 239Q108 141 157 85T303 29Q409 29 455 105T502 325Q462 386 412 418T298 451Z" unicode="∂"/>
			<glyph d="M295 708H353L638 0H10ZM324 663L80 42H566Z" horiz-adv-x="649" unicode="∆"/>
			<glyph d="M37 708H626V667H531V-120H482V667H181V-120H132V667H37Z" horiz-adv-x="663" unicode="∏"/>
			<glyph d="M68 708H540V666H125L355 311V293L108 -78L553 -76V-120H57V-74L304 301L68 661Z" unicode="∑"/>
			<glyph d="M105 313H505V272H105Z" unicode="−"/>
			<glyph d="M292 709H341L-77 0H-126Z" horiz-adv-x="202" unicode="∕"/>
			<glyph d="M305 365Q343 365 343 327Q343 290 305 290Q267 290 267 327Q267 365 305 365Z" unicode="∙"/>
			<glyph d="M509 708H557L342 -120H278L137 251H51V294H173L309 -68Z" unicode="√"/>
			<glyph d="M259 510Q327 510 369 474T449 360Q484 437 527 473T642 510Q725 510 771 458T818 322Q818 237 772 184T641 131Q574 131 530 164T450 271Q416 200 371 165T258 131Q175 131 128 183T82 319Q82 402 129 456T259 510ZM638 471Q577 471 540 435T468 314Q501 239 538 205T638 171Q700 171 736 209T772 322Q772 394 736 432T638 471ZM262 470Q201 470 165 430T129 319Q129 250 165 210T262 171Q322 171 359 205T430 316Q399 395 362 432T262 470Z" horiz-adv-x="900" unicode="∞"/>
			<glyph d="M409 723Q433 723 450 718L442 680Q426 682 414 682Q369 682 349 656T330 576V-110Q330 -258 201 -258Q177 -258 160 -253L168 -215Q184 -217 196 -217Q241 -217 260 -191T280 -111V575Q280 723 409 723Z" unicode="∫"/>
			<glyph d="M228 412Q252 412 272 404T319 382Q345 369 361 362T395 356Q420 356 441 368T488 410L512 393Q464 320 395 320Q372 320 352 327T305 350Q280 363 263 369T228 376Q204 376 181 363T133 322L109 339Q160 412 228 412ZM228 248Q252 248 272 240T319 218Q345 205 361 198T395 192Q420 192 441 204T488 246L512 229Q464 156 395 156Q372 156 352 163T305 186Q280 199 263 205T228 212Q204 212 181 199T133 158L109 175Q160 248 228 248Z" unicode="≈"/>
			<glyph d="M462 559L496 539L412 413H507V372H385L279 213H507V172H252L142 7L108 27L204 172H107V213H232L338 372H107V413H365Z" unicode="≠"/>
			<glyph d="M479 594L500 560L161 359L500 158L479 124L112 339V378ZM105 48H505V7H105Z" unicode="≤"/>
			<glyph d="M105 48H505V7H105ZM131 594L498 378V339L131 124L110 158L449 359L110 560Z" unicode="≥"/>
			<glyph d="M278 708H331L540 354L331 0H278L70 354ZM304 672L120 354L304 36L489 354Z" unicode="◊"/>
			<glyph d="M278 722Q363 722 434 679Q474 722 548 722Q588 722 624 712L614 676Q584 682 552 682Q499 681 473 650T447 562V499H578V460H447V0H397V460H159V0H109V460H15V492L109 499V563Q109 638 150 680T278 722ZM278 682Q215 682 187 651T159 562V499H397V563Q397 613 413 646Q346 682 278 682Z" horiz-adv-x="595" unicode="ﬀ"/>
			<glyph d="M278 722Q370 722 448 671L430 636Q358 682 278 682Q215 682 187 651T159 562V499H451V0H401V460H159V0H109V460H15V492L109 499V563Q109 638 150 680T278 722Z" horiz-adv-x="545" unicode="ﬁ"/>
			<glyph d="M282 722Q373 722 451 674V0H401V657Q344 682 280 682Q216 682 187 651T159 562V499H290V460H159V0H109V460H15V492L109 499V563Q109 639 151 680T282 722Z" horiz-adv-x="545" unicode="ﬂ"/>
			<glyph d="M278 722Q370 722 448 671L446 667Q488 722 585 722Q677 722 755 671L737 636Q665 682 585 682Q522 682 494 651T466 562V499H758V0H708V460H466V0H416V460H159V0H109V460H15V492L109 499V563Q109 638 150 680T278 722ZM278 682Q215 682 187 651T159 562V499H416V563Q416 605 429 637Q356 682 278 682Z" horiz-adv-x="852" unicode="ﬃ"/>
			<glyph d="M278 722Q370 722 448 671L445 666Q487 722 589 722Q680 722 758 674V0H708V657Q651 682 587 682Q523 682 494 651T466 562V499H597V460H466V0H416V460H159V0H109V460H15V492L109 499V563Q109 638 150 680T278 722ZM278 682Q215 682 187 651T159 562V499H416V563Q416 605 429 637Q356 682 278 682Z" horiz-adv-x="852" unicode="ﬄ"/>
		</font>
</defs>
</svg>
