<?xml version="1.0" encoding="UTF-8"?>
<svg height="100%" width="100%" xmlns="http://www.w3.org/2000/svg">
	<defs>
		<font horiz-adv-x="610" id="web">
			<font-face alphabetic="0" ascent="992" descent="-290" font-family="" panose-1="2 11 5 5 2 2 2 9 2 3"/>
			<missing-glyph d="M49 718H561V0H49ZM99 667V50H511V667ZM308 609Q363 609 397 573T432 478Q432 444 419 418T369 358Q344 335 334 321T322 290T320 234H274L272 251Q272 300 283 327T331 391Q358 417 369 434T381 474Q381 515 359 537T305 559Q272 559 250 536T223 464L173 472Q179 541 215 575T308 609ZM271 184H327V117H271Z"/>
			<glyph d="" horiz-adv-x="251" unicode=" "/>
			<glyph d="M189 708H271L221 394L186 216H119L139 394ZM135 99Q181 99 181 59Q181 30 166 11T119 -7Q73 -7 73 32Q73 62 88 80T135 99Z" horiz-adv-x="314" unicode="!"/>
			<glyph d="M175 708H241L197 462H136ZM338 708H404L360 462H299Z" horiz-adv-x="436" unicode="&quot;"/>
			<glyph d="M296 648H362L317 478H509L554 648H620L575 478H689V424H561L509 225H628V170H495L450 0H384L429 170H237L192 0H126L171 170H57V225H185L237 424H118V478H251ZM303 424L251 225H443L495 424Z" horiz-adv-x="746" unicode="#"/>
			<glyph d="M359 752H425L413 681Q468 677 508 660T585 616L546 568Q508 593 468 605T377 618Q306 618 261 588T216 506Q216 463 246 442T347 404Q440 382 486 342T532 227Q532 173 503 131T423 63T310 32L299 -44H233L244 31Q182 35 136 53T56 103L99 152Q134 122 176 109T271 96Q350 96 399 130T448 225Q448 259 432 280T388 313T306 340Q218 362 176 397T135 503Q135 576 195 624T348 681Z" unicode="$"/>
			<glyph d="M322 722Q380 722 421 699T484 636T506 547Q506 480 474 423T387 332T263 299Q177 299 126 346T76 471Q76 539 107 596T195 688T322 722ZM776 709H855L327 0H248ZM315 655Q267 655 231 630T175 566T156 480Q156 430 184 398T269 366Q316 366 351 389T406 453T426 540Q426 590 398 622T315 655ZM878 412Q936 412 977 389T1040 326T1062 237Q1062 170 1030 113T943 22T819 -11Q733 -11 682 36T632 161Q632 229 663 286T751 378T878 412ZM871 345Q823 345 787 320T731 256T712 170Q712 120 740 88T825 56Q872 56 907 79T962 143T982 230Q982 280 954 312T871 345Z" horiz-adv-x="1176" unicode="%"/>
			<glyph d="M355 725Q434 725 479 687T525 588Q525 513 473 463T325 372L491 185Q542 263 562 344L636 327Q607 224 538 132L621 39L564 -14L486 76Q437 31 380 8T251 -14Q154 -14 95 35T37 169Q37 243 81 294T214 387Q181 426 165 460T149 537Q149 593 176 636T250 702T355 725ZM353 660Q298 660 265 626T232 538Q232 506 244 479T283 420Q364 455 403 491T443 585Q443 619 419 639T353 660ZM257 338Q188 304 156 267T124 171Q124 121 159 89T256 58Q366 58 441 127Z" horiz-adv-x="669" unicode="&amp;"/>
			<glyph d="M175 708H241L197 462H136Z" horiz-adv-x="273" unicode="'"/>
			<glyph d="M335 831L383 795Q295 688 239 584T164 354Q155 294 155 240Q155 150 177 70T241 -90L185 -123Q131 -29 100 59T69 250Q69 295 77 354Q99 492 165 604T335 831Z" horiz-adv-x="360" unicode="("/>
			<glyph d="M206 831Q260 738 291 649T322 458Q322 413 314 354Q292 216 225 103T56 -123L8 -87Q96 20 151 123T228 354Q237 414 237 468Q237 558 214 638T151 798Z" horiz-adv-x="360" unicode=")"/>
			<glyph d="M173 708H239L232 593L338 636L359 574L248 546L322 456L269 417L206 516L144 417L90 456L164 546L53 574L73 636L181 593ZM206 558V557H207Z" horiz-adv-x="412" unicode="*"/>
			<glyph d="M305 487H375L348 321H513L503 255H338L311 87H241L268 255H103L113 321H278Z" unicode="+"/>
			<glyph d="M106 99Q129 99 142 86T155 50Q155 42 153 28Q145 -24 116 -70T17 -176L-9 -149Q36 -106 57 -72T87 0Q66 3 56 14T46 42Q46 66 62 82T106 99Z" horiz-adv-x="265" unicode=","/>
			<glyph d="M53 326H273L263 260H43Z" horiz-adv-x="306" unicode="-"/>
			<glyph d="M106 99Q152 99 152 59Q152 30 137 11T90 -7Q44 -7 44 32Q44 62 59 80T106 99Z" horiz-adv-x="260" unicode="."/>
			<glyph d="M430 786H501L145 -82H74Z" horiz-adv-x="544" unicode="/"/>
			<glyph d="M373 725Q482 725 536 656T591 461Q591 410 582 350Q554 174 476 78T267 -17Q159 -17 104 52T50 247Q50 298 59 358Q87 533 165 629T373 725ZM371 653Q274 653 220 575T143 350Q133 278 133 234Q133 146 165 100T270 55Q367 55 421 132T498 358Q508 419 508 473Q508 562 475 607T371 653Z" unicode="0"/>
			<glyph d="M379 708H454L353 70H507L496 0H66L77 69H269L357 621L149 521L125 582Z" unicode="1"/>
			<glyph d="M362 724Q430 724 478 700T551 635T576 547Q576 469 529 399T408 267T196 104Q182 93 170 84T149 69L525 70L514 0H22L32 67Q94 114 131 141Q260 238 330 297T444 417T489 540Q489 590 453 622T352 654Q295 654 248 633T151 569L103 619Q167 673 225 698T362 724Z" unicode="2"/>
			<glyph d="M358 725Q457 725 511 680T565 561Q565 489 522 439T404 373L403 371Q457 365 495 331T533 235Q533 158 495 101T391 13T242 -17Q162 -17 105 8T4 82L55 129Q96 89 139 71T244 54Q334 54 391 102T448 229Q448 285 413 310T316 335H205L215 403H308Q385 403 432 444T480 555Q480 603 445 629T346 655Q292 655 245 639T150 588L109 641Q169 685 228 705T358 725Z" unicode="3"/>
			<glyph d="M343 708H434L120 245H389L420 445H501L470 245H572L561 174H458L431 0H350L377 174H14L24 237Z" unicode="4"/>
			<glyph d="M171 708H588L576 638H239L203 409Q270 441 356 441Q447 441 499 392T552 257Q552 177 513 114T405 17T249 -17Q169 -16 114 8T15 82L68 129Q110 88 152 71T254 54Q315 54 364 80T440 150T467 251Q467 310 430 342T329 374Q284 374 248 365T171 338H112Z" unicode="5"/>
			<glyph d="M419 725Q469 725 507 712T580 677L543 621Q488 657 418 657Q318 657 250 583T153 380Q200 420 253 441T371 463Q461 463 514 413T568 280Q568 197 530 129T425 22T274 -17Q161 -17 105 47T49 225Q49 265 57 316Q87 506 181 615T419 725ZM351 398Q237 398 139 297Q132 256 132 215Q132 53 276 53Q338 53 385 83T457 164T483 277Q483 336 448 367T351 398Z" unicode="6"/>
			<glyph d="M116 708H643L633 639Q476 494 376 335T233 0H137Q191 186 286 340T528 638L104 637Z" unicode="7"/>
			<glyph d="M374 725Q464 725 523 682T582 566Q582 499 541 452T425 368Q495 340 527 303T559 212Q559 140 519 88T413 9T264 -17Q152 -17 90 31T28 156Q28 240 77 293T218 382Q119 431 119 523Q119 585 154 631T247 701T374 725ZM373 662Q301 662 251 624T202 524Q202 487 226 460T309 411L355 394Q424 428 461 467T499 563Q499 609 464 635T373 662ZM289 354Q205 326 160 279T116 161Q116 108 156 79T269 50Q360 50 417 94T474 211Q474 254 443 280T336 336Z" unicode="8"/>
			<glyph d="M370 725Q480 725 536 664T593 491Q593 450 585 394Q555 201 427 93T90 -14L97 56Q253 56 355 129T489 332Q392 248 274 248Q185 248 129 300T74 442Q74 522 112 587T218 688T370 725ZM366 656Q304 656 257 628T184 552T159 444Q159 381 195 347T296 313Q356 313 409 340T503 415Q510 458 510 499Q510 656 366 656Z" unicode="9"/>
			<glyph d="M108 99Q154 99 154 59Q154 30 139 11T92 -7Q46 -7 46 32Q46 62 61 80T108 99ZM164 467Q210 467 210 427Q210 398 195 379T148 361Q102 361 102 400Q102 430 117 448T164 467Z" horiz-adv-x="262" unicode=":"/>
			<glyph d="M106 99Q129 99 142 86T155 50Q155 42 153 28Q145 -24 116 -70T17 -176L-9 -149Q36 -106 57 -72T87 0Q66 3 56 14T46 42Q46 66 62 82T106 99ZM162 467Q208 467 208 427Q208 398 193 379T146 361Q100 361 100 400Q100 430 115 448T162 467Z" horiz-adv-x="265" unicode=";"/>
			<glyph d="M508 526L534 470L193 280L474 90L434 42L111 252L120 314Z" unicode="&lt;"/>
			<glyph d="M135 420H526L516 354H125ZM103 220H494L484 154H93Z" unicode="="/>
			<glyph d="M186 526L509 316L500 254L112 42L86 98L427 288L146 478Z" unicode="&gt;"/>
			<glyph d="M310 724Q395 724 445 679T496 560Q496 508 475 470T425 406T348 349T275 294T247 240L244 216H167L172 252Q179 297 207 326T291 394Q331 421 354 440T393 488T409 554Q409 601 380 627T298 654Q242 654 199 633T115 572L68 618Q121 671 178 697T310 724ZM199 99Q245 99 245 59Q245 30 230 11T183 -7Q137 -7 137 32Q137 62 152 80T199 99Z" horiz-adv-x="491" unicode="?"/>
			<glyph d="M491 680Q615 680 700 637T829 520T872 350Q872 224 827 157T710 90Q656 90 625 119T589 191Q566 146 525 118T426 91Q356 91 316 136T277 257Q277 326 303 382T381 472T510 505Q556 505 598 491T671 456L640 251Q638 231 638 224Q638 184 657 163T708 143Q751 143 776 192T802 349Q802 473 725 546T490 620Q382 620 308 576T197 456T160 288Q160 135 245 49T490 -36Q546 -36 596 -27T683 -4L702 -58Q605 -95 487 -95Q365 -95 275 -48T137 84T89 287Q89 394 138 484T278 627T491 680ZM504 450Q426 450 387 393T348 256Q348 203 372 175T441 148Q495 148 530 190T576 293L597 428Q553 450 504 450Z" horiz-adv-x="960" unicode="@"/>
			<glyph d="M351 708H440L601 0H512L477 174H148L55 0H-35ZM385 628L183 240H463Z" horiz-adv-x="647" unicode="A"/>
			<glyph d="M160 708H399Q479 708 533 673T587 564Q587 495 544 442T432 375V373Q490 364 526 327T562 230Q562 121 489 60T298 0H48ZM232 643L194 400H335Q410 400 455 441T500 552Q500 643 375 643ZM184 338L141 66H289Q377 66 427 110T477 233Q477 285 441 311T338 338Z" horiz-adv-x="613" unicode="B"/>
			<glyph d="M465 726Q531 726 590 702T689 639L635 588Q567 653 457 653Q363 653 293 603T185 469T148 283Q148 180 202 119T364 58Q420 58 472 79T570 137L613 81Q501 -17 351 -17Q211 -17 135 61T59 274Q59 401 109 504T251 666T465 726Z" horiz-adv-x="662" unicode="C"/>
			<glyph d="M160 708H376Q521 708 605 639T690 435Q690 303 640 205T496 53T271 0H48ZM233 639L143 70H272Q379 70 453 114T565 240T603 429Q603 639 363 639Z" horiz-adv-x="718" unicode="D"/>
			<glyph d="M160 708H580L569 640H233L195 398H488L477 332H184L143 69H495L484 0H48Z" horiz-adv-x="551" unicode="E"/>
			<glyph d="M160 708H580L569 639H233L194 392H492L482 323H184L132 0H48Z" horiz-adv-x="526" unicode="F"/>
			<glyph d="M467 725Q534 725 592 702T691 637L641 587Q565 653 463 653Q365 653 293 603T183 467T145 278Q145 173 199 113T366 54Q417 54 460 64T548 95L579 291H417L427 357H667L619 49Q557 18 493 0T354 -17Q210 -17 134 60T58 272Q58 399 108 502T252 665T467 725Z" horiz-adv-x="731" unicode="G"/>
			<glyph d="M160 708H244L196 399H574L622 708H707L595 0H510L562 330H184L132 0H48Z" horiz-adv-x="724" unicode="H"/>
			<glyph d="M125 708H374L365 645H282L190 65H273L262 0H13L23 65H107L199 645H115Z" horiz-adv-x="356" unicode="I"/>
			<glyph d="M316 708H400L320 201Q305 105 249 44T95 -17Q59 -17 26 -7T-31 19L7 78Q48 55 95 55Q156 55 191 94T236 200Z" horiz-adv-x="409" unicode="J"/>
			<glyph d="M160 708H244L192 380L551 708H651L293 382L562 0H467L236 331L176 275L132 0H48Z" horiz-adv-x="605" unicode="K"/>
			<glyph d="M160 708H244L143 71H462L451 0H48Z" horiz-adv-x="496" unicode="L"/>
			<glyph d="M160 708H283L424 113H426L758 708H887L775 0H693L791 610H789L441 0H377L224 610H222L127 0H48Z" horiz-adv-x="905" unicode="M"/>
			<glyph d="M160 708L255 707L571 110H573L665 708H744L632 0H537L222 600H220L127 0H48Z" horiz-adv-x="761" unicode="N"/>
			<glyph d="M468 725Q611 725 689 646T767 433Q767 306 716 203T572 42T357 -17Q262 -17 195 19T93 121T59 276Q59 402 110 504T254 666T468 725ZM459 652Q363 652 291 603T182 469T145 282Q145 175 200 115T366 56Q462 56 533 105T641 239T679 427Q679 534 624 593T459 652Z" horiz-adv-x="793" unicode="O"/>
			<glyph d="M160 708H390Q482 708 545 661T608 522Q608 440 571 377T470 280T324 246H171L132 0H48ZM234 640L183 315H327Q384 315 428 341T497 412T522 515Q522 580 480 610T376 640Z" horiz-adv-x="598" unicode="P"/>
			<glyph d="M467 725Q611 725 688 646T766 433Q766 312 719 212T587 52T389 -16Q394 -71 452 -96T637 -121L604 -190Q457 -190 382 -143T303 -13Q185 2 122 78T59 276Q59 402 110 504T253 666T467 725ZM459 652Q363 652 291 603T182 469T145 282Q145 175 200 115T366 56Q462 56 533 105T642 239T680 427Q680 534 624 593T459 652Z" horiz-adv-x="794" unicode="Q"/>
			<glyph d="M160 708H384Q442 708 490 687T568 625T598 524Q598 425 546 360T402 272L537 0H445L320 260H174L132 0H48ZM234 640L185 326H326Q381 326 423 350T488 418T511 515Q511 577 472 608T372 640Z" horiz-adv-x="612" unicode="R"/>
			<glyph d="M355 724Q470 724 559 659L516 603Q477 629 436 642T348 655Q273 655 226 622T180 524Q180 480 213 454T316 408Q405 381 452 338T500 223Q500 149 464 95T366 12T224 -17Q157 -17 99 4T-1 65L44 119Q84 86 129 70T231 55Q313 55 363 97T413 212Q413 264 376 292T262 343Q181 367 139 409T97 516Q97 616 168 670T355 724Z" horiz-adv-x="547" unicode="S"/>
			<glyph d="M77 708H601L589 636H370L269 0H184L285 636H65Z" horiz-adv-x="534" unicode="T"/>
			<glyph d="M152 708H237L166 260Q161 225 161 202Q161 129 201 92T329 56Q431 56 486 108T557 261L628 708H712L640 254Q619 123 539 53T324 -17Q203 -17 139 38T75 195Q75 219 80 254Z" horiz-adv-x="720" unicode="U"/>
			<glyph d="M75 708H163L284 94H286L598 708H689L313 0H226Z" horiz-adv-x="620" unicode="V"/>
			<glyph d="M86 708H171L238 109H240L502 708H594L669 109H671L930 708H1015L701 0H613L534 602H531L266 0H177Z" horiz-adv-x="958" unicode="W"/>
			<glyph d="M105 708H200L326 428L546 708H643L368 369L552 0H457L311 311V312L310 311L69 0H-32L270 373Z" horiz-adv-x="603" unicode="X"/>
			<glyph d="M62 708H154L290 374H292L533 708H631L324 304L276 0H191L240 306Z" horiz-adv-x="550" unicode="Y"/>
			<glyph d="M120 708H595L584 638L107 71H504L493 0H-5L7 74L483 640H109Z" horiz-adv-x="577" unicode="Z"/>
			<glyph d="M165 810H370L360 746H231L106 -50H235L224 -114H19Z" horiz-adv-x="360" unicode="["/>
			<glyph d="M78 786H149L495 -82H424Z" horiz-adv-x="544" unicode="\"/>
			<glyph d="M166 810H371L225 -114H20L30 -50H159L284 746H155Z" horiz-adv-x="361" unicode="]"/>
			<glyph d="M273 708H338L498 513L458 482L306 655L153 482L113 513Z" unicode="^"/>
			<glyph d="M-11 -103H482L472 -169H-21Z" horiz-adv-x="588" unicode="_"/>
			<glyph d="M144 751L306 616L269 577L96 698Z" horiz-adv-x="260" unicode="`"/>
			<glyph d="M346 522Q406 522 453 509T550 463L495 113Q486 56 484 0H409Q409 43 417 91H415Q351 -14 227 -14Q141 -14 94 42T47 192Q47 284 84 359T189 478T346 522ZM348 456Q281 456 232 421T157 329T132 200Q132 131 163 91T250 51Q321 51 372 114T439 273L463 429Q436 444 408 450T348 456Z" horiz-adv-x="597" unicode="a"/>
			<glyph d="M158 708H239L188 414H190Q220 465 271 493T382 522Q473 522 519 466T565 318Q565 291 560 254Q548 178 511 117T416 21T283 -14Q165 -14 52 40ZM364 457Q316 457 272 425T199 341T160 226L138 79Q175 65 208 58T282 51Q361 51 411 107T476 254Q481 289 481 312Q481 380 451 418T364 457Z" horiz-adv-x="611" unicode="b"/>
			<glyph d="M339 522Q384 522 425 508T498 468L460 414Q412 454 331 454Q268 454 222 420T153 328T130 203Q130 135 165 94T267 54Q333 54 407 97L435 40Q356 -14 254 -14Q149 -14 98 45T48 196Q48 287 84 361T186 479T339 522Z" horiz-adv-x="502" unicode="c"/>
			<glyph d="M517 708H598L504 113Q497 72 493 0H418Q420 57 426 91H424Q360 -14 235 -14Q143 -14 95 42T47 192Q47 280 80 355T176 476T322 522Q374 522 411 507T479 466ZM323 456Q265 456 221 419T155 324T132 200Q132 130 164 90T258 51Q329 51 381 113T448 273L468 399Q416 456 323 456Z" horiz-adv-x="611" unicode="d"/>
			<glyph d="M341 522Q428 522 467 485T507 392Q507 293 406 253T127 207V197Q127 130 161 92T266 54Q310 54 345 65T418 98L447 45Q400 14 355 0T252 -14Q153 -14 100 41T47 193Q47 285 82 360T184 478T341 522ZM334 460Q252 460 201 407T134 269Q234 275 295 286T390 321T425 391Q425 424 404 442T334 460Z" horiz-adv-x="534" unicode="e"/>
			<glyph d="M343 722Q398 722 441 706L418 648Q385 657 359 657Q257 657 241 552L234 508H359L349 445H225L153 -8Q140 -87 118 -134T60 -209T-35 -258L-57 -196Q-16 -182 8 -160T47 -103T72 -9L144 445H55L64 497L153 508L160 554Q187 722 343 722Z" horiz-adv-x="326" unicode="f"/>
			<glyph d="M345 522Q405 522 452 509T550 463L478 -12Q460 -130 392 -194T210 -258Q157 -258 109 -241T28 -197L65 -142Q130 -190 208 -190Q289 -190 336 -147T399 -15L417 92H415Q382 36 334 12T227 -11Q141 -11 94 44T48 193Q48 286 84 361T188 479T345 522ZM346 456Q279 456 230 422T156 330T131 201Q131 132 162 93T249 54Q320 54 371 115T438 273L462 428Q435 444 407 450T346 456Z" horiz-adv-x="593" unicode="g"/>
			<glyph d="M157 708H238L188 411H190Q213 456 268 489T384 522Q461 522 499 478T538 368Q538 347 534 328L482 0H401L450 312Q454 332 454 355Q454 454 362 454Q284 454 228 377T155 185L125 0H45Z" horiz-adv-x="601" unicode="h"/>
			<glyph d="M126 508H207L126 0H45ZM202 735Q226 735 237 724T249 696Q249 670 234 651T187 633Q163 633 151 643T140 672Q140 698 155 716T202 735Z" horiz-adv-x="252" unicode="i"/>
			<glyph d="M126 508H207L126 -8Q114 -86 91 -133T32 -209T-63 -258L-84 -196Q-44 -182 -19 -160T19 -103T44 -9ZM202 735Q226 735 237 724T249 696Q249 670 234 651T187 633Q163 633 151 643T140 672Q140 698 155 716T202 735Z" horiz-adv-x="253" unicode="j"/>
			<glyph d="M157 708H238L173 296L429 508H532L277 298L473 0H381L219 250L158 200L126 0H45Z" horiz-adv-x="516" unicode="k"/>
			<glyph d="M157 708H238L126 0H45Z" horiz-adv-x="252" unicode="l"/>
			<glyph d="M376 522Q439 522 475 487T517 395H519Q550 455 603 488T718 522Q791 522 828 478T865 368Q865 349 862 328L810 0H729L778 312Q782 344 782 357Q782 402 761 428T696 454Q626 454 572 380T499 198L467 0H386L436 312Q440 344 440 357Q440 402 419 428T354 454Q305 454 263 417T194 320T154 185L125 0H44L106 395Q114 446 118 508H193Q193 454 182 403H184Q211 455 263 488T376 522Z" horiz-adv-x="929" unicode="m"/>
			<glyph d="M384 522Q460 522 498 478T537 368Q537 349 534 328L482 0H401L450 312Q454 342 454 355Q454 454 362 454Q284 454 228 377T154 185L125 0H44L106 395Q114 446 118 508H193Q193 454 182 403H184Q211 455 264 488T384 522Z" horiz-adv-x="601" unicode="n"/>
			<glyph d="M338 522Q443 522 499 466T556 314Q556 223 519 148T416 30T264 -14Q160 -14 104 44T48 199Q48 289 83 363T185 479T338 522ZM333 457Q269 457 223 422T154 329T131 201Q131 132 165 91T270 51Q334 51 380 86T449 180T473 309Q473 378 438 417T333 457Z" horiz-adv-x="604" unicode="o"/>
			<glyph d="M383 522Q474 522 519 466T565 319Q565 229 530 153T433 31T289 -14Q238 -14 200 -1T132 37L87 -244H6L107 394Q116 451 118 508H195Q193 450 184 405H186Q215 459 266 490T383 522ZM360 457Q313 457 271 426T200 343T162 228L142 100Q176 74 207 62T283 51Q345 51 389 87T457 182T481 311Q481 379 450 418T360 457Z" horiz-adv-x="611" unicode="p"/>
			<glyph d="M345 522Q405 522 452 509T550 463L437 -244H357L415 84H413Q349 -14 227 -14Q141 -14 94 42T47 192Q47 285 83 360T187 478T345 522ZM347 456Q280 456 231 421T157 329T132 200Q132 131 163 91T250 51Q321 51 372 113T439 273L463 429Q436 444 408 450T347 456Z" horiz-adv-x="604" unicode="q"/>
			<glyph d="M361 522Q382 522 392 517L377 444Q364 448 344 448Q269 448 219 360T150 153L125 0H44L106 394Q114 444 118 508H193Q193 469 179 392H181Q212 462 256 492T361 522Z" horiz-adv-x="356" unicode="r"/>
			<glyph d="M260 522Q355 522 423 470L384 419Q325 459 256 459Q204 459 173 438T143 377Q143 348 167 330T253 293Q381 255 381 157Q381 74 323 30T170 -14Q66 -14 -6 43L34 95Q96 50 176 50Q231 50 263 73T296 147Q296 179 273 199T192 238Q126 258 93 290T61 369Q61 441 116 481T260 522Z" horiz-adv-x="442" unicode="s"/>
			<glyph d="M249 662L225 508H357L347 445H214L167 147Q163 122 163 108Q163 54 226 54Q251 54 277 61L282 -2Q244 -14 201 -14Q145 -14 113 14T81 96Q81 113 86 142L133 445H45L54 498L144 508L163 633Z" horiz-adv-x="348" unicode="t"/>
			<glyph d="M119 508H200L151 196Q147 177 147 149Q147 54 241 54Q319 54 371 118T440 279L476 508H557L494 113Q485 55 483 0H409Q406 33 418 94H416Q388 46 337 16T226 -14Q147 -14 105 30T64 143Q64 164 68 187Z" horiz-adv-x="601" unicode="u"/>
			<glyph d="M44 508H129L210 81H213L425 508H511L245 0H154Z" horiz-adv-x="474" unicode="v"/>
			<glyph d="M55 508H138L175 87H177L370 508H459L520 87H522L692 508H776L555 0H467L404 421H402L207 0H114Z" horiz-adv-x="752" unicode="w"/>
			<glyph d="M68 508H157L260 316L425 508H514L301 263L457 0H363L245 214L61 0H-35L202 271Z" horiz-adv-x="506" unicode="x"/>
			<glyph d="M43 508H128L208 85H209L410 508H497L226 -29Q185 -109 153 -151T81 -217T-23 -258L-40 -195Q7 -181 38 -162T95 -110T150 -19L158 -3Z" horiz-adv-x="461" unicode="y"/>
			<glyph d="M87 508H434L425 446L101 64H375L365 0H-6L4 66L325 446H77Z" horiz-adv-x="434" unicode="z"/>
			<glyph d="M393 810L382 745Q288 745 273 641L250 497Q239 424 213 391T130 349V347Q172 335 190 314T209 252Q209 242 203 198L182 61Q178 33 178 24Q178 -12 198 -31T257 -50L247 -114Q180 -114 140 -81T100 18Q100 33 104 63L128 220Q131 246 131 255Q131 284 114 298T62 314L73 383Q117 387 138 403T165 455L196 652Q222 810 393 810Z" horiz-adv-x="360" unicode="{"/>
			<glyph d="M137 808H211V-100H137Z" horiz-adv-x="348" unicode="|"/>
			<glyph d="M142 810Q209 810 249 777T289 679Q289 662 285 634L261 476Q257 455 257 442Q257 412 274 398T327 383L316 314Q271 310 250 294T224 242L192 44Q167 -114 -4 -114L7 -49Q100 -49 116 55L139 200Q150 273 176 305T259 347V349Q218 361 199 382T180 444Q180 466 186 499L207 635Q211 665 211 672Q211 708 190 727T132 747Z" horiz-adv-x="360" unicode="}"/>
			<glyph d="M233 341Q260 341 280 332T325 309Q345 297 360 290T392 284Q415 284 438 297T492 341L528 313Q467 229 389 229Q363 229 342 237T298 261Q278 274 263 280T231 286Q207 286 185 273T131 229L95 257Q155 341 233 341Z" unicode="~"/>
			<glyph d="" horiz-adv-x="251" unicode=" "/>
			<glyph d="M135 298H202L182 120L132 -194H50L100 120ZM202 521Q248 521 248 482Q248 452 233 433T186 415Q140 415 140 455Q140 484 155 502T202 521Z" horiz-adv-x="314" unicode="¡"/>
			<glyph d="M383 708H449L435 620Q510 611 564 565L524 514Q475 554 397 554Q332 554 285 520T213 428T189 301Q189 233 223 193T327 154Q393 154 470 196L496 140Q430 97 350 88L337 0H271L285 87Q193 96 150 154T107 299Q107 384 139 455T231 570T370 621Z" unicode="¢"/>
			<glyph d="M399 724Q523 724 595 636L538 593Q513 624 479 639T395 654Q328 654 287 612T247 507Q247 475 253 447T270 387H453L443 325H287Q291 297 291 280Q291 206 256 156T156 75V73H496L483 0H34L44 67Q122 105 165 156T208 283Q208 308 204 325H91L101 387H187Q176 421 170 447T165 507Q165 570 194 619T277 696T399 724Z" unicode="£"/>
			<glyph d="M141 522L213 426Q253 446 305 446Q357 446 397 426L469 522L519 485L442 393Q485 347 485 273Q485 200 442 152L519 59L469 22L397 118Q357 98 305 98Q253 98 213 118L141 22L92 59L168 152Q125 198 125 273Q125 347 168 393L92 485ZM305 395Q247 395 218 363T189 273Q189 215 218 182T305 149Q363 149 392 182T421 273Q421 331 392 363T305 395Z" unicode="¤"/>
			<glyph d="M97 708H185L317 373H319L554 708H646L382 352H503L494 296H345L335 237H484L475 180H326L298 0H218L247 180H101L110 237H256L265 296H120L129 352H248Z" horiz-adv-x="600" unicode="¥"/>
			<glyph d="M137 808H211V427H137ZM137 281H211V-100H137Z" horiz-adv-x="348" unicode="¦"/>
			<glyph d="M383 725Q483 725 553 670L513 622Q454 662 383 662Q335 662 304 641T273 587Q273 562 295 544T378 507Q451 483 483 453T516 376Q516 327 484 294T399 244Q439 225 458 198T477 134Q477 65 417 25T269 -14Q162 -14 85 44L125 93Q157 71 189 60T265 50Q323 50 358 72T393 130Q393 152 383 165T349 190T280 215Q210 237 177 266T144 341Q144 391 178 425T267 477Q192 514 192 584Q192 626 217 658T286 707T383 725ZM339 451Q286 438 255 412T224 349Q224 320 247 303T331 268Q433 306 433 374Q433 403 413 419T339 451Z" unicode="§"/>
			<glyph d="M150 708Q192 708 192 671Q192 645 178 628T135 611Q93 611 93 649Q93 674 107 691T150 708ZM334 708Q376 708 376 671Q376 645 362 628T319 611Q277 611 277 649Q277 674 291 691T334 708Z" horiz-adv-x="341" unicode="¨"/>
			<glyph d="M469 725Q589 725 674 677T804 545T848 354Q848 247 804 163T674 31T469 -17Q350 -17 264 31T134 163T90 354Q90 461 134 545T264 677T469 725ZM469 670Q364 670 292 629T186 517T152 354Q152 262 186 191T292 79T469 38Q574 38 645 79T751 191T786 354Q786 446 751 517T645 629T469 670ZM480 569Q560 569 617 526L591 481Q540 516 480 516Q411 516 376 473T342 357Q342 285 376 241T479 197Q536 197 591 232L615 187Q587 166 550 154T475 143Q372 143 323 205T275 357Q275 454 329 511T480 569Z" horiz-adv-x="939" unicode="©"/>
			<glyph d="M356 724Q414 724 459 711T553 667L500 328Q491 273 489 219H416Q416 261 424 307H422Q360 205 240 205Q157 205 111 260T66 405Q66 494 102 567T203 682T356 724ZM357 660Q293 660 245 626T173 537T149 412Q149 346 179 307T263 268Q331 268 381 329T445 483L469 634Q443 648 416 654T357 660ZM49 71H467L456 5H38Z" horiz-adv-x="567" unicode="ª"/>
			<glyph d="M252 522L285 488L157 346L240 204L198 175L90 331L95 364ZM418 522L451 488L323 346L406 204L364 175L256 331L261 364Z" horiz-adv-x="492" unicode="«"/>
			<glyph d="M116 376H516L483 173H408L430 310H106Z" horiz-adv-x="596" unicode="¬"/>
			<glyph d="M53 326H273L263 260H43Z" horiz-adv-x="306" unicode="­"/>
			<glyph d="M227 722Q286 722 319 688T353 600Q353 547 319 512T227 478Q168 478 134 512T101 600Q101 654 134 688T227 722ZM228 697Q178 697 153 670T129 600Q129 556 153 529T228 503Q276 503 301 529T326 600Q326 644 301 670T228 697ZM180 670H230Q254 670 268 659T282 626Q282 597 254 586L287 536H256L226 582H208V536H180ZM208 648V603H225Q255 603 255 626Q255 637 247 642T226 648Z" horiz-adv-x="345" unicode="®"/>
			<glyph d="M95 668H367L358 612H86Z" horiz-adv-x="332" unicode="¯"/>
			<glyph d="M235 725Q298 725 335 691T372 596Q372 535 335 500T236 465Q173 465 136 500T99 596Q99 657 136 691T235 725ZM236 675Q199 675 179 655T159 596Q159 515 236 515Q272 515 292 535T312 596Q312 675 236 675Z" horiz-adv-x="362" unicode="°"/>
			<glyph d="M320 577H390L364 413H529L519 347H353L326 177H256L283 347H119L129 413H294ZM74 71H474L464 5H64Z" unicode="±"/>
			<glyph d="M338 720Q416 720 458 681T500 584Q500 525 464 474T372 379T201 256L465 257L455 191H80L89 253L159 304Q253 371 303 412T386 496T419 579Q419 614 395 634T327 655Q285 655 251 639T181 593L135 639Q181 680 228 700T338 720Z" horiz-adv-x="540" unicode="²"/>
			<glyph d="M343 721Q420 721 462 687T504 600Q504 593 502 579Q487 483 388 462L384 461Q425 457 454 431T483 358Q483 352 481 334Q469 264 410 221T255 178Q190 178 147 197T72 253L120 296Q149 268 180 256T259 244Q322 244 362 276T403 363Q403 428 310 428H222L232 491H304Q353 491 384 512T423 577Q425 589 425 594Q425 656 332 656Q291 656 256 644T186 607L150 655Q195 689 241 705T343 721Z" horiz-adv-x="540" unicode="³"/>
			<glyph d="M264 751L297 688L114 577L86 624Z" horiz-adv-x="255" unicode="´"/>
			<glyph d="M125 508H207L160 210Q156 180 156 166Q156 113 181 82T259 52Q328 52 378 105T440 239L483 508H564L501 113Q494 72 490 0H413Q415 53 420 84H418Q385 38 340 12T243 -14Q159 -14 132 52H130L101 -134Q92 -196 74 -244H-1Q13 -198 25 -131Z" horiz-adv-x="608" unicode="µ"/>
			<glyph d="M318 708H434L301 -130H221L294 332H256Q171 332 121 373T71 492Q71 593 138 650T318 708ZM538 708H618L485 -130H405ZM306 642Q230 642 187 602T145 492Q145 398 263 398H305L344 642Z" horiz-adv-x="635" unicode="¶"/>
			<glyph d="M152 390Q198 390 198 350Q198 321 183 302T136 284Q90 284 90 323Q90 353 105 371T152 390Z" horiz-adv-x="260" unicode="·"/>
			<glyph d="M69 0H123L90 -66Q106 -63 121 -63Q152 -63 170 -80T189 -130Q189 -180 152 -209T59 -239Q2 -239 -41 -213L-18 -171Q19 -191 59 -191Q91 -191 109 -176T128 -135Q128 -104 90 -104Q78 -104 52 -110H13Z" horiz-adv-x="281" unicode="¸"/>
			<glyph d="M339 708H409L337 257H451L441 191H105L115 256H259L318 627L167 559L146 616Z" horiz-adv-x="540" unicode="¹"/>
			<glyph d="M379 724Q480 724 535 669T590 523Q590 435 554 363T454 248T307 205Q207 205 152 261T98 411Q98 498 132 570T231 683T379 724ZM374 661Q312 661 268 627T201 537T179 413Q179 347 212 307T313 268Q375 268 419 302T486 393T509 518Q509 584 476 622T374 661ZM68 71H486L475 5H57Z" horiz-adv-x="623" unicode="º"/>
			<glyph d="M158 522L266 364L261 331L104 175L71 209L200 351L115 493ZM324 522L432 364L427 331L270 175L237 209L366 351L281 493Z" horiz-adv-x="492" unicode="»"/>
			<glyph d="M291 708H361L289 257H403L393 191H57L67 256H211L270 627L119 559L98 616ZM859 709H938L410 0H331ZM953 517H1039L813 186H993L1015 324H1091L1069 186H1147L1136 120H1059L1040 0H964L983 120H713L722 178Z" horiz-adv-x="1200" unicode="¼"/>
			<glyph d="M280 708H350L278 257H392L382 191H46L56 256H200L259 627L108 559L87 616ZM831 709H910L382 0H303ZM1000 529Q1078 529 1120 490T1162 393Q1162 334 1126 283T1034 188T863 65L1127 66L1117 0H742L751 62L821 113Q915 180 965 221T1048 305T1081 388Q1081 423 1057 443T989 464Q947 464 913 448T843 402L797 448Q843 489 890 509T1000 529Z" horiz-adv-x="1200" unicode="½"/>
			<glyph d="M304 721Q381 721 423 687T465 600Q465 593 463 579Q448 483 349 462L345 461Q386 457 415 431T444 358Q444 352 442 334Q430 264 371 221T216 178Q151 178 108 197T33 253L81 296Q110 268 141 256T220 244Q283 244 323 276T364 363Q364 428 271 428H183L193 491H265Q314 491 345 512T384 577Q386 589 386 594Q386 656 293 656Q252 656 217 644T147 607L111 655Q156 689 202 705T304 721ZM860 709H939L411 0H332ZM961 517H1047L821 186H1001L1023 324H1099L1077 186H1155L1144 120H1067L1048 0H972L991 120H721L730 178Z" horiz-adv-x="1200" unicode="¾"/>
			<glyph d="M249 298H326L321 262Q314 217 285 187T202 120Q162 93 139 73T100 26T84 -40Q84 -87 113 -113T195 -140Q251 -140 293 -119T378 -58L425 -104Q372 -157 315 -183T183 -210Q98 -210 47 -165T-3 -46Q-3 6 18 44T68 107T145 165T217 220T246 274ZM310 521Q356 521 356 482Q356 452 341 433T294 415Q248 415 248 455Q248 484 263 502T310 521Z" horiz-adv-x="491" unicode="¿"/>
			<glyph d="M351 708H440L601 0H512L477 174H148L55 0H-35ZM385 628L183 240H463ZM358 929L530 818L497 778L316 875Z" horiz-adv-x="647" unicode="À"/>
			<glyph d="M351 708H440L601 0H512L477 174H148L55 0H-35ZM385 628L183 240H463ZM496 929L524 868L332 775L312 821Z" horiz-adv-x="647" unicode="Á"/>
			<glyph d="M351 708H440L601 0H512L477 174H148L55 0H-35ZM385 628L183 240H463ZM400 912H464L573 811L539 776L427 861L288 775L262 814Z" horiz-adv-x="647" unicode="Â"/>
			<glyph d="M351 708H440L601 0H512L477 174H148L55 0H-35ZM385 628L183 240H463ZM367 886Q384 886 397 879T428 859Q443 848 451 843T470 839Q487 839 502 849T536 884L575 866Q551 824 523 804T463 784Q446 784 433 790T403 810Q389 820 379 825T359 830Q342 830 327 819T295 786L255 804Q305 886 367 886Z" horiz-adv-x="647" unicode="Ã"/>
			<glyph d="M351 708H440L601 0H512L477 174H148L55 0H-35ZM385 628L183 240H463ZM333 901Q375 901 375 864Q375 838 361 821T318 804Q276 804 276 842Q276 867 290 884T333 901ZM517 901Q559 901 559 864Q559 838 545 821T502 804Q460 804 460 842Q460 867 474 884T517 901Z" horiz-adv-x="647" unicode="Ä"/>
			<glyph d="M459 870Q504 870 530 846T557 785Q557 736 527 703T450 665L601 0H512L477 174H148L55 0H-35L349 704Q336 723 336 750Q336 803 371 836T459 870ZM456 825Q427 825 409 806T391 755Q391 734 403 722T438 710Q466 710 484 729T502 781Q502 800 490 812T456 825ZM385 628L183 240H463Z" horiz-adv-x="647" unicode="Å"/>
			<glyph d="M348 708H862L852 640H457L498 398H792L781 332H510L555 69H826L815 0H487L458 174H146L53 0H-35ZM383 628L181 240H447Z" horiz-adv-x="873" unicode="Æ"/>
			<glyph d="M465 726Q531 726 590 702T689 639L635 588Q567 653 457 653Q363 653 293 603T185 469T148 283Q148 180 202 119T364 58Q420 58 472 79T570 137L613 81Q501 -17 351 -17H349L325 -66Q342 -63 356 -63Q387 -63 405 -80T424 -130Q424 -180 387 -209T294 -239Q237 -239 194 -213L217 -171Q254 -191 294 -191Q326 -191 344 -176T363 -135Q363 -104 325 -104Q313 -104 287 -110H248L297 -14Q182 2 120 78T59 274Q59 401 109 504T251 666T465 726Z" horiz-adv-x="662" unicode="Ç"/>
			<glyph d="M160 708H580L569 640H233L195 398H488L477 332H184L143 69H495L484 0H48ZM324 929L496 818L463 778L282 875Z" horiz-adv-x="551" unicode="È"/>
			<glyph d="M160 708H580L569 640H233L195 398H488L477 332H184L143 69H495L484 0H48ZM462 929L490 868L298 775L278 821Z" horiz-adv-x="551" unicode="É"/>
			<glyph d="M160 708H580L569 640H233L195 398H488L477 332H184L143 69H495L484 0H48ZM365 912H429L538 811L504 776L392 861L253 775L227 814Z" horiz-adv-x="551" unicode="Ê"/>
			<glyph d="M160 708H580L569 640H233L195 398H488L477 332H184L143 69H495L484 0H48ZM299 901Q341 901 341 864Q341 838 327 821T284 804Q242 804 242 842Q242 867 256 884T299 901ZM483 901Q525 901 525 864Q525 838 511 821T468 804Q426 804 426 842Q426 867 440 884T483 901Z" horiz-adv-x="551" unicode="Ë"/>
			<glyph d="M125 708H374L365 645H282L190 65H273L262 0H13L23 65H107L199 645H115ZM213 929L385 818L352 778L171 875Z" horiz-adv-x="356" unicode="Ì"/>
			<glyph d="M125 708H374L365 645H282L190 65H273L262 0H13L23 65H107L199 645H115ZM351 929L379 868L187 775L167 821Z" horiz-adv-x="356" unicode="Í"/>
			<glyph d="M125 708H374L365 645H282L190 65H273L262 0H13L23 65H107L199 645H115ZM254 912H318L427 811L393 776L281 861L142 775L116 814Z" horiz-adv-x="356" unicode="Î"/>
			<glyph d="M125 708H374L365 645H282L190 65H273L262 0H13L23 65H107L199 645H115ZM188 901Q230 901 230 864Q230 838 216 821T173 804Q131 804 131 842Q131 867 145 884T188 901ZM372 901Q414 901 414 864Q414 838 400 821T357 804Q315 804 315 842Q315 867 329 884T372 901Z" horiz-adv-x="356" unicode="Ï"/>
			<glyph d="M160 708H376Q521 708 605 639T690 435Q690 303 640 205T496 53T271 0H48L99 325H19L28 382H108ZM233 639L192 382H354L346 325H183L143 70H272Q379 70 453 114T565 240T603 429Q603 639 363 639Z" horiz-adv-x="717" unicode="Ð"/>
			<glyph d="M160 708L255 707L571 110H573L665 708H744L632 0H537L222 600H220L127 0H48ZM424 886Q441 886 454 879T485 859Q500 848 508 843T527 839Q544 839 559 849T593 884L632 866Q608 824 580 804T520 784Q503 784 490 790T460 810Q446 820 436 825T416 830Q399 830 384 819T352 786L312 804Q362 886 424 886Z" horiz-adv-x="761" unicode="Ñ"/>
			<glyph d="M468 725Q611 725 689 646T767 433Q767 306 716 203T572 42T357 -17Q262 -17 195 19T93 121T59 276Q59 402 110 504T254 666T468 725ZM459 652Q363 652 291 603T182 469T145 282Q145 175 200 115T366 56Q462 56 533 105T641 239T679 427Q679 534 624 593T459 652ZM435 929L607 818L574 778L393 875Z" horiz-adv-x="793" unicode="Ò"/>
			<glyph d="M468 725Q611 725 689 646T767 433Q767 306 716 203T572 42T357 -17Q262 -17 195 19T93 121T59 276Q59 402 110 504T254 666T468 725ZM459 652Q363 652 291 603T182 469T145 282Q145 175 200 115T366 56Q462 56 533 105T641 239T679 427Q679 534 624 593T459 652ZM573 929L601 868L409 775L389 821Z" horiz-adv-x="793" unicode="Ó"/>
			<glyph d="M468 725Q611 725 689 646T767 433Q767 306 716 203T572 42T357 -17Q262 -17 195 19T93 121T59 276Q59 402 110 504T254 666T468 725ZM459 652Q363 652 291 603T182 469T145 282Q145 175 200 115T366 56Q462 56 533 105T641 239T679 427Q679 534 624 593T459 652ZM476 912H540L649 811L615 776L503 861L364 775L338 814Z" horiz-adv-x="793" unicode="Ô"/>
			<glyph d="M468 725Q611 725 689 646T767 433Q767 306 716 203T572 42T357 -17Q262 -17 195 19T93 121T59 276Q59 402 110 504T254 666T468 725ZM459 652Q363 652 291 603T182 469T145 282Q145 175 200 115T366 56Q462 56 533 105T641 239T679 427Q679 534 624 593T459 652ZM444 886Q461 886 474 879T505 859Q520 848 528 843T547 839Q564 839 579 849T613 884L652 866Q628 824 600 804T540 784Q523 784 510 790T480 810Q466 820 456 825T436 830Q419 830 404 819T372 786L332 804Q382 886 444 886Z" horiz-adv-x="793" unicode="Õ"/>
			<glyph d="M468 725Q611 725 689 646T767 433Q767 306 716 203T572 42T357 -17Q262 -17 195 19T93 121T59 276Q59 402 110 504T254 666T468 725ZM459 652Q363 652 291 603T182 469T145 282Q145 175 200 115T366 56Q462 56 533 105T641 239T679 427Q679 534 624 593T459 652ZM410 901Q452 901 452 864Q452 838 438 821T395 804Q353 804 353 842Q353 867 367 884T410 901ZM594 901Q636 901 636 864Q636 838 622 821T579 804Q537 804 537 842Q537 867 551 884T594 901Z" horiz-adv-x="793" unicode="Ö"/>
			<glyph d="M187 451L306 333L424 451L470 405L352 286L470 168L424 122L306 240L188 122L141 168L259 286L141 404Z" unicode="×"/>
			<glyph d="M556 793L624 778L593 705Q678 675 722 604T767 433Q767 306 716 203T572 42T357 -17Q323 -17 298 -13L268 -89L199 -74L233 3Q148 33 103 104T59 276Q59 402 110 504T254 666T468 725Q502 725 527 721ZM459 653Q363 653 291 604T182 470T145 282Q145 117 265 71L502 651Q474 653 459 653ZM559 637L323 57Q349 55 366 55Q462 55 533 105T641 239T679 427Q679 593 559 637Z" horiz-adv-x="793" unicode="Ø"/>
			<glyph d="M152 708H237L166 260Q161 225 161 202Q161 129 201 92T329 56Q431 56 486 108T557 261L628 708H712L640 254Q619 123 539 53T324 -17Q203 -17 139 38T75 195Q75 219 80 254ZM394 929L566 818L533 778L352 875Z" horiz-adv-x="720" unicode="Ù"/>
			<glyph d="M152 708H237L166 260Q161 225 161 202Q161 129 201 92T329 56Q431 56 486 108T557 261L628 708H712L640 254Q619 123 539 53T324 -17Q203 -17 139 38T75 195Q75 219 80 254ZM532 929L560 868L368 775L348 821Z" horiz-adv-x="720" unicode="Ú"/>
			<glyph d="M152 708H237L166 260Q161 225 161 202Q161 129 201 92T329 56Q431 56 486 108T557 261L628 708H712L640 254Q619 123 539 53T324 -17Q203 -17 139 38T75 195Q75 219 80 254ZM436 912H500L609 811L575 776L463 861L324 775L298 814Z" horiz-adv-x="720" unicode="Û"/>
			<glyph d="M152 708H237L166 260Q161 225 161 202Q161 129 201 92T329 56Q431 56 486 108T557 261L628 708H712L640 254Q619 123 539 53T324 -17Q203 -17 139 38T75 195Q75 219 80 254ZM369 901Q411 901 411 864Q411 838 397 821T354 804Q312 804 312 842Q312 867 326 884T369 901ZM553 901Q595 901 595 864Q595 838 581 821T538 804Q496 804 496 842Q496 867 510 884T553 901Z" horiz-adv-x="720" unicode="Ü"/>
			<glyph d="M62 708H154L290 374H292L533 708H631L324 304L276 0H191L240 306ZM448 929L476 868L284 775L264 821Z" horiz-adv-x="550" unicode="Ý"/>
			<glyph d="M160 708H244L226 595H371Q466 595 528 548T591 409Q591 331 554 270T452 176T308 143H155L132 0H48ZM215 526L166 212H310Q365 212 409 236T479 303T504 403Q504 467 463 496T358 526Z" horiz-adv-x="604" unicode="Þ"/>
			<glyph d="M368 722Q474 722 555 638L433 417Q493 400 535 356T578 238Q578 166 545 108T457 18T334 -14Q270 -14 214 15L243 70Q284 52 331 52Q379 52 416 77T474 144T495 236Q495 294 458 324T351 368L358 420L467 622Q424 660 362 660Q259 660 242 551L153 -8Q140 -87 118 -134T60 -209T-35 -258L-57 -196Q-17 -182 7 -160T47 -103T72 -9L144 445H56L65 497L154 508L161 554Q174 635 227 678T368 722Z" horiz-adv-x="617" unicode="ß"/>
			<glyph d="M346 522Q406 522 453 509T550 463L495 113Q486 56 484 0H409Q409 43 417 91H415Q351 -14 227 -14Q141 -14 94 42T47 192Q47 284 84 359T189 478T346 522ZM348 456Q281 456 232 421T157 329T132 200Q132 131 163 91T250 51Q321 51 372 114T439 273L463 429Q436 444 408 450T348 456ZM316 751L478 616L441 577L268 698Z" horiz-adv-x="597" unicode="à"/>
			<glyph d="M346 522Q406 522 453 509T550 463L495 113Q486 56 484 0H409Q409 43 417 91H415Q351 -14 227 -14Q141 -14 94 42T47 192Q47 284 84 359T189 478T346 522ZM348 456Q281 456 232 421T157 329T132 200Q132 131 163 91T250 51Q321 51 372 114T439 273L463 429Q436 444 408 450T348 456ZM438 751L471 688L288 577L260 624Z" horiz-adv-x="597" unicode="á"/>
			<glyph d="M346 522Q406 522 453 509T550 463L495 113Q486 56 484 0H409Q409 43 417 91H415Q351 -14 227 -14Q141 -14 94 42T47 192Q47 284 84 359T189 478T346 522ZM348 456Q281 456 232 421T157 329T132 200Q132 131 163 91T250 51Q321 51 372 114T439 273L463 429Q436 444 408 450T348 456ZM352 735H417L522 611L488 577L379 682L236 579L205 614Z" horiz-adv-x="597" unicode="â"/>
			<glyph d="M346 522Q406 522 453 509T550 463L495 113Q486 56 484 0H409Q409 43 417 91H415Q351 -14 227 -14Q141 -14 94 42T47 192Q47 284 84 359T189 478T346 522ZM348 456Q281 456 232 421T157 329T132 200Q132 131 163 91T250 51Q321 51 372 114T439 273L463 429Q436 444 408 450T348 456ZM314 693Q331 693 344 686T375 666Q390 655 398 650T417 646Q434 646 449 656T483 691L522 673Q498 631 470 611T410 591Q393 591 380 597T350 617Q336 627 326 632T306 637Q289 637 274 626T242 593L202 611Q252 693 314 693Z" horiz-adv-x="597" unicode="ã"/>
			<glyph d="M346 522Q406 522 453 509T550 463L495 113Q486 56 484 0H409Q409 43 417 91H415Q351 -14 227 -14Q141 -14 94 42T47 192Q47 284 84 359T189 478T346 522ZM348 456Q281 456 232 421T157 329T132 200Q132 131 163 91T250 51Q321 51 372 114T439 273L463 429Q436 444 408 450T348 456ZM280 708Q322 708 322 671Q322 645 308 628T265 611Q223 611 223 649Q223 674 237 691T280 708ZM464 708Q506 708 506 671Q506 645 492 628T449 611Q407 611 407 649Q407 674 421 691T464 708Z" horiz-adv-x="597" unicode="ä"/>
			<glyph d="M346 522Q406 522 453 509T550 463L495 113Q486 56 484 0H409Q409 43 417 91H415Q351 -14 227 -14Q141 -14 94 42T47 192Q47 284 84 359T189 478T346 522ZM348 456Q281 456 232 421T157 329T132 200Q132 131 163 91T250 51Q321 51 372 114T439 273L463 429Q436 444 408 450T348 456ZM380 782Q425 782 451 758T478 697Q478 644 443 610T354 576Q309 576 283 600T257 662Q257 715 292 748T380 782ZM377 737Q348 737 330 718T312 667Q312 646 324 634T359 622Q387 622 405 641T423 693Q423 712 411 724T377 737Z" horiz-adv-x="597" unicode="å"/>
			<glyph d="M303 522Q364 522 399 499T447 427Q516 522 641 522Q693 522 729 503T784 455T803 393Q803 293 706 257T438 218V197Q438 129 470 91T571 54Q611 54 643 64T714 98L743 45Q696 14 653 0T556 -14Q419 -14 388 106Q352 46 300 16T185 -14Q113 -14 71 20T29 119Q29 229 120 270T378 312L383 342Q385 354 385 373Q385 458 291 458Q216 458 134 418L115 472Q159 495 207 508T303 522ZM633 460Q558 460 510 410T446 278Q541 281 598 290T688 323T721 391Q721 422 698 441T633 460ZM369 256Q288 256 234 247T148 211T115 127Q115 89 138 69T204 50Q246 50 279 71T332 123T358 187Z" horiz-adv-x="830" unicode="æ"/>
			<glyph d="M339 522Q384 522 425 508T498 468L460 414Q412 454 331 454Q268 454 222 420T153 328T130 203Q130 135 165 94T267 54Q333 54 407 97L435 40Q361 -10 270 -14L244 -66Q261 -63 275 -63Q306 -63 324 -80T343 -130Q343 -180 306 -209T213 -239Q156 -239 113 -213L136 -171Q173 -191 213 -191Q245 -191 263 -176T282 -135Q282 -104 244 -104Q232 -104 206 -110H167L217 -12Q131 -1 89 56T48 196Q48 287 84 361T186 479T339 522Z" horiz-adv-x="502" unicode="ç"/>
			<glyph d="M341 522Q428 522 467 485T507 392Q507 293 406 253T127 207V197Q127 130 161 92T266 54Q310 54 345 65T418 98L447 45Q400 14 355 0T252 -14Q153 -14 100 41T47 193Q47 285 82 360T184 478T341 522ZM334 460Q252 460 201 407T134 269Q234 275 295 286T390 321T425 391Q425 424 404 442T334 460ZM298 751L460 616L423 577L250 698Z" horiz-adv-x="534" unicode="è"/>
			<glyph d="M341 522Q428 522 467 485T507 392Q507 293 406 253T127 207V197Q127 130 161 92T266 54Q310 54 345 65T418 98L447 45Q400 14 355 0T252 -14Q153 -14 100 41T47 193Q47 285 82 360T184 478T341 522ZM334 460Q252 460 201 407T134 269Q234 275 295 286T390 321T425 391Q425 424 404 442T334 460ZM420 751L453 688L270 577L242 624Z" horiz-adv-x="534" unicode="é"/>
			<glyph d="M341 522Q428 522 467 485T507 392Q507 293 406 253T127 207V197Q127 130 161 92T266 54Q310 54 345 65T418 98L447 45Q400 14 355 0T252 -14Q153 -14 100 41T47 193Q47 285 82 360T184 478T341 522ZM334 460Q252 460 201 407T134 269Q234 275 295 286T390 321T425 391Q425 424 404 442T334 460ZM334 735H399L504 611L470 577L361 682L218 579L187 614Z" horiz-adv-x="534" unicode="ê"/>
			<glyph d="M341 522Q428 522 467 485T507 392Q507 293 406 253T127 207V197Q127 130 161 92T266 54Q310 54 345 65T418 98L447 45Q400 14 355 0T252 -14Q153 -14 100 41T47 193Q47 285 82 360T184 478T341 522ZM334 460Q252 460 201 407T134 269Q234 275 295 286T390 321T425 391Q425 424 404 442T334 460ZM263 708Q305 708 305 671Q305 645 291 628T248 611Q206 611 206 649Q206 674 220 691T263 708ZM447 708Q489 708 489 671Q489 645 475 628T432 611Q390 611 390 649Q390 674 404 691T447 708Z" horiz-adv-x="534" unicode="ë"/>
			<glyph d="M126 508H207L126 0H45ZM141 751L303 616L266 577L93 698Z" horiz-adv-x="252" unicode="ì"/>
			<glyph d="M126 508H207L126 0H45ZM263 751L296 688L113 577L85 624Z" horiz-adv-x="252" unicode="í"/>
			<glyph d="M126 508H207L126 0H45ZM178 735H243L348 611L314 577L205 682L62 579L31 614Z" horiz-adv-x="252" unicode="î"/>
			<glyph d="M126 508H207L126 0H45ZM106 708Q148 708 148 671Q148 645 134 628T91 611Q49 611 49 649Q49 674 63 691T106 708ZM290 708Q332 708 332 671Q332 645 318 628T275 611Q233 611 233 649Q233 674 247 691T290 708Z" horiz-adv-x="252" unicode="ï"/>
			<glyph d="M299 725Q359 705 408 677L505 725L524 680L456 646Q514 604 546 540T578 395Q578 354 572 313Q550 168 472 77T269 -14Q165 -14 105 41T45 189Q45 271 80 340T180 451T325 492Q381 492 425 469T500 404V406Q500 475 470 525T387 612L279 559L260 604L336 642Q291 662 259 672ZM324 427Q265 427 221 394T153 308T130 193Q130 127 167 91T273 55Q362 55 416 127T488 323Q459 373 420 400T324 427Z" horiz-adv-x="620" unicode="ð"/>
			<glyph d="M384 522Q460 522 498 478T537 368Q537 349 534 328L482 0H401L450 312Q454 342 454 355Q454 454 362 454Q284 454 228 377T154 185L125 0H44L106 395Q114 446 118 508H193Q193 454 182 403H184Q211 455 264 488T384 522ZM328 693Q345 693 358 686T389 666Q404 655 412 650T431 646Q448 646 463 656T497 691L536 673Q512 631 484 611T424 591Q407 591 394 597T364 617Q350 627 340 632T320 637Q303 637 288 626T256 593L216 611Q266 693 328 693Z" horiz-adv-x="601" unicode="ñ"/>
			<glyph d="M338 522Q443 522 499 466T556 314Q556 223 519 148T416 30T264 -14Q160 -14 104 44T48 199Q48 289 83 363T185 479T338 522ZM333 457Q269 457 223 422T154 329T131 201Q131 132 165 91T270 51Q334 51 380 86T449 180T473 309Q473 378 438 417T333 457ZM317 751L479 616L442 577L269 698Z" horiz-adv-x="604" unicode="ò"/>
			<glyph d="M338 522Q443 522 499 466T556 314Q556 223 519 148T416 30T264 -14Q160 -14 104 44T48 199Q48 289 83 363T185 479T338 522ZM333 457Q269 457 223 422T154 329T131 201Q131 132 165 91T270 51Q334 51 380 86T449 180T473 309Q473 378 438 417T333 457ZM439 751L472 688L289 577L261 624Z" horiz-adv-x="604" unicode="ó"/>
			<glyph d="M338 522Q443 522 499 466T556 314Q556 223 519 148T416 30T264 -14Q160 -14 104 44T48 199Q48 289 83 363T185 479T338 522ZM333 457Q269 457 223 422T154 329T131 201Q131 132 165 91T270 51Q334 51 380 86T449 180T473 309Q473 378 438 417T333 457ZM354 735H419L524 611L490 577L381 682L238 579L207 614Z" horiz-adv-x="604" unicode="ô"/>
			<glyph d="M338 522Q443 522 499 466T556 314Q556 223 519 148T416 30T264 -14Q160 -14 104 44T48 199Q48 289 83 363T185 479T338 522ZM333 457Q269 457 223 422T154 329T131 201Q131 132 165 91T270 51Q334 51 380 86T449 180T473 309Q473 378 438 417T333 457ZM316 693Q333 693 346 686T377 666Q392 655 400 650T419 646Q436 646 451 656T485 691L524 673Q500 631 472 611T412 591Q395 591 382 597T352 617Q338 627 328 632T308 637Q291 637 276 626T244 593L204 611Q254 693 316 693Z" horiz-adv-x="604" unicode="õ"/>
			<glyph d="M338 522Q443 522 499 466T556 314Q556 223 519 148T416 30T264 -14Q160 -14 104 44T48 199Q48 289 83 363T185 479T338 522ZM333 457Q269 457 223 422T154 329T131 201Q131 132 165 91T270 51Q334 51 380 86T449 180T473 309Q473 378 438 417T333 457ZM282 708Q324 708 324 671Q324 645 310 628T267 611Q225 611 225 649Q225 674 239 691T282 708ZM466 708Q508 708 508 671Q508 645 494 628T451 611Q409 611 409 649Q409 674 423 691T466 708Z" horiz-adv-x="604" unicode="ö"/>
			<glyph d="M345 548Q390 548 390 509Q390 480 375 462T330 445Q307 445 296 455T285 483Q285 512 299 530T345 548ZM108 326H508L498 260H98ZM278 129Q323 129 323 90Q323 61 308 43T263 26Q240 26 229 36T218 64Q218 93 232 111T278 129Z" horiz-adv-x="596" unicode="÷"/>
			<glyph d="M406 597L474 582L440 504Q497 481 526 432T556 314Q556 223 519 148T416 30T264 -14Q252 -14 228 -12L198 -89L130 -74L164 4Q107 28 77 78T48 199Q48 289 83 363T185 479T338 522Q352 522 376 520ZM334 459Q269 459 223 424T153 330T130 199Q130 99 197 65L358 458Q350 459 334 459ZM409 444L247 51Q254 50 270 50Q335 50 381 85T451 181T475 313Q475 412 409 444Z" horiz-adv-x="604" unicode="ø"/>
			<glyph d="M119 508H200L151 196Q147 177 147 149Q147 54 241 54Q319 54 371 118T440 279L476 508H557L494 113Q485 55 483 0H409Q406 33 418 94H416Q388 46 337 16T226 -14Q147 -14 105 30T64 143Q64 164 68 187ZM315 751L477 616L440 577L267 698Z" horiz-adv-x="601" unicode="ù"/>
			<glyph d="M119 508H200L151 196Q147 177 147 149Q147 54 241 54Q319 54 371 118T440 279L476 508H557L494 113Q485 55 483 0H409Q406 33 418 94H416Q388 46 337 16T226 -14Q147 -14 105 30T64 143Q64 164 68 187ZM437 751L470 688L287 577L259 624Z" horiz-adv-x="601" unicode="ú"/>
			<glyph d="M119 508H200L151 196Q147 177 147 149Q147 54 241 54Q319 54 371 118T440 279L476 508H557L494 113Q485 55 483 0H409Q406 33 418 94H416Q388 46 337 16T226 -14Q147 -14 105 30T64 143Q64 164 68 187ZM351 735H416L521 611L487 577L378 682L235 579L204 614Z" horiz-adv-x="601" unicode="û"/>
			<glyph d="M119 508H200L151 196Q147 177 147 149Q147 54 241 54Q319 54 371 118T440 279L476 508H557L494 113Q485 55 483 0H409Q406 33 418 94H416Q388 46 337 16T226 -14Q147 -14 105 30T64 143Q64 164 68 187ZM279 708Q321 708 321 671Q321 645 307 628T264 611Q222 611 222 649Q222 674 236 691T279 708ZM463 708Q505 708 505 671Q505 645 491 628T448 611Q406 611 406 649Q406 674 420 691T463 708Z" horiz-adv-x="601" unicode="ü"/>
			<glyph d="M43 508H128L208 85H209L410 508H497L226 -29Q185 -109 153 -151T81 -217T-23 -258L-40 -195Q7 -181 38 -162T95 -110T150 -19L158 -3ZM368 751L401 688L218 577L190 624Z" horiz-adv-x="461" unicode="ý"/>
			<glyph d="M158 708H239L193 417H195Q221 463 270 492T383 522Q474 522 519 466T565 319Q565 229 530 153T433 31T289 -14Q238 -14 200 -1T132 37L87 -244H6ZM360 457Q313 457 271 426T200 343T162 228L142 100Q176 74 207 62T283 51Q345 51 389 87T457 182T481 311Q481 379 450 418T360 457Z" horiz-adv-x="612" unicode="þ"/>
			<glyph d="M43 508H128L208 85H209L410 508H497L226 -29Q185 -109 153 -151T81 -217T-23 -258L-40 -195Q7 -181 38 -162T95 -110T150 -19L158 -3ZM211 708Q253 708 253 671Q253 645 239 628T196 611Q154 611 154 649Q154 674 168 691T211 708ZM395 708Q437 708 437 671Q437 645 423 628T380 611Q338 611 338 649Q338 674 352 691T395 708Z" horiz-adv-x="461" unicode="ÿ"/>
			<glyph d="M351 708H440L601 0H512L477 174H148L55 0H-35ZM385 628L183 240H463ZM284 861H556L547 805H275Z" horiz-adv-x="647" unicode="Ā"/>
			<glyph d="M346 522Q406 522 453 509T550 463L495 113Q486 56 484 0H409Q409 43 417 91H415Q351 -14 227 -14Q141 -14 94 42T47 192Q47 284 84 359T189 478T346 522ZM348 456Q281 456 232 421T157 329T132 200Q132 131 163 91T250 51Q321 51 372 114T439 273L463 429Q436 444 408 450T348 456ZM230 668H502L493 612H221Z" horiz-adv-x="597" unicode="ā"/>
			<glyph d="M351 708H440L601 0H512L477 174H148L55 0H-35ZM385 628L183 240H463ZM323 900Q327 867 348 849T407 831Q443 831 469 849T512 900L560 894Q543 837 500 805T399 773Q340 773 307 805T274 894Z" horiz-adv-x="647" unicode="Ă"/>
			<glyph d="M346 522Q406 522 453 509T550 463L495 113Q486 56 484 0H409Q409 43 417 91H415Q351 -14 227 -14Q141 -14 94 42T47 192Q47 284 84 359T189 478T346 522ZM348 456Q281 456 232 421T157 329T132 200Q132 131 163 91T250 51Q321 51 372 114T439 273L463 429Q436 444 408 450T348 456ZM276 722Q283 637 361 637Q399 637 425 657T469 722L519 715Q500 648 459 613T358 579Q295 579 261 613T227 712V715Z" horiz-adv-x="597" unicode="ă"/>
			<glyph d="M351 708H440L601 0H572Q518 -32 482 -69T447 -143Q447 -183 493 -183Q521 -183 558 -166L573 -212Q529 -237 477 -237Q436 -237 409 -216T383 -160Q383 -109 418 -67T511 4L477 174H148L55 0H-35ZM385 628L183 240H463Z" horiz-adv-x="647" unicode="Ą"/>
			<glyph d="M346 522Q406 522 453 509T550 463L495 113Q486 56 484 0H472Q418 -32 382 -69T347 -143Q347 -183 393 -183Q421 -183 458 -166L473 -212Q429 -237 377 -237Q336 -237 309 -216T283 -160Q283 -109 318 -68T409 3Q409 46 417 91H415Q351 -14 227 -14Q141 -14 94 42T47 192Q47 284 84 359T189 478T346 522ZM348 456Q281 456 232 421T157 329T132 200Q132 131 163 91T250 51Q321 51 372 114T439 273L463 429Q436 444 408 450T348 456Z" horiz-adv-x="597" unicode="ą"/>
			<glyph d="M465 726Q531 726 590 702T689 639L635 588Q567 653 457 653Q363 653 293 603T185 469T148 283Q148 180 202 119T364 58Q420 58 472 79T570 137L613 81Q501 -17 351 -17Q211 -17 135 61T59 274Q59 401 109 504T251 666T465 726ZM543 929L571 868L379 775L359 821Z" horiz-adv-x="662" unicode="Ć"/>
			<glyph d="M339 522Q384 522 425 508T498 468L460 414Q412 454 331 454Q268 454 222 420T153 328T130 203Q130 135 165 94T267 54Q333 54 407 97L435 40Q356 -14 254 -14Q149 -14 98 45T48 196Q48 287 84 361T186 479T339 522ZM427 751L460 688L277 577L249 624Z" horiz-adv-x="502" unicode="ć"/>
			<glyph d="M465 726Q531 726 590 702T689 639L635 588Q567 653 457 653Q363 653 293 603T185 469T148 283Q148 180 202 119T364 58Q420 58 472 79T570 137L613 81Q501 -17 351 -17Q211 -17 135 61T59 274Q59 401 109 504T251 666T465 726ZM446 912H510L619 811L585 776L473 861L334 775L308 814Z" horiz-adv-x="662" unicode="Ĉ"/>
			<glyph d="M339 522Q384 522 425 508T498 468L460 414Q412 454 331 454Q268 454 222 420T153 328T130 203Q130 135 165 94T267 54Q333 54 407 97L435 40Q356 -14 254 -14Q149 -14 98 45T48 196Q48 287 84 361T186 479T339 522ZM341 735H406L511 611L477 577L368 682L225 579L194 614Z" horiz-adv-x="502" unicode="ĉ"/>
			<glyph d="M465 726Q531 726 590 702T689 639L635 588Q567 653 457 653Q363 653 293 603T185 469T148 283Q148 180 202 119T364 58Q420 58 472 79T570 137L613 81Q501 -17 351 -17Q211 -17 135 61T59 274Q59 401 109 504T251 666T465 726ZM474 912Q498 912 509 901T521 873Q521 847 506 828T459 810Q435 810 423 820T412 849Q412 875 427 893T474 912Z" horiz-adv-x="662" unicode="Ċ"/>
			<glyph d="M339 522Q384 522 425 508T498 468L460 414Q412 454 331 454Q268 454 222 420T153 328T130 203Q130 135 165 94T267 54Q333 54 407 97L435 40Q356 -14 254 -14Q149 -14 98 45T48 196Q48 287 84 361T186 479T339 522ZM365 735Q389 735 400 724T412 696Q412 670 397 651T350 633Q326 633 314 643T303 672Q303 698 318 716T365 735Z" horiz-adv-x="502" unicode="ċ"/>
			<glyph d="M465 726Q531 726 590 702T689 639L635 588Q567 653 457 653Q363 653 293 603T185 469T148 283Q148 180 202 119T364 58Q420 58 472 79T570 137L613 81Q501 -17 351 -17Q211 -17 135 61T59 274Q59 401 109 504T251 666T465 726ZM343 919L454 833L593 918L620 880L481 781H417L309 882Z" horiz-adv-x="662" unicode="Č"/>
			<glyph d="M339 522Q384 522 425 508T498 468L460 414Q412 454 331 454Q268 454 222 420T153 328T130 203Q130 135 165 94T267 54Q333 54 407 97L435 40Q356 -14 254 -14Q149 -14 98 45T48 196Q48 287 84 361T186 479T339 522ZM230 741L339 636L482 739L513 704L367 583H301L196 707Z" horiz-adv-x="502" unicode="č"/>
			<glyph d="M160 708H376Q521 708 605 639T690 435Q690 303 640 205T496 53T271 0H48ZM233 639L143 70H272Q379 70 453 114T565 240T603 429Q603 639 363 639ZM282 919L393 833L532 918L559 880L420 781H356L248 882Z" horiz-adv-x="718" unicode="Ď"/>
			<glyph d="M517 708H598L504 113Q497 72 493 0H418Q420 57 426 91H424Q360 -14 235 -14Q143 -14 95 42T47 192Q47 280 80 355T176 476T322 522Q374 522 411 507T479 466ZM323 456Q265 456 221 419T155 324T132 200Q132 130 164 90T258 51Q329 51 381 113T448 273L468 399Q416 456 323 456ZM682 725L747 705L676 545L628 558Z" horiz-adv-x="660" unicode="ď"/>
			<glyph d="M160 708H376Q521 708 605 639T690 435Q690 303 640 205T496 53T271 0H48L99 325H19L28 382H108ZM233 639L192 382H354L346 325H183L143 70H272Q379 70 453 114T565 240T603 429Q603 639 363 639Z" horiz-adv-x="717" unicode="Đ"/>
			<glyph d="M517 708H598L587 641H662L653 588H579L504 113Q497 72 493 0H418Q420 57 426 91H424Q360 -14 235 -14Q143 -14 95 42T47 192Q47 280 80 355T176 476T322 522Q374 522 411 507T479 466L498 588H340L349 641H506ZM323 456Q265 456 221 419T155 324T132 200Q132 130 164 90T258 51Q329 51 381 113T448 273L468 399Q416 456 323 456Z" horiz-adv-x="612" unicode="đ"/>
			<glyph d="M160 708H580L569 640H233L195 398H488L477 332H184L143 69H495L484 0H48ZM250 861H522L513 805H241Z" horiz-adv-x="551" unicode="Ē"/>
			<glyph d="M341 522Q428 522 467 485T507 392Q507 293 406 253T127 207V197Q127 130 161 92T266 54Q310 54 345 65T418 98L447 45Q400 14 355 0T252 -14Q153 -14 100 41T47 193Q47 285 82 360T184 478T341 522ZM334 460Q252 460 201 407T134 269Q234 275 295 286T390 321T425 391Q425 424 404 442T334 460ZM213 668H485L476 612H204Z" horiz-adv-x="534" unicode="ē"/>
			<glyph d="M160 708H580L569 640H233L195 398H488L477 332H184L143 69H495L484 0H48ZM288 900Q292 867 313 849T372 831Q408 831 434 849T477 900L525 894Q508 837 465 805T364 773Q305 773 272 805T239 894Z" horiz-adv-x="551" unicode="Ĕ"/>
			<glyph d="M341 522Q428 522 467 485T507 392Q507 293 406 253T127 207V197Q127 130 161 92T266 54Q310 54 345 65T418 98L447 45Q400 14 355 0T252 -14Q153 -14 100 41T47 193Q47 285 82 360T184 478T341 522ZM334 460Q252 460 201 407T134 269Q234 275 295 286T390 321T425 391Q425 424 404 442T334 460ZM258 722Q265 637 343 637Q381 637 407 657T451 722L501 715Q482 648 441 613T340 579Q277 579 243 613T209 712V715Z" horiz-adv-x="534" unicode="ĕ"/>
			<glyph d="M160 708H580L569 640H233L195 398H488L477 332H184L143 69H495L484 0H48ZM393 912Q417 912 428 901T440 873Q440 847 425 828T378 810Q354 810 342 820T331 849Q331 875 346 893T393 912Z" horiz-adv-x="551" unicode="Ė"/>
			<glyph d="M341 522Q428 522 467 485T507 392Q507 293 406 253T127 207V197Q127 130 161 92T266 54Q310 54 345 65T418 98L447 45Q400 14 355 0T252 -14Q153 -14 100 41T47 193Q47 285 82 360T184 478T341 522ZM334 460Q252 460 201 407T134 269Q234 275 295 286T390 321T425 391Q425 424 404 442T334 460ZM359 735Q383 735 394 724T406 696Q406 670 391 651T344 633Q320 633 308 643T297 672Q297 698 312 716T359 735Z" horiz-adv-x="534" unicode="ė"/>
			<glyph d="M160 708H580L569 640H233L195 398H488L477 332H184L143 69H495L484 0H448Q394 -32 358 -69T323 -143Q323 -183 369 -183Q397 -183 434 -166L449 -212Q405 -237 353 -237Q312 -237 285 -216T259 -160Q259 -111 292 -70T379 0H48Z" horiz-adv-x="551" unicode="Ę"/>
			<glyph d="M341 522Q428 522 467 485T507 392Q507 293 406 253T127 207V197Q127 130 161 92T266 54Q310 54 345 65T418 98L447 45Q399 14 354 0Q220 -83 220 -150Q220 -190 266 -190Q294 -190 331 -173L346 -219Q302 -244 250 -244Q209 -244 182 -223T156 -167Q156 -78 274 -14H252Q153 -14 100 41T47 193Q47 285 82 360T184 478T341 522ZM334 460Q252 460 201 407T134 269Q234 275 295 286T390 321T425 391Q425 424 404 442T334 460Z" horiz-adv-x="535" unicode="ę"/>
			<glyph d="M160 708H580L569 640H233L195 398H488L477 332H184L143 69H495L484 0H48ZM262 919L373 833L512 918L539 880L400 781H336L228 882Z" horiz-adv-x="551" unicode="Ě"/>
			<glyph d="M341 522Q428 522 467 485T507 392Q507 293 406 253T127 207V197Q127 130 161 92T266 54Q310 54 345 65T418 98L447 45Q400 14 355 0T252 -14Q153 -14 100 41T47 193Q47 285 82 360T184 478T341 522ZM334 460Q252 460 201 407T134 269Q234 275 295 286T390 321T425 391Q425 424 404 442T334 460ZM224 741L333 636L476 739L507 704L361 583H295L190 707Z" horiz-adv-x="534" unicode="ě"/>
			<glyph d="M467 725Q534 725 592 702T691 637L641 587Q565 653 463 653Q365 653 293 603T183 467T145 278Q145 173 199 113T366 54Q417 54 460 64T548 95L579 291H417L427 357H667L619 49Q557 18 493 0T354 -17Q210 -17 134 60T58 272Q58 399 108 502T252 665T467 725ZM453 912H517L626 811L592 776L480 861L341 775L315 814Z" horiz-adv-x="731" unicode="Ĝ"/>
			<glyph d="M345 522Q405 522 452 509T550 463L478 -12Q460 -130 392 -194T210 -258Q157 -258 109 -241T28 -197L65 -142Q130 -190 208 -190Q289 -190 336 -147T399 -15L417 92H415Q382 36 334 12T227 -11Q141 -11 94 44T48 193Q48 286 84 361T188 479T345 522ZM346 456Q279 456 230 422T156 330T131 201Q131 132 162 93T249 54Q320 54 371 115T438 273L462 428Q435 444 407 450T346 456ZM352 735H417L522 611L488 577L379 682L236 579L205 614Z" horiz-adv-x="593" unicode="ĝ"/>
			<glyph d="M467 725Q534 725 592 702T691 637L641 587Q565 653 463 653Q365 653 293 603T183 467T145 278Q145 173 199 113T366 54Q417 54 460 64T548 95L579 291H417L427 357H667L619 49Q557 18 493 0T354 -17Q210 -17 134 60T58 272Q58 399 108 502T252 665T467 725ZM376 900Q380 867 401 849T460 831Q496 831 522 849T565 900L613 894Q596 837 553 805T452 773Q393 773 360 805T327 894Z" horiz-adv-x="731" unicode="Ğ"/>
			<glyph d="M345 522Q405 522 452 509T550 463L478 -12Q460 -130 392 -194T210 -258Q157 -258 109 -241T28 -197L65 -142Q130 -190 208 -190Q289 -190 336 -147T399 -15L417 92H415Q382 36 334 12T227 -11Q141 -11 94 44T48 193Q48 286 84 361T188 479T345 522ZM346 456Q279 456 230 422T156 330T131 201Q131 132 162 93T249 54Q320 54 371 115T438 273L462 428Q435 444 407 450T346 456ZM275 722Q282 637 360 637Q398 637 424 657T468 722L518 715Q499 648 458 613T357 579Q294 579 260 613T226 712V715Z" horiz-adv-x="593" unicode="ğ"/>
			<glyph d="M467 725Q534 725 592 702T691 637L641 587Q565 653 463 653Q365 653 293 603T183 467T145 278Q145 173 199 113T366 54Q417 54 460 64T548 95L579 291H417L427 357H667L619 49Q557 18 493 0T354 -17Q210 -17 134 60T58 272Q58 399 108 502T252 665T467 725ZM481 912Q505 912 516 901T528 873Q528 847 513 828T466 810Q442 810 430 820T419 849Q419 875 434 893T481 912Z" horiz-adv-x="731" unicode="Ġ"/>
			<glyph d="M345 522Q405 522 452 509T550 463L478 -12Q460 -130 392 -194T210 -258Q157 -258 109 -241T28 -197L65 -142Q130 -190 208 -190Q289 -190 336 -147T399 -15L417 92H415Q382 36 334 12T227 -11Q141 -11 94 44T48 193Q48 286 84 361T188 479T345 522ZM346 456Q279 456 230 422T156 330T131 201Q131 132 162 93T249 54Q320 54 371 115T438 273L462 428Q435 444 407 450T346 456ZM376 735Q400 735 411 724T423 696Q423 670 408 651T361 633Q337 633 325 643T314 672Q314 698 329 716T376 735Z" horiz-adv-x="593" unicode="ġ"/>
			<glyph d="M467 725Q534 725 592 702T691 637L641 587Q565 653 463 653Q365 653 293 603T183 467T145 278Q145 173 199 113T366 54Q417 54 460 64T548 95L579 291H417L427 357H667L619 49Q557 18 493 0T354 -17Q210 -17 134 60T58 272Q58 399 108 502T252 665T467 725ZM338 -63Q359 -63 370 -74T382 -108Q382 -112 380 -126Q373 -164 355 -195T298 -268L270 -244Q292 -216 303 -196T319 -153Q282 -147 282 -115Q282 -94 296 -78T338 -63Z" horiz-adv-x="731" unicode="Ģ"/>
			<glyph d="M345 522Q405 522 452 509T550 463L478 -12Q460 -130 392 -194T210 -258Q157 -258 109 -241T28 -197L65 -142Q130 -190 208 -190Q289 -190 336 -147T399 -15L417 92H415Q382 36 334 12T227 -11Q141 -11 94 44T48 193Q48 286 84 361T188 479T345 522ZM346 456Q279 456 230 422T156 330T131 201Q131 132 162 93T249 54Q320 54 371 115T438 273L462 428Q435 444 407 450T346 456ZM391 821L419 797Q397 769 386 749T370 706Q407 700 407 668Q407 647 392 631T351 616Q330 616 318 627T307 661Q307 665 309 679Q316 717 334 748T391 821Z" horiz-adv-x="593" unicode="ģ"/>
			<glyph d="M160 708H244L196 399H574L622 708H707L595 0H510L562 330H184L132 0H48ZM438 912H502L611 811L577 776L465 861L326 775L300 814Z" horiz-adv-x="724" unicode="Ĥ"/>
			<glyph d="M157 708H238L188 411H190Q213 456 268 489T384 522Q461 522 499 478T538 368Q538 347 534 328L482 0H401L450 312Q454 332 454 355Q454 454 362 454Q284 454 228 377T155 185L125 0H45ZM377 912H441L550 811L516 776L404 861L265 775L239 814Z" horiz-adv-x="601" unicode="ĥ"/>
			<glyph d="M160 708H244L227 598H605L622 708H707L690 598H776L766 541H681L595 0H510L562 330H184L132 0H48L134 541H46L56 598H143ZM218 541L196 399H574L596 541Z" horiz-adv-x="724" unicode="Ħ"/>
			<glyph d="M157 708H238L227 641H384L375 588H218L188 411H190Q213 456 268 489T384 522Q461 522 499 478T538 368Q538 347 534 328L482 0H401L450 312Q454 332 454 355Q454 454 362 454Q284 454 228 377T155 185L125 0H45L138 588H62L71 641H146Z" horiz-adv-x="602" unicode="ħ"/>
			<glyph d="M125 708H374L365 645H282L190 65H273L262 0H13L23 65H107L199 645H115ZM222 886Q239 886 252 879T283 859Q298 848 306 843T325 839Q342 839 357 849T391 884L430 866Q406 824 378 804T318 784Q301 784 288 790T258 810Q244 820 234 825T214 830Q197 830 182 819T150 786L110 804Q160 886 222 886Z" horiz-adv-x="356" unicode="Ĩ"/>
			<glyph d="M126 508H207L126 0H45ZM139 693Q156 693 169 686T200 666Q215 655 223 650T242 646Q259 646 274 656T308 691L347 673Q323 631 295 611T235 591Q218 591 205 597T175 617Q161 627 151 632T131 637Q114 637 99 626T67 593L27 611Q77 693 139 693Z" horiz-adv-x="252" unicode="ĩ"/>
			<glyph d="M125 708H374L365 645H282L190 65H273L262 0H13L23 65H107L199 645H115ZM139 861H411L402 805H130Z" horiz-adv-x="356" unicode="Ī"/>
			<glyph d="M126 508H207L126 0H45ZM55 668H327L318 612H46Z" horiz-adv-x="252" unicode="ī"/>
			<glyph d="M125 708H374L365 645H282L190 65H273L262 0H13L23 65H107L199 645H115ZM177 900Q181 867 202 849T261 831Q297 831 323 849T366 900L414 894Q397 837 354 805T253 773Q194 773 161 805T128 894Z" horiz-adv-x="356" unicode="Ĭ"/>
			<glyph d="M126 508H207L126 0H45ZM101 722Q108 637 186 637Q224 637 250 657T294 722L344 715Q325 648 284 613T183 579Q120 579 86 613T52 712V715Z" horiz-adv-x="252" unicode="ĭ"/>
			<glyph d="M125 708H374L365 645H282L190 65H273L262 0H165Q111 -32 75 -69T40 -143Q40 -183 86 -183Q114 -183 151 -166L166 -212Q122 -237 70 -237Q29 -237 2 -216T-24 -160Q-24 -111 9 -70T96 0H13L23 65H107L199 645H115Z" horiz-adv-x="356" unicode="Į"/>
			<glyph d="M202 735Q226 735 237 724T249 696Q249 670 234 651T187 633Q163 633 151 643T140 672Q140 698 155 716T202 735ZM126 508H207L126 0H110Q56 -32 20 -69T-15 -143Q-15 -183 31 -183Q59 -183 96 -166L111 -212Q67 -237 15 -237Q-26 -237 -52 -216T-79 -160Q-79 -110 -45 -69T45 2Z" horiz-adv-x="252" unicode="į"/>
			<glyph d="M125 708H374L365 645H282L190 65H273L262 0H13L23 65H107L199 645H115ZM282 912Q306 912 317 901T329 873Q329 847 314 828T267 810Q243 810 231 820T220 849Q220 875 235 893T282 912Z" horiz-adv-x="356" unicode="İ"/>
			<glyph d="M126 508H207L126 0H45Z" horiz-adv-x="252" unicode="ı"/>
			<glyph d="M125 708H374L365 645H282L190 65H273L262 0H13L23 65H107L199 645H115ZM672 708H756L676 201Q661 105 605 44T451 -17Q415 -17 382 -7T325 19L363 78Q404 55 451 55Q512 55 547 94T592 200Z" horiz-adv-x="766" unicode="Ĳ"/>
			<glyph d="M202 735Q226 735 237 724T249 696Q249 670 234 651T187 633Q163 633 151 643T140 672Q140 698 155 716T202 735ZM454 735Q478 735 489 724T501 696Q501 670 486 651T439 633Q415 633 403 643T392 672Q392 698 407 716T454 735ZM126 508H207L126 0H45ZM378 508H459L378 -8Q366 -86 343 -133T284 -209T189 -258L168 -196Q208 -182 232 -160T271 -103T296 -9Z" horiz-adv-x="505" unicode="ĳ"/>
			<glyph d="M316 708H400L320 201Q305 105 249 44T95 -17Q59 -17 26 -7T-31 19L7 78Q48 55 95 55Q156 55 191 94T236 200ZM358 912H422L531 811L497 776L385 861L246 775L220 814Z" horiz-adv-x="409" unicode="Ĵ"/>
			<glyph d="M126 508H207L126 -8Q114 -86 91 -133T32 -209T-63 -258L-84 -196Q-44 -182 -19 -160T19 -103T44 -9ZM178 735H243L348 611L314 577L205 682L62 579L31 614Z" horiz-adv-x="253" unicode="ĵ"/>
			<glyph d="M160 708H244L192 380L551 708H651L293 382L562 0H467L236 331L176 275L132 0H48ZM259 -63Q280 -63 291 -74T303 -108Q303 -112 301 -126Q294 -164 276 -195T219 -268L191 -244Q213 -216 224 -196T240 -153Q203 -147 203 -115Q203 -94 217 -78T259 -63Z" horiz-adv-x="605" unicode="Ķ"/>
			<glyph d="M157 708H238L173 296L429 508H532L277 298L473 0H381L219 250L158 200L126 0H45ZM235 -63Q256 -63 267 -74T279 -108Q279 -112 277 -126Q270 -164 252 -195T195 -268L167 -244Q189 -216 200 -196T216 -153Q179 -147 179 -115Q179 -94 193 -78T235 -63Z" horiz-adv-x="516" unicode="ķ"/>
			<glyph d="M126 508H207L173 296L429 508H532L277 298L473 0H381L219 250L158 200L126 0H45Z" horiz-adv-x="526" unicode="ĸ"/>
			<glyph d="M160 708H244L143 71H462L451 0H48ZM310 929L338 868L146 775L126 821Z" horiz-adv-x="496" unicode="Ĺ"/>
			<glyph d="M157 708H238L126 0H45ZM298 929L326 868L134 775L114 821Z" horiz-adv-x="252" unicode="ĺ"/>
			<glyph d="M160 708H244L143 71H462L451 0H48ZM251 -63Q272 -63 283 -74T295 -108Q295 -112 293 -126Q286 -164 268 -195T211 -268L183 -244Q205 -216 216 -196T232 -153Q195 -147 195 -115Q195 -94 209 -78T251 -63Z" horiz-adv-x="496" unicode="Ļ"/>
			<glyph d="M157 708H238L126 0H45ZM82 -63Q103 -63 114 -74T126 -108Q126 -112 124 -126Q117 -164 99 -195T42 -268L14 -244Q36 -216 47 -196T63 -153Q26 -147 26 -115Q26 -94 40 -78T82 -63Z" horiz-adv-x="252" unicode="ļ"/>
			<glyph d="M160 708H244L143 71H462L451 0H48ZM352 725L417 705L346 545L298 558Z" horiz-adv-x="496" unicode="Ľ"/>
			<glyph d="M157 708H238L126 0H45ZM319 725L384 705L313 545L265 558Z" horiz-adv-x="297" unicode="ľ"/>
			<glyph d="M160 708H244L143 71H462L451 0H48ZM395 439Q419 439 430 428T442 400Q442 374 427 355T380 337Q356 337 344 347T333 376Q333 402 348 420T395 439Z" horiz-adv-x="496" unicode="Ŀ"/>
			<glyph d="M157 708H238L126 0H45ZM286 393Q310 393 321 382T333 354Q333 328 318 309T271 291Q247 291 235 301T224 330Q224 356 239 374T286 393Z" horiz-adv-x="278" unicode="ŀ"/>
			<glyph d="M160 708H244L192 378L403 483L422 428L181 308L143 71H462L451 0H48L90 263L43 239L24 294L101 332Z" horiz-adv-x="496" unicode="Ł"/>
			<glyph d="M161 708H242L191 384L256 416L273 364L180 318L130 0H49L92 274L29 241L12 293L103 339Z" horiz-adv-x="262" unicode="ł"/>
			<glyph d="M160 708L255 707L571 110H573L665 708H744L632 0H537L222 600H220L127 0H48ZM553 929L581 868L389 775L369 821Z" horiz-adv-x="761" unicode="Ń"/>
			<glyph d="M384 522Q460 522 498 478T537 368Q537 349 534 328L482 0H401L450 312Q454 342 454 355Q454 454 362 454Q284 454 228 377T154 185L125 0H44L106 395Q114 446 118 508H193Q193 454 182 403H184Q211 455 264 488T384 522ZM452 751L485 688L302 577L274 624Z" horiz-adv-x="601" unicode="ń"/>
			<glyph d="M160 708L255 707L571 110H573L665 708H744L632 0H537L222 600H220L127 0H48ZM337 -63Q358 -63 369 -74T381 -108Q381 -112 379 -126Q372 -164 354 -195T297 -268L269 -244Q291 -216 302 -196T318 -153Q281 -147 281 -115Q281 -94 295 -78T337 -63Z" horiz-adv-x="761" unicode="Ņ"/>
			<glyph d="M384 522Q460 522 498 478T537 368Q537 349 534 328L482 0H401L450 312Q454 342 454 355Q454 454 362 454Q284 454 228 377T154 185L125 0H44L106 395Q114 446 118 508H193Q193 454 182 403H184Q211 455 264 488T384 522ZM256 -63Q277 -63 288 -74T300 -108Q300 -112 298 -126Q291 -164 273 -195T216 -268L188 -244Q210 -216 221 -196T237 -153Q200 -147 200 -115Q200 -94 214 -78T256 -63Z" horiz-adv-x="601" unicode="ņ"/>
			<glyph d="M160 708L255 707L571 110H573L665 708H744L632 0H537L222 600H220L127 0H48ZM354 919L465 833L604 918L631 880L492 781H428L320 882Z" horiz-adv-x="761" unicode="Ň"/>
			<glyph d="M384 522Q460 522 498 478T537 368Q537 349 534 328L482 0H401L450 312Q454 342 454 355Q454 454 362 454Q284 454 228 377T154 185L125 0H44L106 395Q114 446 118 508H193Q193 454 182 403H184Q211 455 264 488T384 522ZM255 741L364 636L507 739L538 704L392 583H326L221 707Z" horiz-adv-x="601" unicode="ň"/>
			<glyph d="M384 522Q460 522 498 478T537 368Q537 349 534 328L482 0H401L450 312Q454 342 454 355Q454 454 362 454Q284 454 228 377T154 185L125 0H44L106 395Q114 446 118 508H193Q193 454 182 403H184Q211 455 264 488T384 522ZM168 773Q189 773 200 761T212 729Q212 723 210 711Q203 672 185 641T128 569L100 592Q122 620 133 639T149 683Q112 689 112 721Q112 743 126 758T168 773Z" horiz-adv-x="601" unicode="ŉ"/>
			<glyph d="M160 708L255 707L571 110H573L665 708H744L632 0Q619 -82 596 -131T538 -209T442 -258L421 -196Q463 -181 487 -158T526 -99T550 0H537L222 600H220L127 0H48Z" horiz-adv-x="761" unicode="Ŋ"/>
			<glyph d="M384 522Q460 522 498 478T537 368Q537 349 534 328L481 -7Q468 -85 446 -133T388 -209T293 -258L271 -196Q330 -175 358 -134T400 -8L450 312Q454 342 454 355Q454 454 362 454Q284 454 228 377T154 185L125 0H44L106 395Q114 446 118 508H193Q193 454 182 403H184Q211 455 265 488T384 522Z" horiz-adv-x="601" unicode="ŋ"/>
			<glyph d="M468 725Q611 725 689 646T767 433Q767 306 716 203T572 42T357 -17Q262 -17 195 19T93 121T59 276Q59 402 110 504T254 666T468 725ZM459 652Q363 652 291 603T182 469T145 282Q145 175 200 115T366 56Q462 56 533 105T641 239T679 427Q679 534 624 593T459 652ZM361 861H633L624 805H352Z" horiz-adv-x="793" unicode="Ō"/>
			<glyph d="M338 522Q443 522 499 466T556 314Q556 223 519 148T416 30T264 -14Q160 -14 104 44T48 199Q48 289 83 363T185 479T338 522ZM333 457Q269 457 223 422T154 329T131 201Q131 132 165 91T270 51Q334 51 380 86T449 180T473 309Q473 378 438 417T333 457ZM231 668H503L494 612H222Z" horiz-adv-x="604" unicode="ō"/>
			<glyph d="M468 725Q611 725 689 646T767 433Q767 306 716 203T572 42T357 -17Q262 -17 195 19T93 121T59 276Q59 402 110 504T254 666T468 725ZM459 652Q363 652 291 603T182 469T145 282Q145 175 200 115T366 56Q462 56 533 105T641 239T679 427Q679 534 624 593T459 652ZM399 900Q403 867 424 849T483 831Q519 831 545 849T588 900L636 894Q619 837 576 805T475 773Q416 773 383 805T350 894Z" horiz-adv-x="793" unicode="Ŏ"/>
			<glyph d="M338 522Q443 522 499 466T556 314Q556 223 519 148T416 30T264 -14Q160 -14 104 44T48 199Q48 289 83 363T185 479T338 522ZM333 457Q269 457 223 422T154 329T131 201Q131 132 165 91T270 51Q334 51 380 86T449 180T473 309Q473 378 438 417T333 457ZM277 722Q284 637 362 637Q400 637 426 657T470 722L520 715Q501 648 460 613T359 579Q296 579 262 613T228 712V715Z" horiz-adv-x="604" unicode="ŏ"/>
			<glyph d="M468 725Q611 725 689 646T767 433Q767 306 716 203T572 42T357 -17Q262 -17 195 19T93 121T59 276Q59 402 110 504T254 666T468 725ZM459 652Q363 652 291 603T182 469T145 282Q145 175 200 115T366 56Q462 56 533 105T641 239T679 427Q679 534 624 593T459 652ZM460 951L512 921L386 767L351 788ZM591 944L639 909L508 762L473 786Z" horiz-adv-x="793" unicode="Ő"/>
			<glyph d="M338 522Q443 522 499 466T556 314Q556 223 519 148T416 30T264 -14Q160 -14 104 44T48 199Q48 289 83 363T185 479T338 522ZM333 457Q269 457 223 422T154 329T131 201Q131 132 165 91T270 51Q334 51 380 86T449 180T473 309Q473 378 438 417T333 457ZM332 758L384 728L258 574L223 595ZM463 751L511 716L380 569L345 593Z" horiz-adv-x="604" unicode="ő"/>
			<glyph d="M452 725Q513 725 558 708H1027L1016 640H645Q724 569 724 433Q724 410 723 398H934L923 332H715Q699 250 659 181T559 69H942L931 0H447Q399 -17 344 -17Q254 -17 190 19T92 121T59 275Q59 399 107 501T244 664T452 725ZM448 652Q354 652 285 601T180 467T145 283Q145 178 198 117T354 56Q442 56 506 108T604 247T637 434Q637 535 589 593T448 652Z" horiz-adv-x="998" unicode="Œ"/>
			<glyph d="M329 522Q403 522 448 488T513 392Q547 453 603 487T734 522Q786 522 822 503T877 455T896 393Q896 323 847 285T719 233T531 218V197Q531 129 563 91T663 54Q704 54 736 64T806 98L836 45Q787 14 745 0T649 -14Q576 -14 532 19T473 112Q439 51 384 18T256 -14Q158 -14 103 44T48 200Q48 288 83 361T182 478T329 522ZM726 460Q651 460 603 410T539 278Q633 281 690 290T780 323T813 391Q813 422 791 441T726 460ZM325 457Q265 457 221 421T154 327T131 201Q131 132 164 91T262 51Q323 51 367 86T434 181T458 309Q458 378 424 417T325 457Z" horiz-adv-x="923" unicode="œ"/>
			<glyph d="M160 708H384Q442 708 490 687T568 625T598 524Q598 425 546 360T402 272L537 0H445L320 260H174L132 0H48ZM234 640L185 326H326Q381 326 423 350T488 418T511 515Q511 577 472 608T372 640ZM446 929L474 868L282 775L262 821Z" horiz-adv-x="612" unicode="Ŕ"/>
			<glyph d="M361 522Q382 522 392 517L377 444Q364 448 344 448Q269 448 219 360T150 153L125 0H44L106 394Q114 444 118 508H193Q193 469 179 392H181Q212 462 256 492T361 522ZM332 751L365 688L182 577L154 624Z" horiz-adv-x="356" unicode="ŕ"/>
			<glyph d="M160 708H384Q442 708 490 687T568 625T598 524Q598 425 546 360T402 272L537 0H445L320 260H174L132 0H48ZM234 640L185 326H326Q381 326 423 350T488 418T511 515Q511 577 472 608T372 640ZM262 -63Q283 -63 294 -74T306 -108Q306 -112 304 -126Q297 -164 279 -195T222 -268L194 -244Q216 -216 227 -196T243 -153Q206 -147 206 -115Q206 -94 220 -78T262 -63Z" horiz-adv-x="612" unicode="Ŗ"/>
			<glyph d="M361 522Q382 522 392 517L377 444Q364 448 344 448Q269 448 219 360T150 153L125 0H44L106 394Q114 444 118 508H193Q193 469 179 392H181Q212 462 256 492T361 522ZM81 -63Q102 -63 113 -74T125 -108Q125 -112 123 -126Q116 -164 98 -195T41 -268L13 -244Q35 -216 46 -196T62 -153Q25 -147 25 -115Q25 -94 39 -78T81 -63Z" horiz-adv-x="356" unicode="ŗ"/>
			<glyph d="M160 708H384Q442 708 490 687T568 625T598 524Q598 425 546 360T402 272L537 0H445L320 260H174L132 0H48ZM234 640L185 326H326Q381 326 423 350T488 418T511 515Q511 577 472 608T372 640ZM246 919L357 833L496 918L523 880L384 781H320L212 882Z" horiz-adv-x="612" unicode="Ř"/>
			<glyph d="M361 522Q382 522 392 517L377 444Q364 448 344 448Q269 448 219 360T150 153L125 0H44L106 394Q114 444 118 508H193Q193 469 179 392H181Q212 462 256 492T361 522ZM135 741L244 636L387 739L418 704L272 583H206L101 707Z" horiz-adv-x="356" unicode="ř"/>
			<glyph d="M355 724Q470 724 559 659L516 603Q477 629 436 642T348 655Q273 655 226 622T180 524Q180 480 213 454T316 408Q405 381 452 338T500 223Q500 149 464 95T366 12T224 -17Q157 -17 99 4T-1 65L44 119Q84 86 129 70T231 55Q313 55 363 97T413 212Q413 264 376 292T262 343Q181 367 139 409T97 516Q97 616 168 670T355 724ZM446 929L474 868L282 775L262 821Z" horiz-adv-x="547" unicode="Ś"/>
			<glyph d="M260 522Q355 522 423 470L384 419Q325 459 256 459Q204 459 173 438T143 377Q143 348 167 330T253 293Q381 255 381 157Q381 74 323 30T170 -14Q66 -14 -6 43L34 95Q96 50 176 50Q231 50 263 73T296 147Q296 179 273 199T192 238Q126 258 93 290T61 369Q61 441 116 481T260 522ZM355 751L388 688L205 577L177 624Z" horiz-adv-x="442" unicode="ś"/>
			<glyph d="M355 724Q470 724 559 659L516 603Q477 629 436 642T348 655Q273 655 226 622T180 524Q180 480 213 454T316 408Q405 381 452 338T500 223Q500 149 464 95T366 12T224 -17Q157 -17 99 4T-1 65L44 119Q84 86 129 70T231 55Q313 55 363 97T413 212Q413 264 376 292T262 343Q181 367 139 409T97 516Q97 616 168 670T355 724ZM350 912H414L523 811L489 776L377 861L238 775L212 814Z" horiz-adv-x="547" unicode="Ŝ"/>
			<glyph d="M260 522Q355 522 423 470L384 419Q325 459 256 459Q204 459 173 438T143 377Q143 348 167 330T253 293Q381 255 381 157Q381 74 323 30T170 -14Q66 -14 -6 43L34 95Q96 50 176 50Q231 50 263 73T296 147Q296 179 273 199T192 238Q126 258 93 290T61 369Q61 441 116 481T260 522ZM269 735H334L439 611L405 577L296 682L153 579L122 614Z" horiz-adv-x="442" unicode="ŝ"/>
			<glyph d="M355 724Q470 724 559 659L516 603Q477 629 436 642T348 655Q273 655 226 622T180 524Q180 480 213 454T316 408Q405 381 452 338T500 223Q500 120 432 56T254 -16L229 -66Q246 -63 260 -63Q291 -63 309 -80T328 -130Q328 -180 291 -209T198 -239Q141 -239 98 -213L121 -171Q158 -191 198 -191Q230 -191 248 -176T267 -135Q267 -104 229 -104Q217 -104 191 -110H152L200 -16Q140 -12 88 9T-1 65L44 119Q84 86 129 70T231 55Q313 55 363 97T413 212Q413 264 376 292T262 343Q181 367 139 409T97 516Q97 616 168 670T355 724Z" horiz-adv-x="547" unicode="Ş"/>
			<glyph d="M260 522Q355 522 423 470L384 419Q325 459 256 459Q204 459 173 438T143 377Q143 348 167 330T253 293Q381 255 381 157Q381 80 331 36T198 -13L172 -66Q189 -63 203 -63Q234 -63 252 -80T271 -130Q271 -180 234 -209T141 -239Q84 -239 41 -213L64 -171Q101 -191 141 -191Q173 -191 191 -176T210 -135Q210 -104 172 -104Q160 -104 134 -110H95L144 -13Q58 -7 -6 43L34 95Q96 50 176 50Q231 50 263 73T296 147Q296 179 273 199T192 238Q126 258 93 290T61 369Q61 441 116 481T260 522Z" horiz-adv-x="442" unicode="ş"/>
			<glyph d="M355 724Q470 724 559 659L516 603Q477 629 436 642T348 655Q273 655 226 622T180 524Q180 480 213 454T316 408Q405 381 452 338T500 223Q500 149 464 95T366 12T224 -17Q157 -17 99 4T-1 65L44 119Q84 86 129 70T231 55Q313 55 363 97T413 212Q413 264 376 292T262 343Q181 367 139 409T97 516Q97 616 168 670T355 724ZM246 919L357 833L496 918L523 880L384 781H320L212 882Z" horiz-adv-x="547" unicode="Š"/>
			<glyph d="M260 522Q355 522 423 470L384 419Q325 459 256 459Q204 459 173 438T143 377Q143 348 167 330T253 293Q381 255 381 157Q381 74 323 30T170 -14Q66 -14 -6 43L34 95Q96 50 176 50Q231 50 263 73T296 147Q296 179 273 199T192 238Q126 258 93 290T61 369Q61 441 116 481T260 522ZM158 741L267 636L410 739L441 704L295 583H229L124 707Z" horiz-adv-x="442" unicode="š"/>
			<glyph d="M77 708H601L589 636H370L269 0H254L221 -66Q237 -63 252 -63Q283 -63 301 -80T320 -130Q320 -180 283 -209T190 -239Q133 -239 90 -213L113 -171Q150 -191 190 -191Q222 -191 240 -176T259 -135Q259 -104 221 -104Q209 -104 183 -110H144L200 0H184L285 636H65Z" horiz-adv-x="534" unicode="Ţ"/>
			<glyph d="M249 662L225 508H357L347 445H214L167 147Q163 122 163 108Q163 54 226 54Q251 54 277 61L282 -2Q246 -14 205 -14L179 -66Q196 -63 210 -63Q241 -63 259 -80T278 -130Q278 -180 241 -209T148 -239Q91 -239 48 -213L71 -171Q108 -191 148 -191Q180 -191 198 -176T217 -135Q217 -104 179 -104Q167 -104 141 -110H102L154 -8Q119 3 100 29T81 96Q81 113 86 142L133 445H45L54 498L144 508L163 633Z" horiz-adv-x="348" unicode="ţ"/>
			<glyph d="M77 708H601L589 636H370L269 0H184L285 636H65ZM240 919L351 833L490 918L517 880L378 781H314L206 882Z" horiz-adv-x="534" unicode="Ť"/>
			<glyph d="M249 662L225 508H357L347 445H214L167 147Q163 122 163 108Q163 54 226 54Q251 54 277 61L282 -2Q244 -14 201 -14Q145 -14 113 14T81 96Q81 113 86 142L133 445H45L54 498L144 508L163 633ZM362 725L427 705L356 545L308 558Z" horiz-adv-x="348" unicode="ť"/>
			<glyph d="M77 708H601L589 636H370L330 382H451L443 326H321L269 0H184L236 326H116L125 382H245L285 636H65Z" horiz-adv-x="533" unicode="Ŧ"/>
			<glyph d="M249 662L225 508H357L347 445H214L196 330H305L295 271H187L167 147Q163 122 163 108Q163 54 226 54Q251 54 277 61L282 -2Q244 -14 201 -14Q145 -14 113 14T81 96Q81 113 86 142L106 271H18L28 330H115L133 445H45L54 498L144 508L163 633Z" horiz-adv-x="348" unicode="ŧ"/>
			<glyph d="M152 708H237L166 260Q161 225 161 202Q161 129 201 92T329 56Q431 56 486 108T557 261L628 708H712L640 254Q619 123 539 53T324 -17Q203 -17 139 38T75 195Q75 219 80 254ZM403 886Q420 886 433 879T464 859Q479 848 487 843T506 839Q523 839 538 849T572 884L611 866Q587 824 559 804T499 784Q482 784 469 790T439 810Q425 820 415 825T395 830Q378 830 363 819T331 786L291 804Q341 886 403 886Z" horiz-adv-x="720" unicode="Ũ"/>
			<glyph d="M119 508H200L151 196Q147 177 147 149Q147 54 241 54Q319 54 371 118T440 279L476 508H557L494 113Q485 55 483 0H409Q406 33 418 94H416Q388 46 337 16T226 -14Q147 -14 105 30T64 143Q64 164 68 187ZM312 693Q329 693 342 686T373 666Q388 655 396 650T415 646Q432 646 447 656T481 691L520 673Q496 631 468 611T408 591Q391 591 378 597T348 617Q334 627 324 632T304 637Q287 637 272 626T240 593L200 611Q250 693 312 693Z" horiz-adv-x="601" unicode="ũ"/>
			<glyph d="M152 708H237L166 260Q161 225 161 202Q161 129 201 92T329 56Q431 56 486 108T557 261L628 708H712L640 254Q619 123 539 53T324 -17Q203 -17 139 38T75 195Q75 219 80 254ZM320 861H592L583 805H311Z" horiz-adv-x="720" unicode="Ū"/>
			<glyph d="M119 508H200L151 196Q147 177 147 149Q147 54 241 54Q319 54 371 118T440 279L476 508H557L494 113Q485 55 483 0H409Q406 33 418 94H416Q388 46 337 16T226 -14Q147 -14 105 30T64 143Q64 164 68 187ZM228 668H500L491 612H219Z" horiz-adv-x="601" unicode="ū"/>
			<glyph d="M152 708H237L166 260Q161 225 161 202Q161 129 201 92T329 56Q431 56 486 108T557 261L628 708H712L640 254Q619 123 539 53T324 -17Q203 -17 139 38T75 195Q75 219 80 254ZM359 900Q363 867 384 849T443 831Q479 831 505 849T548 900L596 894Q579 837 536 805T435 773Q376 773 343 805T310 894Z" horiz-adv-x="720" unicode="Ŭ"/>
			<glyph d="M119 508H200L151 196Q147 177 147 149Q147 54 241 54Q319 54 371 118T440 279L476 508H557L494 113Q485 55 483 0H409Q406 33 418 94H416Q388 46 337 16T226 -14Q147 -14 105 30T64 143Q64 164 68 187ZM274 722Q281 637 359 637Q397 637 423 657T467 722L517 715Q498 648 457 613T356 579Q293 579 259 613T225 712V715Z" horiz-adv-x="601" unicode="ŭ"/>
			<glyph d="M152 708H237L166 260Q161 225 161 202Q161 129 201 92T329 56Q431 56 486 108T557 261L628 708H712L640 254Q619 123 539 53T324 -17Q203 -17 139 38T75 195Q75 219 80 254ZM471 975Q516 975 542 951T569 890Q569 837 534 803T445 769Q400 769 374 793T348 855Q348 908 383 941T471 975ZM468 930Q439 930 421 911T403 860Q403 839 415 827T450 815Q478 815 496 834T514 886Q514 905 502 917T468 930Z" horiz-adv-x="720" unicode="Ů"/>
			<glyph d="M119 508H200L151 196Q147 177 147 149Q147 54 241 54Q319 54 371 118T440 279L476 508H557L494 113Q485 55 483 0H409Q406 33 418 94H416Q388 46 337 16T226 -14Q147 -14 105 30T64 143Q64 164 68 187ZM378 782Q423 782 449 758T476 697Q476 644 441 610T352 576Q307 576 281 600T255 662Q255 715 290 748T378 782ZM375 737Q346 737 328 718T310 667Q310 646 322 634T357 622Q385 622 403 641T421 693Q421 712 409 724T375 737Z" horiz-adv-x="601" unicode="ů"/>
			<glyph d="M152 708H237L166 260Q161 225 161 202Q161 129 201 92T329 56Q431 56 486 108T557 261L628 708H712L640 254Q619 123 539 53T324 -17Q203 -17 139 38T75 195Q75 219 80 254ZM420 951L472 921L346 767L311 788ZM551 944L599 909L468 762L433 786Z" horiz-adv-x="720" unicode="Ű"/>
			<glyph d="M119 508H200L151 196Q147 177 147 149Q147 54 241 54Q319 54 371 118T440 279L476 508H557L494 113Q485 55 483 0H409Q406 33 418 94H416Q388 46 337 16T226 -14Q147 -14 105 30T64 143Q64 164 68 187ZM328 758L380 728L254 574L219 595ZM459 751L507 716L376 569L341 593Z" horiz-adv-x="601" unicode="ű"/>
			<glyph d="M152 708H237L166 260Q161 225 161 202Q161 129 201 92T329 56Q431 56 486 108T557 261L628 708H712L640 254Q624 154 574 89T442 -1Q308 -82 308 -150Q308 -190 354 -190Q382 -190 419 -173L434 -219Q390 -244 338 -244Q297 -244 270 -223T244 -167Q244 -80 358 -16Q347 -17 324 -17Q203 -17 139 38T75 195Q75 219 80 254Z" horiz-adv-x="720" unicode="Ų"/>
			<glyph d="M119 508H200L151 196Q147 177 147 149Q147 54 241 54Q319 54 371 118T440 279L476 508H557L494 113Q485 55 483 0H473Q419 -32 383 -69T348 -143Q348 -183 394 -183Q422 -183 459 -166L474 -212Q430 -237 378 -237Q337 -237 310 -216T284 -160Q284 -110 318 -68T409 3Q406 35 418 94H416Q388 46 337 16T226 -14Q147 -14 105 30T64 143Q64 164 68 187Z" horiz-adv-x="601" unicode="ų"/>
			<glyph d="M86 708H171L238 109H240L502 708H594L669 109H671L930 708H1015L701 0H613L534 602H531L266 0H177ZM555 912H619L728 811L694 776L582 861L443 775L417 814Z" horiz-adv-x="958" unicode="Ŵ"/>
			<glyph d="M55 508H138L175 87H177L370 508H459L520 87H522L692 508H776L555 0H467L404 421H402L207 0H114ZM428 735H493L598 611L564 577L455 682L312 579L281 614Z" horiz-adv-x="752" unicode="ŵ"/>
			<glyph d="M62 708H154L290 374H292L533 708H631L324 304L276 0H191L240 306ZM351 912H415L524 811L490 776L378 861L239 775L213 814Z" horiz-adv-x="550" unicode="Ŷ"/>
			<glyph d="M43 508H128L208 85H209L410 508H497L226 -29Q185 -109 153 -151T81 -217T-23 -258L-40 -195Q7 -181 38 -162T95 -110T150 -19L158 -3ZM282 735H347L452 611L418 577L309 682L166 579L135 614Z" horiz-adv-x="461" unicode="ŷ"/>
			<glyph d="M62 708H154L290 374H292L533 708H631L324 304L276 0H191L240 306ZM285 901Q327 901 327 864Q327 838 313 821T270 804Q228 804 228 842Q228 867 242 884T285 901ZM469 901Q511 901 511 864Q511 838 497 821T454 804Q412 804 412 842Q412 867 426 884T469 901Z" horiz-adv-x="550" unicode="Ÿ"/>
			<glyph d="M120 708H595L584 638L107 71H504L493 0H-5L7 74L483 640H109ZM461 929L489 868L297 775L277 821Z" horiz-adv-x="577" unicode="Ź"/>
			<glyph d="M87 508H434L425 446L101 64H375L365 0H-6L4 66L325 446H77ZM362 751L395 688L212 577L184 624Z" horiz-adv-x="434" unicode="ź"/>
			<glyph d="M120 708H595L584 638L107 71H504L493 0H-5L7 74L483 640H109ZM392 912Q416 912 427 901T439 873Q439 847 424 828T377 810Q353 810 341 820T330 849Q330 875 345 893T392 912Z" horiz-adv-x="577" unicode="Ż"/>
			<glyph d="M87 508H434L425 446L101 64H375L365 0H-6L4 66L325 446H77ZM300 735Q324 735 335 724T347 696Q347 670 332 651T285 633Q261 633 249 643T238 672Q238 698 253 716T300 735Z" horiz-adv-x="434" unicode="ż"/>
			<glyph d="M120 708H595L584 638L107 71H504L493 0H-5L7 74L483 640H109ZM262 919L373 833L512 918L539 880L400 781H336L228 882Z" horiz-adv-x="577" unicode="Ž"/>
			<glyph d="M87 508H434L425 446L101 64H375L365 0H-6L4 66L325 446H77ZM165 741L274 636L417 739L448 704L302 583H236L131 707Z" horiz-adv-x="434" unicode="ž"/>
			<glyph d="M455 722Q510 722 553 706L530 648Q499 657 471 657Q370 657 354 552L347 508H472L462 445H338L266 -8Q253 -87 231 -134T173 -209T77 -258L56 -196Q97 -182 121 -160T160 -103T184 -9L256 445H168L178 508H266L273 554Q300 722 455 722Z" unicode="ƒ"/>
			<glyph d="M355 724Q470 724 559 659L516 603Q477 629 436 642T348 655Q273 655 226 622T180 524Q180 480 213 454T316 408Q405 381 452 338T500 223Q500 149 464 95T366 12T224 -17Q157 -17 99 4T-1 65L44 119Q84 86 129 70T231 55Q313 55 363 97T413 212Q413 264 376 292T262 343Q181 367 139 409T97 516Q97 616 168 670T355 724ZM230 -63Q251 -63 262 -74T274 -108Q274 -112 272 -126Q265 -164 247 -195T190 -268L162 -244Q184 -216 195 -196T211 -153Q174 -147 174 -115Q174 -94 188 -78T230 -63Z" horiz-adv-x="547" unicode="Ș"/>
			<glyph d="M260 522Q355 522 423 470L384 419Q325 459 256 459Q204 459 173 438T143 377Q143 348 167 330T253 293Q381 255 381 157Q381 74 323 30T170 -14Q66 -14 -6 43L34 95Q96 50 176 50Q231 50 263 73T296 147Q296 179 273 199T192 238Q126 258 93 290T61 369Q61 441 116 481T260 522ZM173 -63Q194 -63 205 -74T217 -108Q217 -112 215 -126Q208 -164 190 -195T133 -268L105 -244Q127 -216 138 -196T154 -153Q117 -147 117 -115Q117 -94 131 -78T173 -63Z" horiz-adv-x="442" unicode="ș"/>
			<glyph d="M77 708H601L589 636H370L269 0H184L285 636H65ZM222 -63Q243 -63 254 -74T266 -108Q266 -112 264 -126Q257 -164 239 -195T182 -268L154 -244Q176 -216 187 -196T203 -153Q166 -147 166 -115Q166 -94 180 -78T222 -63Z" horiz-adv-x="534" unicode="Ț"/>
			<glyph d="M249 662L225 508H357L347 445H214L167 147Q163 122 163 108Q163 54 226 54Q251 54 277 61L282 -2Q244 -14 201 -14Q145 -14 113 14T81 96Q81 113 86 142L133 445H45L54 498L144 508L163 633ZM180 -63Q201 -63 212 -74T224 -108Q224 -112 222 -126Q215 -164 197 -195T140 -268L112 -244Q134 -216 145 -196T161 -153Q124 -147 124 -115Q124 -94 138 -78T180 -63Z" horiz-adv-x="348" unicode="ț"/>
			<glyph d="M126 508H207L126 -8Q114 -86 91 -133T32 -209T-63 -258L-84 -196Q-44 -182 -19 -160T19 -103T44 -9Z" horiz-adv-x="253" unicode="ȷ"/>
			<glyph d="M233 735H298L403 611L369 577L260 682L117 579L86 614Z" horiz-adv-x="377" unicode="ˆ"/>
			<glyph d="M136 741L245 636L388 739L419 704L273 583H207L102 707Z" horiz-adv-x="377" unicode="ˇ"/>
			<glyph d="M95 668H367L358 612H86Z" horiz-adv-x="332" unicode="ˉ"/>
			<glyph d="M151 722Q158 637 236 637Q274 637 300 657T344 722L394 715Q375 648 334 613T233 579Q170 579 136 613T102 712V715Z" horiz-adv-x="353" unicode="˘"/>
			<glyph d="M159 735Q183 735 194 724T206 696Q206 670 191 651T144 633Q120 633 108 643T97 672Q97 698 112 716T159 735Z" horiz-adv-x="167" unicode="˙"/>
			<glyph d="M219 782Q264 782 290 758T317 697Q317 644 282 610T193 576Q148 576 122 600T96 662Q96 715 131 748T219 782ZM216 737Q187 737 169 718T151 667Q151 646 163 634T198 622Q226 622 244 641T262 693Q262 712 250 724T216 737Z" horiz-adv-x="279" unicode="˚"/>
			<glyph d="M98 7L154 0Q100 -32 64 -69T29 -143Q29 -183 75 -183Q103 -183 140 -166L155 -212Q111 -237 59 -237Q18 -237 -8 -216T-35 -160Q-35 -108 1 -66T98 7Z" horiz-adv-x="257" unicode="˛"/>
			<glyph d="M198 693Q215 693 228 686T259 666Q274 655 282 650T301 646Q318 646 333 656T367 691L406 673Q382 631 354 611T294 591Q277 591 264 597T234 617Q220 627 210 632T190 637Q173 637 158 626T126 593L86 611Q136 693 198 693Z" horiz-adv-x="370" unicode="˜"/>
			<glyph d="M193 758L245 728L119 574L84 595ZM324 751L372 716L241 569L206 593Z" horiz-adv-x="329" unicode="˝"/>
			<glyph d="M12 821L40 797Q18 769 7 749T-9 706Q28 700 28 668Q28 647 13 631T-28 616Q-49 616 -60 627T-72 661Q-72 665 -70 679Q-63 717 -45 748T12 821Z" horiz-adv-x="0" unicode="̒"/>
			<glyph d="M-131 -63Q-110 -63 -98 -74T-87 -108Q-87 -112 -89 -126Q-96 -164 -114 -195T-171 -268L-199 -244Q-177 -216 -166 -196T-150 -153Q-187 -147 -187 -115Q-187 -94 -172 -78T-131 -63Z" horiz-adv-x="0" unicode="̦"/>
			<glyph d="M355 708H446L613 0H-36ZM390 628L90 67H511Z" horiz-adv-x="659" unicode="Δ"/>
			<glyph d="M465 725Q559 725 626 688T727 585T762 430Q762 313 708 218T559 71H710L699 0H426L437 70L435 72Q510 93 564 146T646 274T674 430Q674 533 619 592T460 652Q367 652 295 602T185 469T147 288Q147 206 184 149T293 71H294L282 0H10L21 71H176Q122 105 91 162T61 295Q61 413 113 511T257 667T465 725Z" horiz-adv-x="788" unicode="Ω"/>
			<glyph d="M125 508H207L160 210Q156 180 156 166Q156 113 181 82T259 52Q328 52 378 105T440 239L483 508H564L501 113Q494 72 490 0H413Q415 53 420 84H418Q385 38 340 12T243 -14Q159 -14 132 52H130L101 -134Q92 -196 74 -244H-1Q13 -198 25 -131Z" horiz-adv-x="608" unicode="μ"/>
			<glyph d="M592 522L594 459Q555 444 500 443L450 129Q444 90 444 59Q444 36 448 0H368Q363 30 363 61Q363 98 369 129L418 443L204 442L134 0H53L123 442H37L47 508H495Q543 508 592 522Z" horiz-adv-x="572" unicode="π"/>
			<glyph d="M86 708H171L238 109H240L502 708H594L669 109H671L930 708H1015L701 0H613L534 602H531L266 0H177ZM513 929L685 818L652 778L471 875Z" horiz-adv-x="958" unicode="Ẁ"/>
			<glyph d="M55 508H138L175 87H177L370 508H459L520 87H522L692 508H776L555 0H467L404 421H402L207 0H114ZM391 751L553 616L516 577L343 698Z" horiz-adv-x="752" unicode="ẁ"/>
			<glyph d="M86 708H171L238 109H240L502 708H594L669 109H671L930 708H1015L701 0H613L534 602H531L266 0H177ZM651 929L679 868L487 775L467 821Z" horiz-adv-x="958" unicode="Ẃ"/>
			<glyph d="M55 508H138L175 87H177L370 508H459L520 87H522L692 508H776L555 0H467L404 421H402L207 0H114ZM513 751L546 688L363 577L335 624Z" horiz-adv-x="752" unicode="ẃ"/>
			<glyph d="M86 708H171L238 109H240L502 708H594L669 109H671L930 708H1015L701 0H613L534 602H531L266 0H177ZM488 901Q530 901 530 864Q530 838 516 821T473 804Q431 804 431 842Q431 867 445 884T488 901ZM672 901Q714 901 714 864Q714 838 700 821T657 804Q615 804 615 842Q615 867 629 884T672 901Z" horiz-adv-x="958" unicode="Ẅ"/>
			<glyph d="M55 508H138L175 87H177L370 508H459L520 87H522L692 508H776L555 0H467L404 421H402L207 0H114ZM356 708Q398 708 398 671Q398 645 384 628T341 611Q299 611 299 649Q299 674 313 691T356 708ZM540 708Q582 708 582 671Q582 645 568 628T525 611Q483 611 483 649Q483 674 497 691T540 708Z" horiz-adv-x="752" unicode="ẅ"/>
			<glyph d="M386 724Q464 724 523 696T633 616L457 423Q643 383 643 232Q643 157 608 100T513 13T375 -17Q283 -17 212 26L249 83Q280 67 310 60T377 53Q460 53 508 102T557 230Q557 291 511 326T365 374L373 429L530 606Q466 655 384 655Q308 655 259 619T198 499L119 0H35L116 504Q133 614 206 669T386 724Z" horiz-adv-x="688" unicode="ẞ"/>
			<glyph d="M62 708H154L290 374H292L533 708H631L324 304L276 0H191L240 306ZM310 929L482 818L449 778L268 875Z" horiz-adv-x="550" unicode="Ỳ"/>
			<glyph d="M43 508H128L208 85H209L410 508H497L226 -29Q185 -109 153 -151T81 -217T-23 -258L-40 -195Q7 -181 38 -162T95 -110T150 -19L158 -3ZM246 751L408 616L371 577L198 698Z" horiz-adv-x="461" unicode="ỳ"/>
			<glyph d="M108 326H500L490 260H98Z" horiz-adv-x="588" unicode="–"/>
			<glyph d="M53 326H546L536 260H43Z" horiz-adv-x="579" unicode="—"/>
			<glyph d="M222 724L250 698Q214 660 199 630T182 565Q206 563 216 551T226 517Q226 499 213 486T177 473Q151 473 137 489T124 535Q124 586 144 628T222 724Z" horiz-adv-x="242" unicode="‘"/>
			<glyph d="M168 726Q194 726 207 710T221 664Q221 613 200 571T123 475L95 501Q131 539 146 569T163 634Q139 636 129 648T119 682Q119 700 132 713T168 726Z" horiz-adv-x="206" unicode="’"/>
			<glyph d="M74 92Q100 92 113 76T127 30Q127 -21 106 -63T29 -159L1 -133Q37 -95 52 -65T69 0Q45 2 35 14T25 48Q25 66 38 79T74 92Z" horiz-adv-x="242" unicode="‚"/>
			<glyph d="M385 724L413 698Q377 660 362 630T345 565Q369 563 379 551T389 517Q389 499 376 486T340 473Q314 473 300 489T287 535Q287 586 307 628T385 724ZM222 724L250 698Q214 660 199 630T182 565Q206 563 216 551T226 517Q226 499 213 486T177 473Q151 473 137 489T124 535Q124 586 144 628T222 724Z" horiz-adv-x="404" unicode="“"/>
			<glyph d="M337 725Q363 725 376 709T390 663Q390 612 369 570T292 474L264 500Q300 538 315 568T332 633Q308 635 298 647T288 681Q288 699 301 712T337 725ZM175 725Q201 725 214 709T228 663Q228 612 207 570T130 474L102 500Q138 538 153 568T170 633Q146 635 136 647T126 681Q126 699 139 712T175 725Z" horiz-adv-x="405" unicode="”"/>
			<glyph d="M74 92Q100 92 113 76T127 30Q127 -21 106 -63T29 -159L1 -133Q37 -95 52 -65T69 0Q45 2 35 14T25 48Q25 66 38 79T74 92ZM237 92Q263 92 276 76T290 30Q290 -21 269 -63T192 -159L164 -133Q200 -95 215 -65T232 0Q208 2 198 14T188 48Q188 66 201 79T237 92Z" horiz-adv-x="405" unicode="„"/>
			<glyph d="M317 708H398L371 538H544L533 472H361L286 0H205L280 472H108L119 538H290Z" horiz-adv-x="572" unicode="†"/>
			<glyph d="M317 708H398L371 538H544L533 472H361L336 317H508L498 251H326L286 0H205L245 251H73L83 317H255L280 472H108L119 538H290Z" horiz-adv-x="572" unicode="‡"/>
			<glyph d="M182 421Q274 421 274 330Q274 241 182 241Q91 241 91 330Q91 421 182 421Z" horiz-adv-x="340" unicode="•"/>
			<glyph d="M375 99Q421 99 421 59Q421 30 406 11T359 -7Q313 -7 313 32Q313 62 328 80T375 99ZM643 99Q689 99 689 59Q689 30 674 11T627 -7Q581 -7 581 32Q581 62 596 80T643 99ZM106 99Q152 99 152 59Q152 30 137 11T90 -7Q44 -7 44 32Q44 62 59 80T106 99Z" horiz-adv-x="797" unicode="…"/>
			<glyph d="M382 722Q440 722 481 699T544 636T566 547Q566 480 534 423T447 332T323 299Q237 299 186 346T136 471Q136 539 167 596T255 688T382 722ZM836 709H915L387 0H308ZM375 655Q327 655 291 630T235 566T216 480Q216 430 244 398T329 366Q376 366 411 389T466 453T486 540Q486 590 458 622T375 655ZM937 412Q995 412 1036 389T1099 326T1121 237Q1121 170 1089 113T1002 22T878 -11Q792 -11 741 36T691 161Q691 229 722 286T810 378T937 412ZM1407 412Q1465 412 1506 389T1569 326T1591 237Q1591 170 1559 113T1472 22T1348 -11Q1262 -11 1211 36T1161 161Q1161 229 1192 286T1280 378T1407 412ZM930 345Q882 345 846 320T790 256T771 170Q771 120 799 88T884 56Q931 56 966 79T1021 143T1041 230Q1041 280 1013 312T930 345ZM1400 345Q1352 345 1316 320T1260 256T1241 170Q1241 120 1269 88T1354 56Q1401 56 1436 79T1491 143T1511 230Q1511 280 1483 312T1400 345Z" horiz-adv-x="1764" unicode="‰"/>
			<glyph d="M252 522L285 488L157 346L240 204L198 175L90 331L95 364Z" horiz-adv-x="327" unicode="‹"/>
			<glyph d="M158 522L266 364L261 331L104 175L71 209L200 351L115 493Z" horiz-adv-x="327" unicode="›"/>
			<glyph d="M346 709H425L-103 0H-182Z" horiz-adv-x="213" unicode="⁄"/>
			<glyph d="M341 721Q436 721 484 667T532 517Q532 484 526 445Q506 320 438 249T262 178Q167 178 118 232T70 382Q70 416 76 453Q96 579 164 650T341 721ZM337 654Q187 654 154 445Q148 409 148 376Q148 245 266 245Q415 245 448 453Q454 491 454 521Q454 654 337 654Z" horiz-adv-x="540" unicode="⁰"/>
			<glyph d="M307 708H393L167 377H347L369 515H445L423 377H501L490 311H413L394 191H318L337 311H67L76 369Z" horiz-adv-x="540" unicode="⁴"/>
			<glyph d="M186 708H511L501 642H250L225 491Q277 516 336 516Q406 516 446 479T487 380Q487 318 457 272T374 202T256 178Q194 178 150 197T69 253L117 298Q147 270 179 257T258 245Q323 245 364 281T406 377Q406 413 380 433T309 453Q274 453 248 447T196 428L142 429Z" horiz-adv-x="540" unicode="⁵"/>
			<glyph d="M375 721Q417 721 447 712T503 686L467 633Q428 658 373 658Q301 658 252 611T182 480Q217 505 255 518T341 531Q411 531 452 494T494 395Q494 333 465 283T384 206T267 178Q177 178 132 227T87 361Q87 387 92 424Q114 561 188 641T375 721ZM322 471Q278 471 242 455T170 411Q165 376 165 353Q165 298 190 270T270 243Q335 243 374 285T414 391Q414 430 390 450T322 471Z" horiz-adv-x="540" unicode="⁶"/>
			<glyph d="M151 708H530L521 644Q305 444 245 191H154Q192 326 258 435T423 643L141 641Z" horiz-adv-x="540" unicode="⁷"/>
			<glyph d="M340 721Q414 721 460 690T507 606Q507 560 478 526T390 462Q442 441 467 413T492 343Q492 291 460 253T376 197T260 178Q172 178 121 215T71 310Q71 368 108 405T214 469Q177 487 158 513T139 569Q139 616 167 650T241 703T340 721ZM337 663Q287 663 252 639T218 574Q218 548 236 529T297 495L328 484Q375 507 402 535T429 601Q429 630 404 646T337 663ZM278 443Q153 403 153 315Q153 279 182 259T265 240Q330 240 371 268T413 344Q413 373 389 392T313 430Z" horiz-adv-x="540" unicode="⁸"/>
			<glyph d="M337 721Q425 721 469 675T514 545Q514 507 509 477Q487 335 387 258T121 181L128 246Q244 246 320 293T420 424Q355 371 263 371Q194 371 151 409T108 512Q108 573 138 620T220 694T337 721ZM332 656Q267 656 227 616T187 516Q187 475 212 453T284 431Q369 431 432 494Q437 531 437 553Q437 606 411 631T332 656Z" horiz-adv-x="540" unicode="⁹"/>
			<glyph d="M296 631H361L343 516H461L451 455H333L315 339H250L268 455H151L161 516H278Z" horiz-adv-x="540" unicode="⁺"/>
			<glyph d="M161 516H461L451 455H151Z" horiz-adv-x="540" unicode="⁻"/>
			<glyph d="M173 592H473L464 531H164ZM149 436H449L439 375H139Z" horiz-adv-x="540" unicode="⁼"/>
			<glyph d="M397 802L441 769Q360 672 318 574T276 364Q276 242 335 126L286 97Q196 235 196 373Q196 492 249 597T397 802Z" horiz-adv-x="529" unicode="⁽"/>
			<glyph d="M306 802Q395 663 395 526Q395 407 342 301T194 97L150 130Q232 228 274 325T316 535Q316 601 300 659T256 773Z" horiz-adv-x="529" unicode="⁾"/>
			<glyph d="M290 400Q385 400 433 346T481 196Q481 163 475 124Q455 -1 387 -72T211 -143Q116 -143 67 -89T19 61Q19 95 25 132Q45 258 113 329T290 400ZM286 333Q136 333 103 124Q97 88 97 55Q97 -76 215 -76Q364 -76 397 132Q403 170 403 200Q403 333 286 333Z" horiz-adv-x="540" unicode="₀"/>
			<glyph d="M288 387H358L286 -64H400L390 -130H54L64 -65H208L267 306L116 238L95 295Z" horiz-adv-x="540" unicode="₁"/>
			<glyph d="M287 399Q365 399 407 360T449 263Q449 204 413 153T321 58T150 -65L414 -64L404 -130H29L38 -68L108 -17Q202 50 252 91T335 175T368 258Q368 293 344 313T276 334Q234 334 200 318T130 272L84 318Q130 359 177 379T287 399Z" horiz-adv-x="540" unicode="₂"/>
			<glyph d="M292 400Q369 400 411 366T453 279Q453 272 451 258Q436 162 337 141L333 140Q374 136 403 110T432 37Q432 31 430 13Q418 -57 359 -100T204 -143Q139 -143 96 -124T21 -68L69 -25Q98 -53 129 -65T208 -77Q271 -77 311 -45T352 42Q352 107 259 107H171L181 170H253Q302 170 333 191T372 256Q374 268 374 273Q374 335 281 335Q240 335 205 323T135 286L99 334Q144 368 190 384T292 400Z" horiz-adv-x="540" unicode="₃"/>
			<glyph d="M256 387H342L116 56H296L318 194H394L372 56H450L439 -10H362L343 -130H267L286 -10H16L25 48Z" horiz-adv-x="540" unicode="₄"/>
			<glyph d="M135 387H460L450 321H199L174 170Q226 195 285 195Q355 195 395 158T436 59Q436 -3 406 -49T323 -119T205 -143Q143 -143 99 -124T18 -68L66 -23Q96 -51 128 -63T207 -76Q272 -76 313 -39T355 56Q355 92 329 112T258 132Q223 132 197 126T145 107L91 108Z" horiz-adv-x="540" unicode="₅"/>
			<glyph d="M324 400Q366 400 396 391T452 365L416 312Q377 337 322 337Q250 337 201 290T131 159Q166 184 204 197T290 210Q360 210 401 173T443 74Q443 12 414 -37T333 -115T216 -143Q126 -143 81 -94T36 40Q36 66 41 103Q63 240 137 320T324 400ZM271 150Q227 150 191 134T119 90Q114 55 114 32Q114 -23 139 -50T219 -78Q284 -78 323 -35T363 70Q363 109 339 129T271 150Z" horiz-adv-x="540" unicode="₆"/>
			<glyph d="M100 387H479L470 323Q254 123 194 -130H103Q141 5 207 114T372 322L90 320Z" horiz-adv-x="540" unicode="₇"/>
			<glyph d="M289 400Q363 400 409 369T456 285Q456 239 427 205T339 141Q391 120 416 92T441 22Q441 -30 409 -67T325 -124T209 -143Q121 -143 70 -105T20 -11Q20 47 57 84T163 148Q126 166 107 192T88 248Q88 295 116 329T190 382T289 400ZM286 342Q236 342 201 318T167 253Q167 227 185 208T246 174L277 163Q324 186 351 214T378 280Q378 309 353 325T286 342ZM227 122Q102 82 102 -6Q102 -42 131 -61T214 -81Q279 -81 320 -52T362 23Q362 52 338 71T262 109Z" horiz-adv-x="540" unicode="₈"/>
			<glyph d="M287 400Q375 400 419 354T464 224Q464 186 459 156Q437 14 337 -63T71 -140L78 -75Q194 -75 270 -28T370 103Q305 50 213 50Q144 50 101 88T58 191Q58 252 88 299T170 373T287 400ZM282 335Q217 335 177 295T137 195Q137 154 162 132T234 110Q319 110 382 173Q387 210 387 232Q387 285 361 310T282 335Z" horiz-adv-x="540" unicode="₉"/>
			<glyph d="M242 290H307L289 175H407L397 114H279L261 -2H196L214 114H97L107 175H224Z" horiz-adv-x="540" unicode="₊"/>
			<glyph d="M107 175H407L397 114H97Z" horiz-adv-x="540" unicode="₋"/>
			<glyph d="M119 251H419L410 190H110ZM95 95H395L385 34H85Z" horiz-adv-x="540" unicode="₌"/>
			<glyph d="M346 481L390 448Q309 351 267 253T225 43Q225 -79 284 -195L235 -224Q145 -86 145 52Q145 171 198 276T346 481Z" horiz-adv-x="529" unicode="₍"/>
			<glyph d="M255 481Q344 342 344 205Q344 86 291 -19T143 -224L99 -191Q181 -93 223 4T265 214Q265 280 249 338T205 452Z" horiz-adv-x="529" unicode="₎"/>
			<glyph d="M454 727Q518 727 569 704T655 643L606 593Q545 654 451 654Q365 654 303 600T208 456H516L507 395H190Q182 359 179 326H455L446 266H175V259Q175 163 217 111T349 59Q400 59 448 81T534 137L574 80Q528 36 468 10T342 -16Q221 -16 157 56T94 259V266H5L14 326H97Q103 374 108 395H28L37 456H124Q164 579 249 653T454 727Z" unicode="€"/>
			<glyph d="M130 708H623L614 650H433Q485 619 500 562H600L591 504H505Q501 415 447 355T306 272L444 0H355L227 260H60L70 325H227Q317 325 366 374T420 504H98L107 562H414Q402 604 366 625T279 647H155Z" unicode="₹"/>
			<glyph d="M223 708H307L272 492L438 564L443 500L261 421L251 360L416 432L421 369L240 290L205 73Q301 73 359 93T447 153T486 252H563Q543 124 457 62T197 0H111L151 251L18 193L13 256L162 321L171 382L40 325L35 388L183 452Z" unicode="₺"/>
			<glyph d="M179 708H387Q483 708 543 664T603 532Q603 457 569 402T473 318T332 289H196L183 210H420L411 150H174L150 0H67L91 150H30L40 210H100L113 289H53L63 350H122ZM252 641L206 350H331Q415 350 466 400T518 531Q518 588 479 614T377 641Z" unicode="₽"/>
			<glyph d="M314 724Q367 724 397 696T427 622Q427 534 361 450T186 285L163 140Q160 125 160 109Q160 79 175 65T221 52Q246 52 274 60L280 1Q241 -14 203 -14Q144 -14 111 15T78 100Q78 118 81 135L96 230L34 186L17 227Q77 267 105 287L150 569Q162 646 207 685T314 724ZM316 676Q284 676 262 651T232 578L197 358Q276 424 319 489T363 623Q363 650 350 663T316 676Z" horiz-adv-x="414" unicode="ℓ"/>
			<glyph d="M469 725Q589 725 674 677T804 545T848 354Q848 247 804 163T674 31T469 -17Q350 -17 264 31T134 163T90 354Q90 461 134 545T264 677T469 725ZM469 670Q364 670 292 629T186 517T152 354Q152 262 186 191T292 79T469 38Q574 38 645 79T751 191T786 354Q786 446 751 517T645 629T469 670ZM332 563H486Q561 563 605 529T650 425Q650 357 604 320T487 283H395V148H332ZM395 511V336H486Q532 336 558 357T585 425Q585 471 557 491T485 511Z" horiz-adv-x="939" unicode="℗"/>
			<glyph d="M218 718Q262 718 303 706T376 671L343 619Q288 656 222 656Q177 656 155 641T133 601Q133 582 142 570T175 549T246 530Q317 515 349 484T381 406Q381 342 332 306T203 271Q152 271 111 283T34 321L66 373Q98 353 128 343T197 334Q244 334 272 350T300 396Q300 418 291 430T260 450T193 470Q119 487 87 517T56 596Q56 653 98 685T218 718ZM449 708H563L687 381H689L813 708H928V283H852L854 623H853L717 283H655L521 623H520L522 283H449Z" horiz-adv-x="992" unicode="℠"/>
			<glyph d="M76 708H266V669H194V492H147V669H76ZM290 708H361L424 551H426L489 708H558V492H510L512 659H510L441 492H404L335 659H334L335 492H290Z" horiz-adv-x="573" unicode="™"/>
			<glyph d="M465 725Q559 725 626 688T727 585T762 430Q762 313 708 218T559 71H710L699 0H426L437 70L435 72Q510 93 564 146T646 274T674 430Q674 533 619 592T460 652Q367 652 295 602T185 469T147 288Q147 206 184 149T293 71H294L282 0H10L21 71H176Q122 105 91 162T61 295Q61 413 113 511T257 667T465 725Z" horiz-adv-x="788" unicode="Ω"/>
			<glyph d="M450 683Q588 683 673 631T795 500T832 330H215Q210 330 210 325V149Q210 129 217 121Q255 73 314 47T449 22Q525 22 584 50T698 130H765Q706 60 636 28T452 -3Q335 -3 248 42T115 164T70 332Q70 423 116 504T249 634T450 683ZM447 659Q387 659 327 635T219 562Q210 553 210 536V355Q210 350 215 350H687Q692 350 692 355V535Q692 548 682 560Q639 614 574 636T447 659Z" horiz-adv-x="902" unicode="℮"/>
			<glyph d="M265 725Q360 725 431 685T542 572T582 400Q582 357 575 316Q550 163 474 74T269 -14Q160 -14 100 42T40 193Q40 278 75 346T173 453T318 492Q382 492 425 469T500 400L501 409Q501 527 435 595T251 662ZM326 427Q262 427 216 395T147 310T124 191Q124 125 160 90T269 55Q447 55 491 327Q461 376 422 401T326 427Z" unicode="∂"/>
			<glyph d="M355 708H446L613 0H-36ZM390 628L90 67H511Z" horiz-adv-x="659" unicode="∆"/>
			<glyph d="M33 708H652V642H558V-120H478V642H208V-120H128V642H33Z" horiz-adv-x="686" unicode="∏"/>
			<glyph d="M62 708H547V640H160L373 316V287L141 -50L559 -49V-120H52V-48L287 300L62 638Z" unicode="∑"/>
			<glyph d="M108 326H500L490 260H98Z" horiz-adv-x="588" unicode="−"/>
			<glyph d="M346 709H425L-103 0H-182Z" horiz-adv-x="213" unicode="∕"/>
			<glyph d="M320 390Q366 390 366 350Q366 321 351 302T304 284Q258 284 258 323Q258 353 273 371T320 390Z" horiz-adv-x="600" unicode="∙"/>
			<glyph d="M490 708H570L356 -120H252L118 236H40V304H178L302 -33Z" unicode="√"/>
			<glyph d="M289 516Q353 516 394 484T464 383Q512 454 561 485T682 516Q760 516 801 471T843 356Q843 290 817 236T742 151T631 120Q566 120 522 151T452 250Q406 183 355 151T238 120Q160 120 118 164T76 281Q76 346 102 399T178 484T289 516ZM294 454Q249 454 216 430T167 366T151 281Q151 233 177 207T248 182Q303 182 342 216T428 325Q407 387 378 420T294 454ZM671 454Q613 454 575 421T489 309Q511 247 539 214T624 182Q692 182 730 232T769 354Q769 404 742 429T671 454Z" horiz-adv-x="900" unicode="∞"/>
			<glyph d="M481 725Q511 725 538 716L517 656Q505 660 491 660Q447 660 424 634T394 557L292 -93Q278 -176 237 -217T123 -258Q89 -258 66 -249L86 -190Q100 -193 116 -193Q158 -193 180 -167T211 -90L313 560Q326 642 367 683T481 725Z" unicode="∫"/>
			<glyph d="M245 426Q272 426 292 417T337 394Q357 382 372 375T404 369Q427 369 450 382T504 426L540 398Q479 314 401 314Q375 314 354 322T310 346Q290 359 275 365T243 371Q219 371 197 358T143 314L107 342Q167 426 245 426ZM218 256Q245 256 265 247T310 224Q330 212 345 205T377 199Q400 199 423 212T477 256L513 228Q452 144 374 144Q348 144 327 152T283 176Q263 189 248 195T216 201Q192 201 170 188T116 144L80 172Q140 256 218 256Z" unicode="≈"/>
			<glyph d="M495 569L545 539L451 420H526L516 354H398L292 220H494L484 154H240L115 -3L65 27L166 154H93L103 220H218L324 354H125L135 420H377Z" unicode="≠"/>
			<glyph d="M516 609L543 553L201 363L482 173L442 124L120 335L129 396ZM76 65H476L466 0H66Z" unicode="≤"/>
			<glyph d="M204 609L526 398L517 337L130 124L103 179L445 369L164 559ZM74 65H474L464 0H64Z" unicode="≥"/>
			<glyph d="M265 708H345L551 354L345 0H265L60 354ZM304 647L139 354L304 61L472 354Z" unicode="◊"/>
			<glyph d="M377 722Q462 722 544 683Q591 722 665 722Q720 722 763 706L740 648Q707 657 681 657Q579 657 563 552L556 508H681L671 445H547L475 -8Q462 -87 440 -134T382 -209T287 -258L265 -196Q306 -182 330 -160T369 -103T394 -9L466 445H225L153 -8Q140 -87 118 -134T60 -209T-35 -258L-57 -196Q-16 -182 8 -160T47 -103T72 -9L144 445H54L63 497L154 508L161 554Q174 633 229 677T377 722ZM375 657Q258 657 242 552L235 508H475L482 554Q490 601 505 631Q443 657 375 657Z" horiz-adv-x="648" unicode="ﬀ"/>
			<glyph d="M387 722Q461 722 537 687L509 628Q444 659 378 657Q312 656 280 628T242 552L235 508H533L452 0H371L442 445H225L153 -8Q140 -87 118 -134T60 -209T-35 -258L-57 -196Q-16 -182 8 -160T47 -103T72 -9L144 445H54L63 497L154 508L161 554Q174 634 230 678T387 722Z" horiz-adv-x="578" unicode="ﬁ"/>
			<glyph d="M396 722Q484 722 560 683L452 0H371L473 648Q428 658 381 657Q316 657 283 630T242 552L235 508H363L352 445H225L153 -8Q140 -87 118 -134T60 -209T-35 -258L-57 -196Q-16 -182 8 -160T47 -103T72 -9L144 445H54L63 497L154 508L161 554Q174 634 232 678T396 722Z" horiz-adv-x="577" unicode="ﬂ"/>
			<glyph d="M377 722Q426 722 468 711T551 680Q609 722 705 722Q779 722 855 687L827 628Q762 659 696 657Q630 656 598 628T560 552L553 508H851L770 0H689L760 445H543L471 -8Q458 -87 436 -134T378 -209T283 -258L261 -196Q302 -182 326 -160T365 -103T390 -9L462 445H225L153 -8Q140 -87 118 -134T60 -209T-35 -258L-57 -196Q-16 -182 8 -160T47 -103T72 -9L144 445H54L63 497L154 508L161 554Q174 633 229 677T377 722ZM375 657Q258 657 242 552L235 508H472L479 554Q486 596 506 631Q443 657 375 657Z" horiz-adv-x="897" unicode="ﬃ"/>
			<glyph d="M377 722Q427 722 468 711T551 680Q610 722 713 722Q801 722 877 683L769 0H688L790 648Q745 658 698 657Q633 657 600 630T559 552L552 508H680L669 445H542L470 -8Q457 -87 435 -134T377 -209T282 -258L260 -196Q301 -182 325 -160T364 -103T389 -9L461 445H225L153 -8Q140 -87 118 -134T60 -209T-35 -258L-57 -196Q-16 -182 8 -160T47 -103T72 -9L144 445H54L63 497L154 508L161 554Q174 633 229 677T377 722ZM375 657Q258 657 242 552L235 508H471L478 554Q486 599 506 631Q443 657 375 657Z" horiz-adv-x="894" unicode="ﬄ"/>
		</font>
</defs>
</svg>
