<?xml version="1.0" standalone="no"?>
<!DOCTYPE svg PUBLIC "-//W3C//DTD SVG 1.1//EN" "http://www.w3.org/Graphics/SVG/1.1/DTD/svg11.dtd" >
<svg xmlns="http://www.w3.org/2000/svg">
<metadata>Generated by IcoMoon</metadata>
<defs>
<font id="BBSKY" horiz-adv-x="1024">
<font-face units-per-em="1024" ascent="960" descent="-64" />
<missing-glyph horiz-adv-x="1024" />
<glyph unicode="&#x20;" d="" horiz-adv-x="512" />
<glyph unicode="&#xe600;" d="M512 911.726c-258.926 0-468.114-209.189-468.114-468.114s209.189-468.114 468.114-468.114c258.926 0 468.114 209.189 468.114 468.114s-209.189 468.114-468.114 468.114zM512 47.177c-219.429 0-396.434 177.006-396.434 396.434s177.006 396.434 396.434 396.434c219.429 0 396.434-177.006 396.434-396.434s-177.006-396.434-396.434-396.434zM732.891 502.126h-156.526v160.914c0 32.183-26.331 58.514-58.514 58.514s-58.514-26.331-58.514-58.514v-160.914h-168.229c-32.183 0-58.514-26.331-58.514-58.514s26.331-58.514 58.514-58.514h166.766v-160.914c0-32.183 26.331-58.514 58.514-58.514s58.514 26.331 58.514 58.514v160.914h156.526c32.183 0 58.514 26.331 58.514 58.514 1.463 32.183-24.869 58.514-57.051 58.514z" />
<glyph unicode="&#xe601;" d="M172.617 777.143c-182.857-182.857-182.857-478.354 0-661.211s479.817-182.857 662.674 0c182.857 182.857 182.857 479.817 0 662.674-182.857 181.394-479.817 181.394-662.674-1.463zM724.114 506.514c32.183 0 58.514-26.331 58.514-58.514s-26.331-58.514-58.514-58.514h-156.526v-160.914c0-32.183-26.331-58.514-58.514-58.514s-58.514 26.331-58.514 58.514v160.914h-166.766c-32.183 0-58.514 26.331-58.514 58.514s26.331 58.514 58.514 58.514h166.766v160.914c0 32.183 26.331 58.514 58.514 58.514s58.514-26.331 58.514-58.514v-160.914h156.526z" />
<glyph unicode="&#xe602;" d="M732.891 521.143h-156.526v160.914c0 32.183-26.331 58.514-58.514 58.514s-58.514-26.331-58.514-58.514v-160.914h-168.229c-32.183 0-58.514-26.331-58.514-58.514s26.331-58.514 58.514-58.514h166.766v-160.914c0-32.183 26.331-58.514 58.514-58.514s58.514 26.331 58.514 58.514v160.914h156.526c32.183 0 58.514 26.331 58.514 58.514 1.463 32.183-24.869 58.514-57.051 58.514z" />
<glyph unicode="&#xe603;" d="M507.611 916.114c-258.926 0-468.114-209.189-468.114-468.114s209.189-468.114 468.114-468.114c258.926 0 468.114 209.189 468.114 468.114s-209.189 468.114-468.114 468.114zM706.56 333.897c23.406-23.406 23.406-59.977 0-83.383s-59.977-23.406-83.383 0l-111.177 109.714-114.103-114.103c-23.406-23.406-59.977-23.406-83.383 0s-23.406 59.977 0 83.383l114.103 114.103-118.491 118.491c-23.406 23.406-23.406 59.977 0 83.383s59.977 23.406 83.383 0l118.491-118.491 114.103 114.103c23.406 23.406 59.977 23.406 83.383 0s23.406-59.977 0-83.383l-114.103-114.103 111.177-109.714z" />
<glyph unicode="&#xe604;" d="M626.103 660.114l-109.714-109.714-114.103 114.103c-23.406 23.406-59.977 23.406-83.383 0s-23.406-59.977 0-83.383l114.103-114.103-118.491-118.491c-23.406-23.406-23.406-59.977 0-83.383s59.977-23.406 83.383 0l118.491 118.491 114.103-114.103c23.406-23.406 59.977-23.406 83.383 0s23.406 59.977 0 83.383l-114.103 114.103 111.177 111.177c23.406 23.406 23.406 59.977 0 83.383-24.869 21.943-61.44 21.943-84.846-1.463z" />
<glyph unicode="&#xe605;" d="M977.189 529.92c-30.72 194.56-187.246 351.086-381.806 383.269-320.366 52.663-593.92-220.891-541.257-541.257 32.183-194.56 188.709-351.086 381.806-381.806 321.829-52.663 593.92 219.429 541.257 539.794zM905.509 373.394c-29.257-156.526-155.063-282.331-311.589-311.589-279.406-52.663-520.777 187.246-466.651 466.651 29.257 156.526 155.063 282.331 311.589 311.589 279.406 52.663 519.314-187.246 466.651-466.651zM770.926 657.189c-14.629 14.629-32.183 10.24-49.737-7.314l-295.497-264.777-122.88 100.937c-10.24 10.24-24.869 10.24-39.497-4.389-7.314-7.314-16.091-20.48-21.943-33.646-8.777-19.017-4.389-40.96 10.24-55.589l157.989-140.434c8.777-8.777 33.646-17.554 48.274-4.389l324.754 320.366c19.017 19.017 20.48 49.737 4.389 70.217-4.389 7.314-10.24 14.629-16.091 19.017z" />
<glyph unicode="&#xe606;" d="M939.154 793.234c-23.406 23.406-54.126 17.554-83.383-11.703l-491.52-440.32-204.8 168.229c-16.091 14.629-40.96 16.091-64.366-8.777-11.703-11.703-26.331-33.646-36.571-57.051-14.629-32.183-7.314-68.754 16.091-93.623l264.777-235.52c16.091-14.629 57.051-30.72 80.457-7.314l541.257 535.406c32.183 32.183 35.109 81.92 7.314 117.029-10.24 14.629-20.48 26.331-29.257 33.646z" />
<glyph unicode="&#xe607;" d="M804.571 409.966l-292.571 506.149-292.571-506.149 248.686 215.040v-645.12h87.771v645.12l248.686-215.040zM512 663.040v0 0 0z" />
<glyph unicode="&#xe608;" d="M691.931 213.943l150.674 564.663-564.663-150.674 327.68-23.406-454.949-456.411 61.44-61.44 456.411 456.411 23.406-329.143zM664.137 600.137v0 0 0z" />
<glyph unicode="&#xe609;" d="M980.114 448c0 258.926-209.189 468.114-468.114 468.114s-468.114-209.189-468.114-468.114 209.189-468.114 468.114-468.114 468.114 209.189 468.114 468.114zM719.726 448h-105.326v-277.943h-204.8v277.943h-105.326l103.863 163.84 103.863 165.303 103.863-163.84 103.863-165.303z" />
<glyph unicode="&#xe60a;" d="M719.726 430.446c-103.863 127.269-236.983 212.114-383.269 247.223v119.954l-153.6-111.177-152.137-111.177 153.6-111.177 152.137-111.177v119.954c146.286 32.183 294.034-2.926 418.377-95.086l20.48-16.091-55.589 68.754zM380.343 725.943c14.629-14.629 29.257-29.257 43.886-43.886h526.629v-526.629h-702.171v185.783l-43.886 30.72v-260.389h789.943v614.4h-614.4z" />
<glyph unicode="&#xe60b;" d="M893.806 118.857l-286.72 343.771c33.646 46.811 52.663 103.863 52.663 165.303 0 157.989-127.269 285.257-285.257 285.257s-285.257-127.269-285.257-285.257 127.269-285.257 285.257-285.257c29.257 0 58.514 4.389 84.846 13.166l286.72-345.234c32.183-38.034 90.697-45.349 131.657-14.629 40.96 29.257 48.274 84.846 16.091 122.88zM181.394 627.931c0 106.789 86.309 193.097 193.097 193.097s193.097-86.309 193.097-193.097-86.309-193.097-193.097-193.097-193.097 86.309-193.097 193.097z" />
<glyph unicode="&#xe60c;" d="M39.497-14.263l43.886 140.434 43.886 141.897 93.623-102.4 93.623-100.937-137.509-39.497zM857.234 597.211l-485.669-485.669-188.709 206.263 485.669 485.669zM975.726 715.703l-65.829-65.829-188.709 206.263 65.829 65.829z" />
<glyph unicode="&#xe60d;" d="M751.909 916.114h-678.766v-936.229h866.011v775.314l-187.246 160.914zM748.983 879.543v-272.091c0-16.091-13.166-29.257-29.257-29.257h-427.154c-16.091 0-29.257 13.166-29.257 29.257v272.091h485.669zM263.314 16.457v305.737c0 16.091 13.166 30.72 30.72 30.72h425.691c16.091 0 30.72-13.166 30.72-30.72v-305.737h-487.131zM532.48 842.971h119.954v-210.651h-119.954v210.651z" />
<glyph unicode="&#xe60e;" d="M861.623 655.726h-70.217c0 119.954-103.863 216.503-229.669 216.503h-324.754c-8.777 0-17.554-7.314-17.554-17.554v-197.486h-68.754c-61.44 0-112.64-49.737-112.64-112.64v-349.623h181.394v-92.16c0-10.24 8.777-17.554 17.554-17.554h535.406c10.24 0 17.554 8.777 17.554 17.554v92.16h181.394v349.623c2.926 61.44-48.274 111.177-109.714 111.177zM244.297 850.286h241.371c27.794 0 108.251-39.497 109.714-133.12 1.463-10.24 96.549 26.331 171.154-95.086v-54.126h-522.24v282.331zM768 193.463v-86.309h-523.703v133.12h523.703v-46.811z" />
<glyph unicode="&#xe60f;" d="M789.943 518.217h-389.12l-244.297-416.914h593.92l244.297 416.914zM362.789 586.971h427.154v93.623h-384.731v118.491h-256l-90.697-84.846v-612.937l283.794 452.023z" />
<glyph unicode="&#xe610;" d="M779.703 424.594c-20.48 35.109-52.663 92.16-73.143 127.269l-160.914 279.406c-20.48 35.109-52.663 35.109-73.143 0l-160.914-280.869c-20.48-35.109-52.663-92.16-73.143-127.269l-160.914-279.406c-20.48-33.646-4.389-61.44 36.571-61.44h321.829c40.96 0 106.789 0 146.286 0h321.829c40.96 0 57.051 27.794 36.571 62.903l-160.914 279.406zM239.909 152.503c-40.96 0-57.051 29.257-36.571 62.903l98.011 174.080c20.48 35.109 52.663 92.16 71.68 127.269l98.011 174.080c20.48 35.109 52.663 35.109 71.68 0l100.937-174.080c20.48-35.109 52.663-92.16 71.68-127.269l98.011-174.080c20.48-35.109 2.926-62.903-36.571-62.903h-194.56c-40.96 0-106.789 0-146.286 0h-196.023zM547.109 367.543c0-20.48-17.554-38.034-38.034-38.034v0c-20.48 0-38.034 17.554-38.034 38.034v197.486c0 20.48 17.554 38.034 38.034 38.034v0c20.48 0 38.034-17.554 38.034-38.034v-197.486zM544.183 253.44c0-19.39-15.719-35.109-35.109-35.109s-35.109 15.719-35.109 35.109c0 19.39 15.719 35.109 35.109 35.109s35.109-15.719 35.109-35.109z" />
<glyph unicode="&#xe611;" d="M879.177 440.686c0 2.926 0 7.314 0 10.24 0 4.389 0 7.314 0 10.24l81.92 55.589 20.48 14.629-5.851 24.869c-5.851 27.794-14.629 54.126-26.331 78.994l-10.24 23.406-24.869-1.463-99.474-2.926c-4.389 5.851-8.777 11.703-13.166 17.554l33.646 92.16 8.777 23.406-19.017 16.091c-21.943 19.017-43.886 35.109-67.291 48.274l-21.943 13.166-20.48-16.091-78.994-59.977c-7.314 2.926-13.166 4.389-20.48 5.851l-27.794 93.623-7.314 24.869-24.869 2.926c-14.629 1.463-29.257 1.463-42.423 1.463s-26.331-1.463-42.423-1.463l-24.869-2.926-7.314-23.406-27.794-93.623c-7.314-1.463-13.166-4.389-20.48-5.851l-78.994 59.977-20.48 16.091-21.943-13.166c-23.406-14.629-46.811-30.72-67.291-48.274l-19.017-16.091 8.777-23.406 33.646-92.16c-4.389-5.851-8.777-11.703-13.166-17.554l-99.474 2.926-24.869-1.463-10.24-23.406c-10.24-24.869-19.017-52.663-26.331-78.994l-5.851-24.869 20.48-14.629 81.92-55.589v-20.48l-81.92-55.589-20.48-14.629 5.851-23.406c5.851-27.794 14.629-54.126 26.331-78.994l10.24-21.943 24.869 1.463 99.474 2.926c4.389-5.851 8.777-11.703 13.166-17.554l-33.646-92.16-8.777-23.406 19.017-16.091c21.943-19.017 43.886-35.109 67.291-48.274l21.943-13.166 20.48 16.091 78.994 59.977c7.314-2.926 13.166-4.389 20.48-7.314l27.794-93.623 7.314-23.406 24.869-2.926c14.629-1.463 29.257-1.463 42.423-1.463s27.794 0 42.423 1.463l24.869 2.926 7.314 23.406 27.794 93.623c7.314 2.926 13.166 4.389 20.48 7.314l78.994-59.977 20.48-16.091 21.943 13.166c23.406 14.629 46.811 30.72 67.291 48.274l19.017 16.091-8.777 23.406-33.646 92.16c4.389 5.851 8.777 11.703 13.166 17.554l99.474-2.926 24.869-1.463 10.24 23.406c10.24 24.869 20.48 51.2 26.331 78.994l5.851 24.869-20.48 14.629-81.92 54.126zM915.749 281.234l-119.954 2.926c-10.24-16.091-21.943-32.183-35.109-46.811l40.96-112.64c-19.017-16.091-40.96-32.183-62.903-45.349l-95.086 73.143c-17.554-7.314-36.571-13.166-57.051-17.554l-33.646-114.103c-13.166-1.463-26.331-1.463-39.497-1.463s-26.331 1.463-38.034 1.463l-33.646 114.103c-19.017 4.389-38.034 10.24-57.051 17.554l-95.086-73.143c-21.943 13.166-43.886 27.794-62.903 45.349l40.96 112.64c-13.166 14.629-24.869 30.72-35.109 46.811l-119.954-2.926c-10.24 23.406-17.554 48.274-23.406 73.143l99.474 67.291c-1.463 10.24-1.463 19.017-1.463 29.257s0 20.48 1.463 29.257l-100.937 67.291c5.851 24.869 13.166 49.737 23.406 73.143l119.954-2.926c10.24 17.554 21.943 32.183 35.109 46.811l-40.96 112.64c19.017 16.091 40.96 32.183 62.903 45.349l95.086-73.143c19.017 7.314 36.571 13.166 57.051 17.554l33.646 114.103c13.166 1.463 24.869 1.463 38.034 1.463s26.331-1.463 39.497-1.463l33.646-114.103c19.017-4.389 38.034-10.24 57.051-17.554l95.086 73.143c21.943-13.166 42.423-27.794 62.903-45.349l-39.497-114.103c13.166-14.629 24.869-30.72 35.109-46.811l119.954 2.926c10.24-23.406 19.017-46.811 23.406-73.143l-99.474-67.291c1.463-10.24 1.463-19.017 1.463-29.257s-1.463-19.017-1.463-29.257l99.474-67.291c-4.389-23.406-13.166-48.274-23.406-71.68zM513.463 641.097c-106.789 0-193.097-84.846-193.097-191.634 0-105.326 86.309-190.171 193.097-190.171s193.097 84.846 193.097 190.171c1.463 106.789-86.309 191.634-193.097 191.634zM513.463 295.863c-86.309 0-156.526 68.754-156.526 153.6s70.217 155.063 156.526 155.063 156.526-68.754 156.526-153.6-70.217-155.063-156.526-155.063z" />
<glyph unicode="&#xe612;" d="M858.697 450.926c0 10.24-1.463 21.943-1.463 32.183l109.714 73.143c-5.851 27.794-14.629 54.126-26.331 78.994l-131.657-2.926c-11.703 19.017-24.869 35.109-38.034 51.2l43.886 121.417c-21.943 17.554-43.886 35.109-68.754 48.274l-105.326-78.994c-19.017 8.777-40.96 14.629-61.44 19.017l-39.497 122.88c-13.166 1.463-27.794 2.926-42.423 2.926s-27.794-1.463-42.423-1.463l-38.034-122.88c-21.943-4.389-42.423-11.703-61.44-19.017l-105.326 78.994c-24.869-14.629-48.274-30.72-68.754-48.274l43.886-121.417c-14.629-16.091-27.794-33.646-38.034-51.2l-133.12 2.926c-10.24-27.794-19.017-54.126-24.869-81.92l109.714-73.143c-1.463-10.24-1.463-20.48-1.463-32.183 0-10.24 0-20.48 1.463-32.183l-109.714-71.68c5.851-27.794 14.629-54.126 26.331-78.994l133.12 2.926c11.703-17.554 23.406-35.109 38.034-51.2l-43.886-121.417c21.943-17.554 43.886-35.109 68.754-48.274l105.326 78.994c20.48-8.777 40.96-14.629 61.44-19.017l38.034-122.88c14.629-1.463 27.794-1.463 42.423-1.463s29.257 1.463 42.423 1.463l38.034 122.88c21.943 4.389 42.423 11.703 61.44 19.017l105.326-78.994c24.869 14.629 46.811 30.72 68.754 48.274l-43.886 121.417c14.629 16.091 27.794 33.646 38.034 51.2l131.657-2.926c11.703 24.869 20.48 52.663 26.331 78.994l-109.714 73.143c0 10.24 1.463 20.48 1.463 32.183zM497.371 243.2c-117.029 0-213.577 92.16-213.577 207.726 0 114.103 96.549 206.263 213.577 206.263s213.577-92.16 213.577-207.726c0-114.103-96.549-206.263-213.577-206.263z" />
<glyph unicode="&#xe613;" d="M40.96 904.411v-936.229h936.229v936.229h-936.229zM479.817-2.56h-409.6v803.109h409.6v-803.109zM947.931-2.56h-409.6v803.109h409.6v-803.109z" />
<glyph unicode="&#xe614;" d="M497.371 913.189c-242.834 0-440.32-54.126-440.32-121.417 0-14.629 10.24-29.257 27.794-42.423l349.623-538.331v-174.080c0-33.646 26.331-59.977 59.977-59.977h1.463c33.646 0 59.977 26.331 59.977 59.977v165.303l355.474 547.109c17.554 13.166 27.794 27.794 27.794 42.423-1.463 67.291-198.949 121.417-441.783 121.417zM497.371 863.451c215.040 0 356.937-43.886 387.657-71.68-30.72-27.794-171.154-71.68-387.657-71.68s-356.937 43.886-387.657 71.68c30.72 27.794 171.154 71.68 387.657 71.68z" />
<glyph unicode="&#xe615;" d="M769.463 813.714h-29.257v74.606c0 16.091-19.017 27.794-42.423 27.794s-42.423-13.166-42.423-27.794v-74.606h-100.937v74.606c0 14.629-19.017 27.794-42.423 27.794s-42.423-13.166-42.423-27.794v-74.606h-100.937v74.606c0 16.091-19.017 27.794-42.423 27.794s-42.423-13.166-42.423-27.794v-74.606h-29.257c-59.977 0-108.251-48.274-108.251-106.789v-620.251c0-58.514 48.274-106.789 108.251-106.789h513.463c59.977 0 108.251 48.274 108.251 106.789v620.251c1.463 58.514-46.811 106.789-106.789 106.789zM822.126 86.674c0-27.794-23.406-51.2-52.663-51.2h-514.926c-29.257 0-52.663 23.406-52.663 51.2v620.251c0 27.794 23.406 51.2 52.663 51.2h29.257v-51.2c0-16.091 19.017-27.794 42.423-27.794s42.423 13.166 42.423 27.794v51.2h100.937v-51.2c0-16.091 19.017-27.794 42.423-27.794s42.423 13.166 42.423 27.794v51.2h100.937v-51.2c0-16.091 19.017-27.794 42.423-27.794s42.423 13.166 42.423 27.794v51.2h29.257c29.257 0 52.663-23.406 52.663-51.2v-620.251zM737.28 575.269h-438.857c-14.629 0-26.331-16.091-26.331-35.109s11.703-35.109 26.331-35.109h438.857c14.629 0 26.331 16.091 26.331 35.109 1.463 19.017-11.703 35.109-26.331 35.109zM737.28 409.966h-438.857c-14.629 0-26.331-16.091-26.331-35.109s11.703-35.109 26.331-35.109h438.857c14.629 0 26.331 16.091 26.331 35.109 1.463 20.48-11.703 35.109-26.331 35.109zM737.28 246.126h-438.857c-14.629 0-26.331-16.091-26.331-35.109s11.703-35.109 26.331-35.109h438.857c14.629 0 26.331 16.091 26.331 35.109 1.463 20.48-11.703 35.109-26.331 35.109z" />
<glyph unicode="&#xe616;" d="M374.491 736.183h276.48c-17.554 27.794-48.274 45.349-81.92 45.349h-411.063c-55.589 0-99.474-46.811-99.474-106.789v-179.931c0-58.514 45.349-106.789 99.474-106.789v-133.12l70.217 51.2c-2.926 13.166-4.389 26.331-4.389 40.96v228.206c-1.463 87.771 67.291 160.914 150.674 160.914zM895.269 683.52h-520.777c-55.589 0-99.474-48.274-99.474-108.251v-228.206c0-1.463 0-2.926 0-4.389 2.926-57.051 45.349-102.4 99.474-102.4h301.349l193.097-143.36v141.897h26.331c55.589 0 99.474 48.274 99.474 108.251v228.206c0 58.514-45.349 108.251-99.474 108.251z" />
<glyph unicode="&#xe617;" d="M937.691 399.726c-7.314 87.771-68.754 159.451-149.211 182.857-42.423 118.491-156.526 201.874-289.646 201.874-131.657 0-242.834-81.92-288.183-197.486-95.086-19.017-166.766-103.863-166.766-206.263 0-115.566 95.086-210.651 210.651-210.651h593.92c71.68 0 131.657 58.514 131.657 131.657v1.463c0 38.034-16.091 71.68-42.423 96.549zM646.583 475.794l-130.194-203.337c-1.463-2.926-7.314-2.926-8.777 0l-130.194 201.874c-2.926 4.389 1.463 10.24 5.851 8.777l65.829-19.017c2.926-1.463 7.314 1.463 7.314 5.851v130.194h115.566v-130.194c0-4.389 2.926-7.314 7.314-5.851l64.366 20.48c2.926 1.463 5.851-4.389 2.926-8.777z" />
<glyph unicode="&#xe618;" d="M712.411 364.617c61.44 55.589 100.937 136.046 100.937 225.28 0 166.766-134.583 302.811-302.811 302.811s-302.811-134.583-302.811-302.811c0-89.234 39.497-169.691 100.937-225.28-155.063-65.829-263.314-204.8-264.777-365.714h936.229c-1.463 160.914-111.177 299.886-267.703 365.714z" />
<glyph unicode="&#xe619;" d="M709.486 364.617c40.96 36.571 71.68 84.846 87.771 137.509 0 0 0 0 0 0 0 1.463 1.463 4.389 1.463 5.851 2.926 10.24 4.389 20.48 7.314 30.72 0 2.926 1.463 7.314 1.463 10.24 1.463 13.166 2.926 26.331 2.926 40.96 0 136.046-90.697 251.611-215.040 289.646v0 0c-11.703 2.926-24.869 5.851-38.034 7.314-2.926 0-5.851 1.463-8.777 1.463-13.166 1.463-26.331 2.926-40.96 2.926-16.091 0-32.183-1.463-46.811-4.389-2.926 0-4.389 0-7.314-1.463-14.629-2.926-29.257-7.314-43.886-11.703-1.463 0-2.926-1.463-4.389-1.463-115.566-42.423-198.949-153.6-198.949-283.794 0-10.24 0-20.48 1.463-32.183 0-4.389 1.463-8.777 1.463-11.703 1.463-5.851 1.463-10.24 2.926-16.091 0 0 0 0 0 0 13.166-65.829 46.811-122.88 95.086-165.303-156.526-65.829-266.24-203.337-266.24-365.714h936.229c-1.463 162.377-111.177 301.349-267.703 367.177zM226.743 541.623c78.994 62.903 136.046 147.749 204.8 220.891 119.954-90.697 213.577-219.429 351.086-256-35.109-117.029-144.823-203.337-273.554-203.337-141.897 0-260.389 102.4-282.331 238.446z" />
<glyph unicode="&#xe61a;" d="M169.691 12.069c0-19.017 16.091-35.109 35.109-35.109h269.166v242.834h-304.274v-207.726zM169.691 503.589v-209.189h304.274v244.297h-269.166c-19.017 0-35.109-16.091-35.109-35.109zM362.789 625.006h-61.44c-14.629 0-26.331-10.24-26.331-24.869 0-13.166 11.703-24.869 26.331-24.869h421.303c14.629 0 26.331 10.24 26.331 24.869 0 13.166-11.703 24.869-26.331 24.869h-61.44c33.646 17.554 64.366 46.811 96.549 95.086 61.44 93.623 36.571 149.211-17.554 178.469s-117.029 21.943-179.931-73.143c-23.406-35.109-40.96-74.606-49.737-111.177-8.777 36.571-26.331 76.069-49.737 111.177-62.903 95.086-125.806 102.4-179.931 73.143s-78.994-83.383-16.091-178.469c33.646-48.274 64.366-77.531 98.011-95.086zM583.68 803.474c45.349 68.754 90.697 73.143 128.731 52.663 39.497-20.48 57.051-59.977 11.703-128.731s-86.309-84.846-153.6-84.846c-43.886 0-32.183 92.16 13.166 160.914zM310.126 856.137c39.497 20.48 83.383 14.629 128.731-52.663 45.349-68.754 57.051-160.914 11.703-160.914-67.291 0-106.789 17.554-153.6 84.846-43.886 68.754-26.331 108.251 13.166 128.731zM819.2 538.697h-270.629v-242.834h304.274v207.726c1.463 19.017-14.629 35.109-33.646 35.109zM854.309 219.794h-305.737v-242.834h270.629c19.017 0 35.109 16.091 35.109 35.109v207.726z" />
<glyph unicode="&#xe61b;" d="M798.72 4.754c-14.629-7.314-27.794-14.629-42.423-20.48-4.389-1.463-7.314-2.926-11.703-4.389-17.554-7.314-35.109-11.703-52.663-10.24-7.314 0-16.091 7.314-20.48 14.629-43.886 64.366-83.383 131.657-105.326 207.726-2.926 8.777-1.463 11.703 5.851 17.554 35.109 23.406 68.754 46.811 115.566 55.589-99.474 134.583-197.486 264.777-295.497 397.897-4.389-4.389-5.851-5.851-8.777-7.314-26.331-23.406-42.423-54.126-71.68-74.606-13.166-10.24-24.869-14.629-40.96 0-51.2 45.349-103.863 87.771-146.286 141.897-4.389 5.851-7.314 13.166-8.777 21.943-1.463 20.48 8.777 39.497 20.48 55.589 17.554 23.406 30.72 48.274 55.589 65.829 80.457 51.2 159.451 54.126 235.52-8.777 8.777-7.314 19.017-16.091 27.794-24.869 57.051-55.589 109.714-115.566 162.377-174.080 106.789-118.491 190.171-253.074 260.389-396.434 45.349-90.697 29.257-166.766-46.811-232.594-10.24-8.777-20.48-17.554-32.183-24.869z" />
<glyph unicode="&#xe61c;" d="M842.606 913.189h-680.229c-61.44 0-112.64-49.737-112.64-112.64v-83.383h905.509v83.383c0 61.44-49.737 112.64-112.64 112.64zM49.737 89.6c0-61.44 49.737-112.64 112.64-112.64h680.229c61.44 0 112.64 49.737 112.64 112.64v586.606h-905.509v-586.606zM479.817 22.309h-169.691v172.617h169.691v-172.617zM479.817 240.274h-169.691v172.617h169.691v-172.617zM694.857 22.309h-169.691v172.617h169.691v-172.617zM694.857 240.274h-169.691v172.617h169.691v-172.617zM909.897 89.6c0-36.571-29.257-67.291-67.291-67.291h-102.4v172.617h169.691v-105.326zM909.897 240.274h-169.691v172.617h169.691v-172.617zM95.086 630.857h814.811v-172.617h-169.691v172.617h-45.349v-172.617h-169.691v172.617h-45.349v-172.617h-169.691v172.617h-45.349v-172.617h-169.691v172.617zM95.086 412.891h169.691v-172.617h-169.691v172.617zM95.086 194.926h169.691v-172.617h-102.4c-36.571 0-67.291 29.257-67.291 67.291v105.326z" />
<glyph unicode="&#xe61d;" d="M1018.149 382.171l-70.217 99.474 48.274 112.64-105.326 62.903-1.463 122.88-121.417 14.629-51.2 111.177-117.029-36.571-92.16 80.457-92.16-80.457-117.029 36.571-51.2-111.177-121.417-14.629-1.463-122.88-106.789-62.903 48.274-112.64-70.217-99.474 90.697-83.383-23.406-119.954 115.566-39.497 27.794-119.954 122.88 11.703 73.143-98.011 106.789 59.977 106.789-59.977 73.143 98.011 122.88-11.703 27.794 119.954 115.566 39.497-23.406 119.954 86.309 83.383zM307.2 278.309c0 68.754 46.811 127.269 114.103 155.063-26.331 23.406-42.423 57.051-42.423 95.086 0 71.68 57.051 128.731 128.731 128.731s128.731-57.051 128.731-128.731c0-38.034-16.091-71.68-42.423-95.086 67.291-27.794 112.64-86.309 114.103-155.063h-400.823z" />
<glyph unicode="&#xe61e;" d="M958.171 556.251c-52.663 200.411-235.52 349.623-453.486 349.623-216.503 0-399.36-147.749-453.486-349.623-10.24-38.034-14.629-77.531-14.629-118.491 0-13.166 0-24.869 1.463-38.034v0c20.48-241.371 222.354-430.080 466.651-430.080 245.76 0 447.634 190.171 466.651 430.080v0c1.463 13.166 1.463 24.869 1.463 38.034 0 40.96-4.389 80.457-14.629 118.491zM795.794 268.069c11.703 43.886 19.017 89.234 20.48 136.046h92.16c-1.463-14.629-2.926-29.257-5.851-43.886-29.257-36.571-65.829-67.291-106.789-92.16zM583.68 38.4c-14.629-2.926-29.257-4.389-43.886-5.851v93.623c46.811 2.926 92.16 10.24 136.046 20.48-26.331-40.96-57.051-77.531-92.16-108.251zM334.994 148.114c43.886-11.703 90.697-19.017 138.971-20.48v-93.623c-16.091 1.463-32.183 2.926-48.274 5.851-33.646 29.257-64.366 65.829-90.697 108.251zM106.789 358.766c-2.926 14.629-4.389 29.257-5.851 43.886h92.16c2.926-46.811 10.24-92.16 20.48-136.046-39.497 26.331-76.069 57.051-106.789 92.16zM421.303 834.194c17.554 4.389 35.109 5.851 52.663 7.314v-96.549c-49.737-2.926-98.011-10.24-143.36-21.943 24.869 42.423 55.589 80.457 90.697 111.177zM680.229 723.017c-45.349 11.703-92.16 19.017-140.434 21.943v96.549c17.554-1.463 33.646-4.389 49.737-7.314 35.109-30.72 65.829-68.754 90.697-111.177zM539.794 683.52c64.366-4.389 124.343-17.554 178.469-39.497 20.48-54.126 33.646-112.64 36.571-174.080h-215.040v213.577zM473.966 683.52v-215.040h-217.966c2.926 61.44 16.091 121.417 36.571 174.080 55.589 23.406 117.029 38.034 181.394 40.96zM256 402.651h217.966v-215.040c-64.366 2.926-124.343 17.554-179.931 39.497-20.48 54.126-33.646 114.103-38.034 175.543zM539.794 189.074v213.577h215.040c-4.389-62.903-17.554-121.417-39.497-175.543-54.126-21.943-112.64-35.109-175.543-38.034zM817.737 468.48c-1.463 46.811-8.777 92.16-19.017 134.583 40.96-24.869 77.531-55.589 106.789-90.697 2.926-14.629 4.389-29.257 5.851-43.886h-93.623zM852.846 645.486c-26.331 17.554-55.589 32.183-84.846 45.349-13.166 30.72-27.794 59.977-45.349 87.771 52.663-33.646 98.011-78.994 130.194-133.12zM288.183 778.606c-17.554-27.794-32.183-57.051-45.349-87.771-29.257-13.166-58.514-27.794-84.846-45.349 32.183 54.126 76.069 99.474 130.194 133.12zM213.577 603.063c-10.24-42.423-17.554-87.771-19.017-134.583h-93.623c1.463 14.629 2.926 29.257 5.851 43.886 29.257 33.646 65.829 64.366 106.789 90.697zM160.914 224.183c26.331-17.554 55.589-32.183 84.846-45.349 13.166-30.72 27.794-58.514 45.349-86.309-52.663 33.646-98.011 78.994-130.194 131.657zM719.726 92.526c17.554 26.331 32.183 55.589 45.349 86.309 30.72 13.166 58.514 27.794 84.846 45.349-32.183-52.663-77.531-98.011-130.194-131.657z" />
<glyph unicode="&#xe61f;" d="M930.377 383.634c-7.314 87.771-68.754 159.451-149.211 182.857-42.423 118.491-156.526 203.337-289.646 203.337-131.657 0-242.834-81.92-288.183-197.486-95.086-20.48-166.766-105.326-166.766-206.263 0-117.029 95.086-210.651 210.651-210.651h593.92c71.68 0 131.657 58.514 131.657 131.657v0c0 38.034-16.091 73.143-42.423 96.549z" />
<glyph unicode="&#xe620;" d="M504.686 911.726c-115.566 0-209.189-93.623-209.189-209.189 0-83.383 48.274-155.063 118.491-188.709v-165.303l36.571-20.48 33.646-19.017v-1.463l-33.646-19.017-36.571-20.48 36.571-20.48 33.646-19.017v-2.926l-33.646-19.017-36.571-20.48 36.571-20.48 33.646-19.017v-5.851l-33.646-19.017-36.571-20.48 36.571-20.48 33.646-19.017v-2.926l-33.646-20.48-36.571-20.48 73.143-40.96 87.771 52.663 29.257 16.091v473.966c4.389 2.926 8.777 4.389 13.166 7.314 58.514 36.571 96.549 102.4 96.549 175.543 0 115.566-93.623 209.189-209.189 209.189zM532.48 766.903c-7.314-4.389-17.554-7.314-27.794-7.314-27.794 0-51.2 20.48-51.2 46.811 0 24.869 23.406 46.811 51.2 46.811s51.2-20.48 51.2-46.811c0-16.091-8.777-30.72-23.406-39.497z" />
<glyph unicode="&#xe621;" d="M838.217 778.606c-81.92 81.92-213.577 81.92-295.497 0-58.514-58.514-74.606-143.36-49.737-217.966l-117.029-117.029 10.24-40.96 10.24-38.034-38.034 10.24-40.96 10.24 10.24-40.96 10.24-38.034-1.463-1.463-38.034 10.24-40.96 10.24 10.24-40.96 10.24-38.034-1.463-1.463-35.109 13.166-40.96 10.24 10.24-40.96 10.24-38.034-1.463-1.463-36.571 11.703-40.96 10.24 20.48-81.92 99.474-26.331 32.183-8.777 336.457 336.457c4.389-1.463 8.777-2.926 13.166-4.389 67.291-14.629 140.434 4.389 193.097 57.051 83.383 83.383 83.383 215.040 1.463 296.96zM756.297 657.189c-8.777 2.926-17.554 7.314-24.869 14.629-20.48 20.48-21.943 51.2-2.926 68.754 17.554 17.554 48.274 16.091 68.754-2.926 20.48-20.48 21.943-51.2 2.926-68.754-11.703-11.703-27.794-16.091-43.886-11.703z" />
<glyph unicode="&#xe622;" d="M785.554 281.234c-38.034 0-71.68-13.166-98.011-36.571l-318.903 178.469c1.463 7.314 1.463 16.091 1.463 24.869s-1.463 16.091-1.463 24.869l318.903 178.469c26.331-23.406 59.977-36.571 98.011-36.571 83.383 0 150.674 67.291 150.674 150.674s-67.291 150.674-150.674 150.674c-83.383 0-150.674-67.291-150.674-150.674 0-8.777 1.463-16.091 1.463-24.869l-317.44-178.469c-26.331 23.406-61.44 36.571-98.011 36.571-84.846 0-152.137-67.291-152.137-150.674s67.291-150.674 150.674-150.674c38.034 0 71.68 13.166 98.011 36.571l318.903-178.469c-1.463-7.314-1.463-16.091-1.463-24.869 0-83.383 67.291-150.674 150.674-150.674s150.674 67.291 150.674 150.674-67.291 150.674-150.674 150.674z" />
<glyph unicode="&#xe623;" d="M829.44 524.069h-24.869c0 7.314 1.463 13.166 1.463 20.48 0 156.526-128.731 283.794-286.72 283.794-159.451 0-288.183-127.269-288.183-283.794 0-7.314 1.463-13.166 1.463-20.48h-24.869c-26.331 0-48.274-21.943-48.274-49.737v-446.171c0-27.794 21.943-49.737 48.274-49.737h623.177c26.331 0 48.274 21.943 48.274 49.737v447.634c-1.463 26.331-23.406 48.274-49.737 48.274zM552.96 290.011v-137.509c0-19.017-14.629-33.646-33.646-33.646s-33.646 14.629-33.646 33.646v137.509c-20.48 11.703-35.109 33.646-35.109 58.514 0 38.034 30.72 68.754 68.754 68.754s68.754-30.72 68.754-68.754c0-24.869-14.629-46.811-35.109-58.514zM693.394 524.069h-351.086c-1.463 5.851-1.463 13.166-1.463 20.48 0 96.549 78.994 175.543 177.006 175.543s177.006-78.994 177.006-175.543c1.463-7.314 0-13.166-1.463-20.48z" />
<glyph unicode="&#xe624;" d="M816.274 515.291h-24.869c0 0 0 0 0 0h-106.789c0 0 0 0 0 0h-340.846c0 0 0 0 0 0h-1.463v122.88c1.463 93.623 77.531 169.691 172.617 169.691s171.154-76.069 172.617-169.691h106.789c-1.463 153.6-125.806 277.943-279.406 277.943-152.137 0-276.48-122.88-279.406-275.017v0-124.343h-23.406c-24.869 0-46.811-21.943-46.811-48.274v-438.857c0-26.331 20.48-48.274 46.811-48.274h605.623c24.869 0 46.811 21.943 46.811 48.274v438.857c-1.463 26.331-21.943 46.811-48.274 46.811zM547.109 284.16v-136.046c0-17.554-14.629-33.646-33.646-33.646-17.554 0-33.646 14.629-33.646 33.646v136.046c-20.48 11.703-33.646 33.646-33.646 58.514 0 36.571 30.72 67.291 67.291 67.291s67.291-30.72 67.291-67.291c1.463-24.869-13.166-46.811-33.646-58.514z" />
<glyph unicode="&#xe625;" d="M516.389 812.251h-340.846c-10.24 0-19.017-8.777-19.017-19.017v-792.869c0-10.24 8.777-19.017 19.017-19.017h564.663c10.24 0 19.017 8.777 19.017 19.017v583.68c-1.463 125.806-109.714 228.206-242.834 228.206zM715.337 573.806v-552.96h-513.463l1.463 399.36h-1.463v351.086h280.869c33.646-20.48 68.754-59.977 70.217-122.88 1.463-8.777 86.309 23.406 162.377-74.606zM846.994 917.577v0h-564.663c-10.24 0-19.017-8.777-19.017-19.017v-45.349h38.034v30.72h522.24v-754.834h-26.331v-43.886h49.737c10.24 0 19.017 8.777 19.017 19.017v792.869c0 11.703-7.314 20.48-19.017 20.48z" />
<glyph unicode="&#xe626;" d="M943.543 189.074c-40.96-10.24-52.663-13.166-93.623-23.406-263.314-64.366-491.52-124.343-753.371-188.709 0 0 0 0 0 0-7.314-1.463-14.629 4.389-14.629 11.703v7.314c0 184.32 0 368.64 0 551.497 0 13.166 4.389 27.794 10.24 38.034 133.12 122.88 198.949 171.154 307.2 313.051 2.926 4.389 27.794 14.629 32.183 14.629 226.743-19.017 305.737-48.274 509.074-156.526 4.389-1.463 7.314-4.389 11.703-7.314 7.314-4.389 11.703-11.703 11.703-20.48 0-181.394 0-333.531 0-516.389 0-10.24-8.777-20.48-20.48-23.406zM751.909 633.783c-196.023-48.274-396.434-98.011-596.846-147.749-16.091-4.389-21.943-10.24-19.017-32.183 4.389-38.034 2.926-77.531 0-115.566 0-8.777 0-14.629 0-26.331 26.331 5.851 52.663 11.703 77.531 19.017 222.354 54.126 446.171 108.251 668.526 162.377 14.629 2.926 19.017 8.777 17.554 23.406-1.463 49.737 0 100.937 0 153.6-49.737-11.703-98.011-24.869-147.749-36.571zM781.166 376.32c-209.189-51.2-418.377-103.863-627.566-155.063-14.629-2.926-19.017-8.777-19.017-23.406 1.463-48.274 0-95.086 0-146.286 13.166 2.926 24.869 5.851 36.571 8.777 236.983 57.051 472.503 115.566 709.486 172.617 13.166 2.926 19.017 7.314 19.017 23.406-1.463 43.886 0 87.771 0 131.657 0 5.851 0 11.703 0 19.017-39.497-10.24-78.994-20.48-118.491-30.72z" />
<glyph unicode="&#xe627;" d="M512 916.114c-258.926 0-468.114-209.189-468.114-468.114s209.189-468.114 468.114-468.114c258.926 0 468.114 209.189 468.114 468.114s-209.189 468.114-468.114 468.114zM512 51.566c-219.429 0-396.434 177.006-396.434 396.434s177.006 396.434 396.434 396.434c219.429 0 396.434-177.006 396.434-396.434s-177.006-396.434-396.434-396.434zM463.726 292.937h81.92v-77.531h-81.92v77.531zM512 689.371c-42.423 0-77.531-10.24-103.863-32.183s-39.497-52.663-39.497-92.16l1.463-1.463h77.531c0 19.017 5.851 35.109 19.017 43.886 13.166 10.24 27.794 14.629 46.811 14.629 21.943 0 38.034-5.851 49.737-17.554s17.554-27.794 17.554-49.737c0-19.017-4.389-35.109-14.629-51.2-10.24-14.629-23.406-30.72-40.96-48.274-26.331-20.48-42.423-36.571-49.737-51.2-7.314-13.166-10.24-36.571-10.24-67.291h80.457c0 19.017 1.463 33.646 4.389 43.886s11.703 20.48 23.406 30.72c24.869 20.48 45.349 40.96 61.44 65.829 16.091 23.406 24.869 49.737 24.869 77.531 0 42.423-13.166 74.606-39.497 98.011s-62.903 36.571-108.251 36.571z" />
<glyph unicode="&#xe628;" d="M727.040 481.646c0-51.2-17.554-112.64-51.2-152.137 38.034-20.48 68.754-13.166 95.086-86.309h200.411c-1.463 117.029-64.366 190.171-156.526 228.206 36.571 32.183 58.514 86.309 58.514 138.971 0 98.011-78.994 179.931-177.006 179.931-67.291 0-125.806-36.571-155.063-90.697 105.326-19.017 185.783-108.251 185.783-217.966zM333.531 330.971c-32.183 39.497-51.2 93.623-51.2 146.286 0 108.251 77.531 200.411 181.394 220.891-29.257 55.589-87.771 95.086-155.063 95.086-98.011 0-177.006-78.994-177.006-175.543 0-52.663 23.406-114.103 58.514-146.286-92.16-39.497-155.063-111.177-156.526-228.206h203.337c26.331 73.143 58.514 67.291 96.549 87.771zM627.566 303.177l-33.646 20.48 27.794 26.331c36.571 33.646 58.514 81.92 58.514 131.657 0 96.549-78.994 175.543-175.543 175.543s-175.543-78.994-175.543-175.543c0-49.737 21.943-98.011 58.514-131.657l27.794-24.869-35.109-21.943c-89.234-38.034-149.211-118.491-159.451-206.263h567.589c-10.24 87.771-70.217 168.229-160.914 206.263z" />
<glyph unicode="&#xe629;" d="M583.68 908.8c-320.366 52.663-592.457-220.891-539.794-541.257 32.183-194.56 188.709-351.086 381.806-381.806 320.366-52.663 593.92 220.891 541.257 541.257-32.183 193.097-188.709 349.623-383.269 381.806zM582.217 57.417c-279.406-52.663-519.314 187.246-466.651 466.651 29.257 156.526 155.063 282.331 311.589 311.589 279.406 52.663 519.314-187.246 466.651-466.651-29.257-155.063-155.063-282.331-311.589-311.589zM538.331 657.189c14.629 0 29.257 0 43.886 0 0-1.463 1.463-1.463 1.463-2.926 0-20.48 0-40.96 0-59.977 0-4.389-1.463-4.389-4.389-4.389-10.24 0-20.48 0-30.72 0s-19.017-5.851-19.017-13.166c-1.463-10.24 0-21.943 0-33.646 19.017 0 36.571 0 54.126 0 0-19.017 0-36.571 0-54.126 0-1.463-2.926-2.926-4.389-2.926-8.777 0-17.554 0-24.869 0s-16.091 0-24.869 0c0-83.383 0-165.303 0-247.223-30.72 0-59.977 0-90.697 0 0 81.92 0 163.84 0 247.223-5.851 0-11.703 0-17.554 0-10.24 0-20.48 0-32.183 1.463 0 19.017 0 38.034 0 57.051 16.091 0 32.183 0 48.274 0 0 16.091-1.463 29.257 0 43.886 1.463 23.406 10.24 42.423 30.72 55.589 10.24 5.851 21.943 10.24 33.646 13.166 10.24-1.463 23.406-1.463 36.571 0z" />
<glyph unicode="&#xe62a;" d="M588.069 908.8c-320.366 52.663-593.92-220.891-541.257-541.257 32.183-194.56 188.709-351.086 381.806-381.806 320.366-52.663 593.92 220.891 541.257 541.257-32.183 193.097-188.709 349.623-381.806 381.806zM585.143 57.417c-279.406-52.663-519.314 187.246-466.651 466.651 29.257 156.526 155.063 282.331 311.589 311.589 279.406 54.126 520.777-187.246 468.114-466.651-30.72-155.063-156.526-282.331-313.051-311.589zM365.714 623.543c8.777 19.017 20.48 32.183 42.423 32.183 0 0 0 0 0 0 1.463 0 0 0 5.851 0 1.463 0 1.463 0 2.926 0v0c1.463 0 4.389 0 5.851 0 17.554-1.463 30.72-10.24 36.571-26.331 4.389-10.24 7.314-21.943 7.314-32.183 1.463-13.166 0-27.794 0-42.423 0-1.463 1.463-2.926 2.926-2.926s4.389 0 5.851 0c49.737 0 98.011 0 147.749 0 11.703 0 21.943-2.926 30.72-10.24 17.554-13.166 26.331-35.109 19.017-55.589-8.777-26.331-24.869-39.497-49.737-39.497-49.737 0-99.474 0-149.211 0-1.463 0-2.926 0-4.389 0s-2.926-1.463-2.926-2.926c0 0 0 0 0 0 0-19.017 0-38.034 0-58.514 0-2.926 0-4.389 1.463-7.314 8.777-23.406 27.794-38.034 52.663-38.034 35.109 0 71.68 0 106.789 0 2.926 0 7.314 0 10.24-1.463 32.183-10.24 46.811-42.423 32.183-73.143-8.777-17.554-23.406-30.72-46.811-30.72-33.646 0-64.366 0-98.011 0-16.091 0-32.183 2.926-48.274 5.851-30.72 5.851-55.589 24.869-76.069 46.811-17.554 19.017-30.72 39.497-36.571 64.366-1.463 4.389-1.463 10.24-2.926 14.629 0 0 0 0 0 0 0 83.383 0 163.84 0 247.223v1.463c0 1.463 0 2.926 1.463 4.389v0c0 0 0 1.463 1.463 1.463l1.463 2.926z" />
<glyph unicode="&#xe62b;" d="M585.143 908.8c-320.366 52.663-593.92-220.891-541.257-541.257 32.183-194.56 188.709-351.086 381.806-381.806 320.366-52.663 593.92 220.891 541.257 541.257-30.72 193.097-187.246 349.623-381.806 381.806zM583.68 57.417c-279.406-52.663-519.314 187.246-466.651 466.651 29.257 156.526 155.063 282.331 311.589 311.589 279.406 52.663 519.314-187.246 466.651-466.651-29.257-155.063-155.063-282.331-311.589-311.589zM743.131 426.057c0 5.851 0 11.703 0 16.091 0 8.777-1.463 17.554-2.926 26.331-1.463 10.24-4.389 19.017-7.314 29.257-2.926 8.777-7.314 17.554-13.166 24.869-10.24 13.166-24.869 21.943-40.96 26.331-8.777 2.926-17.554 4.389-26.331 4.389s-17.554 0-26.331 0c-11.703-1.463-23.406-4.389-33.646-10.24-11.703-5.851-21.943-14.629-29.257-24.869-1.463-2.926-2.926-5.851-5.851-7.314 0 0-1.463-1.463-1.463-1.463-1.463 0-1.463 1.463-1.463 1.463 0 8.777 0 17.554 0 24.869 0 2.926 0 4.389 0 7.314 0 1.463 0 2.926-1.463 2.926s-2.926 0-2.926 0c-24.869 0-48.274 0-73.143 0 0 0-1.463 0-1.463 0-1.463 0-2.926-1.463-2.926-4.389 0 0 0-1.463 0-1.463 0-89.234 0-178.469 0-269.166 0 0 0-1.463 0-1.463 0-2.926 1.463-4.389 4.389-4.389 0 0 1.463 0 1.463 0s1.463 0 1.463 0c0 0 1.463 0 1.463 0 21.943 0 43.886 0 65.829 0 0 0 1.463 0 1.463 0 1.463 0 2.926 0 4.389 0 0 0 1.463 0 1.463 0 2.926 0 2.926 1.463 4.389 4.389 0 0 0 1.463 0 2.926 0 46.811 0 93.623 0 140.434 0 11.703 1.463 23.406 5.851 33.646 1.463 1.463 1.463 4.389 2.926 5.851 5.851 11.703 14.629 19.017 27.794 21.943 4.389 1.463 8.777 1.463 13.166 1.463 2.926 0 5.851 0 7.314 0 4.389 0 8.777-1.463 13.166-2.926 8.777-2.926 14.629-8.777 19.017-16.091 2.926-5.851 5.851-11.703 5.851-17.554 1.463-8.777 2.926-19.017 2.926-27.794 0-46.811 0-95.086 0-141.897 0-1.463 0-2.926 1.463-2.926s1.463-1.463 2.926-1.463c26.331 0 52.663 0 78.994 0 0 0 0 0 0 0 2.926 0 4.389 1.463 4.389 5.851 0 1.463 0 2.926 0 4.389-1.463 51.2-1.463 100.937-1.463 150.674zM412.526 547.474c-26.331 0-52.663 0-78.994 0-2.926 0-4.389-1.463-4.389-4.389 0-1.463 0-1.463 0-2.926 0-89.234 0-178.469 0-267.703 0 0 0-1.463 0-1.463 0-1.463 1.463-2.926 2.926-2.926 0 0 0 0 1.463 0 26.331 0 52.663 0 78.994 0 0 0 0 0 1.463 0 2.926 0 2.926 1.463 2.926 4.389 0 0 0 1.463 0 1.463 0 89.234 0 178.469 0 267.703 0 0 0 1.463 0 1.463 0 1.463-1.463 4.389-4.389 4.389zM380.343 686.446c-1.463 0-2.926 0-4.389 0s-2.926 0-4.389 0c-1.463 0-2.926 0-4.389 0-21.943-2.926-38.034-19.017-42.423-39.497 0-1.463 0-2.926-1.463-4.389 0 0 0-1.463 0-1.463 0-2.926 0-5.851 0-8.777 0 0 0-1.463 0-1.463 1.463-4.389 1.463-8.777 2.926-13.166 10.24-24.869 36.571-35.109 58.514-30.72 30.72 7.314 42.423 38.034 38.034 58.514-4.389 21.943-20.48 38.034-42.423 40.96z" />
<glyph unicode="&#xe62c;" d="M588.069 908.8c-320.366 52.663-593.92-220.891-541.257-541.257 32.183-194.56 188.709-351.086 381.806-381.806 320.366-52.663 593.92 220.891 541.257 541.257-32.183 193.097-188.709 349.623-381.806 381.806zM585.143 57.417c-279.406-52.663-519.314 187.246-466.651 466.651 29.257 156.526 155.063 282.331 311.589 311.589 279.406 54.126 520.777-187.246 468.114-466.651-30.72-155.063-156.526-282.331-313.051-311.589zM588.069 608.914c-1.463 0-2.926 0-4.389 0-35.109 0-68.754 0-103.863 0-7.314 0-14.629 0-21.943 1.463-2.926 0-5.851 0-8.777 0-2.926-1.463-5.851-2.926-8.777-2.926-23.406-1.463-40.96-14.629-58.514-27.794-16.091-13.166-27.794-30.72-33.646-51.2-11.703-49.737 19.017-93.623 64.366-105.326 11.703-2.926 24.869-2.926 36.571-2.926 1.463 0 2.926 0 2.926 0 0-10.24-2.926-20.48 0-30.72 1.463-8.777 8.777-17.554 13.166-27.794-2.926 0-5.851-1.463-8.777-1.463-23.406-1.463-46.811-4.389-68.754-11.703-16.091-5.851-30.72-13.166-43.886-26.331-10.24-10.24-17.554-21.943-21.943-35.109 0-1.463-1.463-2.926-1.463-4.389 0-8.777 0-19.017 0-27.794 0-1.463 1.463-1.463 1.463-2.926 4.389-17.554 14.629-29.257 29.257-38.034 21.943-14.629 45.349-23.406 71.68-23.406 13.166 0 26.331 0 39.497 0 2.926 0 5.851 0 7.314 0 26.331 5.851 51.2 14.629 73.143 29.257 23.406 17.554 38.034 39.497 39.497 70.217 1.463 19.017-2.926 35.109-16.091 49.737-7.314 8.777-14.629 17.554-23.406 24.869-10.24 8.777-20.48 17.554-30.72 26.331-11.703 10.24-13.166 23.406-4.389 36.571 2.926 4.389 7.314 8.777 11.703 13.166 5.851 5.851 13.166 11.703 19.017 17.554 29.257 26.331 29.257 80.457 10.24 105.326-5.851 7.314-13.166 16.091-19.017 23.406 0 1.463-1.463 1.463-2.926 4.389 26.331-4.389 45.349 1.463 61.44 17.554zM529.554 309.029c26.331-29.257 17.554-73.143-20.48-89.234-14.629-5.851-30.72-7.314-45.349-7.314-19.017 0-39.497 2.926-57.051 10.24-33.646 14.629-40.96 40.96-36.571 71.68 1.463 8.777 7.314 16.091 14.629 21.943 13.166 13.166 29.257 19.017 48.274 21.943 16.091 2.926 32.183 2.926 49.737 4.389 2.926 0 5.851 0 7.314-1.463 13.166-7.314 27.794-17.554 39.497-32.183zM513.463 478.72c-2.926-19.017-13.166-33.646-30.72-39.497-19.017-5.851-38.034-4.389-54.126 10.24-5.851 5.851-11.703 13.166-16.091 20.48-10.24 19.017-16.091 39.497-17.554 65.829 0 4.389 0 11.703 1.463 19.017 10.24 42.423 57.051 46.811 80.457 26.331 11.703-10.24 20.48-24.869 24.869-39.497 10.24-21.943 16.091-42.423 11.703-62.903zM712.411 503.589c26.331 0 52.663 0 78.994 0 0 8.777 0 17.554 0 26.331-26.331 0-52.663 0-78.994 0 0 2.926 0 4.389 0 5.851 0 21.943 0 43.886 0 67.291 0 1.463 0 4.389 0 5.851-8.777 0-16.091 0-24.869 0 0-1.463 0-4.389 0-5.851 0-21.943 0-43.886 0-67.291 0-1.463 0-4.389 0-5.851-26.331 0-52.663 0-78.994 0 0-8.777 0-17.554 0-26.331 26.331 0 52.663 0 78.994 0 0-26.331 0-52.663 0-78.994 7.314 0 13.166 0 19.017 0 4.389 0 5.851 1.463 5.851 5.851 0 21.943 0 45.349 0 67.291 0 1.463 0 2.926 0 5.851z" />
<glyph unicode="&#xe62d;" d="M974.263 526.994c-32.183 194.56-188.709 351.086-381.806 381.806-320.366 52.663-593.92-220.891-541.257-541.257 32.183-194.56 188.709-351.086 381.806-381.806 320.366-51.2 592.457 220.891 541.257 541.257zM901.12 370.469c-29.257-156.526-155.063-282.331-311.589-311.589-279.406-52.663-519.314 187.246-466.651 466.651 29.257 156.526 155.063 282.331 311.589 311.589 279.406 52.663 519.314-187.246 466.651-466.651zM750.446 562.103c-5.851 27.794-23.406 48.274-52.663 52.663-16.091 2.926-33.646 4.389-49.737 4.389-40.96 0-81.92 0-122.88 0-62.903 0-127.269 2.926-190.171-2.926-13.166-1.463-26.331-2.926-38.034-11.703-13.166-8.777-20.48-21.943-24.869-36.571-7.314-19.017-7.314-39.497-7.314-59.977-1.463-45.349 0-90.697 1.463-136.046 0-13.166 2.926-26.331 5.851-39.497 7.314-30.72 24.869-48.274 54.126-51.2 19.017-2.926 39.497-4.389 58.514-5.851 20.48-1.463 40.96-1.463 61.44-1.463 62.903 0 127.269 0 190.171 1.463 17.554 0 35.109 1.463 52.663 2.926 27.794 2.926 51.2 16.091 61.44 49.737 7.314 23.406 8.777 48.274 8.777 71.68 1.463 36.571 0 73.143-1.463 111.177 0 17.554-2.926 35.109-7.314 51.2zM588.069 445.074c-39.497-21.943-80.457-42.423-119.954-62.903-1.463 0-2.926-1.463-4.389-1.463s-5.851 1.463-7.314 1.463c0 1.463-4.389 2.926-4.389 2.926 0 40.96 0 83.383 0 124.343 0 1.463 4.389 2.926 4.389 5.851 43.886-23.406 89.234-45.349 134.583-68.754-1.463 0-1.463 0-2.926-1.463z" />
<glyph unicode="&#xe62e;" d="M519.314 841.509l468.114-792.869-468.114 392.046-468.114-392.046 234.057 396.434z" />
<glyph unicode="&#xe62f;" d="M833.829 638.171c-1.463 117.029-111.177 234.057-245.76 234.057h-345.234c-10.24 0-23.406-16.091-23.406-26.331v-800.183c0-10.24 14.629-21.943 24.869-21.943h570.514c10.24 0 19.017 11.703 19.017 21.943v592.457zM789.943 67.657h-519.314l1.463 394.971h-8.777v365.714h291.109c33.646-14.629 70.217-61.44 71.68-125.806 1.463-8.777 76.069 21.943 163.84-77.531v-557.349zM667.063 399.726c-17.554 1.463-33.646 0-51.2-2.926-8.777-1.463-13.166 1.463-19.017 7.314-23.406 27.794-43.886 57.051-61.44 89.234-5.851 10.24-7.314 20.48-4.389 32.183 4.389 17.554 5.851 36.571 7.314 52.663 0 5.851-1.463 8.777-1.463 13.166-2.926 24.869-10.24 33.646-27.794 33.646s-29.257-13.166-29.257-36.571c-1.463-24.869 7.314-46.811 16.091-68.754 4.389-8.777 4.389-17.554 1.463-26.331-13.166-45.349-29.257-90.697-46.811-134.583-4.389-8.777-10.24-16.091-19.017-20.48-24.869-11.703-48.274-24.869-65.829-46.811-14.629-19.017-13.166-39.497 2.926-52.663 14.629-11.703 32.183-8.777 48.274 10.24s29.257 40.96 39.497 64.366c4.389 8.777 10.24 14.629 20.48 19.017 33.646 13.166 67.291 23.406 102.4 32.183 10.24 2.926 17.554 1.463 26.331-5.851 16.091-13.166 33.646-27.794 58.514-24.869 17.554 2.926 35.109 20.48 35.109 38.034 1.463 16.091-10.24 24.869-32.183 27.794zM396.434 263.68c-2.926-2.926-5.851-10.24-11.703-4.389-4.389 4.389-4.389 8.777-1.463 14.629 8.777 14.629 23.406 23.406 38.034 29.257-4.389-16.091-11.703-29.257-24.869-39.497zM510.537 598.674c5.851-14.629 5.851-23.406 0-38.034-7.314 24.869-7.314 24.869 0 38.034zM570.514 386.56c-29.257-8.777-57.051-16.091-87.771-26.331 13.166 36.571 24.869 73.143 38.034 111.177 17.554-27.794 32.183-54.126 52.663-76.069 2.926-2.926 2.926-5.851-2.926-8.777zM669.989 363.154c-8.777-8.777-23.406-5.851-36.571 10.24 11.703 4.389 23.406 1.463 35.109 1.463 2.926 0 5.851-1.463 5.851-5.851 0-1.463-1.463-4.389-4.389-5.851z" />
<glyph unicode="&#xe630;" d="M608.549 863.451c29.257 0 58.514 0 87.771 0 0-1.463 1.463-4.389 1.463-5.851 0-39.497 0-80.457 0-119.954 0-7.314-4.389-8.777-10.24-8.777-20.48 0-39.497 0-59.977 0-19.017 0-36.571-11.703-38.034-26.331-1.463-21.943 0-43.886 0-65.829 36.571 0 71.68 0 108.251 0 0-36.571 0-73.143 0-108.251 0-2.926-5.851-5.851-10.24-7.314-17.554 0-33.646 0-51.2 0-16.091 0-32.183 0-48.274 0 0-165.303 0-327.68 0-490.057-59.977 0-118.491 0-179.931 0 0 163.84 0 326.217 0 490.057-13.166 0-23.406 0-35.109 0-20.48 0-40.96 1.463-62.903 1.463 0 38.034 0 74.606 0 112.64 30.72 0 62.903 0 96.549 0 0 30.72-1.463 58.514 0 86.309 2.926 45.349 19.017 84.846 59.977 109.714 20.48 11.703 43.886 20.48 67.291 24.869 24.869 4.389 49.737 5.851 74.606 7.314z" />
<glyph unicode="&#xe631;" d="M207.726 800.549c16.091 36.571 39.497 64.366 84.846 64.366 0 0 0 0 1.463 0 2.926 0 0 0 11.703 0 1.463 0 2.926 0 5.851 0h1.463c4.389 0 8.777 0 11.703-1.463 35.109-2.926 59.977-19.017 71.68-51.2 7.314-20.48 13.166-42.423 14.629-65.829 2.926-27.794 1.463-55.589 0-83.383 0-2.926 2.926-5.851 5.851-5.851 4.389 0 7.314 0 10.24 0 98.011 0 194.56 0 292.571 0 23.406 0 43.886-7.314 61.44-20.48 35.109-24.869 51.2-68.754 38.034-109.714-16.091-51.2-51.2-78.994-98.011-78.994-99.474 0-197.486 0-296.96 0-2.926 0-5.851 0-8.777 0s-5.851-2.926-5.851-5.851v0c0-38.034 0-76.069 0-115.566 0-4.389 1.463-8.777 2.926-13.166 16.091-46.811 55.589-74.606 105.326-74.606 70.217 0 140.434 0 210.651 0 7.314 0 14.629-1.463 20.48-2.926 62.903-20.48 92.16-84.846 62.903-144.823-17.554-36.571-48.274-59.977-92.16-59.977-67.291 0-128.731 0-194.56 0-32.183 0-64.366 4.389-95.086 11.703-61.44 13.166-109.714 48.274-150.674 93.623-33.646 36.571-61.44 77.531-73.143 127.269-2.926 10.24-4.389 20.48-5.851 29.257 0 0 0 1.463 0 1.463 0 163.84 0 324.754 0 490.057l1.463 2.926c0 2.926 1.463 4.389 1.463 7.314v0c0 1.463 1.463 2.926 1.463 2.926l2.926 2.926z" />
<glyph unicode="&#xe632;" d="M927.451 341.211c0 11.703 0 21.943 0 33.646-1.463 17.554-2.926 33.646-5.851 51.2-2.926 19.017-7.314 39.497-14.629 57.051-5.851 17.554-14.629 33.646-26.331 48.274-20.48 26.331-48.274 42.423-80.457 51.2-17.554 4.389-35.109 7.314-52.663 8.777s-35.109 1.463-52.663 0c-23.406-2.926-45.349-8.777-65.829-20.48-23.406-11.703-42.423-27.794-58.514-48.274-4.389-4.389-7.314-10.24-10.24-16.091-1.463-1.463-1.463-1.463-2.926-2.926-2.926 0-1.463 2.926-1.463 4.389 0 17.554 0 33.646 0 51.2 0 4.389 0 8.777 0 14.629 0 2.926-1.463 4.389-4.389 5.851-2.926 0-4.389 1.463-7.314 1.463-48.274 0-95.086 0-143.36 0-1.463 0-2.926 0-4.389 0-4.389-1.463-5.851-2.926-7.314-7.314 0-1.463 0-2.926 0-4.389 0-177.006 0-355.474 0-532.48 0-1.463 0-1.463 0-2.926 0-5.851 2.926-8.777 8.777-8.777 1.463 0 2.926 0 4.389 0s2.926 0 4.389 0c1.463 0 2.926 0 2.926 0 43.886 1.463 86.309 0 130.194 0 1.463 0 1.463 0 2.926 0 2.926 0 5.851 0 8.777 0 1.463 0 1.463 0 2.926 0 4.389 1.463 7.314 2.926 7.314 7.314 0 1.463 0 2.926 0 4.389 0 93.623 0 187.246 0 279.406 0 23.406 2.926 45.349 11.703 67.291 1.463 4.389 2.926 8.777 5.851 11.703 11.703 23.406 29.257 36.571 54.126 43.886 8.777 1.463 16.091 2.926 24.869 2.926 5.851 0 10.24 0 16.091 0 8.777 0 17.554-1.463 26.331-4.389 16.091-5.851 29.257-16.091 38.034-32.183 5.851-11.703 10.24-23.406 13.166-35.109 4.389-19.017 4.389-36.571 4.389-55.589 0-93.623 0-187.246 0-282.331 0-2.926 1.463-4.389 2.926-5.851s2.926-1.463 4.389-2.926c51.2 0 103.863 0 155.063 0 0 0 0 0 1.463 0 5.851 1.463 8.777 4.389 8.777 10.24 0 2.926 0 5.851 0 8.777 0 99.474 0 198.949-1.463 298.423zM273.554 579.657c-52.663 0-103.863 0-156.526 0-4.389 0-8.777-2.926-8.777-8.777 0-1.463 0-2.926 0-5.851 0-177.006 0-354.011 0-531.017 0-1.463 0-2.926 0-4.389 0-2.926 1.463-5.851 5.851-7.314 0 0 1.463 0 1.463-1.463 52.663 0 103.863 0 156.526 0 0 0 1.463 0 1.463 0 4.389 1.463 7.314 4.389 7.314 8.777 0 1.463 0 2.926 0 4.389 0 177.006 0 355.474 0 532.48 0 1.463 0 2.926 0 2.926 1.463 7.314-1.463 10.24-7.314 10.24zM209.189 856.137c-2.926 0-5.851 1.463-8.777 1.463s-5.851 0-8.777 0c-2.926 0-5.851-1.463-8.777-1.463-42.423-5.851-76.069-36.571-84.846-78.994 0-2.926-1.463-5.851-1.463-8.777 0-1.463-1.463-2.926-1.463-4.389 0-5.851 0-10.24 0-16.091 0-1.463 1.463-2.926 1.463-4.389 1.463-8.777 2.926-17.554 7.314-26.331 20.48-49.737 73.143-70.217 115.566-59.977 59.977 14.629 84.846 74.606 76.069 117.029-10.24 43.886-42.423 76.069-86.309 81.92z" />
<glyph unicode="&#xe633;" d="M579.291 854.674c-2.926 0-5.851 0-8.777 0-68.754 0-137.509 1.463-206.263 1.463-14.629 0-29.257 1.463-43.886 1.463-5.851 0-11.703 0-17.554 0-5.851-1.463-11.703-4.389-19.017-5.851-45.349-2.926-81.92-27.794-115.566-55.589-32.183-26.331-55.589-59.977-65.829-102.4-19.017-99.474 40.96-185.783 128.731-209.189 24.869-5.851 48.274-5.851 71.68-7.314 2.926 0 5.851 0 7.314 0 0-20.48-4.389-40.96-1.463-59.977 4.389-19.017 16.091-35.109 26.331-54.126-5.851-1.463-11.703-1.463-17.554-2.926-46.811-2.926-93.623-8.777-137.509-23.406-32.183-11.703-61.44-27.794-86.309-51.2-20.48-19.017-33.646-42.423-42.423-68.754-1.463-2.926-2.926-5.851-4.389-10.24 0-19.017 0-36.571 0-55.589 1.463-1.463 2.926-4.389 2.926-5.851 8.777-33.646 30.72-57.051 58.514-76.069 42.423-29.257 90.697-45.349 143.36-45.349 26.331 0 52.663 0 78.994 0 5.851 0 10.24 0 16.091 1.463 51.2 11.703 100.937 27.794 144.823 59.977 48.274 33.646 76.069 80.457 77.531 138.971 1.463 36.571-5.851 70.217-30.72 99.474-14.629 17.554-29.257 33.646-46.811 48.274-19.017 17.554-40.96 33.646-61.44 51.2-21.943 19.017-26.331 46.811-8.777 71.68 7.314 10.24 16.091 17.554 24.869 26.331 13.166 11.703 26.331 21.943 39.497 33.646 58.514 51.2 58.514 159.451 21.943 209.189-11.703 16.091-24.869 32.183-36.571 46.811-1.463 1.463-2.926 4.389-5.851 7.314 43.886-7.314 81.92 5.851 114.103 36.571zM463.726 262.217c52.663-58.514 33.646-146.286-39.497-175.543-29.257-11.703-59.977-14.629-90.697-14.629-39.497 0-77.531 4.389-112.64 20.48-67.291 30.72-80.457 80.457-73.143 141.897 2.926 17.554 14.629 32.183 27.794 43.886 26.331 24.869 59.977 38.034 95.086 43.886 32.183 4.389 64.366 5.851 96.549 8.777 4.389 0 10.24-1.463 14.629-2.926 29.257-20.48 58.514-39.497 81.92-65.829zM431.543 595.749c-5.851-36.571-24.869-65.829-61.44-77.531-38.034-13.166-76.069-8.777-106.789 19.017-13.166 11.703-23.406 24.869-32.183 39.497-21.943 38.034-32.183 78.994-33.646 130.194 1.463 8.777 1.463 23.406 4.389 36.571 19.017 84.846 114.103 93.623 160.914 51.2 23.406-21.943 39.497-48.274 49.737-77.531 16.091-39.497 26.331-78.994 19.017-121.417zM826.514 646.949c52.663 0 105.326 0 157.989 0 0 19.017 0 35.109 0 54.126-52.663 0-103.863 0-157.989 0 0 4.389 0 8.777 0 13.166 0 43.886 0 87.771 0 133.12 0 4.389-1.463 7.314-1.463 11.703-16.091 0-33.646 0-49.737 0 0-4.389-1.463-8.777-1.463-13.166 0-43.886 0-87.771 0-133.12 0-4.389 0-7.314 0-13.166-52.663 0-103.863 0-155.063 0 0-17.554 0-35.109 0-54.126 52.663 0 105.326 0 157.989 0 0-52.663 0-105.326 0-157.989 13.166 0 24.869 0 38.034 0 8.777 0 11.703 1.463 11.703 11.703 0 45.349 0 89.234 0 134.583 0 4.389 0 7.314 0 13.166z" />
<glyph unicode="&#xe634;" d="M529.554 771.291c77.531 0 155.063 0 232.594 0 30.72 0 62.903-2.926 93.623-7.314 55.589-8.777 87.771-45.349 99.474-99.474 7.314-32.183 11.703-64.366 13.166-96.549 2.926-70.217 2.926-138.971 1.463-209.189-1.463-45.349-5.851-92.16-17.554-136.046-17.554-62.903-61.44-87.771-115.566-93.623-33.646-4.389-67.291-4.389-100.937-5.851-119.954-1.463-241.371-1.463-361.326-1.463-38.034 0-76.069 0-115.566 1.463-36.571 1.463-74.606 5.851-111.177 10.24-55.589 7.314-89.234 39.497-102.4 98.011-5.851 24.869-10.24 49.737-10.24 74.606 2.926 84.846 0 171.154 2.926 256 1.463 38.034 1.463 76.069 14.629 112.64 10.24 27.794 23.406 51.2 46.811 68.754 21.943 16.091 46.811 19.017 71.68 21.943 119.954 10.24 239.909 5.851 358.4 5.851zM409.6 576.731c0-5.851 0-8.777 0-11.703 0-78.994 0-156.526 0-235.52 0-2.926 0-4.389 0-7.314 1.463-1.463 4.389-4.389 5.851-4.389 2.926 0 4.389 1.463 7.314 2.926 76.069 39.497 152.137 80.457 228.206 119.954 2.926 1.463 5.851 2.926 10.24 5.851-84.846 45.349-168.229 87.771-251.611 130.194z" />
<glyph unicode="&#xe635;" d="M596.846 908.8c-320.366 52.663-593.92-220.891-541.257-541.257 32.183-194.56 188.709-351.086 381.806-381.806 320.366-52.663 593.92 220.891 541.257 541.257-32.183 193.097-188.709 349.623-381.806 381.806zM593.92 57.417c-279.406-52.663-519.314 187.246-466.651 466.651 29.257 156.526 155.063 282.331 311.589 311.589 279.406 52.663 519.314-187.246 466.651-466.651-29.257-155.063-155.063-282.331-311.589-311.589zM737.28 600.137c-5.851 2.926-11.703 5.851-19.017 5.851h-402.286c-7.314 0-13.166-1.463-19.017-5.851-11.703-5.851-19.017-19.017-19.017-32.183v-251.611c0-13.166 7.314-26.331 17.554-32.183 5.851-4.389 11.703-5.851 19.017-5.851h402.286c7.314 0 14.629 1.463 19.017 5.851 10.24 5.851 17.554 19.017 17.554 32.183v250.149c2.926 14.629-4.389 26.331-16.091 33.646zM686.080 579.657l-93.623-96.549-17.554-19.017-58.514-61.44-58.514 61.44-17.554 19.017-93.623 96.549h339.383zM302.811 314.88v251.611c0 7.314 5.851 13.166 13.166 13.166v0l111.177-115.566-115.566-160.914c-5.851 2.926-8.777 7.314-8.777 11.703zM340.846 303.177l103.863 143.36 71.68-76.069 71.68 76.069 103.863-143.36h-351.086zM607.086 464.091l111.177 115.566c7.314 0 13.166-5.851 13.166-13.166v-251.611c0-4.389-2.926-10.24-7.314-11.703l-117.029 160.914z" />
<glyph unicode="&#xe636;" d="M956.709 749.349c-10.24 7.314-23.406 10.24-36.571 10.24h-788.48c-13.166 0-26.331-2.926-36.571-10.24-21.943-11.703-36.571-36.571-36.571-62.903v-492.983c0-26.331 14.629-49.737 35.109-62.903 10.24-7.314 23.406-11.703 38.034-11.703h788.48c14.629 0 27.794 4.389 38.034 11.703 20.48 11.703 35.109 36.571 35.109 62.903v492.983c1.463 26.331-14.629 51.2-36.571 62.903zM858.697 709.851l-332.069-345.234-333.531 346.697h665.6zM106.789 193.463v492.983c0 13.166 10.24 24.869 24.869 24.869h1.463l216.503-226.743-226.743-314.514c-8.777 4.389-16.091 13.166-16.091 23.406zM181.394 168.594l203.337 279.406 141.897-147.749 140.434 147.749 201.874-279.406h-687.543zM702.171 484.571l216.503 226.743h1.463c13.166 0 24.869-10.24 24.869-24.869v-492.983c0-10.24-5.851-19.017-14.629-21.943l-228.206 313.051z" />
<glyph unicode="&#xe637;" d="M229.669 385.097c0-48.475-39.297-87.771-87.771-87.771s-87.771 39.297-87.771 87.771c0 48.475 39.297 87.771 87.771 87.771s87.771-39.297 87.771-87.771zM305.737 151.040c0-32.317-26.198-58.514-58.514-58.514s-58.514 26.198-58.514 58.514c0 32.317 26.198 58.514 58.514 58.514s58.514-26.198 58.514-58.514zM463.726 38.4c0-19.39-15.719-35.109-35.109-35.109s-35.109 15.719-35.109 35.109c0 19.39 15.719 35.109 35.109 35.109s35.109-15.719 35.109-35.109zM361.326 649.874c0-55.746-45.191-100.937-100.937-100.937s-100.937 45.191-100.937 100.937c0 55.746 45.191 100.937 100.937 100.937s100.937-45.191 100.937-100.937zM687.543 750.811c0-73.52-59.6-133.12-133.12-133.12s-133.12 59.6-133.12 133.12c0 73.52 59.6 133.12 133.12 133.12s133.12-59.6 133.12-133.12zM990.354 548.937c0-84.023-68.114-152.137-152.137-152.137s-152.137 68.114-152.137 152.137c0 84.023 68.114 152.137 152.137 152.137s152.137-68.114 152.137-152.137z" />
<glyph unicode="&#xe638;" d="M867.474 831.269h-674.377c-16.091 0-27.794-13.166-27.794-27.794v-36.571c0-16.091 13.166-27.794 27.794-27.794h674.377c16.091 0 27.794 13.166 27.794 27.794v36.571c0 14.629-11.703 27.794-27.794 27.794zM371.566 857.6h318.903c10.24 0 17.554 10.24 17.554 21.943v14.629c0 11.703-7.314 21.943-17.554 21.943h-318.903c-10.24 0-17.554-10.24-17.554-21.943v-13.166c0-13.166 7.314-23.406 17.554-23.406zM832.366 711.314h-604.16c-16.091 0-27.794-13.166-26.331-29.257l62.903-678.766c1.463-13.166 13.166-23.406 26.331-23.406h479.817c13.166 0 24.869 10.24 26.331 23.406l62.903 678.766c0 16.091-11.703 29.257-27.794 29.257zM399.36 53.029v0c-13.166 0-23.406 13.166-24.869 30.72l-40.96 507.611c-1.463 20.48 10.24 39.497 24.869 39.497v0c11.703 0 23.406-13.166 24.869-30.72l40.96-507.611c1.463-21.943-10.24-39.497-24.869-39.497zM558.811 88.137c0-19.017-11.703-35.109-27.794-35.109v0c-14.629 0-27.794 16.091-27.794 35.109v507.611c0 19.017 11.703 35.109 27.794 35.109v0c14.629 0 27.794-16.091 27.794-35.109v-507.611zM727.040 591.36l-39.497-507.611c-1.463-17.554-11.703-30.72-24.869-30.72v0c-14.629 0-26.331 17.554-24.869 39.497l40.96 507.611c1.463 17.554 11.703 30.72 24.869 30.72v0c13.166 0 24.869-17.554 23.406-39.497z" />
<glyph unicode="&#xe639;" d="M866.011 521.143h-327.68l21.943 111.177c49.737 19.017 84.846 67.291 84.846 124.343 0 73.143-59.977 133.12-133.12 133.12s-131.657-59.977-131.657-133.12c0-57.051 35.109-105.326 84.846-124.343l21.943-111.177h-327.68c-62.903 0-115.566-51.2-115.566-114.103v-251.611h936.229v251.611c0 62.903-51.2 114.103-114.103 114.103zM131.657 96.914h760.686v-102.4h-760.686v102.4z" />
<glyph unicode="&#xe63a;" d="M1757.266 406.834v0 267.578h-141.508v-56.603c-46.312 30.874-108.060 64.322-174.955 66.894-246.995 10.291-391.075-164.663-391.075-370.492 0-198.111 144.080-367.92 388.503-370.492 126.070-2.573 239.276 100.342 239.276 100.342l97.769-97.769 95.196 97.769-110.633 105.487v257.286zM1615.759 180.422c-36.020-51.457-97.769-95.196-169.809-100.342-154.372-12.864-259.859 108.060-259.859 228.985s100.342 252.141 267.578 234.131c72.040-10.291 128.643-54.030 164.663-100.342v-259.859h-2.573zM4831.839 406.834v0 270.151h-141.508v-64.322c-46.312 30.874-108.060 64.322-174.955 66.894-246.995 10.291-391.075-164.663-391.075-370.492 0-198.111 144.080-367.92 388.503-370.492 126.070-2.573 239.276 100.342 239.276 100.342l97.769-97.769 95.196 97.769-108.060 108.060v259.859h-5.146zM4690.332 180.422c-36.020-51.457-97.769-95.196-169.809-100.342-154.372-12.864-259.859 108.060-259.859 228.985s100.342 252.141 267.578 234.131c72.040-10.291 128.643-54.030 164.663-100.342v-259.859h-2.573zM316.462 684.704c-72.040-2.573-131.216-36.020-174.955-66.894v339.618h-141.508v-810.452c0 0 84.905-208.402 324.181-208.402s388.503 172.382 388.503 370.492c-2.573 208.402-149.226 385.93-396.221 375.638zM311.317 80.080c-72.040 7.719-131.216 54.030-169.809 100.342v259.859c33.447 46.312 95.196 90.050 164.663 100.342 164.663 20.583 267.578-110.633 267.578-236.704 0-115.779-108.060-241.849-262.432-223.839zM3676.623 684.704c-72.040-2.573-131.216-36.020-174.955-66.894v339.618h-141.508v-810.452c0 0 84.905-208.402 324.181-208.402s388.503 172.382 388.503 370.492c-5.146 208.402-149.226 385.93-396.221 375.638zM3668.905 80.080c-72.040 7.719-131.216 54.030-169.809 100.342v259.859c33.447 46.312 95.196 90.050 164.663 100.342 164.663 20.583 267.578-110.633 267.578-234.131-2.573-118.352-110.633-244.422-262.432-226.412zM6342.111 957.427v-344.764c-46.312 30.874-108.060 64.322-174.955 66.894-246.995 10.291-391.075-164.663-391.075-370.492 0-198.111 149.226-370.492 388.503-370.492s324.181 208.402 324.181 208.402v810.452h-146.653zM6342.111 180.422c-36.020-51.457-97.769-95.196-169.809-100.342-154.372-12.864-262.432 108.060-262.432 228.985s100.342 252.141 267.578 234.131c72.040-10.291 128.643-54.030 164.663-100.342v-262.432zM807.879 957.427h144.080v-1011.136h-144.080v1011.136zM2246.111 538.050c84.905 0 144.080-46.312 164.663-72.040 10.291 7.719 105.487 97.769 105.487 97.769-61.749 66.894-151.799 118.352-270.151 118.352-198.111 0-370.492-159.518-370.492-375.638 0-213.548 174.955-370.492 370.492-370.492 110.633 0 208.402 51.457 270.151 118.352l-100.342 105.487c-28.302-33.447-87.477-77.186-172.382-77.186-120.925 0-228.985 100.342-228.985 226.412 2.573 131.216 110.633 228.985 231.558 228.985zM5662.874 679.558h-144.080v-530.010c-36.020-33.447-84.905-72.040-164.663-72.040-151.799 0-228.985 131.216-228.985 244.422v357.628h-144.080v-367.92c0-169.809 131.216-375.638 375.638-375.638 144.080 0 244.422 87.477 244.422 87.477l77.186-74.613 95.196 97.769-105.487 105.487v527.437zM2619.176 960h144.080v-1011.136h-144.080v1011.136zM3298.412 674.412h-182.673l-329.327-373.065 344.764-349.91h200.683l-362.774 349.91z" horiz-adv-x="6486" />
<glyph unicode="&#xe63b;" d="M322.178 684.924c-71.595-3.768-131.886-37.682-176.162-67.827v342.903h-146.017v-813.925c0 0 84.784-210.075 325.947-210.075s390.006 173.336 390.006 373.049c-3.768 210.075-149.785 386.237-393.774 375.875zM311.816 78.248c-71.595 6.594-131.886 54.638-169.568 101.741v260.946c33.914 47.102 95.146 91.378 165.799 101.741 165.799 20.725 267.54-112.103 267.54-237.395 0.942-118.697-107.393-243.989-263.772-227.032z" horiz-adv-x="716" />
<glyph unicode="&#xe63c;" d="M962.56 524.069c-4.389 10.24-10.24 17.554-17.554 24.869-4.389 51.2-39.497 92.16-86.309 105.326-24.869 68.754-90.697 117.029-168.229 117.029-65.829 0-121.417-35.109-153.6-86.309 93.623-7.314 175.543-64.366 212.114-152.137 58.514-14.629 105.326-57.051 122.88-115.566h20.48c40.96 0 76.069 32.183 76.069 74.606 0 13.166-1.463 21.943-5.851 32.183zM504.686 546.011c-33.646 0-61.44-27.794-61.44-61.44 0-2.926 0-7.314 0-7.314h122.88c0 0 0 4.389 1.463 7.314-1.463 33.646-29.257 61.44-62.903 61.44zM503.223 439.223c-13.166 0-27.794-10.24-27.794-23.406 0-8.777 7.314-17.554 7.314-20.48v-48.274c0-5.851 8.777-11.703 14.629-11.703s14.629 5.851 14.629 11.703v48.274c0 4.389 14.629 11.703 13.166 20.48 0 11.703-8.777 23.406-21.943 23.406zM855.771 376.32c0 1.463 0 4.389 0 5.851s0 2.926 0 4.389c0 1.463 0 2.926 0 2.926s0 1.463 0 1.463 0 2.926-1.463 4.389c0 1.463 0 1.463 0 2.926s-1.463 2.926-1.463 4.389c0 0 0 0 0 0 0 1.463-1.463 4.389-1.463 5.851 0 0 0 0 0 1.463s-1.463 4.389-1.463 5.851c0 1.463-1.463 2.926-1.463 4.389-1.463 2.926-2.926 5.851-4.389 8.777 0 1.463-1.463 2.926-1.463 4.389s-1.463 2.926-2.926 4.389c-1.463 1.463-2.926 4.389-2.926 5.851-1.463 1.463-1.463 2.926-2.926 4.389 0 0 0 0 0 0-1.463 1.463-2.926 2.926-2.926 4.389 0 0 0 0 0 0-1.463 1.463-2.926 2.926-2.926 4.389-1.463 1.463-2.926 2.926-4.389 4.389 0 0 0 0 0 0-1.463 1.463-2.926 2.926-4.389 4.389 0 0 0 0 0 1.463-1.463 1.463-2.926 2.926-4.389 4.389 0 0 0 0 0 0-1.463 1.463-1.463 1.463-2.926 2.926 0 0-1.463 1.463-1.463 1.463-1.463 1.463-2.926 2.926-4.389 2.926-1.463 1.463-2.926 2.926-4.389 4.389s-2.926 2.926-5.851 4.389c0 0 0 0-1.463 0-1.463 1.463-2.926 1.463-4.389 2.926s-2.926 2.926-5.851 2.926c-1.463 1.463-2.926 1.463-4.389 2.926-2.926 1.463-4.389 2.926-7.314 2.926-1.463 1.463-2.926 1.463-5.851 2.926-1.463 0-2.926 1.463-5.851 1.463-2.926 1.463-5.851 1.463-8.777 2.926-1.463 0-2.926 1.463-4.389 1.463-2.926 0-4.389 1.463-7.314 1.463l-8.777 1.463-2.926 5.851c-1.463 2.926-1.463 5.851-2.926 7.314-1.463 2.926-2.926 5.851-2.926 7.314-4.389 8.777-8.777 16.091-13.166 23.406-1.463 2.926-2.926 4.389-4.389 7.314-5.851 8.777-13.166 17.554-20.48 24.869-1.463 1.463-2.926 2.926-2.926 2.926-1.463 1.463-1.463 1.463-2.926 2.926s-2.926 2.926-4.389 4.389c-1.463 1.463-2.926 2.926-4.389 2.926-1.463 1.463-2.926 2.926-4.389 2.926-1.463 1.463-2.926 2.926-5.851 4.389-1.463 1.463-2.926 1.463-4.389 2.926-1.463 0-1.463 1.463-2.926 1.463-1.463 1.463-1.463 1.463-2.926 2.926s-2.926 1.463-2.926 2.926-1.463 1.463-2.926 2.926-1.463 1.463-2.926 1.463c-1.463 1.463-2.926 1.463-4.389 2.926-1.463 0-1.463 1.463-2.926 1.463-1.463 1.463-2.926 1.463-4.389 1.463s-2.926 1.463-2.926 1.463c-1.463 0-1.463 1.463-2.926 1.463s-2.926 1.463-4.389 1.463c-1.463 1.463-4.389 1.463-5.851 2.926s-4.389 1.463-7.314 2.926c0 0-1.463 0-1.463 0-2.926 1.463-4.389 1.463-7.314 2.926-1.463 1.463-4.389 1.463-5.851 2.926-1.463 0-1.463 0-2.926 1.463-1.463 0-2.926 1.463-4.389 1.463s-1.463 0-2.926 1.463c-1.463 0-4.389 1.463-5.851 1.463 0 0-1.463 0-1.463 0-2.926 0-4.389 1.463-7.314 1.463s-5.851 1.463-8.777 1.463c-2.926 0-4.389 1.463-7.314 1.463-1.463 0-1.463 0-2.926 0s-4.389 0-5.851 0c0 0-1.463 0-1.463 0-1.463 0-4.389 0-7.314 0 0 0-1.463 0-1.463 0-2.926 0-4.389 0-7.314 0-1.463 0-4.389 0-5.851 0-93.623 0-178.469-59.977-210.651-147.749v1.463l-5.851-1.463c-39.497-11.703-73.143-39.497-90.697-76.069h-11.703c0 1.463-1.463 1.463-1.463 2.926-16.091 26.331-43.886 42.423-74.606 42.423h-1.463c-48.274 0-87.771-39.497-89.234-87.771-1.463-49.737 38.034-89.234 87.771-90.697h1.463c14.629 0 29.257 2.926 40.96 10.24 0-1.463 0-2.926 0-2.926 0-48.274 39.497-89.234 87.771-89.234h456.411c81.92 0 149.211 67.291 149.211 149.211 0 2.926 0 4.389 0 7.314 0 0 0 2.926 0 4.389zM371.566 377.783l-11.703-20.48-11.703 21.943h-10.24l-11.703-20.48-11.703 21.943h-8.777l-11.703-20.48-11.703 21.943h-7.314l-16.091-27.794-67.291 1.463c-13.166-26.331-39.497-38.034-68.754-38.034h-2.926c-42.423 0-76.069 32.183-74.606 74.606 1.463 39.497 35.109 70.217 76.069 70.217h1.463c26.331 0 49.737-14.629 62.903-36.571 0 0 0-1.463 1.463-1.463 0-1.463 1.463-2.926 1.463-2.926l1.463-2.926 187.246-4.389 4.389-8.777 19.017-32.183-8.777-16.091-11.703 20.48h-8.777zM629.029 301.714c0-8.777-7.314-14.629-16.091-14.629h-217.966c-7.314 0-14.629 5.851-14.629 14.629v49.737l11.703-20.48 24.869 40.96-21.943 38.034-8.777 14.629h-5.851v33.646c0 8.777 7.314 17.554 14.629 17.554h11.703v1.463c0 2.926-1.463 4.389-1.463 5.851 0 54.126 43.886 98.011 98.011 98.011s98.011-43.886 98.011-98.011c0-1.463-1.463-1.463-1.463-2.926s-1.463-2.926-1.463-4.389v0h13.166c8.777 0 16.091-8.777 16.091-17.554v-156.526zM81.92 418.743v0c-14.629 0-24.869-14.629-24.869-29.257 0-7.314 2.926-14.629 7.314-20.48 2.926-4.389 8.777-8.777 16.091-8.777v0c13.166 0 24.869 11.703 24.869 26.331 0 4.389-1.463 13.166-2.926 17.554-4.389 7.314-13.166 14.629-20.48 14.629zM80.457 371.931v0c-2.926 0-5.851 1.463-8.777 4.389s0 5.851 0 10.24c0 7.314 16.091 13.166 16.091 13.166v5.851l-2.926-5.851c4.389 0 5.851-2.926 8.777-5.851 1.463-1.463 1.463-4.389 1.463-7.314-1.463-8.777-7.314-14.629-14.629-14.629z" />
<glyph unicode="&#xe63d;" d="M517.851 905.874c-258.926 0-468.114-209.189-468.114-468.114s209.189-468.114 468.114-468.114c258.926 0 468.114 209.189 468.114 468.114s-209.189 468.114-468.114 468.114zM517.851 41.326c-219.429 0-396.434 177.006-396.434 396.434s177.006 396.434 396.434 396.434c219.429 0 396.434-177.006 396.434-396.434s-177.006-396.434-396.434-396.434zM469.577 282.697h81.92v-77.531h-81.92v77.531zM471.040 676.206h81.92v-349.623h-81.92v349.623z" />
<glyph unicode="&#xe63e;" d="M731.429 67.657h-528.091l1.463 409.6v351.086h285.257c33.646-14.629 70.217-57.051 71.68-122.88 1.463-7.314 62.903 14.629 128.731-36.571l65.829 52.663c-36.571 87.771-125.806 150.674-232.594 150.674h-346.697c-10.24 0-16.091-5.851-16.091-17.554v-808.96c0-10.24 5.851-21.943 16.091-21.943h574.903c10.24 0 20.48 10.24 20.48 20.48v315.977c-14.629 0-26.331 0-40.96 0v-292.571zM642.194 347.063l-33.646 36.571-35.109 36.571-14.629-51.2-16.091-51.2 49.737 14.629zM593.92 437.76l68.754-74.606 175.543 175.543-68.754 74.606zM811.886 655.726l-23.406-23.406 68.754-74.606 23.406 23.406zM599.771 620.617c0 8.777-11.703 17.554-20.48 17.554h-298.423c-8.777 0-17.554-7.314-17.554-17.554v-5.851c0-8.777 8.777-21.943 17.554-21.943h298.423c8.777 0 20.48 13.166 20.48 21.943v5.851zM570.514 505.051c0 8.777-7.314 16.091-16.091 16.091h-275.017c-8.777 0-16.091-7.314-16.091-16.091v-11.703c0-8.777 7.314-16.091 16.091-16.091h275.017c8.777 0 16.091 7.314 16.091 16.091v11.703zM512 398.263v5.851c0 8.777-11.703 14.629-20.48 14.629h-210.651c-8.777 0-17.554-5.851-17.554-14.629v-5.851c0-8.777 8.777-23.406 17.554-23.406h210.651c8.777 0 20.48 14.629 20.48 23.406zM413.989 301.714h-133.12c-8.777 0-17.554-5.851-17.554-14.629v-5.851c0-8.777 8.777-23.406 17.554-23.406h181.394c8.777 0 20.48 14.629 20.48 23.406v5.851c0 8.777-11.703 14.629-20.48 14.629h-48.274z" />
<glyph unicode="&#xe63f;" d="M994.743 804.937c0 61.44-49.737 111.177-111.177 111.177h-713.874c-61.44 0-111.177-49.737-111.177-111.177v-712.411c0-61.44 49.737-111.177 111.177-111.177h712.411c61.44 0 111.177 49.737 111.177 111.177v712.411zM892.343 82.286h-731.429v731.429h731.429v-731.429zM292.571 374.857h160.914v-159.451c0-33.646 39.497-61.44 73.143-61.44s73.143 27.794 73.143 61.44v159.451h149.211c33.646 0 61.44 39.497 61.44 73.143s-27.794 73.143-61.44 73.143h-149.211v150.674c0 33.646-39.497 61.44-73.143 61.44s-73.143-27.794-73.143-61.44v-150.674h-160.914c-33.646 0-61.44-39.497-61.44-73.143s27.794-73.143 61.44-73.143z" />
<glyph unicode="&#xe640;" d="M980.114 804.937c0 61.44-49.737 111.177-111.177 111.177h-713.874c-61.44 0-111.177-49.737-111.177-111.177v-712.411c0-61.44 49.737-111.177 111.177-111.177h712.411c61.44 0 111.177 49.737 111.177 111.177v712.411zM877.714 82.286h-731.429v731.429h731.429v-731.429zM438.857 374.857h-160.914c-33.646 0-61.44 39.497-61.44 73.143s27.794 73.143 61.44 73.143h456.411c33.646 0 61.44-39.497 61.44-73.143s-27.794-73.143-61.44-73.143h-295.497z" />
<glyph unicode="&#xe641;" d="M541.257 869.303v-62.903c29.257 0 48.274-1.463 71.68-5.851 136.046-26.331 248.686-136.046 275.017-272.091 46.811-244.297-162.377-453.486-406.674-408.137-136.046 26.331-245.76 136.046-272.091 272.091-21.943 112.64 11.703 217.966 77.531 294.034l16.091-226.743 103.863 386.194-386.194-102.4 219.429-16.091c-48.274-55.589-81.92-122.88-93.623-197.486-45.349-280.869 193.097-517.851 472.503-472.503 169.691 27.794 301.349 163.84 329.143 333.531 42.423 256-143.36 476.891-406.674 478.354z" />
<glyph unicode="&#xe642;" d="M481.28 589.897c-4.389 4.389-10.24 2.926-16.091-1.463l-92.16-83.383-38.034 32.183c-2.926 2.926-7.314 2.926-11.703-1.463-2.926-2.926-4.389-5.851-7.314-10.24-2.926-5.851-1.463-13.166 2.926-17.554l49.737-43.886c2.926-2.926 10.24-5.851 14.629-1.463l100.937 99.474c5.851 5.851 5.851 16.091 1.463 21.943 0 2.926-2.926 4.389-4.389 5.851zM478.354 354.377c-4.389 4.389-10.24 2.926-16.091-1.463l-92.16-83.383-38.034 32.183c-2.926 2.926-7.314 2.926-11.703-1.463-2.926-2.926-4.389-5.851-7.314-10.24-2.926-5.851-1.463-13.166 2.926-17.554l49.737-43.886c2.926-2.926 10.24-5.851 14.629-1.463l100.937 99.474c5.851 5.851 5.851 16.091 1.463 21.943-1.463 2.926-2.926 4.389-4.389 5.851zM867.474 652.8c-1.463 146.286-122.88 263.314-270.629 263.314h-380.343c-11.703 0-26.331-17.554-26.331-29.257v-882.103c0-11.703 16.091-26.331 27.794-26.331h627.566c11.703 0 21.943 10.24 21.943 21.943v652.434zM819.2 644.023v-611.474h-570.514v825.051h311.589c36.571-14.629 77.531-62.903 77.531-133.12 1.463-10.24 93.623 27.794 181.394-80.457zM731.429 529.92c0 2.926-2.926 5.851-5.851 5.851h-163.84c-2.926 0-5.851-2.926-5.851-5.851v-17.554c0-2.926 2.926-5.851 5.851-5.851h163.84c2.926 0 5.851 2.926 5.851 5.851v17.554zM731.429 310.491c0 2.926-2.926 5.851-5.851 5.851h-163.84c-2.926 0-5.851-2.926-5.851-5.851v-17.554c0-2.926 2.926-5.851 5.851-5.851h163.84c2.926 0 5.851 2.926 5.851 5.851v17.554z" />
<glyph unicode="&#xe643;" d="M511.4 64.45v0l-392.553 895.55h-118.846v-1024h85.233v887.147h8.403l392.553-887.147h118.846v1024h-93.637v-895.55zM1330.12 960h-93.637l-213.683-417.763-220.886 417.763h-93.637l255.7-502.996-280.91-519.803h93.637l238.893 434.57 238.893-434.57h93.637l-280.91 519.803 262.903 502.996zM1398.546 883.17h264.103v-947.17h93.637v947.17h264.103v76.83h-623.043l1.2-76.83z" horiz-adv-x="2020" />
<glyph unicode="&#xe644;" d="M0 953.173h284.444c113.778 0 204.8-56.889 204.8-207.076 0-104.676-45.511-182.044-134.258-195.698v-2.276c79.644-9.102 120.604-52.338 127.431-163.84 0-52.338 2.276-116.053 4.551-163.84 2.276-40.96 20.48-59.164 38.684-70.542h-145.636c-13.653 13.653-18.204 40.96-20.48 70.542-4.551 47.787-2.276 93.298-4.551 154.738-2.276 88.747-29.582 127.431-118.329 127.431h-106.951v-350.436h-129.707v800.996zM232.107 591.36c84.196 0 129.707 47.787 129.707 131.982 0 86.471-38.684 131.982-120.604 131.982h-111.502v-263.964h102.4zM996.693 270.507c0-20.48 13.653-43.236 31.858-43.236 9.102 0 15.929 0 20.48 2.276v-77.369c-13.653-9.102-34.133-13.653-59.164-13.653-54.613 0-100.124 20.48-102.4 79.644h-2.276c-31.858-59.164-79.644-88.747-150.187-88.747-97.849 0-159.289 54.613-159.289 170.667 0 134.258 59.164 163.84 138.809 191.147l93.298 27.307c43.236 13.653 70.542 25.031 70.542 77.369 0 56.889-18.204 91.022-84.196 91.022-79.644 0-91.022-56.889-91.022-116.053h-116.053c0 129.707 54.613 200.249 213.902 200.249 106.951 0 193.422-43.236 193.422-147.911l2.276-352.711zM880.64 466.204c-31.858-25.031-100.124-40.96-134.258-56.889-36.409-15.929-47.787-54.613-47.787-97.849 0-52.338 25.031-91.022 75.093-91.022 72.818 0 111.502 56.889 111.502 145.636v100.124h-4.551zM1126.4 960h120.604v-120.604h-120.604c0 0 0 120.604 0 120.604zM1126.4 752.924h120.604v-607.573h-120.604v607.573zM1636.124 575.431v15.929c0 47.787-15.929 93.298-79.644 93.298-47.787 0-86.471-20.48-86.471-77.369 0-47.787 20.48-68.267 86.471-88.747l77.369-27.307c91.022-29.582 131.982-77.369 131.982-175.218 0-129.707-93.298-186.596-218.453-186.596-154.738 0-200.249 70.542-200.249 188.871v20.48h106.951v-18.204c0-70.542 25.031-106.951 93.298-106.951s100.124 34.133 100.124 88.747c0 45.511-25.031 75.093-68.267 88.747l-100.124 34.133c-91.022 31.858-129.707 77.369-129.707 175.218 0 113.778 84.196 166.116 207.076 166.116 154.738 0 188.871-91.022 188.871-166.116v-25.031h-109.227zM1947.876 432.071v-34.133c0-79.644 11.378-186.596 102.4-186.596 86.471 0 97.849 100.124 97.849 134.258h116.053c0-134.258-79.644-218.453-213.902-218.453-100.124 0-223.004 29.582-223.004 309.476 0 159.289 34.133 327.68 223.004 327.68 170.667 0 216.178-102.4 216.178-273.067v-63.716h-318.578v4.551zM2141.298 516.267v31.858c0 77.369-25.031 134.258-93.298 134.258-77.369 0-102.4-77.369-102.4-157.013v-13.653h195.698v4.551zM2364.302 752.924h120.604v-93.298h2.276c27.307 68.267 72.818 111.502 138.809 111.502 13.653 0 20.48-2.276 29.582-4.551v-122.88c-9.102 2.276-29.582 9.102-52.338 9.102-56.889 0-120.604-25.031-120.604-136.533v-364.089h-120.604l2.276 600.747zM2767.076 953.173h129.707v-147.911c0-88.747-29.582-154.738-129.707-175.218v63.716c34.133 9.102 56.889 43.236 56.889 91.022v18.204h-56.889v150.187zM3224.462 575.431v15.929c0 47.787-15.929 93.298-79.644 93.298-47.787 0-86.471-20.48-86.471-77.369 0-47.787 20.48-68.267 86.471-88.747l77.369-27.307c91.022-29.582 131.982-77.369 131.982-175.218 0-129.707-93.298-186.596-218.453-186.596-154.738 0-200.249 70.542-200.249 188.871v20.48h106.951v-18.204c0-70.542 25.031-106.951 93.298-106.951s100.124 34.133 100.124 88.747c0 45.511-25.031 75.093-68.267 88.747l-100.124 34.133c-91.022 31.858-129.707 77.369-129.707 175.218 0 113.778 84.196 166.116 207.076 166.116 154.738 0 188.871-91.022 188.871-166.116v-25.031h-109.227zM3722.809 953.173h436.907v-106.951h-307.2v-225.28h288.996v-106.951h-288.996v-259.413h314.027v-106.951h-443.733v805.547zM4567.040 220.444v0c-18.204-40.96-47.787-91.022-134.258-91.022-143.36 0-200.249 118.329-200.249 327.68 0 268.516 93.298 311.751 188.871 311.751 63.716 0 116.053-31.858 136.533-86.471h2.276v270.791h120.604v-805.547h-113.778v72.818zM4457.813 673.28c-70.542 0-93.298-56.889-93.298-220.729 0-136.533 18.204-223.004 102.4-223.004s102.4 86.471 102.4 216.178c-2.276 143.36-20.48 227.556-111.502 227.556v0zM4899.271 93.013c0-38.684 34.133-72.818 88.747-72.818 61.44 0 102.4 43.236 102.4 113.778v97.849h-2.276c-20.48-54.613-77.369-84.196-136.533-84.196-143.36 0-182.044 138.809-182.044 307.2 0 131.982 20.48 311.751 193.422 311.751 70.542 0 120.604-45.511 131.982-91.022h2.276v77.369h116.053v-580.267c0-147.911-61.44-236.658-225.28-236.658-179.769 0-202.524 104.676-202.524 157.013h113.778zM4985.742 247.751c93.298 0 104.676 118.329 104.676 216.178 0 100.124-13.653 209.351-97.849 209.351-88.747 0-102.4-91.022-102.4-202.524 2.276-104.676 4.551-223.004 95.573-223.004zM5415.822 432.071v-34.133c0-79.644 11.378-186.596 102.4-186.596 86.471 0 97.849 100.124 97.849 134.258h116.053c0-134.258-79.644-218.453-213.902-218.453-100.124 0-223.004 29.582-223.004 309.476 0 159.289 34.133 327.68 223.004 327.68 170.667 0 216.178-102.4 216.178-273.067v-63.716h-318.578v4.551zM5611.52 516.267v31.858c0 77.369-25.031 134.258-93.298 134.258-77.369 0-102.4-77.369-102.4-157.013v-13.653h195.698v4.551z" horiz-adv-x="5734" />
<glyph unicode="&#xe645;" d="M0 950.106h432.85v-108.831h-304.232v-227.556h284.444v-108.831h-284.444v-368.541h-128.618v813.758zM546.628 960h121.198v-121.198h-121.198v121.198zM546.628 749.758h121.198v-610.937h-121.198v610.937zM791.498 749.758h116.251v-69.256h2.473c29.681 54.415 89.043 86.57 155.826 86.57 91.517 0 150.879-44.522 150.879-165.72v-460.058h-121.198v418.010c0 79.15-24.734 111.304-84.097 111.304-49.469 0-96.464-39.575-96.464-118.725v-408.116h-121.198l-2.473 605.99zM1726.454 267.44c0-22.261 12.367-44.522 32.155-44.522 7.42 0 17.314 0 22.261 2.473v-79.15c-12.367-7.42-34.628-12.367-59.362-12.367-54.415 0-98.937 22.261-103.884 81.623h-4.947c-32.155-59.362-81.623-89.043-150.879-89.043-96.464 0-158.3 54.415-158.3 170.667 0 136.039 59.362 165.72 140.986 192.928l93.99 27.208c44.522 12.367 69.256 24.734 69.256 79.15 0 56.889-19.787 91.517-84.097 91.517-81.623 0-91.517-56.889-91.517-116.251h-116.251c0 131.092 54.415 200.348 212.715 200.348 108.831 0 195.401-44.522 195.401-148.406l2.473-356.174zM1610.203 460.367c-32.155-24.734-98.937-39.575-136.039-56.889-34.628-17.314-49.469-54.415-49.469-96.464 0-51.942 24.734-91.517 76.676-91.517 71.729 0 111.304 56.889 111.304 145.932l-2.473 98.937zM1850.126 749.758h116.251v-69.256h2.473c29.681 54.415 89.043 86.57 155.826 86.57 91.517 0 150.879-44.522 150.879-165.72v-460.058h-121.198v418.010c0 79.15-24.734 111.304-84.097 111.304-49.469 0-96.464-39.575-96.464-118.725v-408.116h-121.198l-2.473 605.99zM2807.343 361.43c-7.42-145.932-56.889-237.449-207.768-237.449-175.614 0-227.556 133.565-227.556 321.546s49.469 321.546 227.556 321.546c183.034 2.473 210.242-143.459 210.242-220.135h-121.198c0 56.889-17.314 131.092-86.57 126.145-89.043 0-106.357-93.99-106.357-230.029s17.314-230.029 106.357-230.029c66.783 0 91.517 56.889 91.517 148.406h113.778zM2903.807 960h121.198v-121.198h-121.198v121.198zM2903.807 749.758h121.198v-610.937h-121.198v610.937zM3549.372 267.44c0-22.261 12.367-44.522 32.155-44.522 7.42 0 17.314 0 22.261 2.473v-79.15c-12.367-7.42-34.628-12.367-59.362-12.367-54.415 0-98.937 22.261-103.884 81.623h-2.473c-32.155-59.362-81.623-89.043-150.879-89.043-96.464 0-158.3 54.415-158.3 170.667 0 136.039 59.362 165.72 140.986 192.928l93.99 27.208c44.522 12.367 69.256 24.734 69.256 79.15 0 56.889-19.787 91.517-84.097 91.517-81.623 0-91.517-56.889-91.517-116.251h-116.251c0 131.092 54.415 200.348 212.715 200.348 108.831 0 195.401-44.522 195.401-148.406v-356.174zM3438.068 460.367c-32.155-24.734-98.937-39.575-136.039-56.889s-49.469-54.415-49.469-96.464c0-51.942 24.734-91.517 76.676-91.517 71.729 0 111.304 56.889 111.304 145.932v98.937h-2.473zM3687.884 950.106h121.198v-808.812h-121.198v808.812zM4212.251 950.106h437.797v-108.831h-309.179v-227.556h289.391v-108.831h-289.391v-259.71h316.599v-108.831h-445.217v813.758zM5063.111 217.971v0c-19.787-39.575-49.469-91.517-136.039-91.517-143.459 0-200.348 118.725-200.348 328.966 0 269.604 93.99 314.126 190.454 314.126 64.309 0 116.251-32.155 138.512-86.57h2.473v269.604h121.198v-808.812h-116.251v74.203zM4951.807 670.609c-69.256 0-93.99-56.889-93.99-222.609 0-138.512 19.787-225.082 103.884-225.082s103.884 86.57 103.884 215.188c-2.473 150.879-19.787 232.502-113.778 232.502v0zM5397.024 89.353c0-37.101 34.628-71.729 89.043-71.729 61.836 0 103.884 44.522 103.884 113.778v96.464h-2.473c-22.261-54.415-79.15-84.097-138.512-84.097-143.459 0-183.034 140.986-183.034 309.179 0 133.565 22.261 314.126 195.401 314.126 69.256 0 121.198-46.995 133.565-91.517h2.473v79.15h116.251v-581.256c0-148.406-61.836-237.449-227.556-237.449-180.56 0-202.821 106.357-202.821 155.826l113.778-2.473zM5481.121 242.705c93.99 0 106.357 118.725 106.357 215.188 0 98.937-12.367 210.242-96.464 210.242-89.043 0-103.884-91.517-103.884-202.821 0-103.884 4.947-222.609 93.99-222.609zM5913.971 428.213v-34.628c0-81.623 9.894-185.507 103.884-185.507 86.57 0 96.464 98.937 96.464 136.039h116.251c0-136.039-81.623-220.135-212.715-220.135-98.937 0-225.082 29.681-225.082 311.652 0 158.3 34.628 328.966 225.082 328.966 170.667 0 215.188-103.884 215.188-272.077v-64.309h-319.072zM6111.845 514.783v32.155c0 79.15-24.734 136.039-93.99 136.039-79.15 0-103.884-79.15-103.884-155.826v-12.367h197.874z" horiz-adv-x="6233" />
<glyph unicode="&#xe646;" d="M981.577 529.92c-30.72 193.097-187.246 349.623-381.806 381.806-320.366 52.663-593.92-220.891-541.257-541.257 32.183-194.56 188.709-351.086 381.806-381.806 321.829-52.663 593.92 220.891 541.257 541.257zM909.897 371.931c-29.257-156.526-155.063-282.331-311.589-311.589-279.406-52.663-520.777 188.709-466.651 468.114 29.257 156.526 155.063 282.331 311.589 311.589 279.406 52.663 519.314-188.709 466.651-468.114zM380.343 449.463c0-33.124-26.853-59.977-59.977-59.977s-59.977 26.853-59.977 59.977c0 33.124 26.853 59.977 59.977 59.977s59.977-26.853 59.977-59.977zM580.754 449.463c0-33.124-26.853-59.977-59.977-59.977s-59.977 26.853-59.977 59.977c0 33.124 26.853 59.977 59.977 59.977s59.977-26.853 59.977-59.977zM781.166 449.463c0-33.124-26.853-59.977-59.977-59.977s-59.977 26.853-59.977 59.977c0 33.124 26.853 59.977 59.977 59.977s59.977-26.853 59.977-59.977z" />
<glyph unicode="&#xe647;" d="M901.12 620.617v-181.394c-26.331-38.034-83.383-67.291-155.063-87.771s-157.989-30.72-241.371-30.72-169.691 10.24-241.371 30.72c-59.977 16.091-109.714 39.497-138.971 70.217v198.949c0 8.777 1.463 17.554 5.851 24.869 68.754-61.44 226.743-95.086 375.954-95.086 156.526 0 321.829 36.571 384.731 103.863 5.851-10.24 10.24-21.943 10.24-33.646zM901.12 276.846v-181.394c-26.331-38.034-83.383-67.291-155.063-87.771s-157.989-30.72-241.371-30.72-169.691 11.703-241.371 30.72c-59.977 16.091-109.714 39.497-138.971 70.217v198.949c0 8.777 1.463 17.554 5.851 24.869 68.754-61.44 226.743-95.086 375.954-95.086 156.526 0 321.829 36.571 384.731 103.863 5.851-8.777 10.24-20.48 10.24-33.646zM896.731 787.383c0-59.977-163.84-125.806-384.731-125.806-219.429 0-384.731 65.829-384.731 125.806s165.303 127.269 384.731 127.269c219.429 0 384.731-67.291 384.731-127.269z" />
<glyph unicode="&#xe648;" d="M2373.457 208.537c-2.646 47.628-2.646 111.132-5.292 161.406-5.292 111.132-44.982 153.468-124.362 161.406v2.646c87.318 13.23 132.3 92.61 132.3 193.158 0 148.176-89.964 203.742-201.096 203.742h-277.829v-791.152h127.008v343.979h103.194c87.318 0 113.778-37.044 116.424-124.362 2.646-58.212 0-103.194 5.292-150.822 2.646-31.752 7.938-55.566 21.168-68.796h142.884c-18.522 10.584-37.044 29.106-39.69 68.796zM2124.734 578.977h-100.548v259.307h108.486c82.026 0 119.070-44.982 119.070-129.654 0-79.38-44.982-129.654-127.008-129.654zM2876.196 264.103v341.333c0 105.84-84.672 145.53-190.512 145.53-158.76 0-209.034-68.796-209.034-195.804h113.778c0 58.212 10.584 113.778 89.964 113.778 63.504 0 82.026-34.398 82.026-89.964 0-52.92-26.46-63.504-68.796-76.734l-92.61-26.46c-82.026-26.46-137.592-55.566-137.592-187.866 0-113.778 60.858-166.698 156.114-166.698 68.796 0 116.424 29.106 148.176 87.318h2.646c2.646-58.212 47.628-79.38 100.548-79.38 23.814 0 44.982 7.938 58.212 13.23v76.734c-5.292-2.646-13.23-2.646-21.168-2.646-18.522 5.292-31.752 26.46-31.752 47.628zM2762.419 356.713c0-87.318-34.398-142.884-108.486-142.884-50.274 0-74.088 39.69-74.088 89.964 0 44.982 13.23 79.38 47.628 95.256s103.194 31.752 132.3 55.566v-97.902zM3003.204 941.478h119.070v-119.070h-119.070v119.070zM3003.204 737.736h119.070v-597.995h-119.070v597.995zM3500.651 478.429l-76.734 26.46c-63.504 21.168-84.672 42.336-84.672 87.318 0 55.566 37.044 76.734 84.672 76.734 60.858 0 79.38-44.982 79.38-92.61v-13.23h113.778v26.46c0 74.088-34.398 164.052-185.22 164.052-124.362 0-203.742-52.92-203.742-164.052 0-95.256 37.044-140.238 127.008-171.99l97.902-34.398c42.336-13.23 66.15-42.336 66.15-87.318 0-55.566-31.752-87.318-97.902-87.318-68.796 0-92.61 37.044-92.61 105.84v18.522h-105.84v-21.168c0-116.424 44.982-185.22 195.804-185.22 121.716 0 214.326 55.566 214.326 182.574-2.646 92.61-44.982 140.238-132.3 169.344zM3910.78 753.612c-187.866 0-219.618-166.698-219.618-322.811 0-275.183 121.716-304.289 219.618-304.289 129.654 0 209.034 82.026 209.034 214.326h-113.778c0-34.398-10.584-132.3-95.256-132.3-89.964 0-100.548 103.194-100.548 182.574v34.398h312.227v63.504c0 164.052-44.982 264.599-211.68 264.599zM4000.744 504.889h-190.512v13.23c0 76.734 23.814 153.468 100.548 153.468 68.796 0 92.61-58.212 92.61-132.3v-34.398zM4342.078 645.127v0l-2.646 92.61h-119.070v-597.995h119.070v357.209c0 111.132 66.15 134.946 119.070 134.946 21.168 0 42.336-5.292 50.274-7.938v124.362c-7.938 2.646-15.876 5.292-29.106 5.292-66.15 0-111.132-42.336-137.592-108.486zM4614.615 785.364h55.566v-15.876c0-47.628-21.168-82.026-55.566-89.964v-63.504c97.902 18.522 127.008 82.026 127.008 171.99v145.53h-127.008v-148.176zM5061.788 478.429l-76.734 26.46c-63.504 21.168-84.672 42.336-84.672 87.318 0 55.566 37.044 76.734 84.672 76.734 60.858 0 79.38-44.982 79.38-92.61v-13.23h113.778v26.46c0 74.088-34.398 164.052-185.22 164.052-124.362 0-203.742-52.92-203.742-164.052 0-95.256 37.044-140.238 127.008-171.99l97.902-34.398c42.336-13.23 66.15-42.336 66.15-87.318 0-55.566-31.752-87.318-97.902-87.318-68.796 0-92.61 37.044-92.61 105.84v18.522h-105.84v-21.168c0-116.424 44.982-185.22 195.804-185.22 121.716 0 214.326 55.566 214.326 182.574-2.646 92.61-44.982 140.238-132.3 169.344zM5680.951 499.597h283.121v105.84h-283.121v219.618h301.643v108.486h-428.651v-793.798h436.589v105.84h-309.581zM6376.848 666.295v0c-23.814 52.92-74.088 84.672-137.592 84.672-89.964 0-185.22-42.336-185.22-306.935 0-206.388 55.566-322.811 195.804-322.811 84.672 0 116.424 50.274 129.654 89.964h2.646v-71.442h113.778v793.798h-119.070v-267.245zM6284.238 219.121c-82.026 0-100.548 84.672-100.548 219.618 0 161.406 23.814 216.972 92.61 216.972 92.61 0 108.486-82.026 108.486-224.91 0-127.008-18.522-211.68-100.548-211.68zM6906.047 663.649v0c-13.23 42.336-63.504 89.964-132.3 89.964-169.344 0-190.512-177.282-190.512-306.935 0-164.052 39.69-301.643 179.928-301.643 58.212 0 113.778 29.106 134.946 82.026h2.646v-95.256c0-68.796-39.69-111.132-100.548-111.132-52.92 0-87.318 34.398-87.318 71.442h-113.778c0-47.628 21.168-153.468 198.45-153.468 161.406 0 222.264 87.318 222.264 232.848v566.243h-113.778v-74.088zM6794.915 240.289c-89.964 0-92.61 116.424-92.61 216.972 0 111.132 13.23 198.45 100.548 198.45 82.026 0 95.256-108.486 95.256-206.388 0-92.61-10.584-209.034-103.194-209.034zM7318.822 753.612c-187.866 0-219.618-166.698-219.618-322.811 0-275.183 121.716-304.289 219.618-304.289 129.654 0 209.034 82.026 209.034 214.326h-113.778c0-34.398-10.584-132.3-95.256-132.3-89.964 0-100.548 103.194-100.548 182.574v34.398h312.227v63.504c0 164.052-44.982 264.599-211.68 264.599zM7408.786 504.889h-193.158v13.23c0 76.734 23.814 153.468 100.548 153.468 68.796 0 92.61-58.212 92.61-132.3v-34.398zM0 825.054h187.866v-685.313h127.008v685.313h185.22v105.84h-500.093zM849.364 750.966c-60.858 0-113.778-31.752-145.53-82.026l-2.646 2.646v259.307h-119.070v-791.152h119.070v399.545c0 76.734 47.628 116.424 95.256 116.424 60.858 0 82.026-29.106 82.026-108.486v-407.483h119.070v449.819c0 121.716-55.566 161.406-148.176 161.406zM1296.537 750.966c-187.866 0-219.618-166.698-219.618-322.811 0-275.183 121.716-304.289 219.618-304.289 129.654 0 209.034 82.026 209.034 214.326h-113.778c0-34.398-10.584-132.3-95.256-132.3-89.964 0-100.548 103.194-100.548 182.574v34.398h312.227v63.504c-2.646 166.698-47.628 264.599-211.68 264.599zM1386.501 504.889h-190.512v13.23c0 76.734 23.814 153.468 100.548 153.468 68.796 0 92.61-58.212 92.61-132.3v-34.398zM7731.597 960c-76.734 0-137.592-60.858-137.592-137.592s60.858-137.592 137.592-137.592c76.734 0 137.592 60.858 137.592 137.592s-60.858 137.592-137.592 137.592zM7731.597 713.922c-58.212 0-103.194 47.628-103.194 108.486s47.628 108.486 103.194 108.486c58.212 0 103.194-47.628 103.194-108.486s-44.982-108.486-103.194-108.486zM7792.455 856.806c0 31.752-21.168 44.982-58.212 44.982h-60.858v-156.114h26.46v63.504h23.814l39.69-66.15h31.752l-42.336 68.796c21.168 2.646 39.69 15.876 39.69 44.982zM7699.845 832.992v44.982h29.106c15.876 0 34.398-2.646 34.398-21.168 0-21.168-18.522-23.814-37.044-23.814h-26.46z" horiz-adv-x="7869" />
<glyph unicode="&#xe649;" d="M1907.034 140.8h127.668v361.725h279.273v106.39h-279.273v220.758h297.891v106.39h-425.558zM2444.301 739.242h119.688v-601.101h-119.688v601.101zM2444.301 946.701h119.688v-119.688h-119.688v119.688zM2957.631 755.2c-66.494 0-125.008-31.917-154.265-85.112h-2.66v69.153h-114.369v-601.101h119.688v404.281c0 77.132 47.875 117.029 95.751 117.029 61.174 0 82.452-29.257 82.452-109.049v-412.26h119.688v452.156c2.66 125.008-55.855 164.904-146.286 164.904zM3603.948 265.808v343.106c0 106.39-85.112 146.286-191.501 146.286-159.584 0-210.119-69.153-210.119-196.821h114.369c0 58.514 10.639 114.369 90.431 114.369 63.834 0 82.452-34.577 82.452-90.431 0-53.195-26.597-63.834-69.153-77.132l-93.091-26.597c-82.452-26.597-138.306-55.855-138.306-188.842 0-114.369 61.174-167.564 156.925-167.564 69.153 0 117.029 29.257 148.945 87.771h2.66c2.66-58.514 47.875-79.792 101.070-79.792 23.938 0 45.216 7.979 58.514 13.299v77.132c-5.319-2.66-13.299-2.66-21.278-2.66-18.618 5.319-31.917 23.938-31.917 47.875zM3489.579 356.239c0-87.771-34.577-143.626-109.049-143.626-50.535 0-74.473 39.896-74.473 90.431 0 45.216 13.299 79.792 47.875 95.751s103.73 31.917 132.987 55.855v-98.41zM3997.59 755.2c-66.494 0-125.008-31.917-154.265-85.112h-2.66v69.153h-114.369v-601.101h119.688v404.281c0 77.132 47.875 117.029 95.751 117.029 61.174 0 82.452-29.257 82.452-109.049v-412.26h119.688v452.156c2.66 125.008-53.195 164.904-146.286 164.904zM4463.044 667.429c69.153 2.66 85.112-69.153 85.112-125.008h119.688c0 74.473-26.597 218.099-207.46 215.439-172.883 0-223.418-130.327-223.418-316.509s47.875-316.509 223.418-316.509c148.945 0 196.821 90.431 204.8 234.057h-114.369c0-90.431-23.938-146.286-90.431-146.286-87.771 0-103.73 93.091-103.73 226.078 5.319 135.647 18.618 228.738 106.39 228.738zM4763.595 946.701h119.688v-119.688h-119.688v119.688zM4763.595 739.242h119.688v-601.101h-119.688v601.101zM5399.273 265.808v343.106c0 106.39-85.112 146.286-191.501 146.286-159.584 0-210.119-69.153-210.119-196.821h114.369c0 58.514 10.639 114.369 90.431 114.369 63.834 0 82.452-34.577 82.452-90.431 0-53.195-26.597-63.834-69.153-77.132l-93.091-26.597c-82.452-26.597-138.306-55.855-138.306-188.842 0-114.369 61.174-167.564 156.925-167.564 69.153 0 117.029 29.257 148.945 87.771h2.66c2.66-58.514 47.875-79.792 101.070-79.792 23.938 0 45.216 7.979 58.514 13.299v77.132c-5.319-2.66-13.299-2.66-21.278-2.66-18.618 5.319-31.917 23.938-31.917 47.875zM5287.564 356.239c0-87.771-34.577-143.626-109.049-143.626-50.535 0-74.473 39.896-74.473 90.431 0 45.216 13.299 79.792 47.875 95.751s103.73 31.917 132.987 55.855v-98.41zM5534.919 936.062h119.688v-795.262h-119.688v795.262zM6178.577 502.525h284.592v106.39h-284.592v220.758h303.21v106.39h-430.878v-795.262h441.517v106.39h-313.849zM6880.748 670.088v0c-23.938 53.195-74.473 85.112-138.306 85.112-90.431 0-186.182-42.556-186.182-308.53 0-207.46 55.855-324.488 196.821-324.488 85.112 0 117.029 50.535 130.327 90.431h2.66v-74.473h114.369v797.922h-119.688v-265.974zM6784.997 220.592c-82.452 0-101.070 85.112-101.070 220.758 0 162.244 23.938 218.099 93.091 218.099 93.091 0 109.049-82.452 109.049-226.078 0-127.668-18.618-212.779-101.070-212.779zM7410.036 667.429v0c-13.299 42.556-63.834 90.431-132.987 90.431-170.223 0-191.501-178.203-191.501-308.53 0-164.904 39.896-303.21 180.862-303.21 58.514 0 114.369 29.257 135.647 82.452h2.66v-95.751c0-69.153-39.896-111.709-101.070-111.709-53.195 0-87.771 34.577-87.771 71.813h-114.369c0-47.875 21.278-154.265 199.481-154.265 162.244 0 223.418 87.771 223.418 234.057v566.525h-114.369v-71.813zM7300.987 241.87c-90.431 0-93.091 117.029-93.091 218.099 0 111.709 13.299 199.481 101.070 199.481 82.452 0 95.751-109.049 95.751-207.46 0-93.091-10.639-210.119-103.73-210.119zM7824.956 755.2c-188.842 0-220.758-167.564-220.758-324.488 0-276.613 122.348-305.87 220.758-305.87 130.327 0 210.119 82.452 210.119 215.439h-114.369c0-34.577-10.639-132.987-95.751-132.987-90.431 0-101.070 103.73-101.070 183.522v34.577h313.849v63.834c0 167.564-45.216 265.974-212.779 265.974zM7918.047 507.844h-194.161v13.299c0 77.132 23.938 154.265 101.070 154.265 69.153 0 93.091-58.514 93.091-132.987v-34.577zM0 837.652h188.842v-688.873h127.668v688.873h186.182v106.39h-502.691zM853.777 763.179c-61.174 0-114.369-31.917-146.286-82.452l-2.66 2.66v260.655h-119.688v-795.262h119.688v401.621c0 77.132 47.875 117.029 95.751 117.029 61.174 0 82.452-29.257 82.452-109.049v-412.26h119.688v452.156c0 125.008-55.855 164.904-148.945 164.904zM1303.273 763.179c-188.842 0-220.758-167.564-220.758-324.488 0-276.613 122.348-305.87 220.758-305.87 130.327 0 210.119 82.452 210.119 215.439h-114.369c0-34.577-10.639-132.987-95.751-132.987-90.431 0-101.070 103.73-101.070 183.522v34.577h313.849v63.834c-2.66 164.904-47.875 265.974-212.779 265.974zM1393.704 515.823h-191.501v13.299c0 77.132 23.938 154.265 101.070 154.265 69.153 0 93.091-58.514 93.091-132.987v-34.577zM8386.161 960l-42.556-109.049-42.556 109.049h-42.556v-154.265h29.257v122.348l45.216-122.348h21.278l45.216 122.348v-122.348h29.257v154.265zM8104.229 933.403h45.216v-127.668h31.917v127.668h45.216v26.597h-122.348z" horiz-adv-x="8429" />
<glyph unicode="&#xe900;" d="M882.103 724.48c-152.137 209.189-444.709 254.537-653.897 102.4-209.189-150.674-256-444.709-103.863-653.897s444.709-256 653.897-103.863c209.189 153.6 256 446.171 103.863 655.36zM469.577 494.811c24.869 19.017 61.44 13.166 80.457-13.166 19.017-24.869 13.166-61.44-13.166-80.457-24.869-19.017-61.44-13.166-80.457 13.166-17.554 26.331-11.703 61.44 13.166 80.457zM330.606 341.211l-19.017-24.869c-21.943-30.72-49.737-58.514-78.994-83.383v0c-11.703-13.166-32.183-10.24-39.497 4.389l-10.24 20.48c-24.869 49.737-42.423 102.4-51.2 156.526l-2.926 21.943c-2.926 16.091 11.703 30.72 29.257 27.794v0c38.034-2.926 76.069-8.777 112.64-20.48l30.72-10.24c42.423-8.777 58.514-59.977 29.257-92.16zM348.16 579.657l-30.72 10.24c-36.571 11.703-70.217 29.257-102.4 49.737v0c-16.091 7.314-19.017 27.794-7.314 39.497l16.091 16.091c39.497 39.497 83.383 71.68 133.12 96.549l20.48 10.24c14.629 7.314 33.646-2.926 35.109-19.017v0c10.24-36.571 14.629-74.606 14.629-112.64v-32.183c4.389-43.886-39.497-76.069-78.994-58.514zM608.549 89.6l-23.406-4.389c-54.126-8.777-109.714-8.777-165.303 0l-21.943 2.926c-16.091 2.926-24.869 21.943-17.554 36.571v0c14.629 35.109 32.183 68.754 54.126 100.937l19.017 26.331c21.943 38.034 76.069 38.034 96.549 0l19.017-26.331c21.943-30.72 40.96-64.366 54.126-100.937v0c10.24-14.629 1.463-32.183-14.629-35.109zM579.291 636.709v32.183c0 38.034 5.851 76.069 14.629 112.64v0c1.463 17.554 20.48 26.331 35.109 19.017l20.48-10.24c49.737-24.869 95.086-57.051 133.12-96.549l16.091-16.091c11.703-11.703 8.777-32.183-7.314-39.497v0c-32.183-20.48-67.291-36.571-103.863-49.737l-29.257-8.777c-39.497-17.554-83.383 14.629-78.994 57.051zM877.714 437.76l-2.926-21.943c-8.777-55.589-26.331-108.251-51.2-157.989l-10.24-20.48c-7.314-14.629-27.794-17.554-39.497-4.389v0c-29.257 24.869-55.589 52.663-78.994 83.383l-19.017 24.869c-29.257 32.183-11.703 83.383 30.72 92.16l30.72 10.24c36.571 11.703 74.606 19.017 112.64 20.48v0c16.091 4.389 30.72-10.24 27.794-26.331z" />
</font>
</defs>
</svg>
