<?xml version="1.0" standalone="no"?>
<!DOCTYPE svg PUBLIC "-//W3C//DTD SVG 1.1//EN" "http://www.w3.org/Graphics/SVG/1.1/DTD/svg11.dtd" >
<svg xmlns="http://www.w3.org/2000/svg">
<metadata>Generated by IcoMoon</metadata>
<defs>
<font id="bell-icon" horiz-adv-x="1024">
<font-face units-per-em="1024" ascent="960" descent="-64" />
<missing-glyph horiz-adv-x="1024" />
<glyph unicode="&#x20;" horiz-adv-x="512" d="" />
<glyph unicode="&#xe900;" glyph-name="blaze-fill" d="M789.333 576c42.667-45.227 64-102.144 64-170.667 0-147.883-157.867-182.443-234.667-384-28.459 24.533-42.667 60.075-42.667 106.667 0 148.565 213.333 225.707 213.333 448zM618.667 746.667c51.2-52.821 76.8-109.739 76.8-170.667 0-211.243-257.92-242.859-204.8-554.667-71.125 49.493-106.667 120.619-106.667 213.333 0 141.867 234.667 256 234.667 512zM426.667 917.333c56.875-71.125 85.333-135.125 85.333-192 0-266.667-362.667-350.805-170.667-704-111.616 24.747-192 128-192 256 0 277.333 277.333 320 277.333 640z" />
<glyph unicode="&#xe901;" glyph-name="blaze-line" d="M810.667 576c28.459-45.227 42.667-102.144 42.667-170.667 0-128-149.333-170.667-213.333-384-28.459 24.533-42.667 60.075-42.667 106.667 0 148.565 213.333 225.707 213.333 448zM618.667 746.667c26.865-48.747 42.672-106.847 42.672-168.639 0-0.713-0.002-1.426-0.006-2.138l0.001 0.11c0-213.333-256-256-170.667-554.667-71.125 49.493-106.667 120.619-106.667 213.333 0 141.867 234.667 256 234.667 512zM426.667 917.333c28.459-56.875 42.667-120.875 42.667-192 0-256-384-320-128-704-106.667 21.333-192 128-192 256 0 277.333 277.333 320 277.333 640z" />
<glyph unicode="&#xe902;" glyph-name="celsius-fill" d="M192 533.333c-82.475 0-149.333 66.859-149.333 149.333s66.859 149.333 149.333 149.333v0c82.475 0 149.333-66.859 149.333-149.333s-66.859-149.333-149.333-149.333v0zM192 618.667c35.346 0 64 28.654 64 64s-28.654 64-64 64v0c-35.346 0-64-28.654-64-64s28.654-64 64-64v0zM938.667 533.333h-85.333c0 94.257-76.41 170.667-170.667 170.667s-170.667-76.41-170.667-170.667v0-213.333c0-94.257 76.41-170.667 170.667-170.667s170.667 76.41 170.667 170.667v0h85.333c0-141.385-114.615-256-256-256s-256 114.615-256 256v0 213.333c0 141.385 114.615 256 256 256s256-114.615 256-256v0z" />
<glyph unicode="&#xe903;" glyph-name="celsius-line" d="M192 533.333c-82.475 0-149.333 66.859-149.333 149.333s66.859 149.333 149.333 149.333v0c82.475 0 149.333-66.859 149.333-149.333s-66.859-149.333-149.333-149.333v0zM192 618.667c35.346 0 64 28.654 64 64s-28.654 64-64 64v0c-35.346 0-64-28.654-64-64s28.654-64 64-64v0zM938.667 533.333h-85.333c0 94.257-76.41 170.667-170.667 170.667s-170.667-76.41-170.667-170.667v0-213.333c0-94.257 76.41-170.667 170.667-170.667s170.667 76.41 170.667 170.667v0h85.333c0-141.385-114.615-256-256-256s-256 114.615-256 256v0 213.333c0 141.385 114.615 256 256 256s256-114.615 256-256v0z" />
<glyph unicode="&#xe904;" glyph-name="cloud-windy-fill" d="M597.333 192v170.368h-508.843c-14.893 36.914-23.533 79.721-23.533 124.545 0 188.513 152.82 341.333 341.333 341.333 125.866 0 235.821-68.127 295.001-169.517l0.873-1.62c13.326 2.686 28.646 4.224 44.324 4.224 129.603 0 234.667-105.064 234.667-234.667 0-129.54-104.963-234.565-234.479-234.667h-149.301zM256 106.667h426.667v-85.333h-426.667v85.333zM85.333 277.333h426.667v-85.333h-426.667v85.333z" />
<glyph unicode="&#xe905;" glyph-name="cloud-windy-line" d="M597.333 192v85.333h149.333c82.465 0.012 149.312 66.866 149.312 149.333 0 82.475-66.859 149.333-149.333 149.333-41.762 0-79.521-17.143-106.622-44.776l-0.023-0.024v2.133c0 141.385-114.615 256-256 256s-256-114.615-256-256v0-0.299h-85.333v0.299c0 0.082 0 0.179 0 0.277 0 188.513 152.82 341.333 341.333 341.333 144.083 0 267.316-89.274 317.4-215.525l0.808-2.309c13.327 2.686 28.646 4.224 44.324 4.224 129.603 0 234.667-105.064 234.667-234.667 0-129.555-104.987-234.59-234.525-234.667h-149.341zM256 106.667h426.667v-85.333h-426.667v85.333zM256 448h341.333v-85.333h-341.333v85.333zM85.333 277.333h426.667v-85.333h-426.667v85.333z" />
<glyph unicode="&#xe906;" glyph-name="cloudy-2-fill" d="M725.333 64h-426.667c-0.048 0-0.104 0-0.161 0-141.385 0-256 114.615-256 256 0 110.984 70.624 205.472 169.383 240.976l1.786 0.56c-0.217 4.262-0.341 9.254-0.341 14.275 0 164.949 133.718 298.667 298.667 298.667s298.667-133.718 298.667-298.667c0-5.021-0.124-10.013-0.369-14.973l0.027 0.698c100.544-36.064 171.169-130.552 171.169-241.536 0-141.385-114.615-256-256-256-0.057 0-0.113 0-0.17 0h0.009z" />
<glyph unicode="&#xe907;" glyph-name="cloudy-2-line" d="M725.333 64h-426.667c-0.048 0-0.104 0-0.161 0-141.385 0-256 114.615-256 256 0 110.984 70.624 205.472 169.383 240.976l1.786 0.56c-0.217 4.262-0.341 9.254-0.341 14.275 0 164.949 133.718 298.667 298.667 298.667s298.667-133.718 298.667-298.667c0-5.021-0.124-10.013-0.369-14.973l0.027 0.698c100.544-36.064 171.169-130.552 171.169-241.536 0-141.385-114.615-256-256-256-0.057 0-0.113 0-0.17 0h0.009zM298.667 149.333h426.667c94.126 0.173 170.363 76.517 170.363 170.666 0 94.257-76.41 170.667-170.667 170.667-6.295 0-12.511-0.341-18.63-1.005l0.757 0.067c11.484 25.356 18.176 54.98 18.176 86.167 0 117.821-95.513 213.333-213.333 213.333s-213.333-95.513-213.333-213.333c0-31.187 6.692-60.81 18.718-87.513l-0.542 1.346c-5.361 0.598-11.577 0.938-17.872 0.938-94.257 0-170.667-76.41-170.667-170.667 0-94.15 76.237-170.494 170.347-170.666h0.017z" />
<glyph unicode="&#xe908;" glyph-name="cloudy-fill" d="M384 64.597c-190.853 11.65-341.224 169.28-341.224 362.032 0 200.295 162.371 362.667 362.667 362.667 129.193 0 242.608-67.553 306.85-169.264l0.881-1.493c149.31-4.919 268.479-127.139 268.479-277.192 0-145.771-112.465-265.275-255.36-276.476l-0.959-0.060v-0.811h-341.333v0.597z" />
<glyph unicode="&#xe909;" glyph-name="cloudy-line" d="M405.333 704c-153.167 0-277.333-124.166-277.333-277.333s124.166-277.333 277.333-277.333v0h298.667c105.959 0.105 191.815 86.026 191.815 192 0 106.039-85.961 192-192 192-14.4 0-28.43-1.585-41.925-4.591l1.278 0.239c-41.877 103.406-141.49 175.019-257.828 175.019-0.002 0-0.005 0-0.007 0h0.001zM704 64h-298.667c-200.258 0.049-362.58 162.402-362.58 362.667 0 200.295 162.371 362.667 362.667 362.667 129.209 0 242.636-67.57 306.873-169.301l0.881-1.494c149.515-4.666 268.945-126.989 268.945-277.206 0-153.167-124.166-277.333-277.333-277.333-0.276 0-0.552 0-0.828 0.001h0.043z" />
<glyph unicode="&#xe90a;" glyph-name="drizzle-fill" d="M469.333 192v-128h-85.333v128c-188.467 0.061-341.226 152.858-341.226 341.333 0 188.513 152.82 341.333 341.333 341.333 143.979 0 267.137-89.145 317.291-215.251l0.809-2.306c13.327 2.686 28.646 4.224 44.324 4.224 129.603 0 234.667-105.064 234.667-234.667 0-129.555-104.987-234.59-234.525-234.667h-277.341zM554.667 106.667h85.333v-128h-85.333v128z" />
<glyph unicode="&#xe90b;" glyph-name="drizzle-line" d="M725.333 192v85.333h21.333c82.465 0.012 149.312 66.866 149.312 149.333 0 82.475-66.859 149.333-149.333 149.333-41.762 0-79.521-17.143-106.622-44.776l-0.023-0.024v2.133c-0.052 141.346-114.647 255.908-256 255.908-141.385 0-256-114.615-256-256 0-110.797 70.387-205.154 168.884-240.796l1.783-0.564v-89.131c-148.302 39.312-255.824 172.324-255.824 330.449 0 188.513 152.82 341.333 341.333 341.333 143.913 0 267.024-89.063 317.222-215.078l0.81-2.305c13.259 2.659 28.502 4.181 44.1 4.181 129.603 0 234.667-105.064 234.667-234.667 0-129.477-104.86-234.462-234.289-234.666l-21.353-0.043zM384 277.333h85.333v-170.667h-85.333v170.667zM554.667 149.333h85.333v-170.667h-85.333v170.667z" />
<glyph unicode="&#xe90c;" glyph-name="earthquake-fill" d="M483.285 891.221c7.551 6.89 17.641 11.111 28.717 11.111 9.152 0 17.632-2.882 24.58-7.787l-0.134 0.090 4.267-3.413 440.619-400.555h-128v-384c-0.003-21.803-16.359-39.784-37.47-42.348l-0.205-0.020-4.992-0.299h-277.333l106.667 170.667-149.333 128 170.667 128-106.667 85.333 21.333 128-128-128 106.667-85.333-213.333-128 160-149.333-138.667-149.333h-149.333c-21.803 0.003-39.784 16.359-42.348 37.47l-0.020 0.205-0.299 4.992v384h-128l440.619 400.555z" />
<glyph unicode="&#xe90d;" glyph-name="earthquake-line" d="M213.333 64c-21.803 0.003-39.784 16.359-42.348 37.47l-0.020 0.205-0.299 4.992v384h-128l440.619 400.555c7.551 6.89 17.641 11.111 28.717 11.111 9.152 0 17.632-2.882 24.58-7.787l-0.134 0.090 4.267-3.413 440.619-400.555h-128v-384c-0.003-21.803-16.359-39.784-37.47-42.348l-0.205-0.020-4.992-0.299h-597.333zM512 802.048l-256-232.704v-420.011h185.899l59.435 64-160 149.333 213.333 128-106.667 85.333 128 128-21.333-128 106.667-85.333-170.667-128 149.333-128-53.333-85.333h181.333v419.968l-256 232.747z" />
<glyph unicode="&#xe90e;" glyph-name="fahrenheit-fill" d="M512 448h298.667v-85.333h-298.667v-298.667h-85.333v554.667c0 94.257 76.41 170.667 170.667 170.667v0h298.667v-85.333h-298.667c-47.128 0-85.333-38.205-85.333-85.333v0-170.667zM192 533.333c-82.475 0-149.333 66.859-149.333 149.333s66.859 149.333 149.333 149.333v0c82.475 0 149.333-66.859 149.333-149.333s-66.859-149.333-149.333-149.333v0zM192 618.667c35.346 0 64 28.654 64 64s-28.654 64-64 64v0c-35.346 0-64-28.654-64-64s28.654-64 64-64v0z" />
<glyph unicode="&#xe90f;" glyph-name="fahrenheit-line" d="M512 448h298.667v-85.333h-298.667v-298.667h-85.333v554.667c0 94.257 76.41 170.667 170.667 170.667v0h298.667v-85.333h-298.667c-47.128 0-85.333-38.205-85.333-85.333v0-170.667zM192 533.333c-82.475 0-149.333 66.859-149.333 149.333s66.859 149.333 149.333 149.333v0c82.475 0 149.333-66.859 149.333-149.333s-66.859-149.333-149.333-149.333v0zM192 618.667c35.346 0 64 28.654 64 64s-28.654 64-64 64v0c-35.346 0-64-28.654-64-64s28.654-64 64-64v0z" />
<glyph unicode="&#xe910;" glyph-name="fire-fill" d="M512-21.333c-176.719 0.016-319.973 143.279-319.973 320 0 91.807 38.661 174.584 100.591 232.938l0.161 0.15c57.259 53.888 197.888 150.912 176.555 364.245 256-170.667 384-341.333 128-597.333 42.667 0 106.667 0 213.333 105.387 11.52-32.981 21.333-68.437 21.333-105.387 0-176.731-143.269-320-320-320v0z" />
<glyph unicode="&#xe911;" glyph-name="fire-line" d="M512-21.333c176.731 0 320 143.269 320 320v0c0 36.949-9.813 72.405-21.333 105.387-71.125-70.272-125.141-105.387-162.133-105.387 170.453 298.667 76.8 426.667-179.2 597.333 21.333-213.333-119.296-310.357-176.555-364.245-62.090-58.504-100.751-141.281-100.751-233.088 0-176.721 143.253-319.984 319.971-320h0.002zM542.293 736.64c138.283-117.333 138.965-208.512 32.128-395.691-32.469-56.875 8.619-127.616 74.112-127.616 29.355 0 59.051 8.533 90.411 25.387-27.47-101.316-118.602-174.613-226.852-174.613-129.603 0-234.667 105.064-234.667 234.667 0 67.288 28.32 127.961 73.691 170.75l0.116 0.108c5.376 5.035 32.64 29.227 33.835 30.293 18.091 16.213 32.981 30.592 47.701 46.336 52.48 56.235 90.197 118.613 109.483 190.379z" />
<glyph unicode="&#xe912;" glyph-name="flashlight-fill" d="M554.667 533.333h298.667l-384-554.667v384h-298.667l384 554.667z" />
<glyph unicode="&#xe913;" glyph-name="flashlight-line" d="M554.667 576h341.333l-426.667-640v384h-298.667l384 640v-384zM469.333 490.667v161.28l-147.968-246.613h233.301v-187.477l181.888 272.811h-267.221z" />
<glyph unicode="&#xe914;" glyph-name="flood-fill" d="M682.667 214.528c44.954-40.453 104.745-65.195 170.314-65.195 0.124 0 0.248 0 0.371 0h85.314v-85.333h-85.333c-0.165 0-0.36 0-0.555 0-62.642 0-121.325 16.953-171.71 46.521l1.599-0.867c-48.775-28.701-107.447-45.654-170.077-45.654-0.207 0-0.415 0-0.622 0.001h0.033c-0.165 0-0.36 0-0.555 0-62.642 0-121.325 16.953-171.71 46.521l1.599-0.867c-48.775-28.701-107.447-45.654-170.077-45.654-0.207 0-0.415 0-0.622 0.001h-85.3v85.333h85.333c65.579 0 125.44 24.661 170.667 65.195 44.954-40.453 104.745-65.195 170.314-65.195 0.124 0 0.248 0 0.371 0h-0.019c65.579 0 125.44 24.661 170.667 65.195zM536.448 894.635l4.267-3.413 440.619-400.555h-128v-256c-0.051 0-0.111 0-0.171 0-69.502 0-131.229 33.29-170.106 84.794l-0.39 0.539c-39.25-52.043-100.964-85.333-170.453-85.333-0.075 0-0.15 0-0.225 0h0.012c-0.051 0-0.111 0-0.171 0-69.502 0-131.229 33.29-170.106 84.794l-0.39 0.539c-39.25-52.043-100.964-85.333-170.453-85.333-0.075 0-0.15 0-0.225 0h0.012l-0.043 256h-127.957l440.619 400.555c7.552 6.895 17.646 11.119 28.726 11.119 7.285 0 14.143-1.826 20.142-5.044l-0.228 0.112 4.523-2.773z" />
<glyph unicode="&#xe915;" glyph-name="flood-line" d="M682.667 214.528c44.954-40.453 104.745-65.195 170.314-65.195 0.124 0 0.248 0 0.371 0h85.314v-85.333h-85.333c-0.165 0-0.36 0-0.555 0-62.642 0-121.325 16.953-171.71 46.521l1.599-0.867c-48.775-28.701-107.447-45.654-170.077-45.654-0.207 0-0.415 0-0.622 0.001h0.033c-0.165 0-0.36 0-0.555 0-62.642 0-121.325 16.953-171.71 46.521l1.599-0.867c-48.775-28.701-107.447-45.654-170.077-45.654-0.207 0-0.415 0-0.622 0.001h-85.3v85.333h85.333c65.579 0 125.44 24.661 170.667 65.195 44.954-40.453 104.745-65.195 170.314-65.195 0.124 0 0.248 0 0.371 0h-0.019c65.579 0 125.44 24.661 170.667 65.195zM536.448 894.635l4.267-3.413 440.619-400.555h-128v-256c-0.098 0-0.215 0-0.332 0-30.466 0-59.688 5.331-86.782 15.111l1.781-0.561v320.085l-256 232.747-256-232.704 0.043-320.085c-21.438-7.841-46.22-12.971-72.012-14.269l-0.606-0.024-12.757-0.299v256h-128l440.619 400.555c7.551 6.89 17.641 11.111 28.717 11.111 9.152 0 17.632-2.882 24.58-7.787l-0.134 0.090z" />
<glyph unicode="&#xe916;" glyph-name="foggy-fill" d="M67.584 405.035c-15.259 37.33-24.116 80.649-24.116 126.037 0 188.554 152.853 341.407 341.407 341.407 143.166 0 265.75-88.122 316.47-213.083l0.821-2.287c13.386 2.711 28.773 4.262 44.523 4.262 129.603 0 234.667-105.064 234.667-234.667 0-7.63-0.364-15.175-1.076-22.618l0.073 0.948h-912.768zM170.667 149.333h725.333v-85.333h-725.333v85.333zM85.333 320h896v-85.333h-896v85.333z" />
<glyph unicode="&#xe917;" glyph-name="foggy-line" d="M67.584 405.035c-15.259 37.33-24.116 80.649-24.116 126.037 0 188.554 152.853 341.407 341.407 341.407 143.166 0 265.75-88.122 316.47-213.083l0.821-2.287c13.386 2.711 28.773 4.262 44.523 4.262 129.603 0 234.667-105.064 234.667-234.667 0-7.63-0.364-15.175-1.076-22.618l0.073 0.948h-85.888c1.009 6.523 1.586 14.046 1.586 21.705 0 82.475-66.859 149.333-149.333 149.333-41.798 0-79.585-17.172-106.691-44.847l-0.025-0.026v2.133c-0.038 141.357-114.638 255.934-256 255.934-141.385 0-256-114.615-256-256 0-47.223 12.786-91.459 35.085-129.436l-0.653 1.204h-94.848zM170.667 149.333h725.333v-85.333h-725.333v85.333zM85.333 320h896v-85.333h-896v85.333z" />
<glyph unicode="&#xe918;" glyph-name="hail-fill" d="M810.453 200.789c-4.773 90.425-79.257 161.939-170.443 161.939-16.565 0-32.578-2.36-47.722-6.762l1.206 0.3c-17.317 77.362-85.4 134.312-166.784 134.312-94.234 0-170.635-76.355-170.709-170.572v-0.007c0-46.080 18.261-87.851 47.872-118.528-150.955 37.424-261.087 171.734-261.087 331.766 0 188.513 152.82 341.333 341.333 341.333 143.927 0 267.048-89.080 317.237-215.115l0.81-2.305c13.781 2.875 29.619 4.521 45.84 4.521 129.603 0 234.667-105.064 234.667-234.667 0-107.394-72.142-197.939-170.608-225.817l-1.654-0.4zM426.667 234.667c-47.128 0-85.333 38.205-85.333 85.333s38.205 85.333 85.333 85.333v0c47.128 0 85.333-38.205 85.333-85.333s-38.205-85.333-85.333-85.333v0zM640 106.667c-47.128 0-85.333 38.205-85.333 85.333s38.205 85.333 85.333 85.333v0c47.128 0 85.333-38.205 85.333-85.333s-38.205-85.333-85.333-85.333v0zM426.667-21.333c-47.128 0-85.333 38.205-85.333 85.333s38.205 85.333 85.333 85.333v0c47.128 0 85.333-38.205 85.333-85.333s-38.205-85.333-85.333-85.333v0z" />
<glyph unicode="&#xe919;" glyph-name="hail-line" d="M256 216.832c-125.979 52.145-212.995 174.098-212.995 316.374 0 188.42 152.612 341.196 340.97 341.461h0.025c0.006 0 0.013 0 0.020 0 144.002 0 267.185-89.14 317.378-215.251l0.81-2.306c13.682 2.833 29.405 4.455 45.507 4.455 129.603 0 234.667-105.064 234.667-234.667 0-107.195-71.874-197.603-170.060-225.661l-1.655-0.405v90.88c50.853 24.54 85.315 75.703 85.315 134.915 0 82.475-66.859 149.333-149.333 149.333-41.764 0-79.524-17.144-106.625-44.779l-0.023-0.024v2.176c-0.021 141.369-114.628 255.964-256 255.964-141.385 0-256-114.615-256-256 0-94.257 50.94-176.616 126.792-221.048l1.208-0.654v-94.763zM426.667 234.667c-47.128 0-85.333 38.205-85.333 85.333s38.205 85.333 85.333 85.333v0c47.128 0 85.333-38.205 85.333-85.333s-38.205-85.333-85.333-85.333v0zM640 106.667c-47.128 0-85.333 38.205-85.333 85.333s38.205 85.333 85.333 85.333v0c47.128 0 85.333-38.205 85.333-85.333s-38.205-85.333-85.333-85.333v0zM426.667-21.333c-47.128 0-85.333 38.205-85.333 85.333s38.205 85.333 85.333 85.333v0c47.128 0 85.333-38.205 85.333-85.333s-38.205-85.333-85.333-85.333v0z" />
<glyph unicode="&#xe91a;" glyph-name="haze-2-fill" d="M512 149.333c35.346 0 64-28.654 64-64s-28.654-64-64-64v0c-35.346 0-64 28.654-64 64s28.654 64 64 64v0zM832 149.333c35.346 0 64-28.654 64-64s-28.654-64-64-64v0c-35.346 0-64 28.654-64 64s28.654 64 64 64v0zM192 149.333c35.346 0 64-28.654 64-64s-28.654-64-64-64v0c-35.346 0-64 28.654-64 64s28.654 64 64 64v0zM725.333 661.333c117.821 0 213.333-95.513 213.333-213.333s-95.513-213.333-213.333-213.333v0c-78.677 0-149.76 44.373-213.333 133.205-63.573-88.832-134.656-133.205-213.333-133.205-117.821 0-213.333 95.513-213.333 213.333s95.513 213.333 213.333 213.333v0c78.677 0 149.76-44.373 213.333-133.205 63.573 88.832 134.656 133.205 213.333 133.205zM512 874.667c35.346 0 64-28.654 64-64s-28.654-64-64-64v0c-35.346 0-64 28.654-64 64s28.654 64 64 64v0zM192 874.667c35.346 0 64-28.654 64-64s-28.654-64-64-64v0c-35.346 0-64 28.654-64 64s28.654 64 64 64v0zM832 874.667c35.346 0 64-28.654 64-64s-28.654-64-64-64v0c-35.346 0-64 28.654-64 64s28.654 64 64 64v0z" />
<glyph unicode="&#xe91b;" glyph-name="haze-2-line" d="M512 149.333c35.346 0 64-28.654 64-64s-28.654-64-64-64v0c-35.346 0-64 28.654-64 64s28.654 64 64 64v0zM832 149.333c35.346 0 64-28.654 64-64s-28.654-64-64-64v0c-35.346 0-64 28.654-64 64s28.654 64 64 64v0zM192 149.333c35.346 0 64-28.654 64-64s-28.654-64-64-64v0c-35.346 0-64 28.654-64 64s28.654 64 64 64v0zM725.333 661.333c117.821 0 213.333-95.513 213.333-213.333s-95.513-213.333-213.333-213.333v0c-78.677 0-149.76 44.373-213.333 133.205-63.573-88.832-134.656-133.205-213.333-133.205-117.821 0-213.333 95.513-213.333 213.333s95.513 213.333 213.333 213.333v0c78.677 0 149.76-44.373 213.333-133.205 63.573 88.832 134.656 133.205 213.333 133.205zM298.667 576c-70.692 0-128-57.308-128-128s57.308-128 128-128v0c53.504 0 107.093 37.333 160.384 121.771l3.797 6.272-3.84 6.187c-51.072 80.896-102.4 118.613-153.643 121.6l-6.699 0.171zM725.333 576c-53.504 0-107.093-37.333-160.384-121.771l-3.84-6.229 3.84-6.229c51.115-80.896 102.4-118.613 153.685-121.6l6.699-0.171c70.692 0 128 57.308 128 128s-57.308 128-128 128v0zM512 874.667c35.346 0 64-28.654 64-64s-28.654-64-64-64v0c-35.346 0-64 28.654-64 64s28.654 64 64 64v0zM192 874.667c35.346 0 64-28.654 64-64s-28.654-64-64-64v0c-35.346 0-64 28.654-64 64s28.654 64 64 64v0zM832 874.667c35.346 0 64-28.654 64-64s-28.654-64-64-64v0c-35.346 0-64 28.654-64 64s28.654 64 64 64v0z" />
<glyph unicode="&#xe91c;" glyph-name="haze-fill" d="M259.541 405.333c-2.253 12.757-3.541 27.445-3.541 42.434 0 141.385 114.615 256 256 256s256-114.615 256-256c0-14.989-1.288-29.677-3.76-43.959l0.218 1.525h-504.917zM85.333 320h426.667v-85.333h-426.667v85.333zM597.333 320h341.333v-85.333h-341.333v85.333zM682.667 149.333h170.667v-85.333h-170.667v85.333zM170.667 149.333h426.667v-85.333h-426.667v85.333zM469.333 917.333h85.333v-128h-85.333v128zM149.973 749.696l60.331 60.331 90.496-90.496-60.331-60.331-90.496 90.453zM813.653 810.027l60.331-60.331-90.496-90.496-60.331 60.331 90.496 90.496zM981.333 490.667v-85.333h-128v85.333h128zM170.667 490.667v-85.333h-128v85.333h128z" />
<glyph unicode="&#xe91d;" glyph-name="haze-line" d="M259.541 405.333c-2.253 12.757-3.541 27.445-3.541 42.434 0 141.385 114.615 256 256 256s256-114.615 256-256c0-14.989-1.288-29.677-3.76-43.959l0.218 1.525h-87.168c3.415 12.754 5.376 27.397 5.376 42.498 0 94.257-76.41 170.667-170.667 170.667s-170.667-76.41-170.667-170.667c0-15.101 1.961-29.744 5.643-43.688l-0.267 1.19h-87.168zM85.333 320h426.667v-85.333h-426.667v85.333zM597.333 320h341.333v-85.333h-341.333v85.333zM682.667 149.333h170.667v-85.333h-170.667v85.333zM170.667 149.333h426.667v-85.333h-426.667v85.333zM469.333 917.333h85.333v-128h-85.333v128zM149.973 749.696l60.331 60.331 90.496-90.496-60.331-60.331-90.496 90.453zM813.653 810.027l60.331-60.331-90.496-90.496-60.331 60.331 90.496 90.496zM981.333 490.667v-85.333h-128v85.333h128zM170.667 490.667v-85.333h-128v85.333h128z" />
<glyph unicode="&#xe91e;" glyph-name="heavy-showers-fill" d="M554.667 192v-213.333h-85.333v213.333h-85.333v-128h-85.333v138.752c-148.302 39.312-255.824 172.324-255.824 330.449 0 188.513 152.82 341.333 341.333 341.333 143.913 0 267.024-89.063 317.222-215.078l0.81-2.305c13.259 2.659 28.502 4.181 44.1 4.181 129.603 0 234.667-105.064 234.667-234.667 0-129.477-104.86-234.462-234.289-234.666l-21.353-0.043v-128h-85.333v128h-85.333z" />
<glyph unicode="&#xe91f;" glyph-name="heavy-showers-line" d="M213.333 237.653c-102.647 60.14-170.489 169.898-170.489 295.501 0 188.513 152.82 341.333 341.333 341.333 143.912 0 267.022-89.061 317.221-215.074l0.81-2.304c13.682 2.833 29.405 4.455 45.507 4.455 129.603 0 234.667-105.064 234.667-234.667 0-107.195-71.874-197.603-170.060-225.661l-1.655-0.405v90.88c50.853 24.54 85.315 75.703 85.315 134.915 0 82.475-66.859 149.333-149.333 149.333-41.764 0-79.524-17.144-106.625-44.779l-0.023-0.024v2.176c0 0.002 0 0.004 0 0.006 0 141.385-114.615 256-256 256s-256-114.615-256-256c0-75.703 32.86-143.732 85.094-190.6l0.239-0.211v-104.875zM298.667 362.667h85.333v-256h-85.333v256zM640 362.667h85.333v-256h-85.333v256zM469.333 234.667h85.333v-256h-85.333v256z" />
<glyph unicode="&#xe920;" glyph-name="meteor-fill" d="M896 917.333v-512c-0.031-212.054-171.942-383.945-384-383.945-212.077 0-384 171.923-384 384 0 139.209 74.077 261.117 184.963 328.456l1.704 0.961 282.667 163.2v-118.187l298.667 137.515zM512 618.667c-117.821 0-213.333-95.513-213.333-213.333s95.513-213.333 213.333-213.333v0c117.821 0 213.333 95.513 213.333 213.333s-95.513 213.333-213.333 213.333v0z" />
<glyph unicode="&#xe921;" glyph-name="meteor-line" d="M896 917.333v-512c-0.031-212.054-171.942-383.945-384-383.945-212.077 0-384 171.923-384 384 0 139.209 74.077 261.117 184.963 328.456l1.704 0.961 282.667 163.2v-118.187l298.667 137.515zM810.667 784.128l-298.667-137.557v103.68l-145.195-83.84c-88.924-50.132-148.988-142.291-153.24-248.81l-0.018-0.577-0.213-11.691c0-0.043 0-0.094 0-0.146 0-164.949 133.718-298.667 298.667-298.667 161.399 0 292.897 128.024 298.482 288.061l0.014 0.511 0.171 10.24v378.795zM512 618.667c117.821 0 213.333-95.513 213.333-213.333s-95.513-213.333-213.333-213.333v0c-117.821 0-213.333 95.513-213.333 213.333s95.513 213.333 213.333 213.333v0zM512 533.333c-70.692 0-128-57.308-128-128s57.308-128 128-128v0c70.692 0 128 57.308 128 128s-57.308 128-128 128v0z" />
<glyph unicode="&#xe922;" glyph-name="mist-fill" d="M170.667 789.333h170.667v-85.333h-170.667v85.333zM682.667 149.333h170.667v-85.333h-170.667v85.333zM85.333 576h426.667v-85.333h-426.667v85.333zM597.333 576h256v-85.333h-256v85.333zM170.667 362.667h256v-85.333h-256v85.333zM512 362.667h426.667v-85.333h-426.667v85.333zM426.667 789.333h512v-85.333h-512v85.333zM85.333 149.333h512v-85.333h-512v85.333z" />
<glyph unicode="&#xe923;" glyph-name="mist-line" d="M170.667 789.333h170.667v-85.333h-170.667v85.333zM682.667 149.333h170.667v-85.333h-170.667v85.333zM85.333 576h213.333v-85.333h-213.333v85.333zM384 576h128v-85.333h-128v85.333zM597.333 576h256v-85.333h-256v85.333zM170.667 362.667h256v-85.333h-256v85.333zM512 362.667h128v-85.333h-128v85.333zM725.333 362.667h213.333v-85.333h-213.333v85.333zM426.667 789.333h512v-85.333h-512v85.333zM85.333 149.333h512v-85.333h-512v85.333z" />
<glyph unicode="&#xe924;" glyph-name="moon-clear-fill" d="M419.072 864.512c-22.243-47.133-35.228-102.385-35.228-160.668 0-212.077 171.923-384 384-384 58.284 0 113.534 12.985 163.017 36.219l-2.349-0.991c-42.411-190.976-212.779-333.739-416.512-333.739-235.648 0-426.667 191.019-426.667 426.667 0 203.733 142.763 374.101 333.739 416.512zM774.997 862.251l35.669-8.917v-42.667l-35.669-8.917c-30.609-7.84-54.24-31.471-61.951-61.488l-0.129-0.592-8.917-35.669h-42.667l-8.917 35.669c-7.84 30.609-31.471 54.24-61.488 61.951l-0.592 0.129-35.669 8.917v42.667l35.669 8.917c30.591 7.854 54.204 31.481 61.909 61.488l0.129 0.592 8.96 35.669h42.667l8.917-35.669c7.84-30.609 31.471-54.24 61.488-61.951l0.592-0.129zM988.331 648.917l35.669-8.917v-42.667l-35.669-8.917c-30.609-7.84-54.24-31.471-61.951-61.488l-0.129-0.592-8.917-35.669h-42.667l-8.917 35.669c-7.84 30.609-31.471 54.24-61.488 61.951l-0.592 0.129-35.669 8.917v42.667l35.669 8.917c30.609 7.84 54.24 31.471 61.951 61.488l0.129 0.592 8.917 35.669h42.667l8.917-35.669c7.84-30.609 31.471-54.24 61.488-61.951l0.592-0.129z" />
<glyph unicode="&#xe925;" glyph-name="moon-clear-line" d="M426.667 704c0-0.025 0-0.056 0-0.086 0-188.513 152.82-341.333 341.333-341.333 62.060 0 120.251 16.562 170.395 45.507l-1.648-0.878c-20.523-216.491-202.88-385.877-424.747-385.877-235.648 0-426.667 191.019-426.667 426.667 0 221.867 169.387 404.224 385.877 424.747-28.013-48.323-44.544-106.32-44.544-168.179 0-0.2 0-0.399 0.001-0.599v0.031zM170.667 448c0-188.513 152.82-341.333 341.333-341.333v0c126.488 0.008 236.915 68.764 295.954 170.939l0.878 1.648c-13.483-1.28-27.136-1.92-40.832-1.92-235.648 0-426.667 191.019-426.667 426.667 0 13.696 0.64 27.307 1.92 40.832-103.822-59.916-172.579-170.344-172.587-296.83v-0.002zM774.997 862.251l35.669-8.917v-42.667l-35.669-8.917c-30.609-7.84-54.24-31.471-61.951-61.488l-0.129-0.592-8.917-35.669h-42.667l-8.917 35.669c-7.84 30.609-31.471 54.24-61.488 61.951l-0.592 0.129-35.669 8.917v42.667l35.669 8.917c30.591 7.854 54.204 31.481 61.909 61.488l0.129 0.592 8.96 35.669h42.667l8.917-35.669c7.84-30.609 31.471-54.24 61.488-61.951l0.592-0.129zM988.331 648.917l35.669-8.917v-42.667l-35.669-8.917c-30.609-7.84-54.24-31.471-61.951-61.488l-0.129-0.592-8.917-35.669h-42.667l-8.917 35.669c-7.84 30.609-31.471 54.24-61.488 61.951l-0.592 0.129-35.669 8.917v42.667l35.669 8.917c30.609 7.84 54.24 31.471 61.951 61.488l0.129 0.592 8.917 35.669h42.667l8.917-35.669c7.84-30.609 31.471-54.24 61.488-61.951l0.592-0.129z" />
<glyph unicode="&#xe926;" glyph-name="moon-cloudy-fill" d="M369.92 746.368c49.001 101.921 151.439 171.025 270.017 171.025 18.418 0 36.447-1.667 53.943-4.859l-1.827 0.277c-6.006-17.786-9.473-38.27-9.473-59.563 0-106.039 85.961-192 192-192 21.294 0 41.777 3.466 60.918 9.865l-1.355-0.393c2.987-16.896 4.523-34.304 4.523-52.053 0-0.13 0-0.283 0-0.436 0-52.643-13.68-102.091-37.68-144.982l0.773 1.504c48.882-43.213 79.546-106.068 79.546-176.085 0-129.593-105.048-234.651-234.638-234.667h-362.668c-188.43 0.111-341.139 152.889-341.139 341.333 0 183.493 144.789 333.168 326.351 341.010l0.708 0.024zM462.805 737.536c110.243-26.905 198.048-104.519 238.548-206.118l0.812-2.309c13.35 2.682 28.697 4.216 44.402 4.216 29.404 0 57.552-5.38 83.513-15.209l-1.622 0.539c9.643 18.133 16.768 37.76 20.821 58.453-133.147 12.635-238.206 117.723-250.71 249.768l-0.085 1.112c-56.853-11.572-104.495-44.429-135.201-89.705l-0.479-0.748z" />
<glyph unicode="&#xe927;" glyph-name="moon-cloudy-line" d="M369.92 746.368c49.001 101.921 151.439 171.025 270.017 171.025 18.418 0 36.447-1.667 53.943-4.859l-1.827 0.277c-6.006-17.786-9.473-38.27-9.473-59.563 0-106.039 85.961-192 192-192 21.294 0 41.777 3.466 60.918 9.865l-1.355-0.393c2.987-16.896 4.523-34.304 4.523-52.053 0-0.13 0-0.283 0-0.436 0-52.643-13.68-102.091-37.68-144.982l0.773 1.504c48.882-43.213 79.546-106.068 79.546-176.085 0-129.593-105.048-234.651-234.638-234.667h-362.668c-188.43 0.111-341.139 152.889-341.139 341.333 0 183.493 144.789 333.168 326.351 341.010l0.708 0.024zM462.805 737.536c110.243-26.905 198.048-104.519 238.548-206.118l0.812-2.309c13.35 2.682 28.697 4.216 44.402 4.216 29.404 0 57.552-5.38 83.513-15.209l-1.622 0.539c9.643 18.133 16.768 37.76 20.821 58.453-133.147 12.635-238.206 117.723-250.71 249.768l-0.085 1.112c-56.853-11.572-104.495-44.429-135.201-89.705l-0.479-0.748zM746.667 149.333c82.465 0.012 149.312 66.866 149.312 149.333 0 82.475-66.859 149.333-149.333 149.333-41.762 0-79.521-17.143-106.622-44.776l-0.023-0.024v2.133c0 141.385-114.615 256-256 256s-256-114.615-256-256c0-141.385 114.615-256 256-256v0h362.667z" />
<glyph unicode="&#xe928;" glyph-name="moon-fill" d="M485.547 873.856c-62.741-58.579-101.849-141.78-101.849-234.116 0-176.731 143.269-320 320-320 92.335 0 175.537 39.108 233.944 101.663l0.172 0.186c-13.568-223.36-198.997-400.256-425.771-400.256-235.691 0-426.709 191.019-426.709 426.667 0 226.773 176.896 412.203 400.213 425.856z" />
<glyph unicode="&#xe929;" glyph-name="moon-foggy-fill" d="M682.667 92.416v99.584h-85.333v170.667h-455.168c-8.995 31.871-14.166 68.474-14.166 106.283 0 0.135 0 0.269 0 0.404v-0.021c0 194.56 137.088 357.12 320 396.331-13.588-35.392-21.457-76.333-21.457-119.113 0-188.513 152.82-341.333 341.333-341.333 62.715 0 121.48 16.914 171.981 46.429l-1.617-0.873c-7.681-162.615-110.031-299.529-252.855-357.426l-2.718-0.974zM298.667 106.667h298.667v-85.333h-298.667v85.333zM85.333 277.333h426.667v-85.333h-426.667v85.333z" />
<glyph unicode="&#xe92a;" glyph-name="moon-foggy-line" d="M682.667 92.416v93.824c72.678 38.99 127.637 103.066 153.914 180.395l0.667 2.261c-20.821-4.005-44.768-6.296-69.25-6.296-212.077 0-384 171.923-384 384 0 2.064 0.016 4.124 0.049 6.18l-0.004-0.311c-83.599-44.866-144.159-123.432-163.897-217.044l-0.369-2.092h-86.784c30.056 182.522 178.538 322.64 362.693 339.636l1.595 0.119c-17.768-37.087-28.148-80.619-28.148-126.575 0-164.949 133.718-298.667 298.667-298.667 63.428 0 122.239 19.772 170.604 53.49l-0.973-0.643c0.776-9.407 1.219-20.361 1.219-31.418 0-170.104-104.75-315.742-253.265-375.928l-2.717-0.973zM298.667 106.667h298.667v-85.333h-298.667v85.333zM170.667 448h256v-85.333h-256v85.333zM85.333 277.333h426.667v-85.333h-426.667v85.333z" />
<glyph unicode="&#xe92b;" glyph-name="moon-line" d="M426.667 661.333c0-0.013 0-0.028 0-0.044 0-164.949 133.718-298.667 298.667-298.667 83.546 0 159.080 34.304 213.285 89.594l0.048 0.049v-4.267c0-235.648-191.019-426.667-426.667-426.667s-426.667 191.019-426.667 426.667 191.019 426.667 426.667 426.667h4.267c-55.308-54.11-89.6-129.508-89.6-212.914 0-0.147 0-0.295 0-0.442v0.023zM170.667 448c0-0.041 0-0.090 0-0.139 0-188.513 152.82-341.333 341.333-341.333 129.814 0 242.703 72.467 300.419 179.154l0.893 1.806c-26.451-6.503-56.818-10.233-88.057-10.233-212.077 0-384 171.923-384 384 0 31.238 3.73 61.605 10.769 90.68l-0.536-2.623c-108.415-58.621-180.821-171.461-180.821-301.212 0-0.035 0-0.070 0-0.105v0.005z" />
<glyph unicode="&#xe92c;" glyph-name="rainbow-fill" d="M512 789.333c259.2 0 469.333-210.133 469.333-469.333v-213.333h-128v213.333c-0.002 184.761-146.801 335.234-330.124 341.149l-0.542 0.014-10.667 0.171c-184.761-0.002-335.234-146.801-341.149-330.124l-0.014-0.542-0.171-10.667v-213.333h-128v213.333c0 259.2 210.133 469.333 469.333 469.333zM512 618.667c164.949 0 298.667-133.718 298.667-298.667v0-213.333h-128v213.333c0 91.255-71.621 165.782-161.719 170.436l-0.415 0.017-8.533 0.213c-91.255 0-165.782-71.621-170.436-161.719l-0.017-0.415-0.213-8.533v-213.333h-128v213.333c0 164.949 133.718 298.667 298.667 298.667v0zM512 448c70.692 0 128-57.308 128-128v0-213.333h-256v213.333c0 70.692 57.308 128 128 128v0z" />
<glyph unicode="&#xe92d;" glyph-name="rainbow-line" d="M512 789.333c259.2 0 469.333-210.133 469.333-469.333v-213.333h-85.333v213.333c-0.002 208.099-165.538 377.535-372.115 383.815l-0.578 0.014-11.307 0.171c-208.099-0.002-377.535-165.538-383.815-372.115l-0.014-0.578-0.171-11.307v-213.333h-85.333v213.333c0 259.2 210.133 469.333 469.333 469.333zM512 618.667c164.949 0 298.667-133.718 298.667-298.667v0-213.333h-85.333v213.333c-0.007 114.559-90.31 208.025-203.617 213.104l-0.458 0.016-9.259 0.213c-114.559-0.007-208.025-90.31-213.104-203.617l-0.016-0.458-0.213-9.259v-213.333h-85.333v213.333c0 164.949 133.718 298.667 298.667 298.667v0zM512 448c70.692 0 128-57.308 128-128v0-213.333h-85.333v213.333c-0.003 21.803-16.359 39.784-37.47 42.348l-0.205 0.020-4.992 0.299c-21.803-0.003-39.784-16.359-42.348-37.47l-0.020-0.205-0.299-4.992v-213.333h-85.333v213.333c0 70.692 57.308 128 128 128v0z" />
<glyph unicode="&#xe92e;" glyph-name="rainy-fill" d="M676.693 192l-134.528 134.528c-7.721 7.718-18.386 12.492-30.165 12.492s-22.445-4.774-30.165-12.492l-132.821-132.821c-172.839 18.373-306.309 163.385-306.309 339.57 0 188.537 152.839 341.376 341.376 341.376 127.179 0 238.114-69.546 296.85-172.682l0.883-1.683c13.059 2.362 28.090 3.712 43.437 3.712 141.385 0 256-114.615 256-256 0-141.356-114.568-255.953-255.912-256h-48.602zM436.565 160.768l75.435 75.435 75.435-75.435c19.297-19.302 31.232-45.965 31.232-75.415 0-58.91-47.756-106.667-106.667-106.667s-106.667 47.756-106.667 106.667c0 29.45 11.935 56.113 31.232 75.415v0z" />
<glyph unicode="&#xe92f;" glyph-name="rainy-line" d="M682.667 192v85.333h42.667c94.216 0.054 170.572 76.443 170.572 170.667 0 94.257-76.41 170.667-170.667 170.667-34.136 0-65.932-10.022-92.605-27.285l0.668 0.405c-27.45 114.058-128.594 197.494-249.225 197.494-141.385 0-256-114.615-256-256 0-126.286 91.442-231.214 211.726-252.185l1.531-0.221v-86.272c-169.241 21.977-298.621 165.223-298.621 338.688 0 188.506 152.789 341.325 341.282 341.376h0.005c0.044 0 0.096 0 0.148 0 127.163 0 238.080-69.555 296.783-172.695l0.882-1.684c13.059 2.362 28.090 3.712 43.437 3.712 141.385 0 256-114.615 256-256 0-141.356-114.568-255.953-255.912-256h-42.671zM436.565 160.768l75.435 75.435 75.435-75.435c19.297-19.302 31.232-45.965 31.232-75.415 0-58.91-47.756-106.667-106.667-106.667s-106.667 47.756-106.667 106.667c0 29.45 11.935 56.113 31.232 75.415v0z" />
<glyph unicode="&#xe930;" glyph-name="showers-fill" d="M640 192h-256v-128h-85.333v138.752c-148.302 39.312-255.824 172.324-255.824 330.449 0 188.513 152.82 341.333 341.333 341.333 143.913 0 267.024-89.063 317.222-215.078l0.81-2.305c13.259 2.659 28.502 4.181 44.1 4.181 129.603 0 234.667-105.064 234.667-234.667 0-129.477-104.86-234.462-234.289-234.666l-21.353-0.043v-128h-85.333v128zM469.333 106.667h85.333v-128h-85.333v128z" />
<glyph unicode="&#xe931;" glyph-name="showers-line" d="M213.333 237.653c-102.647 60.14-170.489 169.898-170.489 295.501 0 188.513 152.82 341.333 341.333 341.333 143.912 0 267.022-89.061 317.221-215.074l0.81-2.304c13.682 2.833 29.405 4.455 45.507 4.455 129.603 0 234.667-105.064 234.667-234.667 0-107.195-71.874-197.603-170.060-225.661l-1.655-0.405v90.88c50.853 24.54 85.315 75.703 85.315 134.915 0 82.475-66.859 149.333-149.333 149.333-41.764 0-79.524-17.144-106.625-44.779l-0.023-0.024v2.176c0 0.002 0 0.004 0 0.006 0 141.385-114.615 256-256 256s-256-114.615-256-256c0-75.703 32.86-143.732 85.094-190.6l0.239-0.211v-104.875zM298.667 277.333h85.333v-170.667h-85.333v170.667zM640 277.333h85.333v-170.667h-85.333v170.667zM469.333 149.333h85.333v-170.667h-85.333v170.667z" />
<glyph unicode="&#xe932;" glyph-name="snowy-fill" d="M257.152 216.32c-126.658 51.833-214.263 174.129-214.263 316.886 0 188.461 152.678 341.262 341.092 341.461h0.019c0.006 0 0.013 0 0.020 0 144.002 0 267.185-89.14 317.378-215.251l0.81-2.306c6.573 0.654 14.208 1.027 21.929 1.027 129.603 0 234.667-105.064 234.667-234.667 0-114.090-81.417-209.163-189.32-230.289l-1.484-0.242c-0.467 141.031-114.903 255.179-255.999 255.179-132.848 0-242.061-101.191-254.766-230.7l-0.084-1.055zM554.667 265.941l83.797 48.384 42.667-73.899-83.797-48.427 83.797-48.384-42.667-73.899-83.797 48.384v-96.768h-85.333v96.768l-83.797-48.384-42.667 73.899 83.797 48.384-83.797 48.384 42.667 73.899 83.797-48.384v96.768h85.333v-96.768z" />
<glyph unicode="&#xe933;" glyph-name="snowy-line" d="M554.667 265.899l83.797 48.384 42.667-73.899-83.797-48.384 83.797-48.384-42.667-73.899-83.797 48.384v-96.768h-85.333v96.768l-83.797-48.384-42.667 73.899 83.797 48.384-83.797 48.384 42.667 73.899 83.797-48.384v96.768h85.333v-96.768zM725.333 192v85.333h21.333c82.465 0.012 149.312 66.866 149.312 149.333 0 82.475-66.859 149.333-149.333 149.333-41.762 0-79.521-17.143-106.622-44.776l-0.023-0.024v2.133c-0.052 141.346-114.647 255.908-256 255.908-141.385 0-256-114.615-256-256 0-110.797 70.387-205.154 168.884-240.796l1.783-0.564v-89.131c-148.302 39.312-255.824 172.324-255.824 330.449 0 188.513 152.82 341.333 341.333 341.333 143.913 0 267.024-89.063 317.222-215.078l0.81-2.305c13.259 2.659 28.502 4.181 44.1 4.181 129.603 0 234.667-105.064 234.667-234.667 0-129.477-104.86-234.462-234.289-234.666l-21.353-0.043z" />
<glyph unicode="&#xe934;" glyph-name="sun-cloudy-fill" d="M425.984 744.107c47.396 88.913 139.522 148.404 245.542 148.404 153.167 0 277.333-124.166 277.333-277.333 0-53.925-15.391-104.256-42.019-146.839l0.679 1.165c45.474-42.896 73.785-103.561 73.785-170.837 0-129.593-105.048-234.65-234.636-234.667l-362.668 0.043c-188.402 0.147-341.075 152.911-341.075 341.333 0 188.513 152.82 341.333 341.333 341.333 14.707 0 29.197-0.93 43.414-2.735l-1.689 0.175zM514.347 720.896c86.28-36.412 153.164-104.573 187.048-189.476l0.814-2.31c13.352 2.682 28.7 4.217 44.407 4.217 31.977 0 62.469-6.363 90.277-17.891l-1.564 0.575c11.452 23.868 18.142 51.888 18.142 81.47 0 106.039-85.961 192-192 192-58.91 0-111.624-26.531-146.844-68.297l-0.237-0.288z" />
<glyph unicode="&#xe935;" glyph-name="sun-cloudy-line" d="M425.984 744.107c47.396 88.913 139.522 148.404 245.542 148.404 153.167 0 277.333-124.166 277.333-277.333 0-53.925-15.391-104.256-42.019-146.839l0.679 1.165c45.474-42.896 73.785-103.561 73.785-170.837 0-129.593-105.048-234.65-234.636-234.667l-362.668 0.043c-188.402 0.147-341.075 152.911-341.075 341.333 0 188.513 152.82 341.333 341.333 341.333 14.707 0 29.197-0.93 43.414-2.735l-1.689 0.175zM514.347 720.896c86.28-36.412 153.164-104.573 187.048-189.476l0.814-2.31c13.352 2.682 28.7 4.217 44.407 4.217 31.977 0 62.469-6.363 90.277-17.891l-1.564 0.575c11.452 23.868 18.142 51.888 18.142 81.47 0 106.039-85.961 192-192 192-58.91 0-111.624-26.531-146.844-68.297l-0.237-0.288zM746.667 149.333c82.465 0.012 149.312 66.866 149.312 149.333 0 82.475-66.859 149.333-149.333 149.333-41.762 0-79.521-17.143-106.622-44.776l-0.023-0.024v2.133c0 141.385-114.615 256-256 256s-256-114.615-256-256c0-141.385 114.615-256 256-256v0h362.667z" />
<glyph unicode="&#xe936;" glyph-name="sun-fill" d="M512 192c-141.385 0-256 114.615-256 256s114.615 256 256 256v0c141.385 0 256-114.615 256-256s-114.615-256-256-256v0zM469.333 917.333h85.333v-128h-85.333v128zM469.333 106.667h85.333v-128h-85.333v128zM149.973 749.696l60.331 60.331 90.496-90.496-60.331-60.331-90.496 90.453zM723.2 176.469l60.331 60.331 90.496-90.496-60.331-60.331-90.496 90.496zM813.696 810.069l60.331-60.373-90.496-90.496-60.331 60.331 90.496 90.496zM240.469 236.8l60.331-60.331-90.496-90.496-60.331 60.331 90.496 90.496zM981.333 490.667v-85.333h-128v85.333h128zM170.667 490.667v-85.333h-128v85.333h128z" />
<glyph unicode="&#xe937;" glyph-name="sun-foggy-fill" d="M270.549 362.667c-9.276 25.41-14.641 54.745-14.641 85.333 0 141.385 114.615 256 256 256s256-114.615 256-256c0-141.353-114.563-255.948-255.903-256h-0.005v170.667h-241.451zM256 106.667h384v-85.333h-384v85.333zM42.667 490.667h128v-85.333h-128v85.333zM85.333 277.333h341.333v-85.333h-341.333v85.333zM469.333 917.333h85.333v-128h-85.333v128zM149.973 749.696l60.331 60.331 90.496-90.496-60.331-60.331-90.496 90.453zM723.2 176.469l60.331 60.331 90.496-90.496-60.331-60.331-90.496 90.496zM813.696 810.069l60.331-60.373-90.496-90.496-60.331 60.331 90.496 90.496zM981.333 490.667v-85.333h-128v85.333h128z" />
<glyph unicode="&#xe938;" glyph-name="sun-foggy-line" d="M341.333 448h85.333v-85.333h-256v85.333h85.333c0 141.385 114.615 256 256 256s256-114.615 256-256c0-141.385-114.615-256-256-256v0 85.333c94.257 0 170.667 76.41 170.667 170.667s-76.41 170.667-170.667 170.667c-94.257 0-170.667-76.41-170.667-170.667v0zM256 106.667h384v-85.333h-384v85.333zM85.333 277.333h341.333v-85.333h-341.333v85.333zM469.333 917.333h85.333v-128h-85.333v128zM149.973 749.696l60.331 60.331 90.496-90.496-60.331-60.331-90.496 90.453zM723.2 176.469l60.331 60.331 90.496-90.496-60.331-60.331-90.496 90.496zM813.696 810.069l60.331-60.373-90.496-90.496-60.331 60.331 90.496 90.496zM981.333 490.667v-85.333h-128v85.333h128z" />
<glyph unicode="&#xe939;" glyph-name="sun-line" d="M512 192c-141.385 0-256 114.615-256 256s114.615 256 256 256v0c141.385 0 256-114.615 256-256s-114.615-256-256-256v0zM512 277.333c94.257 0 170.667 76.41 170.667 170.667s-76.41 170.667-170.667 170.667v0c-94.257 0-170.667-76.41-170.667-170.667s76.41-170.667 170.667-170.667v0zM469.333 917.333h85.333v-128h-85.333v128zM469.333 106.667h85.333v-128h-85.333v128zM149.973 749.696l60.331 60.331 90.496-90.496-60.331-60.331-90.496 90.453zM723.2 176.469l60.331 60.331 90.496-90.496-60.331-60.331-90.496 90.496zM813.696 810.069l60.331-60.373-90.496-90.496-60.331 60.331 90.496 90.496zM240.469 236.8l60.331-60.331-90.496-90.496-60.331 60.331 90.496 90.496zM981.333 490.667v-85.333h-128v85.333h128zM170.667 490.667v-85.333h-128v85.333h128z" />
<glyph unicode="&#xe93a;" glyph-name="temp-cold-fill" d="M341.333 522.453v224.213c0 94.257 76.41 170.667 170.667 170.667s170.667-76.41 170.667-170.667v0-224.213c77.789-54.674 128-144.024 128-245.101 0-164.949-133.718-298.667-298.667-298.667s-298.667 133.718-298.667 298.667c0 101.077 50.211 190.427 127.050 244.468l0.95 0.633zM341.333 277.333c0-94.257 76.41-170.667 170.667-170.667s170.667 76.41 170.667 170.667v0h-341.333z" />
<glyph unicode="&#xe93b;" glyph-name="temp-cold-line" d="M341.333 746.667c0 94.257 76.41 170.667 170.667 170.667s170.667-76.41 170.667-170.667v0-224.213c77.789-54.674 128-144.024 128-245.101 0-164.949-133.718-298.667-298.667-298.667s-298.667 133.718-298.667 298.667c0 101.077 50.211 190.427 127.050 244.468l0.95 0.633v224.213zM390.144 452.48c-55.592-39.050-91.477-102.887-91.477-175.106 0-117.821 95.513-213.333 213.333-213.333s213.333 95.513 213.333 213.333c0 72.219-35.885 136.056-90.798 174.653l-0.68 0.453-36.523 25.472v268.715c0 47.128-38.205 85.333-85.333 85.333s-85.333-38.205-85.333-85.333v0-268.715l-36.523-25.472zM341.333 277.333h341.333c0-94.257-76.41-170.667-170.667-170.667s-170.667 76.41-170.667 170.667v0z" />
<glyph unicode="&#xe93c;" glyph-name="temp-hot-fill" d="M341.333 522.453v224.213c0 94.257 76.41 170.667 170.667 170.667s170.667-76.41 170.667-170.667v0-224.213c77.789-54.674 128-144.024 128-245.101 0-164.949-133.718-298.667-298.667-298.667s-298.667 133.718-298.667 298.667c0 101.077 50.211 190.427 127.050 244.468l0.95 0.633zM469.333 442.624c-73.991-19.803-127.587-86.245-127.587-165.206 0-94.129 76.164-170.468 170.227-170.751h0.027c0.050 0 0.109 0 0.169 0 94.257 0 170.667 76.41 170.667 170.667 0 79.156-53.888 145.725-126.979 165.024l-1.19 0.267v304.043h-85.333v-304.043z" />
<glyph unicode="&#xe93d;" glyph-name="temp-hot-line" d="M341.333 746.667c0 94.257 76.41 170.667 170.667 170.667s170.667-76.41 170.667-170.667v0-224.213c77.789-54.674 128-144.024 128-245.101 0-164.949-133.718-298.667-298.667-298.667s-298.667 133.718-298.667 298.667c0 101.077 50.211 190.427 127.050 244.468l0.95 0.633v224.213zM390.144 452.48c-55.592-39.050-91.477-102.887-91.477-175.106 0-117.821 95.513-213.333 213.333-213.333s213.333 95.513 213.333 213.333c0 72.219-35.885 136.056-90.798 174.653l-0.68 0.453-36.523 25.472v268.715c0 47.128-38.205 85.333-85.333 85.333s-85.333-38.205-85.333-85.333v0-268.715l-36.523-25.472zM469.333 442.624v304.043h85.333v-304.043c73.991-19.803 127.587-86.245 127.587-165.206 0-94.129-76.164-170.468-170.227-170.751h-0.027c-0.050 0-0.109 0-0.169 0-94.257 0-170.667 76.41-170.667 170.667 0 79.156 53.888 145.725 126.979 165.024l1.19 0.267zM512 192c47.128 0 85.333 38.205 85.333 85.333s-38.205 85.333-85.333 85.333v0c-47.128 0-85.333-38.205-85.333-85.333s38.205-85.333 85.333-85.333v0z" />
<glyph unicode="&#xe93e;" glyph-name="thunderstorms-fill" d="M724.821 192l51.883 67.413c8.288 10.682 13.286 24.277 13.286 39.040 0 35.346-28.654 64-64 64-0.006 0-0.012 0-0.018 0h-85.972v169.643c0 0.010 0 0.023 0 0.035 0 35.346-28.654 64-64 64-20.618 0-38.959-9.75-50.664-24.89l-0.11-0.148-271.573-353.323c-124.842 52.644-210.879 174.013-210.879 315.477 0 188.492 152.748 341.308 341.214 341.419h0.011c0.006 0 0.013 0 0.020 0 144.002 0 267.185-89.14 317.378-215.251l0.81-2.306c13.327 2.686 28.646 4.224 44.324 4.224 129.603 0 234.667-105.064 234.667-234.667 0-129.555-104.987-234.59-234.525-234.667h-21.853zM554.667 277.12h128l-213.333-277.333v192h-128l213.333 277.547v-192.213z" />
<glyph unicode="&#xe93f;" glyph-name="thunderstorms-line" d="M725.333 192v85.333h21.333c82.465 0.012 149.312 66.866 149.312 149.333 0 82.475-66.859 149.333-149.333 149.333-41.762 0-79.521-17.143-106.622-44.776l-0.023-0.024v2.133c-0.052 141.346-114.647 255.908-256 255.908-141.385 0-256-114.615-256-256 0-110.797 70.387-205.154 168.884-240.796l1.783-0.564v-89.131c-148.302 39.312-255.824 172.324-255.824 330.449 0 188.513 152.82 341.333 341.333 341.333 143.913 0 267.024-89.063 317.222-215.078l0.81-2.305c13.259 2.659 28.502 4.181 44.1 4.181 129.603 0 234.667-105.064 234.667-234.667 0-129.477-104.86-234.462-234.289-234.666l-21.353-0.043zM554.667 277.12h128l-213.333-277.333v192h-128l213.333 277.547v-192.213z" />
<glyph unicode="&#xe940;" glyph-name="tornado-fill" d="M85.333 832h853.333v-85.333h-853.333v85.333zM170.667 661.333h682.667v-85.333h-682.667v85.333zM341.333 490.667h597.333v-85.333h-597.333v85.333zM426.667 320h341.333v-85.333h-341.333v85.333zM341.333 149.333h256v-85.333h-256v85.333z" />
<glyph unicode="&#xe941;" glyph-name="tornado-line" d="M85.333 832h853.333v-85.333h-853.333v85.333zM170.667 661.333h682.667v-85.333h-682.667v85.333zM341.333 490.667h597.333v-85.333h-597.333v85.333zM426.667 320h341.333v-85.333h-341.333v85.333zM341.333 149.333h256v-85.333h-256v85.333z" />
<glyph unicode="&#xe942;" glyph-name="typhoon-fill" d="M753.237 887.467l-118.699-108.075c57.795-17.782 107.614-46.69 149.23-84.471l-0.323 0.289c149.845-136.533 149.845-357.888 0-494.421-110.592-100.693-281.515-164.779-512.683-192.256l118.699 108.075c-57.795 17.782-107.614 46.69-149.23 84.471l0.323-0.289c-149.845 136.533-150.741 357.077 0 494.421 110.592 100.693 281.557 164.779 512.725 192.256zM512 618.667c-106.027 0-192-76.373-192-170.667s85.973-170.667 192-170.667 192 76.373 192 170.667-85.973 170.667-192 170.667z" />
<glyph unicode="&#xe943;" glyph-name="typhoon-line" d="M753.237 887.467l-118.699-108.075c57.795-17.782 107.614-46.69 149.23-84.471l-0.323 0.289c149.845-136.533 149.845-357.888 0-494.421-110.592-100.693-281.515-164.779-512.683-192.256l118.699 108.075c-57.795 17.782-107.614 46.69-149.23 84.471l0.323-0.289c-149.845 136.533-150.741 357.077 0 494.421 110.592 100.693 281.557 164.779 512.725 192.256zM512 704c-164.949 0-298.667-114.603-298.667-256s133.717-256 298.667-256 298.667 114.603 298.667 256-133.717 256-298.667 256zM512 605.867c94.293 0 170.667-70.699 170.667-157.867s-76.373-157.867-170.667-157.867-170.667 70.699-170.667 157.867 76.373 157.867 170.667 157.867zM512 520.533c-48.555 0-85.333-34.005-85.333-72.533s36.779-72.533 85.333-72.533 85.333 34.005 85.333 72.533c0 38.528-36.779 72.533-85.333 72.533z" />
<glyph unicode="&#xe944;" glyph-name="windy-fill" d="M448 234.667h-277.333v85.333h277.333c82.452-0.030 149.28-66.877 149.28-149.333 0-82.475-66.859-149.333-149.333-149.333-63.62 0-117.948 39.784-139.463 95.831l-0.345 1.023 79.915 29.995c9.367-24.461 32.652-41.515 59.92-41.515 35.346 0 64 28.654 64 64 0 35.337-28.639 63.985-63.972 64h-0.001zM213.333 490.667h576c82.452-0.030 149.28-66.877 149.28-149.333 0-82.475-66.859-149.333-149.333-149.333-63.62 0-117.948 39.784-139.463 95.831l-0.345 1.023 79.915 29.995c9.367-24.461 32.652-41.515 59.92-41.515 35.346 0 64 28.654 64 64 0 35.337-28.639 63.985-63.972 64h-576.001c-70.692 0-128 57.308-128 128s57.308 128 128 128v0h362.667c35.335 0.015 63.973 28.663 63.973 64 0 35.346-28.654 64-64 64-27.268 0-50.553-17.053-59.772-41.076l-0.148-0.438-79.915 29.952c21.887 57.044 76.21 96.803 139.819 96.803 82.45 0 149.299-66.801 149.376-149.233v-0.007c0-82.475-66.859-149.333-149.333-149.333v0h-362.667c-23.564 0-42.667-19.103-42.667-42.667s19.103-42.667 42.667-42.667v0z" />
<glyph unicode="&#xe945;" glyph-name="windy-line" d="M448 234.667h-277.333v85.333h277.333c82.452-0.030 149.28-66.877 149.28-149.333 0-82.475-66.859-149.333-149.333-149.333-63.62 0-117.948 39.784-139.463 95.831l-0.345 1.023 79.915 29.995c9.367-24.461 32.652-41.515 59.92-41.515 35.346 0 64 28.654 64 64 0 35.337-28.639 63.985-63.972 64h-0.001zM213.333 490.667h576c82.452-0.030 149.28-66.877 149.28-149.333 0-82.475-66.859-149.333-149.333-149.333-63.62 0-117.948 39.784-139.463 95.831l-0.345 1.023 79.915 29.995c9.367-24.461 32.652-41.515 59.92-41.515 35.346 0 64 28.654 64 64 0 35.337-28.639 63.985-63.972 64h-576.001c-70.692 0-128 57.308-128 128s57.308 128 128 128v0h362.667c35.335 0.015 63.973 28.663 63.973 64 0 35.346-28.654 64-64 64-27.268 0-50.553-17.053-59.772-41.076l-0.148-0.438-79.915 29.952c21.887 57.044 76.21 96.803 139.819 96.803 82.45 0 149.299-66.801 149.376-149.233v-0.007c0-82.475-66.859-149.333-149.333-149.333v0h-362.667c-23.564 0-42.667-19.103-42.667-42.667s19.103-42.667 42.667-42.667v0z" />
<glyph unicode="&#xe946;" glyph-name="account-box-fill" d="M128 746.88c0 47.019 38.101 85.12 85.12 85.12h597.76c47.019 0 85.12-38.101 85.12-85.12v-597.76c0-47.010-38.11-85.12-85.12-85.12v0h-597.76c-47.010 0-85.12 38.11-85.12 85.12v0 597.76zM271.232 192h490.24c-54.603 77.785-143.899 128-244.923 128-0.069 0-0.139 0-0.208 0h0.011c-0.059 0-0.128 0-0.197 0-101.025 0-190.321-50.216-244.289-127.048l-0.634-0.952zM512 405.333c82.475 0 149.333 66.859 149.333 149.333s-66.859 149.333-149.333 149.333v0c-82.475 0-149.333-66.859-149.333-149.333s66.859-149.333 149.333-149.333v0z" />
<glyph unicode="&#xe947;" glyph-name="account-box-line" d="M128 746.88c0 47.019 38.101 85.12 85.12 85.12h597.76c47.019 0 85.12-38.101 85.12-85.12v-597.76c0-47.010-38.11-85.12-85.12-85.12v0h-597.76c-47.010 0-85.12 38.11-85.12 85.12v0 597.76zM213.333 746.667v-597.333h597.333v597.333h-597.333zM340.139 184.32c-28.623 12.521-53.168 26.474-76.050 42.626l1.341-0.898c53.963 82.713 146.058 136.619 250.743 136.619 0.063 0 0.126 0 0.189 0h-0.010c102.4 0 192.725-51.499 246.528-130.005-21.307-15.931-45.442-30.511-70.972-42.629l-2.586-1.104c-39.155 53.82-101.926 88.405-172.775 88.405-0.069 0-0.137 0-0.206 0h0.011c-73.173 0-137.813-36.864-176.213-93.013zM512 405.333c-82.475 0-149.333 66.859-149.333 149.333s66.859 149.333 149.333 149.333v0c82.475 0 149.333-66.859 149.333-149.333s-66.859-149.333-149.333-149.333v0zM512 490.667c35.346 0 64 28.654 64 64s-28.654 64-64 64v0c-35.346 0-64-28.654-64-64s28.654-64 64-64v0z" />
<glyph unicode="&#xe948;" glyph-name="account-circle-fill" d="M512 874.667c235.52 0 426.667-191.147 426.667-426.667s-191.147-426.667-426.667-426.667-426.667 191.147-426.667 426.667 191.147 426.667 426.667 426.667zM256.981 302.251c62.635-93.44 156.672-152.917 261.845-152.917 105.131 0 199.211 59.435 261.803 152.917-68.197 63.862-160.152 103.083-261.266 103.083-0.188 0-0.377 0-0.565 0h0.029c-0.172 0-0.375 0-0.579 0-101.115 0-193.069-39.221-261.479-103.28l0.212 0.197zM512 490.667c70.692 0 128 57.308 128 128s-57.308 128-128 128v0c-70.692 0-128-57.308-128-128s57.308-128 128-128v0z" />
<glyph unicode="&#xe949;" glyph-name="account-circle-line" d="M512 21.333c-235.648 0-426.667 191.019-426.667 426.667s191.019 426.667 426.667 426.667 426.667-191.019 426.667-426.667-191.019-426.667-426.667-426.667zM299.221 181.077c57.602-46.36 131.644-74.411 212.238-74.411 0.19 0 0.38 0 0.57 0h-0.029c84.053 0 160.981 30.379 220.459 80.725-54.141 55.512-129.673 89.942-213.247 89.942-0.135 0-0.27 0-0.406 0h0.021c-0.102 0-0.223 0-0.344 0-86.643 0-164.646-36.994-219.073-96.049l-0.188-0.207zM239.616 242.347c69.993 74.156 168.954 120.32 278.698 120.32 0.18 0 0.361 0 0.541 0h-0.028c0.148 0 0.323 0 0.498 0 105.839 0 201.647-42.953 270.941-112.378l0.006-0.006c39.448 54.947 63.083 123.563 63.083 197.7 0 188.513-152.82 341.333-341.333 341.333s-341.333-152.82-341.333-341.333c0-77.614 25.904-149.177 69.539-206.516l-0.612 0.838zM512 405.333c-94.257 0-170.667 76.41-170.667 170.667s76.41 170.667 170.667 170.667v0c94.257 0 170.667-76.41 170.667-170.667s-76.41-170.667-170.667-170.667v0zM512 490.667c47.128 0 85.333 38.205 85.333 85.333s-38.205 85.333-85.333 85.333v0c-47.128 0-85.333-38.205-85.333-85.333s38.205-85.333 85.333-85.333v0z" />
<glyph unicode="&#xe94a;" glyph-name="account-pin-box-fill" d="M597.333 64l-85.333-85.333-85.333 85.333h-213.547c-47.010 0-85.12 38.11-85.12 85.12v0 597.76c0 47.019 38.101 85.12 85.12 85.12h597.76c47.019 0 85.12-38.101 85.12-85.12v-597.76c0-47.010-38.11-85.12-85.12-85.12v0h-213.547zM271.232 192h490.24c-54.603 77.785-143.899 128-244.923 128-0.069 0-0.139 0-0.208 0h0.011c-0.059 0-0.128 0-0.197 0-101.025 0-190.321-50.216-244.289-127.048l-0.634-0.952zM512 405.333c82.475 0 149.333 66.859 149.333 149.333s-66.859 149.333-149.333 149.333v0c-82.475 0-149.333-66.859-149.333-149.333s66.859-149.333 149.333-149.333v0z" />
<glyph unicode="&#xe94b;" glyph-name="account-pin-box-line" d="M597.333 64l-85.333-85.333-85.333 85.333h-213.547c-47.010 0-85.12 38.11-85.12 85.12v0 597.76c0 47.019 38.101 85.12 85.12 85.12h597.76c47.019 0 85.12-38.101 85.12-85.12v-597.76c0-47.010-38.11-85.12-85.12-85.12v0h-213.547zM810.667 149.333v597.333h-597.333v-597.333h248.661l50.005-50.005 50.005 50.005h248.661zM340.139 184.32c-28.623 12.521-53.168 26.474-76.050 42.626l1.341-0.898c53.963 82.713 146.058 136.619 250.743 136.619 0.063 0 0.126 0 0.189 0h-0.010c102.4 0 192.725-51.499 246.528-130.005-21.307-15.931-45.442-30.511-70.972-42.629l-2.586-1.104c-39.155 53.82-101.926 88.405-172.775 88.405-0.069 0-0.137 0-0.206 0h0.011c-73.173 0-137.813-36.864-176.213-93.013zM512 405.333c-82.475 0-149.333 66.859-149.333 149.333s66.859 149.333 149.333 149.333v0c82.475 0 149.333-66.859 149.333-149.333s-66.859-149.333-149.333-149.333v0zM512 490.667c35.346 0 64 28.654 64 64s-28.654 64-64 64v0c-35.346 0-64-28.654-64-64s28.654-64 64-64v0z" />
<glyph unicode="&#xe94c;" glyph-name="account-pin-circle-fill" d="M608.256 32.256l-96.256-96.256-96.256 96.256c-189.184 43.691-330.411 213.333-330.411 415.744 0 235.52 191.147 426.667 426.667 426.667s426.667-191.147 426.667-426.667c0-202.411-141.227-372.053-330.411-415.744zM256.981 302.251c62.635-93.44 156.672-152.917 261.845-152.917 105.131 0 199.211 59.435 261.803 152.917-68.197 63.862-160.152 103.083-261.266 103.083-0.188 0-0.377 0-0.565 0h0.029c-0.172 0-0.375 0-0.579 0-101.115 0-193.069-39.221-261.479-103.28l0.212 0.197zM512 490.667c70.692 0 128 57.308 128 128s-57.308 128-128 128v0c-70.692 0-128-57.308-128-128s57.308-128 128-128v0z" />
<glyph unicode="&#xe94d;" glyph-name="account-pin-circle-line" d="M415.787 32.213c-189.312 43.648-330.453 213.248-330.453 415.787 0 235.648 191.019 426.667 426.667 426.667s426.667-191.019 426.667-426.667c0-202.539-141.141-372.139-330.453-415.787l-96.213-96.213-96.213 96.213zM299.179 181.035c37.992-30.593 83.599-53.399 133.461-65.204l2.304-0.46 23.893-5.504 53.163-53.205 53.205 53.205 23.893 5.547c55.392 13.039 103.657 38.083 143.836 72.332l-0.476-0.396c-54.144 55.537-129.694 89.984-213.289 89.984-0.121 0-0.241 0-0.362 0h0.019c-86.869 0-165.12-37.12-219.648-96.299zM239.616 242.347c69.993 74.156 168.954 120.32 278.698 120.32 0.18 0 0.361 0 0.541 0h-0.028c0.148 0 0.323 0 0.498 0 105.839 0 201.647-42.953 270.941-112.378l0.006-0.006c39.448 54.947 63.083 123.563 63.083 197.7 0 188.513-152.82 341.333-341.333 341.333s-341.333-152.82-341.333-341.333c0-77.614 25.904-149.177 69.539-206.516l-0.612 0.838zM512 405.333c-94.257 0-170.667 76.41-170.667 170.667s76.41 170.667 170.667 170.667v0c94.257 0 170.667-76.41 170.667-170.667s-76.41-170.667-170.667-170.667v0zM512 490.667c47.128 0 85.333 38.205 85.333 85.333s-38.205 85.333-85.333 85.333v0c-47.128 0-85.333-38.205-85.333-85.333s38.205-85.333 85.333-85.333v0z" />
<glyph unicode="&#xe94e;" glyph-name="admin-fill" d="M512 362.667v-341.333h-341.333c0 188.513 152.82 341.333 341.333 341.333v0zM512 405.333c-141.44 0-256 114.56-256 256s114.56 256 256 256 256-114.56 256-256-114.56-256-256-256zM896 234.667h42.667v-213.333h-341.333v213.333h42.667v42.667c0 70.692 57.308 128 128 128s128-57.308 128-128v0-42.667zM810.667 234.667v42.667c0 23.564-19.103 42.667-42.667 42.667s-42.667-19.103-42.667-42.667v0-42.667h85.333z" />
<glyph unicode="&#xe94f;" glyph-name="admin-line" d="M512 362.667v-85.333c-141.385 0-256-114.615-256-256v0h-85.333c0 188.513 152.82 341.333 341.333 341.333v0zM512 405.333c-141.44 0-256 114.56-256 256s114.56 256 256 256 256-114.56 256-256-114.56-256-256-256zM512 490.667c94.293 0 170.667 76.373 170.667 170.667s-76.373 170.667-170.667 170.667-170.667-76.373-170.667-170.667 76.373-170.667 170.667-170.667zM896 234.667h42.667v-213.333h-341.333v213.333h42.667v42.667c0 70.692 57.308 128 128 128s128-57.308 128-128v0-42.667zM810.667 234.667v42.667c0 23.564-19.103 42.667-42.667 42.667s-42.667-19.103-42.667-42.667v0-42.667h85.333z" />
<glyph unicode="&#xe950;" glyph-name="aliens-fill" d="M512 874.667c200.295 0 362.667-162.371 362.667-362.667v0c0-277.333-234.667-512-362.667-512s-362.667 234.667-362.667 512c0 200.295 162.371 362.667 362.667 362.667v0zM746.667 448c-0.002 0-0.004 0-0.006 0-106.039 0-192-85.961-192-192 0-7.139 0.39-14.187 1.149-21.124l-0.076 0.857c6.082-0.683 13.132-1.073 20.273-1.073 106.039 0 192 85.961 192 192 0 7.141-0.39 14.192-1.15 21.131l0.076-0.857c-6.077 0.677-13.125 1.064-20.263 1.067h-0.003zM277.333 448c-6.827 0-13.611-0.341-20.267-1.067-0.683-6.082-1.073-13.132-1.073-20.273 0-106.039 85.961-192 192-192 7.141 0 14.192 0.39 21.131 1.15l-0.857-0.076c0.683 6.080 1.073 13.128 1.073 20.267 0 106.039-85.961 192-192 192-0.002 0-0.004 0-0.006 0v0z" />
<glyph unicode="&#xe951;" glyph-name="aliens-line" d="M512 874.667c200.295 0 362.667-162.371 362.667-362.667v0c0-277.333-234.667-512-362.667-512s-362.667 234.667-362.667 512c0 200.295 162.371 362.667 362.667 362.667v0zM512 789.333c-153.167 0-277.333-124.166-277.333-277.333v0c0-204.544 177.707-426.667 277.333-426.667s277.333 222.123 277.333 426.667c0 153.167-124.166 277.333-277.333 277.333v0zM746.667 490.667c6.827 0 13.611-0.341 20.267-1.067 0.683-6.082 1.073-13.132 1.073-20.273 0-106.039-85.961-192-192-192-7.141 0-14.192 0.39-21.131 1.15l0.857-0.076c-0.683 6.080-1.073 13.128-1.073 20.267 0 106.039 85.961 192 192 192 0.002 0 0.004 0 0.006 0v0zM277.333 490.667c0.002 0 0.004 0 0.006 0 106.039 0 192-85.961 192-192 0-7.139-0.39-14.187-1.149-21.124l0.076 0.857c-6.082-0.683-13.132-1.073-20.273-1.073-106.039 0-192 85.961-192 192 0 7.141 0.39 14.192 1.15 21.131l-0.076-0.857c6.613 0.725 13.44 1.067 20.267 1.067z" />
<glyph unicode="&#xe952;" glyph-name="bear-smile-fill" d="M746.667 874.667c106.033-0.008 191.986-85.966 191.986-192 0-57.751-25.497-109.546-65.848-144.744l-0.228-0.195c15.147-41.259 23.424-85.888 23.424-132.395-0.122-211.985-171.998-383.786-384-383.786-212.077 0-384 171.923-384 384 0 47.445 8.604 92.879 24.338 134.829l-0.871-2.649c-40.569 35.392-66.059 87.181-66.059 144.924 0 106.039 85.961 192 192 192 68.994 0 129.488-36.391 163.335-91.025l0.474-0.821c21.295 4.167 45.783 6.551 70.827 6.551s49.532-2.384 73.248-6.938l-2.421 0.387c34.26 55.459 94.716 91.861 163.674 91.861 0.043 0 0.087 0 0.13 0h-0.007zM426.667 405.333h-85.333c0-0.001 0-0.002 0-0.003 0-94.257 76.41-170.667 170.667-170.667 91.256 0 165.784 71.623 170.436 161.721l0.017 0.415 0.213 8.533h-85.333c0.001-0.113 0.001-0.248 0.001-0.382 0-47.128-38.205-85.333-85.333-85.333-45.011 0-81.882 34.849-85.105 79.037l-0.016 0.278-0.213 6.4z" />
<glyph unicode="&#xe953;" glyph-name="bear-smile-line" d="M746.667 874.667c106.033-0.008 191.986-85.966 191.986-192 0-57.751-25.497-109.546-65.848-144.744l-0.228-0.195c15.147-41.259 23.424-85.888 23.424-132.395-0.122-211.985-171.998-383.786-384-383.786-212.077 0-384 171.923-384 384 0 47.445 8.604 92.879 24.338 134.829l-0.871-2.649c-40.569 35.392-66.059 87.181-66.059 144.924 0 106.039 85.961 192 192 192 68.994 0 129.488-36.391 163.335-91.025l0.474-0.821c21.295 4.167 45.783 6.551 70.827 6.551s49.532-2.384 73.248-6.938l-2.421 0.387c34.26 55.459 94.716 91.861 163.674 91.861 0.043 0 0.087 0 0.13 0h-0.007zM746.667 789.333c-35.115 0-67.2-17.067-86.955-44.885l-4.053-6.144-30.635-50.176-57.813 10.795c-16.588 3.246-35.663 5.103-55.171 5.103-14.657 0-29.070-1.048-43.167-3.074l1.612 0.19-13.483-2.219-57.856-10.88-30.72 50.176c-19.061 30.842-52.687 51.084-91.041 51.084-58.91 0-106.667-47.756-106.667-106.667 0-29.382 11.879-55.989 31.097-75.28l-0.003 0.003 5.589-5.248 44.416-38.571-20.267-55.253c-11.539-30.542-18.219-65.849-18.219-102.716 0-164.949 133.718-298.667 298.667-298.667 164.865 0 298.531 133.582 298.667 298.415v0.013c0 30.549-4.565 60.416-13.397 88.875l-4.779 14.080-20.267 55.253 44.373 38.571c22.567 19.664 36.747 48.453 36.747 80.555 0 58.91-47.756 106.667-106.667 106.667-0.004 0-0.008 0-0.012 0h0.001zM426.667 405.333c0-47.128 38.205-85.333 85.333-85.333s85.333 38.205 85.333 85.333v0h85.333c0-94.257-76.41-170.667-170.667-170.667s-170.667 76.41-170.667 170.667v0h85.333z" />
<glyph unicode="&#xe954;" glyph-name="body-scan-fill" d="M170.667 277.333v-170.667h170.667v-85.333h-256v256h85.333zM938.667 277.333v-256h-256v85.333h170.667v170.667h85.333zM320 661.333c0-106.039 85.961-192 192-192s192 85.961 192 192v0h85.333c0-0.016 0-0.034 0-0.053 0-106.372-59.887-198.757-147.784-245.278l-1.507-0.727-0.043-265.941h-256v265.899c-89.428 47.242-149.333 139.639-149.333 246.028 0 0.026 0 0.051 0 0.077v-0.004h85.333zM512 746.667c58.91 0 106.667-47.756 106.667-106.667s-47.756-106.667-106.667-106.667v0c-58.91 0-106.667 47.756-106.667 106.667s47.756 106.667 106.667 106.667v0zM341.333 874.667v-85.333l-170.667 0.043v-170.709h-85.333v256h256zM938.667 874.667v-256h-85.333v170.667h-170.667v85.333h256z" />
<glyph unicode="&#xe955;" glyph-name="body-scan-line" d="M170.667 277.333v-170.667h170.667v-85.333h-256v256h85.333zM938.667 277.333v-256h-256v85.333h170.667v170.667h85.333zM320 661.333c0.002-90.926 63.18-167.096 148.033-187.007l1.301-0.257v-239.403h85.333l0.043 239.445c86.121 20.182 149.273 96.324 149.291 187.219v0.002h85.333c0-0.016 0-0.034 0-0.053 0-106.372-59.887-198.757-147.784-245.278l-1.507-0.727-0.043-265.941h-256v265.899c-89.428 47.242-149.333 139.639-149.333 246.028 0 0.026 0 0.051 0 0.077v-0.004h85.333zM512 746.667c58.91 0 106.667-47.756 106.667-106.667s-47.756-106.667-106.667-106.667v0c-58.91 0-106.667 47.756-106.667 106.667s47.756 106.667 106.667 106.667v0zM341.333 874.667v-85.333l-170.667 0.043v-170.709h-85.333v256h256zM938.667 874.667v-256h-85.333v170.667h-170.667v85.333h256z" />
<glyph unicode="&#xe956;" glyph-name="contacts-fill" d="M85.333 21.333c0 188.513 152.82 341.333 341.333 341.333s341.333-152.82 341.333-341.333v0h-682.667zM426.667 405.333c-141.44 0-256 114.56-256 256s114.56 256 256 256 256-114.56 256-256-114.56-256-256-256zM853.333 234.667h170.667v-85.333h-170.667v85.333zM725.333 448h298.667v-85.333h-298.667v85.333zM810.667 661.333h213.333v-85.333h-213.333v85.333z" />
<glyph unicode="&#xe957;" glyph-name="contacts-line" d="M810.667 661.333h213.333v-85.333h-213.333v85.333zM725.333 448h298.667v-85.333h-298.667v85.333zM853.333 234.667h170.667v-85.333h-170.667v85.333zM85.333 21.333c0 188.513 152.82 341.333 341.333 341.333s341.333-152.82 341.333-341.333v0h-85.333c0 141.385-114.615 256-256 256s-256-114.615-256-256v0h-85.333zM426.667 405.333c-141.44 0-256 114.56-256 256s114.56 256 256 256 256-114.56 256-256-114.56-256-256-256zM426.667 490.667c94.293 0 170.667 76.373 170.667 170.667s-76.373 170.667-170.667 170.667-170.667-76.373-170.667-170.667 76.373-170.667 170.667-170.667z" />
<glyph unicode="&#xe958;" glyph-name="criminal-fill" d="M512 874.667c0.005 0 0.010 0 0.016 0 212.077 0 384-171.923 384-384 0-94.275-33.973-180.614-90.344-247.444l0.473 0.575c53.547-35.413 86.741-80.64 89.643-130.091l0.213-7.040-384-85.333-384 85.333 0.213 7.040c2.859 49.493 36.096 94.72 89.6 130.133-55.858 66.053-89.814 152.189-89.814 246.256 0 0.2 0 0.401 0 0.601v-0.031c0 212.077 171.923 384 384 384v0zM512 405.333c-58.88 0-106.667-28.672-106.667-64s47.787-64 106.667-64 106.667 28.672 106.667 64-47.787 64-106.667 64zM384 618.667c-47.147 0-85.333-28.672-85.333-64s38.187-64 85.333-64 85.333 28.672 85.333 64-38.187 64-85.333 64zM640 618.667c-47.147 0-85.333-28.672-85.333-64s38.187-64 85.333-64 85.333 28.672 85.333 64-38.187 64-85.333 64z" />
<glyph unicode="&#xe959;" glyph-name="criminal-line" d="M512 874.667c0.005 0 0.010 0 0.016 0 212.077 0 384-171.923 384-384 0-94.275-33.973-180.614-90.344-247.444l0.473 0.575c53.547-35.413 86.741-80.64 89.643-130.091l0.213-7.040-384-85.333-384 85.333 0.213 7.040c2.859 49.493 36.096 94.72 89.6 130.133-55.858 66.053-89.814 152.189-89.814 246.256 0 0.2 0 0.401 0 0.601v-0.031c0 212.077 171.923 384 384 384v0zM512 789.333c-164.949 0-298.667-133.718-298.667-298.667v0c0-66.859 21.931-130.133 61.653-181.803l8.192-10.197 61.568-73.259-83.712-55.424-5.845-4.139 256.811-57.088 256.768 57.088-2.091 1.536-7.595 5.248-79.829 52.779 61.568 73.301c43.438 51.319 69.846 118.26 69.846 191.37 0 0.207 0 0.413-0.001 0.62v-0.032c0 164.949-133.718 298.667-298.667 298.667v0zM512 405.333c58.88 0 106.667-28.672 106.667-64s-47.787-64-106.667-64-106.667 28.672-106.667 64 47.787 64 106.667 64zM384 618.667c47.147 0 85.333-28.672 85.333-64s-38.187-64-85.333-64-85.333 28.672-85.333 64 38.187 64 85.333 64zM640 618.667c47.147 0 85.333-28.672 85.333-64s-38.187-64-85.333-64-85.333 28.672-85.333 64 38.187 64 85.333 64z" />
<glyph unicode="&#xe95a;" glyph-name="emotion-2-fill" d="M512 21.333c-235.648 0-426.667 191.019-426.667 426.667s191.019 426.667 426.667 426.667 426.667-191.019 426.667-426.667-191.019-426.667-426.667-426.667zM341.333 405.333c0-94.257 76.41-170.667 170.667-170.667s170.667 76.41 170.667 170.667v0h-341.333z" />
<glyph unicode="&#xe95b;" glyph-name="emotion-2-line" d="M512 21.333c-235.648 0-426.667 191.019-426.667 426.667s191.019 426.667 426.667 426.667 426.667-191.019 426.667-426.667-191.019-426.667-426.667-426.667zM512 106.667c188.513 0 341.333 152.82 341.333 341.333s-152.82 341.333-341.333 341.333v0c-188.513 0-341.333-152.82-341.333-341.333s152.82-341.333 341.333-341.333v0zM341.333 405.333h341.333c0-94.257-76.41-170.667-170.667-170.667s-170.667 76.41-170.667 170.667v0z" />
<glyph unicode="&#xe95c;" glyph-name="emotion-fill" d="M512 21.333c-235.648 0-426.667 191.019-426.667 426.667s191.019 426.667 426.667 426.667 426.667-191.019 426.667-426.667-191.019-426.667-426.667-426.667zM341.333 405.333c0-94.257 76.41-170.667 170.667-170.667s170.667 76.41 170.667 170.667v0h-341.333zM341.333 490.667c35.346 0 64 28.654 64 64s-28.654 64-64 64v0c-35.346 0-64-28.654-64-64s28.654-64 64-64v0zM682.667 490.667c35.346 0 64 28.654 64 64s-28.654 64-64 64v0c-35.346 0-64-28.654-64-64s28.654-64 64-64v0z" />
<glyph unicode="&#xe95d;" glyph-name="emotion-happy-fill" d="M512 21.333c-235.648 0-426.667 191.019-426.667 426.667s191.019 426.667 426.667 426.667 426.667-191.019 426.667-426.667-191.019-426.667-426.667-426.667zM298.667 405.333c0-117.821 95.513-213.333 213.333-213.333s213.333 95.513 213.333 213.333v0h-85.333c0-70.692-57.308-128-128-128s-128 57.308-128 128v0h-85.333zM341.333 490.667c35.346 0 64 28.654 64 64s-28.654 64-64 64v0c-35.346 0-64-28.654-64-64s28.654-64 64-64v0zM682.667 490.667c35.346 0 64 28.654 64 64s-28.654 64-64 64v0c-35.346 0-64-28.654-64-64s28.654-64 64-64v0z" />
<glyph unicode="&#xe95e;" glyph-name="emotion-happy-line" d="M512 21.333c-235.648 0-426.667 191.019-426.667 426.667s191.019 426.667 426.667 426.667 426.667-191.019 426.667-426.667-191.019-426.667-426.667-426.667zM512 106.667c188.513 0 341.333 152.82 341.333 341.333s-152.82 341.333-341.333 341.333v0c-188.513 0-341.333-152.82-341.333-341.333s152.82-341.333 341.333-341.333v0zM298.667 405.333h85.333c0-70.692 57.308-128 128-128s128 57.308 128 128v0h85.333c0-117.821-95.513-213.333-213.333-213.333s-213.333 95.513-213.333 213.333v0zM341.333 490.667c-35.346 0-64 28.654-64 64s28.654 64 64 64v0c35.346 0 64-28.654 64-64s-28.654-64-64-64v0zM682.667 490.667c-35.346 0-64 28.654-64 64s28.654 64 64 64v0c35.346 0 64-28.654 64-64s-28.654-64-64-64v0z" />
<glyph unicode="&#xe95f;" glyph-name="emotion-laugh-fill" d="M512 874.667c235.648 0 426.667-191.019 426.667-426.667s-191.019-426.667-426.667-426.667-426.667 191.019-426.667 426.667 191.019 426.667 426.667 426.667zM512 490.667c-85.333 0-156.459-14.208-213.333-42.667 0-117.821 95.513-213.333 213.333-213.333s213.333 95.513 213.333 213.333v0c-56.875 28.459-128 42.667-213.333 42.667zM362.667 661.333c-49.152 0-90.539-33.28-102.912-78.507l-1.621-6.827h209.067c-10.272 49.036-53.153 85.333-104.512 85.333-0.008 0-0.015 0-0.023 0h0.001zM661.333 661.333c-49.152 0-90.539-33.28-102.912-78.507l-1.621-6.827h209.067c-10.272 49.036-53.153 85.333-104.512 85.333-0.008 0-0.015 0-0.023 0h0.001z" />
<glyph unicode="&#xe960;" glyph-name="emotion-laugh-line" d="M512 874.667c235.648 0 426.667-191.019 426.667-426.667s-191.019-426.667-426.667-426.667-426.667 191.019-426.667 426.667 191.019 426.667 426.667 426.667zM512 789.333c-188.513 0-341.333-152.82-341.333-341.333s152.82-341.333 341.333-341.333v0c188.513 0 341.333 152.82 341.333 341.333s-152.82 341.333-341.333 341.333v0zM512 490.667c85.333 0 156.459-14.208 213.333-42.667 0-117.821-95.513-213.333-213.333-213.333s-213.333 95.513-213.333 213.333v0c56.875 28.459 128 42.667 213.333 42.667zM362.667 661.333c0.006 0 0.014 0 0.022 0 51.359 0 94.24-36.297 104.39-84.639l0.122-0.695h-209.067c10.272 49.036 53.153 85.333 104.512 85.333 0.008 0 0.015 0 0.023 0h-0.001zM661.333 661.333c0.006 0 0.014 0 0.022 0 51.359 0 94.24-36.297 104.39-84.639l0.122-0.695h-209.067c10.272 49.036 53.153 85.333 104.512 85.333 0.008 0 0.015 0 0.023 0h-0.001z" />
<glyph unicode="&#xe961;" glyph-name="emotion-line" d="M512 21.333c-235.648 0-426.667 191.019-426.667 426.667s191.019 426.667 426.667 426.667 426.667-191.019 426.667-426.667-191.019-426.667-426.667-426.667zM512 106.667c188.513 0 341.333 152.82 341.333 341.333s-152.82 341.333-341.333 341.333v0c-188.513 0-341.333-152.82-341.333-341.333s152.82-341.333 341.333-341.333v0zM341.333 405.333h341.333c0-94.257-76.41-170.667-170.667-170.667s-170.667 76.41-170.667 170.667v0zM341.333 490.667c-35.346 0-64 28.654-64 64s28.654 64 64 64v0c35.346 0 64-28.654 64-64s-28.654-64-64-64v0zM682.667 490.667c-35.346 0-64 28.654-64 64s28.654 64 64 64v0c35.346 0 64-28.654 64-64s-28.654-64-64-64v0z" />
<glyph unicode="&#xe962;" glyph-name="emotion-normal-fill" d="M512 21.333c-235.648 0-426.667 191.019-426.667 426.667s191.019 426.667 426.667 426.667 426.667-191.019 426.667-426.667-191.019-426.667-426.667-426.667zM341.333 362.667v-85.333h341.333v85.333h-341.333zM341.333 490.667c35.346 0 64 28.654 64 64s-28.654 64-64 64v0c-35.346 0-64-28.654-64-64s28.654-64 64-64v0zM682.667 490.667c35.346 0 64 28.654 64 64s-28.654 64-64 64v0c-35.346 0-64-28.654-64-64s28.654-64 64-64v0z" />
<glyph unicode="&#xe963;" glyph-name="emotion-normal-line" d="M512 21.333c-235.648 0-426.667 191.019-426.667 426.667s191.019 426.667 426.667 426.667 426.667-191.019 426.667-426.667-191.019-426.667-426.667-426.667zM512 106.667c188.513 0 341.333 152.82 341.333 341.333s-152.82 341.333-341.333 341.333v0c-188.513 0-341.333-152.82-341.333-341.333s152.82-341.333 341.333-341.333v0zM341.333 362.667h341.333v-85.333h-341.333v85.333zM341.333 490.667c-35.346 0-64 28.654-64 64s28.654 64 64 64v0c35.346 0 64-28.654 64-64s-28.654-64-64-64v0zM682.667 490.667c-35.346 0-64 28.654-64 64s28.654 64 64 64v0c35.346 0 64-28.654 64-64s-28.654-64-64-64v0z" />
<glyph unicode="&#xe964;" glyph-name="emotion-sad-fill" d="M512 874.667c235.648 0 426.667-191.019 426.667-426.667 0-0.194 0.001-0.424 0.001-0.654 0-69.72-16.793-135.518-46.555-193.57l1.115 2.394c-3.352 12.754-9.222 23.841-17.087 33.196l0.106-0.129-5.248 5.76-60.331 60.331-60.331-60.331-4.992-5.419c-12.46-14.735-20.034-33.95-20.034-54.934 0-47.128 38.205-85.333 85.333-85.333 2.231 0 4.441 0.086 6.629 0.254l-0.29-0.018c-77.346-79.14-185.164-128.214-304.443-128.214-0.189 0-0.379 0-0.568 0h0.030c-235.648 0-426.667 191.019-426.667 426.667s191.019 426.667 426.667 426.667zM512 320c-58.88 0-112.213-23.893-150.784-62.421l-7.083-7.424 40.32-36.693c33.707 13.44 74.112 21.205 117.547 21.205 38.613 0 74.837-6.144 106.069-16.896l11.477-4.267 40.32 36.693c-39.075 42.95-95.194 69.803-157.584 69.803-0.099 0-0.199 0-0.298 0h0.016zM362.667 533.333c-35.346 0-64-28.654-64-64s28.654-64 64-64v0c35.346 0 64 28.654 64 64s-28.654 64-64 64v0zM661.333 533.333c-35.346 0-64-28.654-64-64s28.654-64 64-64v0c35.346 0 64 28.654 64 64s-28.654 64-64 64v0z" />
<glyph unicode="&#xe965;" glyph-name="emotion-sad-line" d="M512 874.667c235.648 0 426.667-191.019 426.667-426.667 0-31.019-3.285-61.227-9.6-90.368l-76.032 76.075c0.19 4.253 0.298 9.242 0.298 14.256 0 188.513-152.82 341.333-341.333 341.333s-341.333-152.82-341.333-341.333c0-188.513 152.82-341.333 341.333-341.333 56.32 0 109.454 13.64 156.279 37.797l-1.91-0.896c16.447-25.79 38.877-46.415 65.405-60.267l0.942-0.448c-62.748-38.611-138.765-61.483-220.124-61.483-0.208 0-0.415 0-0.623 0h0.032c-235.648 0-426.667 191.019-426.667 426.667s191.019 426.667 426.667 426.667zM810.667 355.328l60.331-60.331c15.449-15.443 25.004-36.781 25.004-60.351 0-47.128-38.205-85.333-85.333-85.333s-85.333 38.205-85.333 85.333c0 21.318 7.817 40.81 20.741 55.766l-0.092-0.109 4.352 4.693 60.331 60.331zM512 320c62.549 0 118.827-26.923 157.867-69.845l-40.32-36.693c-33.707 13.44-74.112 21.205-117.547 21.205s-83.84-7.808-117.547-21.163l-40.32 36.693c39.075 42.95 95.194 69.803 157.584 69.803 0.099 0 0.199 0 0.298 0h-0.016zM362.667 533.333c35.346 0 64-28.654 64-64s-28.654-64-64-64v0c-35.346 0-64 28.654-64 64s28.654 64 64 64v0zM661.333 533.333c35.346 0 64-28.654 64-64s-28.654-64-64-64v0c-35.346 0-64 28.654-64 64s28.654 64 64 64v0z" />
<glyph unicode="&#xe966;" glyph-name="emotion-unhappy-fill" d="M512 21.333c-235.648 0-426.667 191.019-426.667 426.667s191.019 426.667 426.667 426.667 426.667-191.019 426.667-426.667-191.019-426.667-426.667-426.667zM298.667 234.667h85.333c0 70.692 57.308 128 128 128s128-57.308 128-128v0h85.333c0 117.821-95.513 213.333-213.333 213.333s-213.333-95.513-213.333-213.333v0zM341.333 490.667c35.346 0 64 28.654 64 64s-28.654 64-64 64v0c-35.346 0-64-28.654-64-64s28.654-64 64-64v0zM682.667 490.667c35.346 0 64 28.654 64 64s-28.654 64-64 64v0c-35.346 0-64-28.654-64-64s28.654-64 64-64v0z" />
<glyph unicode="&#xe967;" glyph-name="emotion-unhappy-line" d="M512 21.333c-235.648 0-426.667 191.019-426.667 426.667s191.019 426.667 426.667 426.667 426.667-191.019 426.667-426.667-191.019-426.667-426.667-426.667zM512 106.667c188.513 0 341.333 152.82 341.333 341.333s-152.82 341.333-341.333 341.333v0c-188.513 0-341.333-152.82-341.333-341.333s152.82-341.333 341.333-341.333v0zM298.667 234.667c0 117.821 95.513 213.333 213.333 213.333s213.333-95.513 213.333-213.333v0h-85.333c0 70.692-57.308 128-128 128s-128-57.308-128-128v0h-85.333zM341.333 490.667c-35.346 0-64 28.654-64 64s28.654 64 64 64v0c35.346 0 64-28.654 64-64s-28.654-64-64-64v0zM682.667 490.667c-35.346 0-64 28.654-64 64s28.654 64 64 64v0c35.346 0 64-28.654 64-64s-28.654-64-64-64v0z" />
<glyph unicode="&#xe968;" glyph-name="genderless-fill" d="M469.333 658.517v258.816h85.333v-258.816c157.289-21.929 277.048-155.55 277.048-317.142 0-176.639-143.101-319.856-319.697-320.042h-0.017c-0.092 0-0.2 0-0.308 0-176.731 0-320 143.269-320 320 0 161.794 120.075 295.544 275.973 316.996l1.669 0.188z" />
<glyph unicode="&#xe969;" glyph-name="genderless-line" d="M554.667 658.517c157.289-21.929 277.048-155.55 277.048-317.142 0-176.639-143.101-319.856-319.697-320.042h-0.017c-0.092 0-0.2 0-0.308 0-176.731 0-320 143.269-320 320 0 161.794 120.075 295.544 275.973 316.996l1.669 0.188v258.816h85.333v-258.816zM512 106.667c129.603 0 234.667 105.064 234.667 234.667s-105.064 234.667-234.667 234.667v0c-129.603 0-234.667-105.064-234.667-234.667s105.064-234.667 234.667-234.667v0z" />
<glyph unicode="&#xe96a;" glyph-name="ghost-2-fill" d="M512 874.667c149.333 0 256-128 298.667-256 128-42.667 170.667-159.147 170.667-256l-118.4-33.835c-18-5.269-30.924-21.625-30.933-41.002v-63.83c0-41.237-33.429-74.667-74.667-74.667v0h-25.429c-0.004 0-0.009 0-0.013 0-29.584 0-55.652-15.055-70.96-37.921l-0.195-0.309c-39.595-59.904-89.173-89.771-148.736-89.771s-109.141 29.909-148.736 89.771c-15.503 23.175-41.571 38.229-71.155 38.229-0.005 0-0.009 0-0.014 0h-25.429c-41.237 0-74.667 33.429-74.667 74.667v0 63.829c-0.009 19.377-12.934 35.733-30.632 40.927l-0.302 0.076-118.4 33.835c0 96.683 42.667 213.333 170.667 256 42.667 128 149.333 256 298.667 256zM512 448c-35.328 0-64-47.787-64-106.667s28.672-106.667 64-106.667 64 47.787 64 106.667-28.672 106.667-64 106.667zM405.333 618.667c-35.346 0-64-28.654-64-64s28.654-64 64-64v0c35.346 0 64 28.654 64 64s-28.654 64-64 64v0zM618.667 618.667c-35.346 0-64-28.654-64-64s28.654-64 64-64v0c35.346 0 64 28.654 64 64s-28.654 64-64 64v0z" />
<glyph unicode="&#xe96b;" glyph-name="ghost-2-line" d="M512 874.667c149.333 0 256-128 298.667-256 128-42.667 170.667-159.147 170.667-256l-118.4-33.835c-18-5.269-30.924-21.625-30.933-41.002v-63.83c0-41.237-33.429-74.667-74.667-74.667v0h-25.429c-0.004 0-0.009 0-0.013 0-29.584 0-55.652-15.055-70.96-37.921l-0.195-0.309c-39.595-59.904-89.173-89.771-148.736-89.771s-109.141 29.909-148.736 89.771c-15.503 23.175-41.571 38.229-71.155 38.229-0.005 0-0.009 0-0.014 0h-25.429c-41.237 0-74.667 33.429-74.667 74.667v0 63.829c-0.009 19.377-12.934 35.733-30.632 40.927l-0.302 0.076-118.4 33.835c0 96.683 42.667 213.333 170.667 256 42.667 128 149.333 256 298.667 256zM512 789.333c-90.027 0-173.44-76.288-213.803-186.496l-3.925-11.136-13.483-40.533-40.491-13.44c-53.547-17.877-88.192-57.216-103.424-109.227l-0.981-3.669 48.64-13.952c51.54-15.077 89.156-60.383 92.568-114.961l0.018-0.367 0.213-7.723v-53.163h14.763c55.643 0 105.066-26.629 136.222-67.837l0.311-0.429 5.803-8.192c24.576-37.163 48.384-51.541 77.568-51.541 27.221 0 49.792 12.501 72.661 44.373l4.907 7.168c29.179 43.618 76.993 72.805 131.789 76.137l0.478 0.023 10.069 0.299h14.763v53.163c0 0.007 0 0.014 0 0.022 0 55.446 35.254 102.658 84.569 120.444l0.892 0.281 7.381 2.304 48.597 13.952-0.981 3.712c-14.379 49.109-46.080 86.912-94.72 105.984l-8.704 3.2-40.533 13.483-13.44 40.491c-38.741 116.139-124.715 197.632-217.728 197.632zM512 448c35.328 0 64-47.787 64-106.667s-28.672-106.667-64-106.667-64 47.787-64 106.667 28.672 106.667 64 106.667zM405.333 618.667c35.346 0 64-28.654 64-64s-28.654-64-64-64v0c-35.346 0-64 28.654-64 64s28.654 64 64 64v0zM618.667 618.667c35.346 0 64-28.654 64-64s-28.654-64-64-64v0c-35.346 0-64 28.654-64 64s28.654 64 64 64v0z" />
<glyph unicode="&#xe96c;" glyph-name="ghost-fill" d="M512 874.667c212.077 0 384-171.923 384-384v0-320c0-0.021 0-0.047 0-0.072 0-82.475-66.859-149.333-149.333-149.333-51.007 0-96.041 25.573-122.98 64.596l-0.326 0.5c-22.391-39.116-63.879-65.047-111.424-65.047s-89.033 25.931-111.094 64.422l-0.33 0.625c-27.277-39.432-72.259-64.936-123.197-64.936-79.547 0-144.567 62.197-149.083 140.612l-0.018 0.399-0.213 8.277v319.957c0 212.077 171.923 384 384 384v0zM512 448c-47.147 0-85.333-47.787-85.333-106.667s38.187-106.667 85.333-106.667 85.333 47.787 85.333 106.667-38.187 106.667-85.333 106.667zM405.333 618.667c-35.346 0-64-28.654-64-64s28.654-64 64-64v0c35.346 0 64 28.654 64 64s-28.654 64-64 64v0zM618.667 618.667c-35.346 0-64-28.654-64-64s28.654-64 64-64v0c35.346 0 64 28.654 64 64s-28.654 64-64 64v0z" />
<glyph unicode="&#xe96d;" glyph-name="ghost-line" d="M512 874.667c212.077 0 384-171.923 384-384v0-320c0-0.021 0-0.047 0-0.072 0-82.475-66.859-149.333-149.333-149.333-51.007 0-96.041 25.573-122.98 64.596l-0.326 0.5c-22.391-39.116-63.879-65.047-111.424-65.047s-89.033 25.931-111.094 64.422l-0.33 0.625c-27.277-39.432-72.259-64.936-123.197-64.936-79.547 0-144.567 62.197-149.083 140.612l-0.018 0.399-0.213 8.277v319.957c0 212.077 171.923 384 384 384v0zM512 789.333c-0.002 0-0.003 0-0.005 0-161.348 0-292.813-127.943-298.477-287.909l-0.015-0.517-0.171-10.24v-317.696l0.085-5.888c1.998-33.73 29.84-60.327 63.895-60.327 19.6 0 37.141 8.81 48.881 22.687l0.078 0.094 3.755 4.949c15.577 22.616 41.328 37.253 70.499 37.253 31.68 0 59.328-17.263 74.050-42.896l0.22-0.415c7.449-13.069 21.29-21.738 37.156-21.738 15.814 0 29.617 8.612 36.974 21.403l0.11 0.207c14.922 26.125 42.612 43.45 74.348 43.45 26.687 0 50.512-12.25 66.16-31.434l0.122-0.154 4.139-5.547c11.68-16.985 31.006-27.979 52.901-27.979 33.194 0 60.486 25.271 63.686 57.623l0.021 0.265 0.256 6.144v320c0 164.949-133.718 298.667-298.667 298.667v0zM512 448c47.147 0 85.333-47.787 85.333-106.667s-38.187-106.667-85.333-106.667-85.333 47.787-85.333 106.667 38.187 106.667 85.333 106.667zM405.333 618.667c35.346 0 64-28.654 64-64s-28.654-64-64-64v0c-35.346 0-64 28.654-64 64s28.654 64 64 64v0zM618.667 618.667c35.346 0 64-28.654 64-64s-28.654-64-64-64v0c-35.346 0-64 28.654-64 64s28.654 64 64 64v0z" />
<glyph unicode="&#xe96e;" glyph-name="ghost-smile-fill" d="M512 874.667c212.077 0 384-171.923 384-384v0-320c0-0.021 0-0.047 0-0.072 0-82.475-66.859-149.333-149.333-149.333-51.007 0-96.041 25.573-122.98 64.596l-0.326 0.5c-22.391-39.116-63.879-65.047-111.424-65.047s-89.033 25.931-111.094 64.422l-0.33 0.625c-27.277-39.432-72.259-64.936-123.197-64.936-79.547 0-144.567 62.197-149.083 140.612l-0.018 0.399-0.213 8.277v319.957c0 212.077 171.923 384 384 384v0zM682.667 405.333h-85.333c0.001-0.113 0.001-0.248 0.001-0.382 0-47.128-38.205-85.333-85.333-85.333-45.011 0-81.882 34.849-85.105 79.037l-0.016 0.278-0.213 6.4h-85.333l0.213-8.533c4.67-90.513 79.197-162.136 170.453-162.136s165.784 71.623 170.436 161.721l0.017 0.415 0.213 8.533zM512 661.333c-47.128 0-85.333-38.205-85.333-85.333s38.205-85.333 85.333-85.333v0c47.128 0 85.333 38.205 85.333 85.333s-38.205 85.333-85.333 85.333v0z" />
<glyph unicode="&#xe96f;" glyph-name="ghost-smile-line" d="M512 874.667c212.077 0 384-171.923 384-384v0-320c0-0.021 0-0.047 0-0.072 0-82.475-66.859-149.333-149.333-149.333-51.007 0-96.041 25.573-122.98 64.596l-0.326 0.5c-22.391-39.116-63.879-65.047-111.424-65.047s-89.033 25.931-111.094 64.422l-0.33 0.625c-27.277-39.432-72.259-64.936-123.197-64.936-79.547 0-144.567 62.197-149.083 140.612l-0.018 0.399-0.213 8.277v319.957c0 212.077 171.923 384 384 384v0zM512 789.333c-0.002 0-0.003 0-0.005 0-161.348 0-292.813-127.943-298.477-287.909l-0.015-0.517-0.171-10.24v-317.696l0.085-5.888c1.998-33.73 29.84-60.327 63.895-60.327 19.6 0 37.141 8.81 48.881 22.687l0.078 0.094 3.755 4.949c15.577 22.616 41.328 37.253 70.499 37.253 31.68 0 59.328-17.263 74.050-42.896l0.22-0.415c7.449-13.069 21.29-21.738 37.156-21.738 15.814 0 29.617 8.612 36.974 21.403l0.11 0.207c14.922 26.125 42.612 43.45 74.348 43.45 26.687 0 50.512-12.25 66.16-31.434l0.122-0.154 4.139-5.547c11.68-16.985 31.006-27.979 52.901-27.979 33.194 0 60.486 25.271 63.686 57.623l0.021 0.265 0.256 6.144v320c0 164.949-133.718 298.667-298.667 298.667v0zM682.667 405.333c0-0.001 0-0.002 0-0.003 0-94.257-76.41-170.667-170.667-170.667-91.256 0-165.784 71.623-170.436 161.721l-0.017 0.415-0.213 8.533h85.333c0-47.128 38.205-85.333 85.333-85.333s85.333 38.205 85.333 85.333v0h85.333zM512 661.333c47.128 0 85.333-38.205 85.333-85.333s-38.205-85.333-85.333-85.333v0c-47.128 0-85.333 38.205-85.333 85.333s38.205 85.333 85.333 85.333v0z" />
<glyph unicode="&#xe970;" glyph-name="group-2-fill" d="M426.667 117.419v142.848c0 54.741 42.453 97.792 105.259 122.368-37.485 14.374-80.846 22.699-126.151 22.699-0.155 0-0.31 0-0.465 0h0.024c-80.64 0-155.136-26.325-215.339-70.827 38.567-106.872 125.834-187.684 234.284-216.547l2.388-0.541zM805.547 273.664c-16.853 22.741-72.96 46.336-144.213 46.336-85.589 0-149.333-34.005-149.333-59.733v-153.6c0.056 0 0.123 0 0.19 0 124.152 0 232.816 66.317 292.498 165.46l0.859 1.538zM407.467 469.333c53.019 0 96 42.981 96 96s-42.981 96-96 96v0c-53.019 0-96-42.981-96-96s42.981-96 96-96v0zM661.333 426.667c47.128 0 85.333 38.205 85.333 85.333s-38.205 85.333-85.333 85.333v0c-47.128 0-85.333-38.205-85.333-85.333s38.205-85.333 85.333-85.333v0zM512 21.333c-235.648 0-426.667 191.019-426.667 426.667s191.019 426.667 426.667 426.667 426.667-191.019 426.667-426.667-191.019-426.667-426.667-426.667z" />
<glyph unicode="&#xe971;" glyph-name="group-2-line" d="M407.467 469.333c-53.019 0-96 42.981-96 96s42.981 96 96 96v0c53.019 0 96-42.981 96-96s-42.981-96-96-96v0zM426.667 117.419v142.848c0 20.821 6.144 39.979 17.237 57.088-11.688 1.752-25.177 2.753-38.9 2.753-67.021 0-128.466-23.873-176.296-63.578l0.454 0.367c46.334-67.9 114.933-117.647 195.117-138.98l2.387-0.54zM189.995 334.507c59.235 44.236 133.898 70.827 214.772 70.827 0.199 0 0.398 0 0.597 0h-0.031c44.501 0 87.168-8.021 126.592-22.699 37.461 14.635 82.133 22.699 129.408 22.699 70.827 0 135.893-18.091 179.456-49.323 7.968 27.488 12.55 59.062 12.55 91.708 0 188.513-152.82 341.333-341.333 341.333s-341.333-152.82-341.333-341.333c0-40.573 7.079-79.493 20.069-115.591l-0.748 2.38zM805.504 273.664c-16.768 22.741-72.875 46.336-144.171 46.336-85.589 0-149.333-34.005-149.333-59.733v-153.6c0.056 0 0.123 0 0.19 0 124.152 0 232.816 66.317 292.498 165.46l0.859 1.538zM512 21.333c-235.648 0-426.667 191.019-426.667 426.667s191.019 426.667 426.667 426.667 426.667-191.019 426.667-426.667-191.019-426.667-426.667-426.667zM661.333 426.667c-47.128 0-85.333 38.205-85.333 85.333s38.205 85.333 85.333 85.333v0c47.128 0 85.333-38.205 85.333-85.333s-38.205-85.333-85.333-85.333v0z" />
<glyph unicode="&#xe972;" glyph-name="group-fill" d="M85.333 21.333c0 188.513 152.82 341.333 341.333 341.333s341.333-152.82 341.333-341.333v0h-682.667zM426.667 405.333c-141.44 0-256 114.56-256 256s114.56 256 256 256 256-114.56 256-256-114.56-256-256-256zM740.821 310.059c132.427-34.865 230.153-149.166 239.731-287.726l0.055-0.999h-127.275c0 111.36-42.667 212.736-112.512 288.725zM654.507 407.168c69.79 62.616 113.494 153.094 113.494 253.779 0 0.136 0 0.272 0 0.407v-0.021c0 0.157 0 0.343 0 0.529 0 60.978-16.062 118.204-44.186 167.679l0.879-1.68c98.387-20.29 171.307-106.206 171.307-209.153 0-0.015 0-0.030 0-0.044v0.002c0-0.024 0-0.052 0-0.081 0-117.797-95.493-213.291-213.291-213.291-9.945 0-19.731 0.681-29.314 1.998l1.112-0.125z" />
<glyph unicode="&#xe973;" glyph-name="group-line" d="M85.333 21.333c0 188.513 152.82 341.333 341.333 341.333s341.333-152.82 341.333-341.333v0h-85.333c0 141.385-114.615 256-256 256s-256-114.615-256-256v0h-85.333zM426.667 405.333c-141.44 0-256 114.56-256 256s114.56 256 256 256 256-114.56 256-256-114.56-256-256-256zM426.667 490.667c94.293 0 170.667 76.373 170.667 170.667s-76.373 170.667-170.667 170.667-170.667-76.373-170.667-170.667 76.373-170.667 170.667-170.667zM780.117 332.672c119.623-54.834 201.216-173.54 201.216-311.304 0-0.012 0-0.025 0-0.037v0.002h-85.333c0 0.015 0 0.033 0 0.051 0 103.319-61.196 192.344-149.318 232.808l-1.594 0.656 34.987 77.824zM750.763 814.379c85.966-36.113 145.237-119.614 145.237-216.958 0-0.031 0-0.061 0-0.092v0.005c0-0.021 0-0.047 0-0.072 0-122.083-93.243-222.388-212.398-233.585l-0.935-0.071v85.888c72.864 10.729 128.161 72.819 128.161 147.825 0 58.6-33.753 109.316-82.878 133.768l-0.867 0.391 23.68 82.901z" />
<glyph unicode="&#xe974;" glyph-name="men-fill" d="M793.003 746.667h-195.669v85.333h341.333v-341.333h-85.333v195.669l-150.912-150.912c40.92-53.205 65.58-120.767 65.58-194.089 0-176.731-143.269-320-320-320s-320 143.269-320 320c0 176.731 143.269 320 320 320 73.322 0 140.884-24.66 194.845-66.138l-0.756 0.558 150.912 150.912z" />
<glyph unicode="&#xe975;" glyph-name="men-line" d="M642.133 595.755l150.827 150.912h-195.627v85.333h341.333v-341.333h-85.333v195.669l-150.912-150.912c40.92-53.205 65.58-120.767 65.58-194.089 0-176.731-143.269-320-320-320s-320 143.269-320 320c0 176.731 143.269 320 320 320 73.322 0 140.884-24.66 194.845-66.138l-0.756 0.558zM448 106.667c129.603 0 234.667 105.064 234.667 234.667s-105.064 234.667-234.667 234.667v0c-129.603 0-234.667-105.064-234.667-234.667s105.064-234.667 234.667-234.667v0z" />
<glyph unicode="&#xe976;" glyph-name="mickey-fill" d="M789.333 874.667c0.031 0 0.067 0 0.103 0 106.039 0 192-85.961 192-192 0-92.743-65.756-170.128-153.189-188.075l-1.239-0.213c16.654-38.832 26.338-84.024 26.338-131.477 0-188.513-152.82-341.333-341.333-341.333s-341.333 152.82-341.333 341.333c0 47.47 9.69 92.677 27.2 133.75l-0.845-2.23c-88.757 18.072-154.605 95.49-154.605 188.288 0 106.015 85.942 191.957 191.957 191.957 0.098 0 0.197 0 0.295 0h-0.015c102.342-0.006 185.978-80.083 191.679-180.999l0.023-0.505c25.603 6.884 54.999 10.837 85.318 10.837 0.111 0 0.221 0 0.332 0h-0.017c29.568 0 58.24-3.755 85.589-10.837 5.723 101.425 89.366 181.504 191.713 181.504 0.011 0 0.022 0 0.033 0h-0.002z" />
<glyph unicode="&#xe977;" glyph-name="mickey-line" d="M789.333 874.667c0.031 0 0.067 0 0.103 0 106.039 0 192-85.961 192-192 0-92.743-65.756-170.128-153.189-188.075l-1.239-0.213 0.469-1.152c16.413-38.577 25.953-83.45 25.953-130.552 0-184.811-146.877-335.318-330.27-341.157l-0.536-0.014-10.624-0.171c-0.025 0-0.056 0-0.086 0-188.513 0-341.333 152.82-341.333 341.333 0 47.559 9.727 92.847 27.3 133.982l-0.846-2.227c-88.757 18.072-154.605 95.49-154.605 188.288 0 106.015 85.942 191.957 191.957 191.957 0.098 0 0.197 0 0.295 0h-0.015c102.342-0.006 185.978-80.083 191.679-180.999l0.023-0.505 3.115 0.811c24.686 6.37 53.025 10.027 82.218 10.027 0.105 0 0.21 0 0.315 0h-0.016l10.667-0.171c26.99-0.842 52.692-4.682 77.304-11.203l-2.381 0.537c5.723 101.425 89.366 181.504 191.713 181.504 0.011 0 0.022 0 0.033 0h-0.002zM512 618.667c-141.385 0-256-114.615-256-256s114.615-256 256-256v0c141.385 0 256 114.615 256 256s-114.615 256-256 256v0zM234.667 789.333c-58.91 0-106.667-47.756-106.667-106.667s47.756-106.667 106.667-106.667v0l6.997 0.213 4.395 0.427c22.236 27.49 47.935 50.992 76.71 70.257l1.242 0.783 14.080 8.789c2.075 7.864 3.267 16.891 3.267 26.197 0 58.91-47.756 106.667-106.667 106.667-0.009 0-0.017 0-0.026 0h0.001zM789.333 789.333c-0.011 0-0.024 0-0.036 0-58.91 0-106.667-47.756-106.667-106.667 0-6.27 0.541-12.413 1.579-18.386l-0.092 0.637 1.835-8.533 1.195-0.683c35.404-21.439 65.439-47.723 90.292-78.379l0.502-0.64c3.611-0.433 7.792-0.681 12.032-0.681 58.91 0 106.667 47.756 106.667 106.667s-47.756 106.667-106.667 106.667c-0.225 0-0.45-0.001-0.674-0.002h0.034z" />
<glyph unicode="&#xe978;" glyph-name="open-arm-fill" d="M512 448c-117.821 0-213.333 95.513-213.333 213.333s95.513 213.333 213.333 213.333v0c117.821 0 213.333-95.513 213.333-213.333s-95.513-213.333-213.333-213.333v0zM768 234.667v-213.333h-85.333v213.333c0 189.909 112.811 353.493 275.072 427.349l35.328-77.653c-133.868-61.962-225.067-195.141-225.067-349.621 0-0.027 0-0.053 0-0.080v0.005zM341.333 234.667v-213.333h-85.333v213.333c0 0.010 0 0.021 0 0.033 0 154.479-91.199 287.658-222.693 348.633l-2.373 0.988 35.328 77.696c163.61-75.728 275.072-238.496 275.072-427.298 0-0.018 0-0.036 0-0.054v0.003z" />
<glyph unicode="&#xe979;" glyph-name="open-arm-line" d="M768 234.667v-213.333h-85.333v213.333c0 189.909 112.811 353.493 275.072 427.349l35.328-77.653c-133.868-61.962-225.067-195.141-225.067-349.621 0-0.027 0-0.053 0-0.080v0.005zM341.333 234.667v-213.333h-85.333v213.333c0 0.010 0 0.021 0 0.033 0 154.479-91.199 287.658-222.693 348.633l-2.373 0.988 35.328 77.696c163.61-75.728 275.072-238.496 275.072-427.298 0-0.018 0-0.036 0-0.054v0.003zM512 448c-117.821 0-213.333 95.513-213.333 213.333s95.513 213.333 213.333 213.333v0c117.821 0 213.333-95.513 213.333-213.333s-95.513-213.333-213.333-213.333v0zM512 533.333c70.692 0 128 57.308 128 128s-57.308 128-128 128v0c-70.692 0-128-57.308-128-128s57.308-128 128-128v0z" />
<glyph unicode="&#xe97a;" glyph-name="parent-fill" d="M298.667 490.667c-106.039 0-192 85.961-192 192s85.961 192 192 192v0c106.039 0 192-85.961 192-192s-85.961-192-192-192v0zM746.667 320c-94.257 0-170.667 76.41-170.667 170.667s76.41 170.667 170.667 170.667v0c94.257 0 170.667-76.41 170.667-170.667s-76.41-170.667-170.667-170.667v0zM746.667 277.333c106.039 0 192-85.961 192-192v0-21.333h-384v21.333c0 106.039 85.961 192 192 192v0zM298.667 448c117.821 0 213.333-95.513 213.333-213.333v0-170.667h-426.667v170.667c0 117.821 95.513 213.333 213.333 213.333v0z" />
<glyph unicode="&#xe97b;" glyph-name="parent-line" d="M298.667 576c58.91 0 106.667 47.756 106.667 106.667s-47.756 106.667-106.667 106.667v0c-58.91 0-106.667-47.756-106.667-106.667s47.756-106.667 106.667-106.667v0zM298.667 490.667c-106.039 0-192 85.961-192 192s85.961 192 192 192v0c106.039 0 192-85.961 192-192s-85.961-192-192-192v0zM746.667 405.333c47.128 0 85.333 38.205 85.333 85.333s-38.205 85.333-85.333 85.333v0c-47.128 0-85.333-38.205-85.333-85.333s38.205-85.333 85.333-85.333v0zM746.667 320c-94.257 0-170.667 76.41-170.667 170.667s76.41 170.667 170.667 170.667v0c94.257 0 170.667-76.41 170.667-170.667s-76.41-170.667-170.667-170.667v0zM853.333 64v21.333c0 58.91-47.756 106.667-106.667 106.667s-106.667-47.756-106.667-106.667v0-21.333h-85.333v21.333c0 106.039 85.961 192 192 192s192-85.961 192-192v0-21.333h-85.333zM426.667 64v170.667c0 70.692-57.308 128-128 128s-128-57.308-128-128v0-170.667h-85.333v170.667c0 117.821 95.513 213.333 213.333 213.333s213.333-95.513 213.333-213.333v0-170.667h-85.333z" />
<glyph unicode="&#xe97c;" glyph-name="robot-fill" d="M554.667 786.987c192-21.205 341.333-183.979 341.333-381.653v-384h-768v384c0 197.675 149.333 360.448 341.333 381.653v130.347h85.333v-130.347zM512 192c117.821 0 213.333 95.513 213.333 213.333s-95.513 213.333-213.333 213.333v0c-117.821 0-213.333-95.513-213.333-213.333s95.513-213.333 213.333-213.333v0zM512 277.333c-70.692 0-128 57.308-128 128s57.308 128 128 128v0c70.692 0 128-57.308 128-128s-57.308-128-128-128v0zM512 362.667c23.564 0 42.667 19.103 42.667 42.667s-19.103 42.667-42.667 42.667v0c-23.564 0-42.667-19.103-42.667-42.667s19.103-42.667 42.667-42.667v0z" />
<glyph unicode="&#xe97d;" glyph-name="robot-line" d="M554.667 786.987c192-21.205 341.333-183.979 341.333-381.653v-384h-768v384c0 197.675 149.333 360.448 341.333 381.653v130.347h85.333v-130.347zM810.667 106.667v298.667c0 164.949-133.718 298.667-298.667 298.667s-298.667-133.718-298.667-298.667v0-298.667h597.333zM512 192c-117.821 0-213.333 95.513-213.333 213.333s95.513 213.333 213.333 213.333v0c117.821 0 213.333-95.513 213.333-213.333s-95.513-213.333-213.333-213.333v0zM512 277.333c70.692 0 128 57.308 128 128s-57.308 128-128 128v0c-70.692 0-128-57.308-128-128s57.308-128 128-128v0zM512 362.667c-23.564 0-42.667 19.103-42.667 42.667s19.103 42.667 42.667 42.667v0c23.564 0 42.667-19.103 42.667-42.667s-19.103-42.667-42.667-42.667v0z" />
<glyph unicode="&#xe97e;" glyph-name="skull-2-fill" d="M512 874.667c235.648 0 426.667-191.019 426.667-426.667v-160.597c-0.001-33.224-18.989-62.012-46.704-76.107l-0.485-0.224-123.477-61.739v-42.667c0-0.002 0-0.005 0-0.007 0-68.051-53.104-123.698-120.133-127.762l-0.358-0.017-9.643-0.213c0.858 4.016 1.525 8.838 1.859 13.751l0.018 0.329 0.256 7.253v21.333c0 0.008 0 0.018 0 0.027 0 44.876-34.641 81.661-78.641 85.075l-0.293 0.018-6.4 0.213h-85.333c-0.008 0-0.018 0-0.027 0-44.876 0-81.661-34.641-85.075-78.641l-0.018-0.293-0.213-6.4v-21.333c0-7.296 0.725-14.464 2.133-21.333h-2.133c-70.692 0-128 57.308-128 128v0 42.667l-123.477 61.739c-28.201 14.319-47.189 43.109-47.189 76.334 0 0.014 0 0.028 0 0.042v-0.002 160.555c0 235.648 191.019 426.667 426.667 426.667zM341.333 490.667c-47.128 0-85.333-38.205-85.333-85.333s38.205-85.333 85.333-85.333v0c47.128 0 85.333 38.205 85.333 85.333s-38.205 85.333-85.333 85.333v0zM682.667 490.667c-47.128 0-85.333-38.205-85.333-85.333s38.205-85.333 85.333-85.333v0c47.128 0 85.333 38.205 85.333 85.333s-38.205 85.333-85.333 85.333v0z" />
<glyph unicode="&#xe97f;" glyph-name="skull-2-line" d="M512 874.667c235.648 0 426.667-191.019 426.667-426.667v-160.597c-0.001-33.224-18.989-62.012-46.704-76.107l-0.485-0.224-123.477-61.739v-42.667c0-0.002 0-0.005 0-0.007 0-68.051-53.104-123.698-120.133-127.762l-0.358-0.017-9.643-0.213c0.858 4.016 1.525 8.838 1.859 13.751l0.018 0.329 0.256 7.253v21.333c0 0.008 0 0.018 0 0.027 0 44.876-34.641 81.661-78.641 85.075l-0.293 0.018-6.4 0.213h-85.333c-0.008 0-0.018 0-0.027 0-44.876 0-81.661-34.641-85.075-78.641l-0.018-0.293-0.213-6.4v-21.333c0-7.296 0.725-14.464 2.133-21.333h-2.133c-70.692 0-128 57.308-128 128v0 42.667l-123.477 61.739c-28.201 14.319-47.189 43.109-47.189 76.334 0 0.014 0 0.028 0 0.042v-0.002 160.555c0 235.648 191.019 426.667 426.667 426.667zM512 789.333c-184.761-0.002-335.234-146.801-341.149-330.124l-0.014-0.542-0.171-10.667v-160.597l170.667-85.333v-67.883l3.2 3.584c29.302 31.391 70.167 51.664 115.77 53.999l0.411 0.017 8.619 0.213 88.448-0.043 9.515-0.427c42.624-3.157 80.64-21.76 108.8-50.219l6.571-7.125v67.883l170.667 85.333v160.597c0 188.513-152.82 341.333-341.333 341.333v0zM341.333 490.667c47.128 0 85.333-38.205 85.333-85.333s-38.205-85.333-85.333-85.333v0c-47.128 0-85.333 38.205-85.333 85.333s38.205 85.333 85.333 85.333v0zM682.667 490.667c47.128 0 85.333-38.205 85.333-85.333s-38.205-85.333-85.333-85.333v0c-47.128 0-85.333 38.205-85.333 85.333s38.205 85.333 85.333 85.333v0z" />
<glyph unicode="&#xe980;" glyph-name="skull-fill" d="M768 192v-128c0-23.564-19.103-42.667-42.667-42.667v0h-426.667c-23.564 0-42.667 19.103-42.667 42.667v0 128h-128c-23.564 0-42.667 19.103-42.667 42.667v0 213.333c0 235.648 191.019 426.667 426.667 426.667s426.667-191.019 426.667-426.667v-213.333c0-23.564-19.103-42.667-42.667-42.667v0h-128zM320 362.667c35.346 0 64 28.654 64 64s-28.654 64-64 64v0c-35.346 0-64-28.654-64-64s28.654-64 64-64v0zM704 362.667c35.346 0 64 28.654 64 64s-28.654 64-64 64v0c-35.346 0-64-28.654-64-64s28.654-64 64-64v0z" />
<glyph unicode="&#xe981;" glyph-name="skull-line" d="M853.333 448c0 188.513-152.82 341.333-341.333 341.333s-341.333-152.82-341.333-341.333v0-170.667h128c23.564 0 42.667-19.103 42.667-42.667v0-128h341.333v128c0 23.564 19.103 42.667 42.667 42.667v0h128v170.667zM768 192v-128c0-23.564-19.103-42.667-42.667-42.667v0h-426.667c-23.564 0-42.667 19.103-42.667 42.667v0 128h-128c-23.564 0-42.667 19.103-42.667 42.667v0 213.333c0 235.648 191.019 426.667 426.667 426.667s426.667-191.019 426.667-426.667v-213.333c0-23.564-19.103-42.667-42.667-42.667v0h-128zM320 362.667c-35.346 0-64 28.654-64 64s28.654 64 64 64v0c35.346 0 64-28.654 64-64s-28.654-64-64-64v0zM704 362.667c-35.346 0-64 28.654-64 64s28.654 64 64 64v0c35.346 0 64-28.654 64-64s-28.654-64-64-64v0z" />
<glyph unicode="&#xe982;" glyph-name="spy-fill" d="M725.333 405.333c94.257 0 170.667-76.41 170.667-170.667s-76.41-170.667-170.667-170.667v0c-91.392 0-170.667 76.373-170.667 170.667h-85.333c-0.038-94.228-76.433-170.6-170.667-170.6-94.257 0-170.667 76.41-170.667 170.667s76.41 170.667 170.667 170.667c62.865 0 117.791-33.989 147.404-84.593l0.436-0.807h130.987c30.037 51.372 84.929 85.333 147.752 85.333 0.031 0 0.062 0 0.092 0h-0.005zM85.333 448v85.333h85.333v128c0 94.257 76.41 170.667 170.667 170.667v0h341.333c94.257 0 170.667-76.41 170.667-170.667v0-128h85.333v-85.333h-853.333z" />
<glyph unicode="&#xe983;" glyph-name="spy-line" d="M725.333 405.333c94.257 0 170.667-76.41 170.667-170.667s-76.41-170.667-170.667-170.667c-94.257 0-170.667 76.41-170.667 170.667v0h-85.333c-0.038-94.228-76.433-170.6-170.667-170.6-94.257 0-170.667 76.41-170.667 170.667s76.41 170.667 170.667 170.667c62.865 0 117.791-33.989 147.404-84.593l0.436-0.807h130.987c30.037 51.372 84.929 85.333 147.752 85.333 0.031 0 0.062 0 0.092 0h-0.005zM298.667 320c-47.128 0-85.333-38.205-85.333-85.333s38.205-85.333 85.333-85.333v0c47.128 0 85.333 38.205 85.333 85.333s-38.205 85.333-85.333 85.333v0zM725.333 320c-47.128 0-85.333-38.205-85.333-85.333s38.205-85.333 85.333-85.333v0c47.128 0 85.333 38.205 85.333 85.333s-38.205 85.333-85.333 85.333v0zM682.667 832c94.257 0 170.667-76.41 170.667-170.667v0-128h85.333v-85.333h-853.333v85.333h85.333v128c0 94.257 76.41 170.667 170.667 170.667v0h341.333zM682.667 746.667h-341.333c-44.971 0-85.333-40.533-85.333-85.333v-128h512v128c0 44.971-40.533 85.333-85.333 85.333z" />
<glyph unicode="&#xe984;" glyph-name="star-smile-fill" d="M512 938.667l180.309-263.808 306.645-89.984-195.2-253.013 9.173-319.403-300.928 107.435-300.928-107.435 9.173 319.403-195.2 253.013 306.645 89.984 180.309 263.808zM426.667 448h-85.333c0-0.001 0-0.002 0-0.003 0-94.257 76.41-170.667 170.667-170.667 91.256 0 165.784 71.623 170.436 161.721l0.017 0.415 0.213 8.533h-85.333c0.001-0.113 0.001-0.248 0.001-0.382 0-47.128-38.205-85.333-85.333-85.333-45.011 0-81.882 34.849-85.105 79.037l-0.016 0.278-0.213 6.4z" />
</font>
</defs>
</svg>
