<?xml version="1.0" standalone="no"?> 
<!DOCTYPE svg PUBLIC "-//W3C//DTD SVG 1.1//EN" "http://www.w3.org/Graphics/SVG/1.1/DTD/svg11.dtd" >
<svg xmlns="http://www.w3.org/2000/svg">
<defs>
  <font id="ADGS Icons" horiz-adv-x="24">
    <font-face font-family="ADGS Icons"
      units-per-em="512" ascent="512"
      descent="0" />
    <missing-glyph horiz-adv-x="0" />
    <glyph glyph-name="activity"
      unicode="&#xF1F3;"
      horiz-adv-x="512" d=" M96 416L407.2338016 416C442.5800256 416 471.2338016 387.346224 471.2338016 352L471.2338016 138.3737088C471.2338016 103.0274848 442.5800256 74.3737088 407.2338016 74.3737088L96 74.3737088C60.653776 74.3737088 32 103.0274848 32 138.3737088L32 352C32 387.346224 60.653776 416 96 416zM104.9328432 318.4677740800001C118.40962816 318.4677740800001 129.33472096 329.3928668800001 129.33472096 342.86965184C129.33472096 356.3464368 118.40962816 367.2715296 104.9328432 367.2715296C91.45605824 367.2715296 80.53096544 356.3464368 80.53096544 342.86965184C80.53096544 329.3928668800001 91.45605824 318.4677740800001 104.9328432 318.4677740800001zM202.98304288 367.16622432C189.53533696 367.16622432 178.6338176 356.26470496 178.6338176 342.8169990400001C178.6338176 329.36929344 189.53533696 318.4677740800001 202.98304288 318.4677740800001L398.3536096000001 318.4677740800001C411.8013152 318.4677740800001 422.7028352 329.36929344 422.7028352 342.8169990400001C422.7028352 356.26470496 411.8013152 367.16622432 398.3536096000001 367.16622432L202.98304288 367.16622432zM81.02630624 269.5887331200001L81.02630624 123.6179872L422.7028352 123.6179872L422.7028352 269.5887331200001L81.02630624 269.5887331200001z" />
    <glyph glyph-name="activity-1"
      unicode="&#x61;&#x63;&#x74;&#x69;&#x76;&#x69;&#x74;&#x79;"
      horiz-adv-x="512" d=" M96 416L407.2338016 416C442.5800256 416 471.2338016 387.346224 471.2338016 352L471.2338016 138.3737088C471.2338016 103.0274848 442.5800256 74.3737088 407.2338016 74.3737088L96 74.3737088C60.653776 74.3737088 32 103.0274848 32 138.3737088L32 352C32 387.346224 60.653776 416 96 416zM104.9328432 318.4677740800001C118.40962816 318.4677740800001 129.33472096 329.3928668800001 129.33472096 342.86965184C129.33472096 356.3464368 118.40962816 367.2715296 104.9328432 367.2715296C91.45605824 367.2715296 80.53096544 356.3464368 80.53096544 342.86965184C80.53096544 329.3928668800001 91.45605824 318.4677740800001 104.9328432 318.4677740800001zM202.98304288 367.16622432C189.53533696 367.16622432 178.6338176 356.26470496 178.6338176 342.8169990400001C178.6338176 329.36929344 189.53533696 318.4677740800001 202.98304288 318.4677740800001L398.3536096000001 318.4677740800001C411.8013152 318.4677740800001 422.7028352 329.36929344 422.7028352 342.8169990400001C422.7028352 356.26470496 411.8013152 367.16622432 398.3536096000001 367.16622432L202.98304288 367.16622432zM81.02630624 269.5887331200001L81.02630624 123.6179872L422.7028352 123.6179872L422.7028352 269.5887331200001L81.02630624 269.5887331200001z" />
    <glyph glyph-name="add-circle"
      unicode="&#xF177;"
      horiz-adv-x="512" d=" M256 32C132.288216 32 32 132.2882176 32 256C32 379.711784 132.288216 480 256 480C379.7117824 480 480 379.711784 480 256C480 132.2882176 379.7117824 32 256 32zM234.63818432 346.53137504L234.63818432 277.36181568L165.46862496 277.36181568C153.63417888 277.36181568 144 267.8771696 144 256C144 244.20827776 153.63417888 234.63818432 165.46862496 234.63818432L234.63818432 234.63818432L234.63818432 165.468624C234.63818432 153.6341792 244.1228304 144 256 144C267.79172224 144 277.36181568 153.6341792 277.36181568 165.468624L277.36181568 234.63818432L346.531376 234.63818432C358.387184 234.63818432 368 244.1228304 368 256C368 267.79172224 358.3658208 277.36181568 346.531376 277.36181568L277.36181568 277.36181568L277.36181568 346.53137504C277.36181568 358.38718304 267.8771696 368 256 368C244.20827776 368 234.63818432 358.36582112 234.63818432 346.53137504z" />
    <glyph glyph-name="add-circle-1"
      unicode="&#x61;&#x64;&#x64;&#x2D;&#x63;&#x69;&#x72;&#x63;&#x6C;&#x65;"
      horiz-adv-x="512" d=" M256 32C132.288216 32 32 132.2882176 32 256C32 379.711784 132.288216 480 256 480C379.7117824 480 480 379.711784 480 256C480 132.2882176 379.7117824 32 256 32zM234.63818432 346.53137504L234.63818432 277.36181568L165.46862496 277.36181568C153.63417888 277.36181568 144 267.8771696 144 256C144 244.20827776 153.63417888 234.63818432 165.46862496 234.63818432L234.63818432 234.63818432L234.63818432 165.468624C234.63818432 153.6341792 244.1228304 144 256 144C267.79172224 144 277.36181568 153.6341792 277.36181568 165.468624L277.36181568 234.63818432L346.531376 234.63818432C358.387184 234.63818432 368 244.1228304 368 256C368 267.79172224 358.3658208 277.36181568 346.531376 277.36181568L277.36181568 277.36181568L277.36181568 346.53137504C277.36181568 358.38718304 267.8771696 368 256 368C244.20827776 368 234.63818432 358.36582112 234.63818432 346.53137504z" />
    <glyph glyph-name="add-comment"
      unicode="&#xF102;"
      horiz-adv-x="512" d=" M423.5748768000001 399.05314016L448.2740032 399.05314016C461.6656576 399.05314016 472.5217376 388.19024576 472.5217376 374.5797104C472.5217376 361.06340832 461.4848288 350.10628064 448.2740032 350.10628064L423.5748768000001 350.10628064L423.5748768000001 325.40715584C423.5748768000001 312.01550176 412.711984 301.1594208 399.1014464 301.1594208C385.5851456 301.1594208 374.6280192 312.19633024 374.6280192 325.40715584L374.6280192 350.10628064L349.9288928000001 350.10628064C336.5372384 350.10628064 325.6811584 360.96917504 325.6811584 374.5797104C325.6811584 388.09601248 336.7180672 399.05314016 349.9288928000001 399.05314016L374.6280192 399.05314016L374.6280192 423.75226496C374.6280192 437.14391904 385.490912 448 399.1014464 448C412.6177504 448 423.5748768000001 436.96309056 423.5748768000001 423.75226496L423.5748768000001 399.05314016zM301.20772832 443.42560736L301.20772832 393.38303904C285.69581408 397.02762944 269.2692368 398.9857456 252.2730912 398.9857456C157.76906592 398.9857456 80.88982144 338.47764864 80.88982144 264.12302496C80.88982144 189.7684 157.76906592 129.260304 252.2730912 129.260304C346.752672 129.260304 423.6319168 189.7684 423.6319168 264.12302496C423.6319168 268.35848416 423.3824608 272.5490144000001 422.8945056 276.68599104L472.0132224 276.68599104C472.3504 272.53416288 472.5217376 268.3449766400001 472.5217376 264.12302496C472.5217376 220.91695968 454.4325024 181.1909056 424.4141536 149.7727712L425.3186144 150.262912C405.8115744 129.3093184 444.0678624 73.9967328 444.0678624 73.9967328L444.0678624 73.972224L444.0678624 73.9477184C444.7034304 72.452784 445.0456576000001 70.8108064 445.0456576000001 69.0708C445.0456576000001 62.0862688 439.4233280000001 56.4251232 432.456528 56.4251232C431.0387232 56.4251232 429.7186976 56.8172352 428.4475648 57.233856L428.3742272 57.160336C405.0782272 60.7628832 373.6420736 74.217296 349.0993824 99.239072C319.81437984 87.2060736 287.03375424 80.2460512 252.2730912 80.2460512C130.80632928 80.2460512 32 162.73704 32 264.12302496C32 365.5090099200001 130.80632928 448 252.2730912 448C269.08585568 448 285.46477248 446.41895328 301.20772832 443.42560736z" />
    <glyph glyph-name="add-comment-1"
      unicode="&#x61;&#x64;&#x64;&#x2D;&#x63;&#x6F;&#x6D;&#x6D;&#x65;&#x6E;&#x74;"
      horiz-adv-x="512" d=" M423.5748768000001 399.05314016L448.2740032 399.05314016C461.6656576 399.05314016 472.5217376 388.19024576 472.5217376 374.5797104C472.5217376 361.06340832 461.4848288 350.10628064 448.2740032 350.10628064L423.5748768000001 350.10628064L423.5748768000001 325.40715584C423.5748768000001 312.01550176 412.711984 301.1594208 399.1014464 301.1594208C385.5851456 301.1594208 374.6280192 312.19633024 374.6280192 325.40715584L374.6280192 350.10628064L349.9288928000001 350.10628064C336.5372384 350.10628064 325.6811584 360.96917504 325.6811584 374.5797104C325.6811584 388.09601248 336.7180672 399.05314016 349.9288928000001 399.05314016L374.6280192 399.05314016L374.6280192 423.75226496C374.6280192 437.14391904 385.490912 448 399.1014464 448C412.6177504 448 423.5748768000001 436.96309056 423.5748768000001 423.75226496L423.5748768000001 399.05314016zM301.20772832 443.42560736L301.20772832 393.38303904C285.69581408 397.02762944 269.2692368 398.9857456 252.2730912 398.9857456C157.76906592 398.9857456 80.88982144 338.47764864 80.88982144 264.12302496C80.88982144 189.7684 157.76906592 129.260304 252.2730912 129.260304C346.752672 129.260304 423.6319168 189.7684 423.6319168 264.12302496C423.6319168 268.35848416 423.3824608 272.5490144000001 422.8945056 276.68599104L472.0132224 276.68599104C472.3504 272.53416288 472.5217376 268.3449766400001 472.5217376 264.12302496C472.5217376 220.91695968 454.4325024 181.1909056 424.4141536 149.7727712L425.3186144 150.262912C405.8115744 129.3093184 444.0678624 73.9967328 444.0678624 73.9967328L444.0678624 73.972224L444.0678624 73.9477184C444.7034304 72.452784 445.0456576000001 70.8108064 445.0456576000001 69.0708C445.0456576000001 62.0862688 439.4233280000001 56.4251232 432.456528 56.4251232C431.0387232 56.4251232 429.7186976 56.8172352 428.4475648 57.233856L428.3742272 57.160336C405.0782272 60.7628832 373.6420736 74.217296 349.0993824 99.239072C319.81437984 87.2060736 287.03375424 80.2460512 252.2730912 80.2460512C130.80632928 80.2460512 32 162.73704 32 264.12302496C32 365.5090099200001 130.80632928 448 252.2730912 448C269.08585568 448 285.46477248 446.41895328 301.20772832 443.42560736z" />
    <glyph glyph-name="add-item"
      unicode="&#xF1F4;"
      horiz-adv-x="512" d=" M416 432L440 432C453.2548352 432 464 421.25483392 464 408C464 394.74516608 453.2548352 384 440 384L416 384L416 359.77867136C416 346.6460736 405.3472448 336 392 336C378.7451648 336 368 346.82340416 368 359.77867136L368 384L344 384C330.7451648 384 320 394.74516608 320 408C320 421.25483392 330.7451648 432 344 432L368 432L368 456.22132864C368 469.3539264 378.6527552 480 392 480C405.2548352 480 416 469.17659584 416 456.22132864L416 432zM272 480L272 432L80 432L80 96L416 96L416 288L464 288L464 95.882144C464 69.4375648 442.5770528 48 416.117856 48L79.88214304 48C53.43756576 48 32 69.4229472 32 95.882144L32 432.11785696C32 458.56243424 53.4229472 480 79.88214304 480L272 480z" />
    <glyph glyph-name="add-item-1"
      unicode="&#x61;&#x64;&#x64;&#x2D;&#x69;&#x74;&#x65;&#x6D;"
      horiz-adv-x="512" d=" M416 432L440 432C453.2548352 432 464 421.25483392 464 408C464 394.74516608 453.2548352 384 440 384L416 384L416 359.77867136C416 346.6460736 405.3472448 336 392 336C378.7451648 336 368 346.82340416 368 359.77867136L368 384L344 384C330.7451648 384 320 394.74516608 320 408C320 421.25483392 330.7451648 432 344 432L368 432L368 456.22132864C368 469.3539264 378.6527552 480 392 480C405.2548352 480 416 469.17659584 416 456.22132864L416 432zM272 480L272 432L80 432L80 96L416 96L416 288L464 288L464 95.882144C464 69.4375648 442.5770528 48 416.117856 48L79.88214304 48C53.43756576 48 32 69.4229472 32 95.882144L32 432.11785696C32 458.56243424 53.4229472 480 79.88214304 480L272 480z" />
    <glyph glyph-name="add"
      unicode="&#xF101;"
      horiz-adv-x="512" d=" M288 288L448.224 288C465.76 288 480 273.7920000000001 480 256C480 238.336 465.76 224 448.224 224L288 224L288 64.219056C288 46.4249632 273.79632576 32 256 32C238.326888 32 224 46.3983616 224 64.219056L224 224L63.776 224C46.24 224 32 238.176 32 256C32 273.664 46.24 288 63.776 288L224 288L224 447.78094496C224 465.57503776 238.20367424 480 256 480C273.673112 480 288 465.60163968 288 447.78094496L288 288z" />
    <glyph glyph-name="add-1"
      unicode="&#xF103;"
      horiz-adv-x="512" d=" M288 288L448.224 288C465.76 288 480 273.7920000000001 480 256C480 238.336 465.76 224 448.224 224L288 224L288 64.219056C288 46.4249632 273.79632576 32 256 32C238.326888 32 224 46.3983616 224 64.219056L224 224L63.776 224C46.24 224 32 238.176 32 256C32 273.664 46.24 288 63.776 288L224 288L224 447.78094496C224 465.57503776 238.20367424 480 256 480C273.673112 480 288 465.60163968 288 447.78094496L288 288z" />
    <glyph glyph-name="add-2"
      unicode="&#x61;&#x64;&#x64;"
      horiz-adv-x="512" d=" M288 288L448.224 288C465.76 288 480 273.7920000000001 480 256C480 238.336 465.76 224 448.224 224L288 224L288 64.219056C288 46.4249632 273.79632576 32 256 32C238.326888 32 224 46.3983616 224 64.219056L224 224L63.776 224C46.24 224 32 238.176 32 256C32 273.664 46.24 288 63.776 288L224 288L224 447.78094496C224 465.57503776 238.20367424 480 256 480C273.673112 480 288 465.60163968 288 447.78094496L288 288z" />
    <glyph glyph-name="addon"
      unicode="&#xF1F5;"
      horiz-adv-x="512" d=" M97.36101824 396.22730912L224.62648896 471.49733536C243.82734048 482.85350752 272.2129184 482.814919136 291.34852544 471.49733536L418.6139968 396.22730912C437.814848 384.87113728 451.9750144 359.6692480000001 451.9750144 337.03408064L451.9750144 186.4940288C451.9750144 163.7816832 437.7496032 138.618384 418.6139968 127.3008L291.34852544 52.0307744C272.14767392 40.6746016 243.762096 40.7131904 224.62648896 52.0307744L97.36101824 127.3008C78.16016672 138.6569728 64 163.8588608 64 186.4940288L64 337.03408064C64 359.74642464 78.2254112 384.90972544 97.36101824 396.22730912zM266.88049632 428.0831436800001C262.8643702400001 430.45844544 253.13301184 430.47167456 249.09451808 428.0831436800001L121.82904736 352.8131174400001C117.81292128 350.43781568 112.93605824 341.8111424 112.93605824 337.03408064L112.93605824 186.4940288C112.93605824 181.743424 117.7905536 173.1035232 121.82904736 170.714992L249.09451808 95.4449664C253.11064416 93.069664 262.8420025600001 93.0564352 266.88049632 95.4449664L394.145968 170.714992C398.1620928 173.0902944 403.0389568 181.7169664 403.0389568 186.4940288L403.0389568 337.03408064C403.0389568 341.78468416 398.1844608 350.42458656 394.145968 352.8131174400001L266.88049632 428.0831436800001zM257.9875072 164.7703008C204.41933632 164.7703008 160.9937536 208.19588352 160.9937536 261.7640544C160.9937536 315.33222528 204.41933632 358.757808 257.9875072 358.757808C311.55567808 358.757808 354.9812608 315.33222528 354.9812608 261.7640544C354.9812608 208.19588352 311.55567808 164.7703008 257.9875072 164.7703008zM257.9875072 213.2671776C284.77159264 213.2671776 306.484384 234.97996896 306.484384 261.7640544C306.484384 288.54813984 284.77159264 310.2609312 257.9875072 310.2609312C231.20342176 310.2609312 209.4906304 288.54813984 209.4906304 261.7640544C209.4906304 234.97996896 231.20342176 213.2671776 257.9875072 213.2671776z" />
    <glyph glyph-name="addon-1"
      unicode="&#x61;&#x64;&#x64;&#x6F;&#x6E;"
      horiz-adv-x="512" d=" M97.36101824 396.22730912L224.62648896 471.49733536C243.82734048 482.85350752 272.2129184 482.814919136 291.34852544 471.49733536L418.6139968 396.22730912C437.814848 384.87113728 451.9750144 359.6692480000001 451.9750144 337.03408064L451.9750144 186.4940288C451.9750144 163.7816832 437.7496032 138.618384 418.6139968 127.3008L291.34852544 52.0307744C272.14767392 40.6746016 243.762096 40.7131904 224.62648896 52.0307744L97.36101824 127.3008C78.16016672 138.6569728 64 163.8588608 64 186.4940288L64 337.03408064C64 359.74642464 78.2254112 384.90972544 97.36101824 396.22730912zM266.88049632 428.0831436800001C262.8643702400001 430.45844544 253.13301184 430.47167456 249.09451808 428.0831436800001L121.82904736 352.8131174400001C117.81292128 350.43781568 112.93605824 341.8111424 112.93605824 337.03408064L112.93605824 186.4940288C112.93605824 181.743424 117.7905536 173.1035232 121.82904736 170.714992L249.09451808 95.4449664C253.11064416 93.069664 262.8420025600001 93.0564352 266.88049632 95.4449664L394.145968 170.714992C398.1620928 173.0902944 403.0389568 181.7169664 403.0389568 186.4940288L403.0389568 337.03408064C403.0389568 341.78468416 398.1844608 350.42458656 394.145968 352.8131174400001L266.88049632 428.0831436800001zM257.9875072 164.7703008C204.41933632 164.7703008 160.9937536 208.19588352 160.9937536 261.7640544C160.9937536 315.33222528 204.41933632 358.757808 257.9875072 358.757808C311.55567808 358.757808 354.9812608 315.33222528 354.9812608 261.7640544C354.9812608 208.19588352 311.55567808 164.7703008 257.9875072 164.7703008zM257.9875072 213.2671776C284.77159264 213.2671776 306.484384 234.97996896 306.484384 261.7640544C306.484384 288.54813984 284.77159264 310.2609312 257.9875072 310.2609312C231.20342176 310.2609312 209.4906304 288.54813984 209.4906304 261.7640544C209.4906304 234.97996896 231.20342176 213.2671776 257.9875072 213.2671776z" />
    <glyph glyph-name="advanced"
      unicode="&#xF154;"
      horiz-adv-x="512" d=" M185.6 96L160 32L96 32L120.4123712 96L185.6 96zM157.03092768 192L218.06185568 352L293.93814432 352L354.969072 192L293.3333344 192L256 304L218.6666656 192L157.03092768 192zM391.5876288 96L416 32L352 32L326.4 96L391.5876288 96zM32 160L480 160L480 128L32 128L32 160zM448 480L448 448L384 448L384 384L448 384L448 352L352 352L352 480L448 480zM448 448L480 448L480 384L448 384L448 448z" />
    <glyph glyph-name="advanced-1"
      unicode="&#x61;&#x64;&#x76;&#x61;&#x6E;&#x63;&#x65;&#x64;"
      horiz-adv-x="512" d=" M185.6 96L160 32L96 32L120.4123712 96L185.6 96zM157.03092768 192L218.06185568 352L293.93814432 352L354.969072 192L293.3333344 192L256 304L218.6666656 192L157.03092768 192zM391.5876288 96L416 32L352 32L326.4 96L391.5876288 96zM32 160L480 160L480 128L32 128L32 160zM448 480L448 448L384 448L384 384L448 384L448 352L352 352L352 480L448 480zM448 448L480 448L480 384L448 384L448 448z" />
    <glyph glyph-name="app-access"
      unicode="&#xF1F6;"
      horiz-adv-x="512" d=" M282.07854688 275.40707488C246.12754912 250.96128 222.51403424 209.72422176 222.51403424 162.9719328C222.51403424 130.1667136 234.14031232 100.07696 253.49725024 76.5982848C173.51528608 63.3971328 64 81.2727712 64 130.2252032C64 53.1149088 64 212.96141728 64 212.96141728C64 247.8850464 92.56716416 276.1962416 127.71056864 276.1962416L272.02777568 276.1962416C275.44765824 276.1962416 278.80460608 275.92650112 282.07854688 275.40707488zM199.86917216 298.84110368C149.84352448 298.84110368 109.28972416 339.394904 109.28972416 389.420552C109.28972416 439.44619968 149.84352448 480 199.86917216 480C249.89482016 480 290.44862016 439.44619968 290.44862016 389.420552C290.44862016 339.394904 249.89482016 298.84110368 199.86917216 298.84110368zM358.3832064 49.7476224C295.85114656 49.7476224 245.15889632 100.439872 245.15889632 162.9719328C245.15889632 225.50399136 295.85114656 276.1962416 358.3832064 276.1962416C420.9152672 276.1962416 471.6075168 225.50399136 471.6075168 162.9719328C471.6075168 100.439872 420.9152672 49.7476224 358.3832064 49.7476224zM328.3600288 110.1842272C336.4980256 102.0462304 349.6728384 102.0462304 357.8108352 110.20504L420.2507072 172.7489792C428.3470784 180.886976 428.3470784 194.06178816 420.2090816 202.17897152C412.1127104000001 210.27534144 398.896272 210.316968 390.779088 202.13734496L343.0542112 154.3500288L325.9665024 171.4377408C317.84931744 179.5549248 304.67450464 179.5549248 296.53650784 171.4377408C288.41932448 163.299744 288.41932448 150.1249312 296.53650784 142.0077472L328.3600288 110.1842272z" />
    <glyph glyph-name="app-access-1"
      unicode="&#x61;&#x70;&#x70;&#x2D;&#x61;&#x63;&#x63;&#x65;&#x73;&#x73;"
      horiz-adv-x="512" d=" M282.07854688 275.40707488C246.12754912 250.96128 222.51403424 209.72422176 222.51403424 162.9719328C222.51403424 130.1667136 234.14031232 100.07696 253.49725024 76.5982848C173.51528608 63.3971328 64 81.2727712 64 130.2252032C64 53.1149088 64 212.96141728 64 212.96141728C64 247.8850464 92.56716416 276.1962416 127.71056864 276.1962416L272.02777568 276.1962416C275.44765824 276.1962416 278.80460608 275.92650112 282.07854688 275.40707488zM199.86917216 298.84110368C149.84352448 298.84110368 109.28972416 339.394904 109.28972416 389.420552C109.28972416 439.44619968 149.84352448 480 199.86917216 480C249.89482016 480 290.44862016 439.44619968 290.44862016 389.420552C290.44862016 339.394904 249.89482016 298.84110368 199.86917216 298.84110368zM358.3832064 49.7476224C295.85114656 49.7476224 245.15889632 100.439872 245.15889632 162.9719328C245.15889632 225.50399136 295.85114656 276.1962416 358.3832064 276.1962416C420.9152672 276.1962416 471.6075168 225.50399136 471.6075168 162.9719328C471.6075168 100.439872 420.9152672 49.7476224 358.3832064 49.7476224zM328.3600288 110.1842272C336.4980256 102.0462304 349.6728384 102.0462304 357.8108352 110.20504L420.2507072 172.7489792C428.3470784 180.886976 428.3470784 194.06178816 420.2090816 202.17897152C412.1127104000001 210.27534144 398.896272 210.316968 390.779088 202.13734496L343.0542112 154.3500288L325.9665024 171.4377408C317.84931744 179.5549248 304.67450464 179.5549248 296.53650784 171.4377408C288.41932448 163.299744 288.41932448 150.1249312 296.53650784 142.0077472L328.3600288 110.1842272z" />
    <glyph glyph-name="app-switcher"
      unicode="&#xF1F7;"
      horiz-adv-x="512" d=" M208 192L304 192L304 320L208 320L208 192zM64 384L448 384L448 288C448 305.6 433.6 320 416 320L368 320L368 192L416 192C433.6 192 448 206.4 448 224L448 128L64 128L64 224C64 206.4 78.4 192 96 192L144 192L144 320L96 320C78.4 320 64 305.6 64 288L64 384zM64 288L64 384C28.8 384 0 355.2 0 320L0 192C0 156.8 28.8 128 64 128L64 224L64 288zM448 224L448 128C483.2 128 512 156.8 512 192L512 320C512 355.2 483.2 384 448 384L448 288L448 224zM128 32L384 32C419.2 32 448 60.8 448 96L64 96C64 60.8 92.8 32 128 32zM448 416L64 416C64 451.2 92.8 480 128 480L384 480C419.2 480 448 451.2 448 416z" />
    <glyph glyph-name="app-switcher-1"
      unicode="&#x61;&#x70;&#x70;&#x2D;&#x73;&#x77;&#x69;&#x74;&#x63;&#x68;&#x65;&#x72;"
      horiz-adv-x="512" d=" M208 192L304 192L304 320L208 320L208 192zM64 384L448 384L448 288C448 305.6 433.6 320 416 320L368 320L368 192L416 192C433.6 192 448 206.4 448 224L448 128L64 128L64 224C64 206.4 78.4 192 96 192L144 192L144 320L96 320C78.4 320 64 305.6 64 288L64 384zM64 288L64 384C28.8 384 0 355.2 0 320L0 192C0 156.8 28.8 128 64 128L64 224L64 288zM448 224L448 128C483.2 128 512 156.8 512 192L512 320C512 355.2 483.2 384 448 384L448 288L448 224zM128 32L384 32C419.2 32 448 60.8 448 96L64 96C64 60.8 92.8 32 128 32zM448 416L64 416C64 451.2 92.8 480 128 480L384 480C419.2 480 448 451.2 448 416z" />
    <glyph glyph-name="approve"
      unicode="&#xF104;"
      horiz-adv-x="512" d=" M256 32C132.288216 32 32 132.2882176 32 256C32 379.711784 132.288216 480 256 480C379.7117824 480 480 379.711784 480 256C480 132.2882176 379.7117824 32 256 32zM198.9293392 273.60005696C189.209096 283.32030016 173.44946816 283.32030016 163.72922528 273.60005696C154.00898208 263.87981376 154.00898208 248.12018624 163.72922528 238.39994304L213.50970368 188.6194656C223.22994688 178.8992224 238.98957472 178.8992224 248.7098176 188.6194656L348.2707744 288.1804214400001C357.9910176 297.90066464 357.9910176 313.66029248 348.2707744 323.38053536C338.5505312 333.10077856 322.7909024 333.10077856 313.0706608 323.38053536L231.10976064 241.41963552L198.9293392 273.60005696z" />
    <glyph glyph-name="approve-1"
      unicode="&#x61;&#x70;&#x70;&#x72;&#x6F;&#x76;&#x65;"
      horiz-adv-x="512" d=" M256 32C132.288216 32 32 132.2882176 32 256C32 379.711784 132.288216 480 256 480C379.7117824 480 480 379.711784 480 256C480 132.2882176 379.7117824 32 256 32zM198.9293392 273.60005696C189.209096 283.32030016 173.44946816 283.32030016 163.72922528 273.60005696C154.00898208 263.87981376 154.00898208 248.12018624 163.72922528 238.39994304L213.50970368 188.6194656C223.22994688 178.8992224 238.98957472 178.8992224 248.7098176 188.6194656L348.2707744 288.1804214400001C357.9910176 297.90066464 357.9910176 313.66029248 348.2707744 323.38053536C338.5505312 333.10077856 322.7909024 333.10077856 313.0706608 323.38053536L231.10976064 241.41963552L198.9293392 273.60005696z" />
    <glyph glyph-name="arrow-down-circle"
      unicode="&#xF1F8;"
      horiz-adv-x="512" d=" M256 32C132.288216 32 32 132.2882176 32 256C32 379.711784 132.288216 480 256 480C379.7117824 480 480 379.711784 480 256C480 132.2882176 379.7117824 32 256 32zM233.4656 345.6L233.4656 292.3552L233.4656 249.5488000000001L233.4656 220.4736L204.816 248.9664C196.0352 257.7024 181.8112 257.7024 172.9856 248.9664C168.5952 244.576 166.4 238.8416000000001 166.4 233.1296C166.4 227.3952 168.5952 221.6608 172.9856 217.248L240.0512 150.5632C244.4416 146.1952 250.1984 144 255.9776 144C261.7344 144 267.5136 146.1952 271.9264 150.5632L338.992 217.248C347.7952 226.0288 347.7952 240.2080000000001 338.992 248.9664C330.1888 257.7024 315.9424 257.7024 307.1616 248.9664L278.512 220.4736L278.512 249.5488000000001L278.512 292.3552L278.512 345.6C278.512 357.9648 268.432 368 256 368C243.568 368 233.4656 357.9648 233.4656 345.6z" />
    <glyph glyph-name="arrow-down-circle-1"
      unicode="&#x61;&#x72;&#x72;&#x6F;&#x77;&#x2D;&#x64;&#x6F;&#x77;&#x6E;&#x2D;&#x63;&#x69;&#x72;&#x63;&#x6C;&#x65;"
      horiz-adv-x="512" d=" M256 32C132.288216 32 32 132.2882176 32 256C32 379.711784 132.288216 480 256 480C379.7117824 480 480 379.711784 480 256C480 132.2882176 379.7117824 32 256 32zM233.4656 345.6L233.4656 292.3552L233.4656 249.5488000000001L233.4656 220.4736L204.816 248.9664C196.0352 257.7024 181.8112 257.7024 172.9856 248.9664C168.5952 244.576 166.4 238.8416000000001 166.4 233.1296C166.4 227.3952 168.5952 221.6608 172.9856 217.248L240.0512 150.5632C244.4416 146.1952 250.1984 144 255.9776 144C261.7344 144 267.5136 146.1952 271.9264 150.5632L338.992 217.248C347.7952 226.0288 347.7952 240.2080000000001 338.992 248.9664C330.1888 257.7024 315.9424 257.7024 307.1616 248.9664L278.512 220.4736L278.512 249.5488000000001L278.512 292.3552L278.512 345.6C278.512 357.9648 268.432 368 256 368C243.568 368 233.4656 357.9648 233.4656 345.6z" />
    <glyph glyph-name="arrow-down-left"
      unicode="&#xF1F9;"
      horiz-adv-x="512" d=" M286.4 134.531904C280.608 128.739904 272.608 125.155904 263.7440000000001 125.155904L128.576 125.539904C110.848 125.635904 96.448 140.003904 96.416 157.731904L96 292.86790432C96.064 301.73190432 99.584 309.76390432 105.408 315.55590432C111.136 321.31590432 119.168 324.86790432 128.032 324.89990432C145.76 324.80390432 160.128 310.43590432 160.224 292.70790432L160.384 235.01190432L189.728 264.3559043200001L232.992 307.61990432L332.032 406.62790432C344.512 419.17190432 364.864 419.10790432 377.408 406.53190432C389.952 393.98790432 390.016 373.66790432 377.504 361.15590432L278.464 262.1159043200001L235.2 218.88390432L205.856 189.539904L263.584 189.347904C281.28 189.283904 295.68 174.883904 295.7440000000001 157.187904C295.776 148.323904 292.192 140.323904 286.4 134.531904" />
    <glyph glyph-name="arrow-down-left-1"
      unicode="&#x61;&#x72;&#x72;&#x6F;&#x77;&#x2D;&#x64;&#x6F;&#x77;&#x6E;&#x2D;&#x6C;&#x65;&#x66;&#x74;"
      horiz-adv-x="512" d=" M286.4 134.531904C280.608 128.739904 272.608 125.155904 263.7440000000001 125.155904L128.576 125.539904C110.848 125.635904 96.448 140.003904 96.416 157.731904L96 292.86790432C96.064 301.73190432 99.584 309.76390432 105.408 315.55590432C111.136 321.31590432 119.168 324.86790432 128.032 324.89990432C145.76 324.80390432 160.128 310.43590432 160.224 292.70790432L160.384 235.01190432L189.728 264.3559043200001L232.992 307.61990432L332.032 406.62790432C344.512 419.17190432 364.864 419.10790432 377.408 406.53190432C389.952 393.98790432 390.016 373.66790432 377.504 361.15590432L278.464 262.1159043200001L235.2 218.88390432L205.856 189.539904L263.584 189.347904C281.28 189.283904 295.68 174.883904 295.7440000000001 157.187904C295.776 148.323904 292.192 140.323904 286.4 134.531904" />
    <glyph glyph-name="arrow-down-right"
      unicode="&#xF1FA;"
      horiz-adv-x="512" d=" M377.4880608000001 315.54790432C383.2800608 309.75590432 386.8320608 301.72390432 386.8320608 292.89190432L386.4800608 157.723904C386.3840608 139.995904 371.9840608 125.595904 354.2880608 125.563904L219.15206112 125.147904C210.25606112 125.211904 202.25606112 128.731904 196.43206112 134.555904C190.70406112 140.283904 187.15206112 148.315904 187.12006112 157.179904C187.21606112 174.907904 201.58406112 189.275904 219.31206112 189.339904L277.00806112 189.531904L247.63206112 218.87590432L204.40006112 262.1399043200001L105.36006112 361.14790432C92.84806112 373.65990432 92.88006112 394.01190432 105.45606112 406.55590432C118.03206112 419.09990432 138.32006112 419.1639043200001 150.83206112 406.65190432L249.90406112 307.61190432L293.13606112 264.34790432L322.4800608 235.00390432L322.6720608 292.73190432C322.7360608 310.4279043200001 337.1040608 324.82790432 354.8320608 324.89190432C363.6960608 324.89190432 371.6960608 321.33990432 377.4880608000001 315.54790432" />
    <glyph glyph-name="arrow-down-right-1"
      unicode="&#x61;&#x72;&#x72;&#x6F;&#x77;&#x2D;&#x64;&#x6F;&#x77;&#x6E;&#x2D;&#x72;&#x69;&#x67;&#x68;&#x74;"
      horiz-adv-x="512" d=" M377.4880608000001 315.54790432C383.2800608 309.75590432 386.8320608 301.72390432 386.8320608 292.89190432L386.4800608 157.723904C386.3840608 139.995904 371.9840608 125.595904 354.2880608 125.563904L219.15206112 125.147904C210.25606112 125.211904 202.25606112 128.731904 196.43206112 134.555904C190.70406112 140.283904 187.15206112 148.315904 187.12006112 157.179904C187.21606112 174.907904 201.58406112 189.275904 219.31206112 189.339904L277.00806112 189.531904L247.63206112 218.87590432L204.40006112 262.1399043200001L105.36006112 361.14790432C92.84806112 373.65990432 92.88006112 394.01190432 105.45606112 406.55590432C118.03206112 419.09990432 138.32006112 419.1639043200001 150.83206112 406.65190432L249.90406112 307.61190432L293.13606112 264.34790432L322.4800608 235.00390432L322.6720608 292.73190432C322.7360608 310.4279043200001 337.1040608 324.82790432 354.8320608 324.89190432C363.6960608 324.89190432 371.6960608 321.33990432 377.4880608000001 315.54790432" />
    <glyph glyph-name="arrow-down"
      unicode="&#xF11C;"
      horiz-adv-x="512" d=" M384 191.296C384 183.104 380.864 174.912 374.592 168.64L278.752 73.344C266.144 60.864 245.792 60.864 233.248 73.344L137.408 168.64C131.168 174.944 128 183.104 128 191.328C128 199.456 131.168 207.648 137.408 213.92C150.016 226.4 170.336 226.4 182.912 213.92L223.84 173.248L223.84 214.752L223.84 275.904L223.84 415.968C223.84 433.664 238.24 448 256 448C273.76 448 288.1600000000001 433.664 288.1600000000001 415.968L288.1600000000001 275.904L288.1600000000001 214.752L288.1600000000001 173.248L329.088 213.92C341.664 226.4 362.016 226.4 374.592 213.92C380.864 207.68 384 199.488 384 191.296" />
    <glyph glyph-name="arrow-down-1"
      unicode="&#xF140;"
      horiz-adv-x="512" d=" M384 191.296C384 183.104 380.864 174.912 374.592 168.64L278.752 73.344C266.144 60.864 245.792 60.864 233.248 73.344L137.408 168.64C131.168 174.944 128 183.104 128 191.328C128 199.456 131.168 207.648 137.408 213.92C150.016 226.4 170.336 226.4 182.912 213.92L223.84 173.248L223.84 214.752L223.84 275.904L223.84 415.968C223.84 433.664 238.24 448 256 448C273.76 448 288.1600000000001 433.664 288.1600000000001 415.968L288.1600000000001 275.904L288.1600000000001 214.752L288.1600000000001 173.248L329.088 213.92C341.664 226.4 362.016 226.4 374.592 213.92C380.864 207.68 384 199.488 384 191.296" />
    <glyph glyph-name="arrow-down-2"
      unicode="&#xF1D3;"
      horiz-adv-x="512" d=" M384 191.296C384 183.104 380.864 174.912 374.592 168.64L278.752 73.344C266.144 60.864 245.792 60.864 233.248 73.344L137.408 168.64C131.168 174.944 128 183.104 128 191.328C128 199.456 131.168 207.648 137.408 213.92C150.016 226.4 170.336 226.4 182.912 213.92L223.84 173.248L223.84 214.752L223.84 275.904L223.84 415.968C223.84 433.664 238.24 448 256 448C273.76 448 288.1600000000001 433.664 288.1600000000001 415.968L288.1600000000001 275.904L288.1600000000001 214.752L288.1600000000001 173.248L329.088 213.92C341.664 226.4 362.016 226.4 374.592 213.92C380.864 207.68 384 199.488 384 191.296" />
    <glyph glyph-name="arrow-down-3"
      unicode="&#x61;&#x72;&#x72;&#x6F;&#x77;&#x2D;&#x64;&#x6F;&#x77;&#x6E;"
      horiz-adv-x="512" d=" M384 191.296C384 183.104 380.864 174.912 374.592 168.64L278.752 73.344C266.144 60.864 245.792 60.864 233.248 73.344L137.408 168.64C131.168 174.944 128 183.104 128 191.328C128 199.456 131.168 207.648 137.408 213.92C150.016 226.4 170.336 226.4 182.912 213.92L223.84 173.248L223.84 214.752L223.84 275.904L223.84 415.968C223.84 433.664 238.24 448 256 448C273.76 448 288.1600000000001 433.664 288.1600000000001 415.968L288.1600000000001 275.904L288.1600000000001 214.752L288.1600000000001 173.248L329.088 213.92C341.664 226.4 362.016 226.4 374.592 213.92C380.864 207.68 384 199.488 384 191.296" />
    <glyph glyph-name="arrow-left-circle"
      unicode="&#xF1FB;"
      horiz-adv-x="512" d=" M256 32C132.288216 32 32 132.2882176 32 256C32 379.711784 132.288216 480 256 480C379.7117824 480 480 379.711784 480 256C480 132.2882176 379.7117824 32 256 32zM233.4656 345.6L233.4656 292.3552L233.4656 249.5488000000001L233.4656 220.4736L204.816 248.9664C196.0352 257.7024 181.8112 257.7024 172.9856 248.9664C168.5952 244.576 166.4 238.8416000000001 166.4 233.1296C166.4 227.3952 168.5952 221.6608 172.9856 217.248L240.0512 150.5632C244.4416 146.1952 250.1984 144 255.9776 144C261.7344 144 267.5136 146.1952 271.9264 150.5632L338.992 217.248C347.7952 226.0288 347.7952 240.2080000000001 338.992 248.9664C330.1888 257.7024 315.9424 257.7024 307.1616 248.9664L278.512 220.4736L278.512 249.5488000000001L278.512 292.3552L278.512 345.6C278.512 357.9648 268.432 368 256 368C243.568 368 233.4656 357.9648 233.4656 345.6z" />
    <glyph glyph-name="arrow-left-circle-1"
      unicode="&#x61;&#x72;&#x72;&#x6F;&#x77;&#x2D;&#x6C;&#x65;&#x66;&#x74;&#x2D;&#x63;&#x69;&#x72;&#x63;&#x6C;&#x65;"
      horiz-adv-x="512" d=" M256 32C132.288216 32 32 132.2882176 32 256C32 379.711784 132.288216 480 256 480C379.7117824 480 480 379.711784 480 256C480 132.2882176 379.7117824 32 256 32zM233.4656 345.6L233.4656 292.3552L233.4656 249.5488000000001L233.4656 220.4736L204.816 248.9664C196.0352 257.7024 181.8112 257.7024 172.9856 248.9664C168.5952 244.576 166.4 238.8416000000001 166.4 233.1296C166.4 227.3952 168.5952 221.6608 172.9856 217.248L240.0512 150.5632C244.4416 146.1952 250.1984 144 255.9776 144C261.7344 144 267.5136 146.1952 271.9264 150.5632L338.992 217.248C347.7952 226.0288 347.7952 240.2080000000001 338.992 248.9664C330.1888 257.7024 315.9424 257.7024 307.1616 248.9664L278.512 220.4736L278.512 249.5488000000001L278.512 292.3552L278.512 345.6C278.512 357.9648 268.432 368 256 368C243.568 368 233.4656 357.9648 233.4656 345.6z" />
    <glyph glyph-name="arrow-left"
      unicode="&#xF125;"
      horiz-adv-x="512" d=" M191.312 128C183.12 128 174.928 131.136 168.656 137.408L73.36 233.248C60.88 245.856 60.88 266.208 73.36 278.752L168.656 374.592C174.96 380.832 183.12 384 191.344 384C199.472 384 207.664 380.832 213.936 374.592C226.416 361.9840000000001 226.416 341.664 213.936 329.088L173.264 288.16L214.768 288.16L275.92 288.16L415.984 288.16C433.68 288.16 448.016 273.76 448.016 256C448.016 238.24 433.68 223.84 415.984 223.84L275.92 223.84L214.768 223.84L173.264 223.84L213.936 182.912C226.416 170.336 226.416 149.984 213.936 137.408C207.696 131.136 199.504 128 191.312 128" />
    <glyph glyph-name="arrow-left-1"
      unicode="&#x61;&#x72;&#x72;&#x6F;&#x77;&#x2D;&#x6C;&#x65;&#x66;&#x74;"
      horiz-adv-x="512" d=" M191.312 128C183.12 128 174.928 131.136 168.656 137.408L73.36 233.248C60.88 245.856 60.88 266.208 73.36 278.752L168.656 374.592C174.96 380.832 183.12 384 191.344 384C199.472 384 207.664 380.832 213.936 374.592C226.416 361.9840000000001 226.416 341.664 213.936 329.088L173.264 288.16L214.768 288.16L275.92 288.16L415.984 288.16C433.68 288.16 448.016 273.76 448.016 256C448.016 238.24 433.68 223.84 415.984 223.84L275.92 223.84L214.768 223.84L173.264 223.84L213.936 182.912C226.416 170.336 226.416 149.984 213.936 137.408C207.696 131.136 199.504 128 191.312 128" />
    <glyph glyph-name="arrow-right-circle"
      unicode="&#xF1FC;"
      horiz-adv-x="512" d=" M256 32C132.288216 32 32 132.2882176 32 256C32 379.711784 132.288216 480 256 480C379.7117824 480 480 379.711784 480 256C480 132.2882176 379.7117824 32 256 32zM233.4656 345.6L233.4656 292.3552L233.4656 249.5488000000001L233.4656 220.4736L204.816 248.9664C196.0352 257.7024 181.8112 257.7024 172.9856 248.9664C168.5952 244.576 166.4 238.8416000000001 166.4 233.1296C166.4 227.3952 168.5952 221.6608 172.9856 217.248L240.0512 150.5632C244.4416 146.1952 250.1984 144 255.9776 144C261.7344 144 267.5136 146.1952 271.9264 150.5632L338.992 217.248C347.7952 226.0288 347.7952 240.2080000000001 338.992 248.9664C330.1888 257.7024 315.9424 257.7024 307.1616 248.9664L278.512 220.4736L278.512 249.5488000000001L278.512 292.3552L278.512 345.6C278.512 357.9648 268.432 368 256 368C243.568 368 233.4656 357.9648 233.4656 345.6z" />
    <glyph glyph-name="arrow-right-circle-1"
      unicode="&#x61;&#x72;&#x72;&#x6F;&#x77;&#x2D;&#x72;&#x69;&#x67;&#x68;&#x74;&#x2D;&#x63;&#x69;&#x72;&#x63;&#x6C;&#x65;"
      horiz-adv-x="512" d=" M256 32C132.288216 32 32 132.2882176 32 256C32 379.711784 132.288216 480 256 480C379.7117824 480 480 379.711784 480 256C480 132.2882176 379.7117824 32 256 32zM233.4656 345.6L233.4656 292.3552L233.4656 249.5488000000001L233.4656 220.4736L204.816 248.9664C196.0352 257.7024 181.8112 257.7024 172.9856 248.9664C168.5952 244.576 166.4 238.8416000000001 166.4 233.1296C166.4 227.3952 168.5952 221.6608 172.9856 217.248L240.0512 150.5632C244.4416 146.1952 250.1984 144 255.9776 144C261.7344 144 267.5136 146.1952 271.9264 150.5632L338.992 217.248C347.7952 226.0288 347.7952 240.2080000000001 338.992 248.9664C330.1888 257.7024 315.9424 257.7024 307.1616 248.9664L278.512 220.4736L278.512 249.5488000000001L278.512 292.3552L278.512 345.6C278.512 357.9648 268.432 368 256 368C243.568 368 233.4656 357.9648 233.4656 345.6z" />
    <glyph glyph-name="arrow-right"
      unicode="&#xF126;"
      horiz-adv-x="512" d=" M320.704 384C328.896 384 337.088 380.8640000000001 343.36 374.592L438.656 278.752C451.136 266.144 451.136 245.792 438.656 233.248L343.36 137.408C337.056 131.168 328.896 128 320.6720000000001 128C312.544 128 304.352 131.168 298.08 137.408C285.6 150.016 285.6 170.336 298.08 182.912L338.752 223.84L297.248 223.84L236.096 223.84L96.032 223.84C78.336 223.84 64 238.24 64 256C64 273.76 78.336 288.16 96.032 288.16L236.096 288.16L297.248 288.16L338.752 288.16L298.08 329.088C285.6 341.664 285.6 362.016 298.08 374.592C304.32 380.8640000000001 312.512 384 320.704 384" />
    <glyph glyph-name="arrow-right-1"
      unicode="&#x61;&#x72;&#x72;&#x6F;&#x77;&#x2D;&#x72;&#x69;&#x67;&#x68;&#x74;"
      horiz-adv-x="512" d=" M320.704 384C328.896 384 337.088 380.8640000000001 343.36 374.592L438.656 278.752C451.136 266.144 451.136 245.792 438.656 233.248L343.36 137.408C337.056 131.168 328.896 128 320.6720000000001 128C312.544 128 304.352 131.168 298.08 137.408C285.6 150.016 285.6 170.336 298.08 182.912L338.752 223.84L297.248 223.84L236.096 223.84L96.032 223.84C78.336 223.84 64 238.24 64 256C64 273.76 78.336 288.16 96.032 288.16L236.096 288.16L297.248 288.16L338.752 288.16L298.08 329.088C285.6 341.664 285.6 362.016 298.08 374.592C304.32 380.8640000000001 312.512 384 320.704 384" />
    <glyph glyph-name="arrow-up-circle"
      unicode="&#xF1FD;"
      horiz-adv-x="512" d=" M256 32C132.288216 32 32 132.2882176 32 256C32 379.711784 132.288216 480 256 480C379.7117824 480 480 379.711784 480 256C480 132.2882176 379.7117824 32 256 32zM233.4656 345.6L233.4656 292.3552L233.4656 249.5488000000001L233.4656 220.4736L204.816 248.9664C196.0352 257.7024 181.8112 257.7024 172.9856 248.9664C168.5952 244.576 166.4 238.8416000000001 166.4 233.1296C166.4 227.3952 168.5952 221.6608 172.9856 217.248L240.0512 150.5632C244.4416 146.1952 250.1984 144 255.9776 144C261.7344 144 267.5136 146.1952 271.9264 150.5632L338.992 217.248C347.7952 226.0288 347.7952 240.2080000000001 338.992 248.9664C330.1888 257.7024 315.9424 257.7024 307.1616 248.9664L278.512 220.4736L278.512 249.5488000000001L278.512 292.3552L278.512 345.6C278.512 357.9648 268.432 368 256 368C243.568 368 233.4656 357.9648 233.4656 345.6z" />
    <glyph glyph-name="arrow-up-circle-1"
      unicode="&#x61;&#x72;&#x72;&#x6F;&#x77;&#x2D;&#x75;&#x70;&#x2D;&#x63;&#x69;&#x72;&#x63;&#x6C;&#x65;"
      horiz-adv-x="512" d=" M256 32C132.288216 32 32 132.2882176 32 256C32 379.711784 132.288216 480 256 480C379.7117824 480 480 379.711784 480 256C480 132.2882176 379.7117824 32 256 32zM233.4656 345.6L233.4656 292.3552L233.4656 249.5488000000001L233.4656 220.4736L204.816 248.9664C196.0352 257.7024 181.8112 257.7024 172.9856 248.9664C168.5952 244.576 166.4 238.8416000000001 166.4 233.1296C166.4 227.3952 168.5952 221.6608 172.9856 217.248L240.0512 150.5632C244.4416 146.1952 250.1984 144 255.9776 144C261.7344 144 267.5136 146.1952 271.9264 150.5632L338.992 217.248C347.7952 226.0288 347.7952 240.2080000000001 338.992 248.9664C330.1888 257.7024 315.9424 257.7024 307.1616 248.9664L278.512 220.4736L278.512 249.5488000000001L278.512 292.3552L278.512 345.6C278.512 357.9648 268.432 368 256 368C243.568 368 233.4656 357.9648 233.4656 345.6z" />
    <glyph glyph-name="arrow-up-small"
      unicode="&#xF1FE;"
      horiz-adv-x="512" d=" M231.064 309.6960000000001L137.336 215.136C124.888 202.592 124.888 182.272 137.336 169.728C149.752 157.184 169.912 157.184 182.296 169.728L255.832 243.872L329.656 169.408C342.104 156.864 362.264 156.864 374.68 169.408C387.096 181.952 387.096 202.272 374.68 214.816L280.6 309.6960000000001C273.624 316.576 264.632 320 255.704 320C246.776 320 237.88 316.576 231.064 309.6960000000001z" />
    <glyph glyph-name="arrow-up-small-1"
      unicode="&#x61;&#x72;&#x72;&#x6F;&#x77;&#x2D;&#x75;&#x70;&#x2D;&#x73;&#x6D;&#x61;&#x6C;&#x6C;"
      horiz-adv-x="512" d=" M231.064 309.6960000000001L137.336 215.136C124.888 202.592 124.888 182.272 137.336 169.728C149.752 157.184 169.912 157.184 182.296 169.728L255.832 243.872L329.656 169.408C342.104 156.864 362.264 156.864 374.68 169.408C387.096 181.952 387.096 202.272 374.68 214.816L280.6 309.6960000000001C273.624 316.576 264.632 320 255.704 320C246.776 320 237.88 316.576 231.064 309.6960000000001z" />
    <glyph glyph-name="arrow-up"
      unicode="&#xF15B;"
      horiz-adv-x="512" d=" M128 320.688C128 328.88 131.136 337.072 137.408 343.344L233.248 438.64C245.856 451.12 266.2080000000001 451.12 278.752 438.64L374.592 343.344C380.832 337.04 384 328.88 384 320.656C384 312.528 380.832 304.336 374.592 298.064C361.984 285.584 341.664 285.584 329.088 298.064L288.1600000000001 338.736L288.1600000000001 297.232L288.1600000000001 236.08L288.1600000000001 96.016C288.1600000000001 78.32 273.76 63.984 256 63.984C238.24 63.984 223.84 78.32 223.84 96.016L223.84 236.08L223.84 297.232L223.84 338.736L182.912 298.064C170.336 285.584 149.984 285.584 137.408 298.064C131.136 304.304 128 312.496 128 320.688" />
    <glyph glyph-name="arrow-up-1"
      unicode="&#xF1AC;"
      horiz-adv-x="512" d=" M128 320.688C128 328.88 131.136 337.072 137.408 343.344L233.248 438.64C245.856 451.12 266.2080000000001 451.12 278.752 438.64L374.592 343.344C380.832 337.04 384 328.88 384 320.656C384 312.528 380.832 304.336 374.592 298.064C361.984 285.584 341.664 285.584 329.088 298.064L288.1600000000001 338.736L288.1600000000001 297.232L288.1600000000001 236.08L288.1600000000001 96.016C288.1600000000001 78.32 273.76 63.984 256 63.984C238.24 63.984 223.84 78.32 223.84 96.016L223.84 236.08L223.84 297.232L223.84 338.736L182.912 298.064C170.336 285.584 149.984 285.584 137.408 298.064C131.136 304.304 128 312.496 128 320.688" />
    <glyph glyph-name="arrow-up-2"
      unicode="&#xF1D4;"
      horiz-adv-x="512" d=" M128 320.688C128 328.88 131.136 337.072 137.408 343.344L233.248 438.64C245.856 451.12 266.2080000000001 451.12 278.752 438.64L374.592 343.344C380.832 337.04 384 328.88 384 320.656C384 312.528 380.832 304.336 374.592 298.064C361.984 285.584 341.664 285.584 329.088 298.064L288.1600000000001 338.736L288.1600000000001 297.232L288.1600000000001 236.08L288.1600000000001 96.016C288.1600000000001 78.32 273.76 63.984 256 63.984C238.24 63.984 223.84 78.32 223.84 96.016L223.84 236.08L223.84 297.232L223.84 338.736L182.912 298.064C170.336 285.584 149.984 285.584 137.408 298.064C131.136 304.304 128 312.496 128 320.688" />
    <glyph glyph-name="arrow-up-3"
      unicode="&#x61;&#x72;&#x72;&#x6F;&#x77;&#x2D;&#x75;&#x70;"
      horiz-adv-x="512" d=" M128 320.688C128 328.88 131.136 337.072 137.408 343.344L233.248 438.64C245.856 451.12 266.2080000000001 451.12 278.752 438.64L374.592 343.344C380.832 337.04 384 328.88 384 320.656C384 312.528 380.832 304.336 374.592 298.064C361.984 285.584 341.664 285.584 329.088 298.064L288.1600000000001 338.736L288.1600000000001 297.232L288.1600000000001 236.08L288.1600000000001 96.016C288.1600000000001 78.32 273.76 63.984 256 63.984C238.24 63.984 223.84 78.32 223.84 96.016L223.84 236.08L223.84 297.232L223.84 338.736L182.912 298.064C170.336 285.584 149.984 285.584 137.408 298.064C131.136 304.304 128 312.496 128 320.688" />
    <glyph glyph-name="attachment"
      unicode="&#xF10A;"
      horiz-adv-x="512" d=" M440.832 232.24468512L282.432 73.8446848C232.544 23.9566848 151.328 23.9566848 101.44 73.8446848C51.52 123.7646848 51.52 204.94868512 101.44 254.86868512L271.136 424.56468512C277.568 431.02868512 284.992 436.27668512 293.216 440.21268512C323.7440000000001 454.80468512 360.32 448.50068512 384.256 424.56468512C410.112 398.74068512 414.176 359.6366851200001 397.248 329.20468512C396.608 327.38068512 395.52 325.74868512 394.528 324.05268512C394.496 323.98868512 394.464 323.95668512 394.464 323.92468512C393.088 321.5886851200001 391.936 319.12468512 389.92 317.10868512L214.56 141.7166848C202.08 129.2366848 181.792 129.2366848 169.312 141.7166848C156.832 154.2286848 156.832 174.4846848 169.312 186.9966848L339.008 356.69268512C345.248 362.93268512 345.248 373.07668512 339.008 379.31668512C333.472 384.85268512 325.888 384.88468512 320.8 382.45268512C319.168 381.6846851200001 317.6960000000001 380.62868512 316.384 379.31668512L146.688 209.62068512C121.728 184.6606848 121.728 144.0846848 146.688 119.0926848C171.616 94.1646848 212.224 94.1646848 237.184 119.0926848L395.584 277.4926851200001C408.064 290.00468512 428.352 290.00468512 440.832 277.4926851200001C453.344 265.01268512 453.344 244.75668512 440.832 232.24468512" />
    <glyph glyph-name="attachment-1"
      unicode="&#xF10B;"
      horiz-adv-x="512" d=" M440.832 232.24468512L282.432 73.8446848C232.544 23.9566848 151.328 23.9566848 101.44 73.8446848C51.52 123.7646848 51.52 204.94868512 101.44 254.86868512L271.136 424.56468512C277.568 431.02868512 284.992 436.27668512 293.216 440.21268512C323.7440000000001 454.80468512 360.32 448.50068512 384.256 424.56468512C410.112 398.74068512 414.176 359.6366851200001 397.248 329.20468512C396.608 327.38068512 395.52 325.74868512 394.528 324.05268512C394.496 323.98868512 394.464 323.95668512 394.464 323.92468512C393.088 321.5886851200001 391.936 319.12468512 389.92 317.10868512L214.56 141.7166848C202.08 129.2366848 181.792 129.2366848 169.312 141.7166848C156.832 154.2286848 156.832 174.4846848 169.312 186.9966848L339.008 356.69268512C345.248 362.93268512 345.248 373.07668512 339.008 379.31668512C333.472 384.85268512 325.888 384.88468512 320.8 382.45268512C319.168 381.6846851200001 317.6960000000001 380.62868512 316.384 379.31668512L146.688 209.62068512C121.728 184.6606848 121.728 144.0846848 146.688 119.0926848C171.616 94.1646848 212.224 94.1646848 237.184 119.0926848L395.584 277.4926851200001C408.064 290.00468512 428.352 290.00468512 440.832 277.4926851200001C453.344 265.01268512 453.344 244.75668512 440.832 232.24468512" />
    <glyph glyph-name="attachment-2"
      unicode="&#x61;&#x74;&#x74;&#x61;&#x63;&#x68;&#x6D;&#x65;&#x6E;&#x74;"
      horiz-adv-x="512" d=" M440.832 232.24468512L282.432 73.8446848C232.544 23.9566848 151.328 23.9566848 101.44 73.8446848C51.52 123.7646848 51.52 204.94868512 101.44 254.86868512L271.136 424.56468512C277.568 431.02868512 284.992 436.27668512 293.216 440.21268512C323.7440000000001 454.80468512 360.32 448.50068512 384.256 424.56468512C410.112 398.74068512 414.176 359.6366851200001 397.248 329.20468512C396.608 327.38068512 395.52 325.74868512 394.528 324.05268512C394.496 323.98868512 394.464 323.95668512 394.464 323.92468512C393.088 321.5886851200001 391.936 319.12468512 389.92 317.10868512L214.56 141.7166848C202.08 129.2366848 181.792 129.2366848 169.312 141.7166848C156.832 154.2286848 156.832 174.4846848 169.312 186.9966848L339.008 356.69268512C345.248 362.93268512 345.248 373.07668512 339.008 379.31668512C333.472 384.85268512 325.888 384.88468512 320.8 382.45268512C319.168 381.6846851200001 317.6960000000001 380.62868512 316.384 379.31668512L146.688 209.62068512C121.728 184.6606848 121.728 144.0846848 146.688 119.0926848C171.616 94.1646848 212.224 94.1646848 237.184 119.0926848L395.584 277.4926851200001C408.064 290.00468512 428.352 290.00468512 440.832 277.4926851200001C453.344 265.01268512 453.344 244.75668512 440.832 232.24468512" />
    <glyph glyph-name="audio-circle"
      unicode="&#xF1FF;"
      horiz-adv-x="512" d=" M256 32C132.288216 32 32 132.2882176 32 256C32 379.711784 132.288216 480 256 480C379.7117824 480 480 379.711784 480 256C480 132.2882176 379.7117824 32 256 32zM345.6 316.85824736L345.6 336.93621856C345.6 342.25762368 341.272512 346.1187824 335.9342848 345.54314688L220.86571648 333.13499392C215.36970304 332.54234368 211.2 327.77261568 211.2 322.4435049600001L211.2 299.53189088L211.2 231.68809504C207.69687616 232.92627296 203.9271168 233.6 200 233.6C181.44323264 233.6 166.4 218.55676704 166.4 200C166.4 181.443232 181.44323264 166.4 200 166.4C217.80406432 166.4 232.37384608 180.2476096 233.52651808 197.76000224L233.6 197.76000224L233.6 291.03002528L323.2 300.69183424L323.2 254.088096C319.6968752 255.32627264 315.92711648 256 312 256C293.44323296 256 278.4 240.95676736 278.4 222.4C278.4 203.84323296 293.44323296 188.8 312 188.8C329.804064 188.8 344.3738432 202.64760832 345.5265152 220.16L345.6 220.16L345.6 316.85824736z" />
    <glyph glyph-name="audio-circle-1"
      unicode="&#x61;&#x75;&#x64;&#x69;&#x6F;&#x2D;&#x63;&#x69;&#x72;&#x63;&#x6C;&#x65;"
      horiz-adv-x="512" d=" M256 32C132.288216 32 32 132.2882176 32 256C32 379.711784 132.288216 480 256 480C379.7117824 480 480 379.711784 480 256C480 132.2882176 379.7117824 32 256 32zM345.6 316.85824736L345.6 336.93621856C345.6 342.25762368 341.272512 346.1187824 335.9342848 345.54314688L220.86571648 333.13499392C215.36970304 332.54234368 211.2 327.77261568 211.2 322.4435049600001L211.2 299.53189088L211.2 231.68809504C207.69687616 232.92627296 203.9271168 233.6 200 233.6C181.44323264 233.6 166.4 218.55676704 166.4 200C166.4 181.443232 181.44323264 166.4 200 166.4C217.80406432 166.4 232.37384608 180.2476096 233.52651808 197.76000224L233.6 197.76000224L233.6 291.03002528L323.2 300.69183424L323.2 254.088096C319.6968752 255.32627264 315.92711648 256 312 256C293.44323296 256 278.4 240.95676736 278.4 222.4C278.4 203.84323296 293.44323296 188.8 312 188.8C329.804064 188.8 344.3738432 202.64760832 345.5265152 220.16L345.6 220.16L345.6 316.85824736z" />
    <glyph glyph-name="audio"
      unicode="&#xF200;"
      horiz-adv-x="512" d=" M480 426.4645657600001L480 163.2L480 153.6C480 104.1152864 439.8847136 64 390.4 64L377.6 64C328.1152864 64 288 104.1152864 288 153.6L288 166.4C288 215.8847136 328.1152864 256 377.6 256L390.4 256C399.2956480000001 256 407.8885184 254.703648 416 252.289552L416 376.24855712L224 356.37283552L224 131.2L224 121.6C224 72.1152864 183.8847136 32 134.4 32L121.6 32C72.1152864 32 32 72.1152864 32 121.6L32 134.4C32 183.8847136 72.1152864 224 121.6 224L134.4 224C143.29564928 224 151.88851936 222.703648 160 220.289552L160 377.90146464L160 427.07086848C160 439.2516931200001 169.927864 450.1539289600001 183.01361088 451.50855712L456.9863904 479.87005024C469.6964544 481.185788352 480 472.36028256 480 460.19707104L480 426.4645657600001z" />
    <glyph glyph-name="audio-1"
      unicode="&#x61;&#x75;&#x64;&#x69;&#x6F;"
      horiz-adv-x="512" d=" M480 426.4645657600001L480 163.2L480 153.6C480 104.1152864 439.8847136 64 390.4 64L377.6 64C328.1152864 64 288 104.1152864 288 153.6L288 166.4C288 215.8847136 328.1152864 256 377.6 256L390.4 256C399.2956480000001 256 407.8885184 254.703648 416 252.289552L416 376.24855712L224 356.37283552L224 131.2L224 121.6C224 72.1152864 183.8847136 32 134.4 32L121.6 32C72.1152864 32 32 72.1152864 32 121.6L32 134.4C32 183.8847136 72.1152864 224 121.6 224L134.4 224C143.29564928 224 151.88851936 222.703648 160 220.289552L160 377.90146464L160 427.07086848C160 439.2516931200001 169.927864 450.1539289600001 183.01361088 451.50855712L456.9863904 479.87005024C469.6964544 481.185788352 480 472.36028256 480 460.19707104L480 426.4645657600001z" />
    <glyph glyph-name="backlog"
      unicode="&#xF201;"
      horiz-adv-x="512" d=" M32 336.70994304L32 416C32 451.346224 60.653776 480 96 480L350.7079488 480C386.0541728 480 414.7079488 451.346224 414.7079488 416L414.7079488 382.3956208C442.1914304 375.2089712 462.4713024 350.20944192 462.4713024 320.47329536L462.4713024 305.1832384C462.4713024 275.44709152 442.1914304 250.44756256 414.7079488 243.26091264L414.7079488 114.1298304C414.7079488 78.7836064 386.0541728 50.1298304 350.7079488 50.1298304L96 50.1298304C60.653776 50.1298304 32 78.7836064 32 114.1298304L32 288.94659072L80.36448224 288.94659072L80.36448224 336.70994304L32 336.70994304zM128.07421024 336.70994304L128.07421024 288.94659072L414.7079488 288.94659072L414.7079488 336.70994304L128.07421024 336.70994304zM80.36448224 432.2366476800001L80.36448224 384.47329536L366.9982208 384.47329536L366.9982208 432.2366476800001L80.36448224 432.2366476800001zM80.36448224 241.1832384L80.36448224 193.41988608L366.9982208 193.41988608L366.9982208 241.1832384L80.36448224 241.1832384zM80.36448224 145.6565344L80.36448224 97.8931808L366.9982208 97.8931808L366.9982208 145.6565344L80.36448224 145.6565344z" />
    <glyph glyph-name="backlog-1"
      unicode="&#x62;&#x61;&#x63;&#x6B;&#x6C;&#x6F;&#x67;"
      horiz-adv-x="512" d=" M32 336.70994304L32 416C32 451.346224 60.653776 480 96 480L350.7079488 480C386.0541728 480 414.7079488 451.346224 414.7079488 416L414.7079488 382.3956208C442.1914304 375.2089712 462.4713024 350.20944192 462.4713024 320.47329536L462.4713024 305.1832384C462.4713024 275.44709152 442.1914304 250.44756256 414.7079488 243.26091264L414.7079488 114.1298304C414.7079488 78.7836064 386.0541728 50.1298304 350.7079488 50.1298304L96 50.1298304C60.653776 50.1298304 32 78.7836064 32 114.1298304L32 288.94659072L80.36448224 288.94659072L80.36448224 336.70994304L32 336.70994304zM128.07421024 336.70994304L128.07421024 288.94659072L414.7079488 288.94659072L414.7079488 336.70994304L128.07421024 336.70994304zM80.36448224 432.2366476800001L80.36448224 384.47329536L366.9982208 384.47329536L366.9982208 432.2366476800001L80.36448224 432.2366476800001zM80.36448224 241.1832384L80.36448224 193.41988608L366.9982208 193.41988608L366.9982208 241.1832384L80.36448224 241.1832384zM80.36448224 145.6565344L80.36448224 97.8931808L366.9982208 97.8931808L366.9982208 145.6565344L80.36448224 145.6565344z" />
    <glyph glyph-name="billing-filled"
      unicode="&#xF202;"
      horiz-adv-x="512" d=" M96 416.06461152C96 451.37515136 124.72000128 480 159.99669152 480L337.2833088 480C372.6277056 480 401.28 451.36132736 401.28 416.06461152L401.28 107.4553792C401.28 72.1448384 372.5599968 43.5199904 337.2833088 43.5199904L159.99669152 43.5199904C124.65229472 43.5199904 96 72.1586624 96 107.4553792L96 416.06461152zM161.41714272 370.87999712C161.41714272 358.74290272 171.30881568 349.0559968 183.5108128 349.0559968L313.76918592 349.0559968C325.9840768000001 349.0559968 335.8628576 358.82693472 335.8628576 370.87999712C335.8628576 383.01709152 325.971184 392.70399776 313.76918592 392.70399776L183.5108128 392.70399776C171.29592288 392.70399776 161.41714272 382.93305984 161.41714272 370.87999712zM161.41714272 305.40799552C161.41714272 293.27090112 171.29533408 283.5839952 183.4807008 283.5839952L248.38215552 283.5839952C260.38399488 283.5839952 270.4457136 293.3549328000001 270.4457136 305.40799552C270.4457136 317.54508992 260.56752224 327.23199616 248.38215552 327.23199616L183.4807008 327.23199616C171.47886144 327.23199616 161.41714272 317.46105824 161.41714272 305.40799552zM161.41714272 239.93599392C161.41714272 227.79889952 171.29533408 218.11199328 183.4807008 218.11199328L248.38215552 218.11199328C260.38399488 218.11199328 270.4457136 227.8829312 270.4457136 239.93599392C270.4457136 252.07308832 260.56752224 261.75999456 248.38215552 261.75999456L183.4807008 261.75999456C171.47886144 261.75999456 161.41714272 251.98905664 161.41714272 239.93599392zM161.41714272 174.4639936C161.41714272 162.3268992 171.29533408 152.6399904 183.4807008 152.6399904L248.38215552 152.6399904C260.38399488 152.6399904 270.4457136 162.4109312 270.4457136 174.4639936C270.4457136 186.601088 260.56752224 196.28799296 248.38215552 196.28799296L183.4807008 196.28799296C171.47886144 196.28799296 161.41714272 186.517056 161.41714272 174.4639936zM292.25142784 239.93599392C292.25142784 227.79889952 302.01417856 218.11199328 314.05714208 218.11199328C326.1840672 218.11199328 335.8628576 227.8829312 335.8628576 239.93599392C335.8628576 252.07308832 326.1001056 261.75999456 314.05714208 261.75999456C301.93021728 261.75999456 292.25142784 251.98905664 292.25142784 239.93599392zM292.25142784 174.4639936C292.25142784 162.3268992 302.01417856 152.6399904 314.05714208 152.6399904C326.1840672 152.6399904 335.8628576 162.4109312 335.8628576 174.4639936C335.8628576 186.601088 326.1001056 196.28799296 314.05714208 196.28799296C301.93021728 196.28799296 292.25142784 186.517056 292.25142784 174.4639936zM292.25142784 305.40799552C292.25142784 293.27090112 302.01417856 283.5839952 314.05714208 283.5839952C326.1840672 283.5839952 335.8628576 293.3549328000001 335.8628576 305.40799552C335.8628576 317.54508992 326.1001056 327.23199616 314.05714208 327.23199616C301.93021728 327.23199616 292.25142784 317.46105824 292.25142784 305.40799552z" />
    <glyph glyph-name="billing-filled-1"
      unicode="&#x62;&#x69;&#x6C;&#x6C;&#x69;&#x6E;&#x67;&#x2D;&#x66;&#x69;&#x6C;&#x6C;&#x65;&#x64;"
      horiz-adv-x="512" d=" M96 416.06461152C96 451.37515136 124.72000128 480 159.99669152 480L337.2833088 480C372.6277056 480 401.28 451.36132736 401.28 416.06461152L401.28 107.4553792C401.28 72.1448384 372.5599968 43.5199904 337.2833088 43.5199904L159.99669152 43.5199904C124.65229472 43.5199904 96 72.1586624 96 107.4553792L96 416.06461152zM161.41714272 370.87999712C161.41714272 358.74290272 171.30881568 349.0559968 183.5108128 349.0559968L313.76918592 349.0559968C325.9840768000001 349.0559968 335.8628576 358.82693472 335.8628576 370.87999712C335.8628576 383.01709152 325.971184 392.70399776 313.76918592 392.70399776L183.5108128 392.70399776C171.29592288 392.70399776 161.41714272 382.93305984 161.41714272 370.87999712zM161.41714272 305.40799552C161.41714272 293.27090112 171.29533408 283.5839952 183.4807008 283.5839952L248.38215552 283.5839952C260.38399488 283.5839952 270.4457136 293.3549328000001 270.4457136 305.40799552C270.4457136 317.54508992 260.56752224 327.23199616 248.38215552 327.23199616L183.4807008 327.23199616C171.47886144 327.23199616 161.41714272 317.46105824 161.41714272 305.40799552zM161.41714272 239.93599392C161.41714272 227.79889952 171.29533408 218.11199328 183.4807008 218.11199328L248.38215552 218.11199328C260.38399488 218.11199328 270.4457136 227.8829312 270.4457136 239.93599392C270.4457136 252.07308832 260.56752224 261.75999456 248.38215552 261.75999456L183.4807008 261.75999456C171.47886144 261.75999456 161.41714272 251.98905664 161.41714272 239.93599392zM161.41714272 174.4639936C161.41714272 162.3268992 171.29533408 152.6399904 183.4807008 152.6399904L248.38215552 152.6399904C260.38399488 152.6399904 270.4457136 162.4109312 270.4457136 174.4639936C270.4457136 186.601088 260.56752224 196.28799296 248.38215552 196.28799296L183.4807008 196.28799296C171.47886144 196.28799296 161.41714272 186.517056 161.41714272 174.4639936zM292.25142784 239.93599392C292.25142784 227.79889952 302.01417856 218.11199328 314.05714208 218.11199328C326.1840672 218.11199328 335.8628576 227.8829312 335.8628576 239.93599392C335.8628576 252.07308832 326.1001056 261.75999456 314.05714208 261.75999456C301.93021728 261.75999456 292.25142784 251.98905664 292.25142784 239.93599392zM292.25142784 174.4639936C292.25142784 162.3268992 302.01417856 152.6399904 314.05714208 152.6399904C326.1840672 152.6399904 335.8628576 162.4109312 335.8628576 174.4639936C335.8628576 186.601088 326.1001056 196.28799296 314.05714208 196.28799296C301.93021728 196.28799296 292.25142784 186.517056 292.25142784 174.4639936zM292.25142784 305.40799552C292.25142784 293.27090112 302.01417856 283.5839952 314.05714208 283.5839952C326.1840672 283.5839952 335.8628576 293.3549328000001 335.8628576 305.40799552C335.8628576 317.54508992 326.1001056 327.23199616 314.05714208 327.23199616C301.93021728 327.23199616 292.25142784 317.46105824 292.25142784 305.40799552z" />
    <glyph glyph-name="billing"
      unicode="&#xF203;"
      horiz-adv-x="512" d=" M96 416.07083072C96 451.377936 124.72000128 480 159.99669152 480L337.2833088 480C372.6277056 480 401.28 451.36411328 401.28 416.07083072L401.28 107.4916192C401.28 72.184512 372.5599968 43.562448 337.2833088 43.562448L159.99669152 43.562448C124.65229472 43.562448 96 72.198336 96 107.4916192L96 416.07083072zM139.61142848 436.3562448L139.61142848 87.2062048L357.6685696 87.2062048L357.6685696 436.3562448L139.61142848 436.3562448zM161.41714272 370.89061216C161.41714272 382.9425024 171.29592288 392.7124896000001 183.5108128 392.7124896000001L313.76918592 392.7124896000001C325.971184 392.7124896000001 335.8628576 383.02652608 335.8628576 370.89061216C335.8628576 358.83872192 325.9840768000001 349.06873472 313.76918592 349.06873472L183.5108128 349.06873472C171.30881568 349.06873472 161.41714272 358.75469856 161.41714272 370.89061216zM161.41714272 305.42497952C161.41714272 317.47686976 171.47886144 327.24685696 183.4807008 327.24685696L248.38215552 327.24685696C260.56752224 327.24685696 270.4457136 317.56089312 270.4457136 305.42497952C270.4457136 293.37308928 260.38399488 283.60310176 248.38215552 283.60310176L183.4807008 283.60310176C171.29533408 283.60310176 161.41714272 293.2890656 161.41714272 305.42497952zM161.41714272 239.95934688C161.41714272 252.01123712 171.47886144 261.78122432 183.4807008 261.78122432L248.38215552 261.78122432C260.56752224 261.78122432 270.4457136 252.09526048 270.4457136 239.95934688C270.4457136 227.90745664 260.38399488 218.13746912 248.38215552 218.13746912L183.4807008 218.13746912C171.29533408 218.13746912 161.41714272 227.82343296 161.41714272 239.95934688zM161.41714272 174.4937152C161.41714272 186.5456032 171.47886144 196.31559168 183.4807008 196.31559168L248.38215552 196.31559168C260.56752224 196.31559168 270.4457136 186.6296288 270.4457136 174.4937152C270.4457136 162.441824 260.38399488 152.6718368 248.38215552 152.6718368L183.4807008 152.6718368C171.29533408 152.6718368 161.41714272 162.3578016 161.41714272 174.4937152zM292.25142784 239.95934688C292.25142784 252.01123712 301.93021728 261.78122432 314.05714208 261.78122432C326.1001056 261.78122432 335.8628576 252.09526048 335.8628576 239.95934688C335.8628576 227.90745664 326.1840672 218.13746912 314.05714208 218.13746912C302.01417856 218.13746912 292.25142784 227.82343296 292.25142784 239.95934688zM292.25142784 174.4937152C292.25142784 186.5456032 301.93021728 196.31559168 314.05714208 196.31559168C326.1001056 196.31559168 335.8628576 186.6296288 335.8628576 174.4937152C335.8628576 162.441824 326.1840672 152.6718368 314.05714208 152.6718368C302.01417856 152.6718368 292.25142784 162.3578016 292.25142784 174.4937152zM292.25142784 305.42497952C292.25142784 317.47686976 301.93021728 327.24685696 314.05714208 327.24685696C326.1001056 327.24685696 335.8628576 317.56089312 335.8628576 305.42497952C335.8628576 293.37308928 326.1840672 283.60310176 314.05714208 283.60310176C302.01417856 283.60310176 292.25142784 293.2890656 292.25142784 305.42497952z" />
    <glyph glyph-name="billing-1"
      unicode="&#x62;&#x69;&#x6C;&#x6C;&#x69;&#x6E;&#x67;"
      horiz-adv-x="512" d=" M96 416.07083072C96 451.377936 124.72000128 480 159.99669152 480L337.2833088 480C372.6277056 480 401.28 451.36411328 401.28 416.07083072L401.28 107.4916192C401.28 72.184512 372.5599968 43.562448 337.2833088 43.562448L159.99669152 43.562448C124.65229472 43.562448 96 72.198336 96 107.4916192L96 416.07083072zM139.61142848 436.3562448L139.61142848 87.2062048L357.6685696 87.2062048L357.6685696 436.3562448L139.61142848 436.3562448zM161.41714272 370.89061216C161.41714272 382.9425024 171.29592288 392.7124896000001 183.5108128 392.7124896000001L313.76918592 392.7124896000001C325.971184 392.7124896000001 335.8628576 383.02652608 335.8628576 370.89061216C335.8628576 358.83872192 325.9840768000001 349.06873472 313.76918592 349.06873472L183.5108128 349.06873472C171.30881568 349.06873472 161.41714272 358.75469856 161.41714272 370.89061216zM161.41714272 305.42497952C161.41714272 317.47686976 171.47886144 327.24685696 183.4807008 327.24685696L248.38215552 327.24685696C260.56752224 327.24685696 270.4457136 317.56089312 270.4457136 305.42497952C270.4457136 293.37308928 260.38399488 283.60310176 248.38215552 283.60310176L183.4807008 283.60310176C171.29533408 283.60310176 161.41714272 293.2890656 161.41714272 305.42497952zM161.41714272 239.95934688C161.41714272 252.01123712 171.47886144 261.78122432 183.4807008 261.78122432L248.38215552 261.78122432C260.56752224 261.78122432 270.4457136 252.09526048 270.4457136 239.95934688C270.4457136 227.90745664 260.38399488 218.13746912 248.38215552 218.13746912L183.4807008 218.13746912C171.29533408 218.13746912 161.41714272 227.82343296 161.41714272 239.95934688zM161.41714272 174.4937152C161.41714272 186.5456032 171.47886144 196.31559168 183.4807008 196.31559168L248.38215552 196.31559168C260.56752224 196.31559168 270.4457136 186.6296288 270.4457136 174.4937152C270.4457136 162.441824 260.38399488 152.6718368 248.38215552 152.6718368L183.4807008 152.6718368C171.29533408 152.6718368 161.41714272 162.3578016 161.41714272 174.4937152zM292.25142784 239.95934688C292.25142784 252.01123712 301.93021728 261.78122432 314.05714208 261.78122432C326.1001056 261.78122432 335.8628576 252.09526048 335.8628576 239.95934688C335.8628576 227.90745664 326.1840672 218.13746912 314.05714208 218.13746912C302.01417856 218.13746912 292.25142784 227.82343296 292.25142784 239.95934688zM292.25142784 174.4937152C292.25142784 186.5456032 301.93021728 196.31559168 314.05714208 196.31559168C326.1001056 196.31559168 335.8628576 186.6296288 335.8628576 174.4937152C335.8628576 162.441824 326.1840672 152.6718368 314.05714208 152.6718368C302.01417856 152.6718368 292.25142784 162.3578016 292.25142784 174.4937152zM292.25142784 305.42497952C292.25142784 317.47686976 301.93021728 327.24685696 314.05714208 327.24685696C326.1001056 327.24685696 335.8628576 317.56089312 335.8628576 305.42497952C335.8628576 293.37308928 326.1840672 283.60310176 314.05714208 283.60310176C302.01417856 283.60310176 292.25142784 293.2890656 292.25142784 305.42497952z" />
    <glyph glyph-name="board"
      unicode="&#xF204;"
      horiz-adv-x="512" d=" M96 416L405.0001376 416C440.3463616 416 469.0001376 387.346224 469.0001376 352L469.0001376 130.3998912C469.0001376 95.0536672 440.3463616 66.3998912 405.0001376 66.3998912L96 66.3998912C60.653776 66.3998912 32 95.0536672 32 130.3998912L32 352C32 387.346224 60.653776 416 96 416zM337.900096 372.29998624L337.900096 110.099904L425.44768 110.099904L425.44768 372.29998624L337.900096 372.29998624zM206.6524976 372.29998624L206.6524976 110.099904L294.20008192 110.099904L294.20008192 372.29998624L206.6524976 372.29998624zM75.55245664 372.29998624L75.55245664 110.099904L163.10004096 110.099904L163.10004096 372.29998624L75.55245664 372.29998624z" />
    <glyph glyph-name="board-1"
      unicode="&#x62;&#x6F;&#x61;&#x72;&#x64;"
      horiz-adv-x="512" d=" M96 416L405.0001376 416C440.3463616 416 469.0001376 387.346224 469.0001376 352L469.0001376 130.3998912C469.0001376 95.0536672 440.3463616 66.3998912 405.0001376 66.3998912L96 66.3998912C60.653776 66.3998912 32 95.0536672 32 130.3998912L32 352C32 387.346224 60.653776 416 96 416zM337.900096 372.29998624L337.900096 110.099904L425.44768 110.099904L425.44768 372.29998624L337.900096 372.29998624zM206.6524976 372.29998624L206.6524976 110.099904L294.20008192 110.099904L294.20008192 372.29998624L206.6524976 372.29998624zM75.55245664 372.29998624L75.55245664 110.099904L163.10004096 110.099904L163.10004096 372.29998624L75.55245664 372.29998624z" />
    <glyph glyph-name="bold"
      unicode="&#xF147;"
      horiz-adv-x="512" d=" M64 464.09500064C64 472.87908928 70.99311552 480 79.79777536 480L274.18152864 480C312.94719168 480 388.3579488 461.98011392 388.3579488 371.88068352C388.3579488 299.80113888 352.3181792 281.7812528 352.3181792 281.7812528C352.3181792 281.7812528 424.3977216 263.76136672 424.3977216 173.661936C424.3977216 155.6420512 424.3977216 47.5227328 280.23863328 47.5227328L80.25304288 47.5227328C71.27673504 47.5227328 64 54.6683584 64 63.4277312L64 464.09500064zM136.07954432 119.6022784L262.2187472 119.6022784C298.25851936 119.6022784 334.2982912 128.6122208 334.2982912 173.661936C334.2982912 218.71165152 294.5146416 227.7215945600001 262.2187472 227.7215945600001L136.07954432 227.7215945600001L136.07954432 119.6022784zM136.07954432 298.8925712L244.19886112 298.8925712C262.3702656 298.8925712 316.27840544 298.8925712 316.27840544 353.8607971200001C316.27840544 408.82902336 244.19886112 407.9204556800001 244.19886112 407.9204556800001L136.07954432 407.9204556800001L136.07954432 298.8925712z" />
    <glyph glyph-name="bold-1"
      unicode="&#x62;&#x6F;&#x6C;&#x64;"
      horiz-adv-x="512" d=" M64 464.09500064C64 472.87908928 70.99311552 480 79.79777536 480L274.18152864 480C312.94719168 480 388.3579488 461.98011392 388.3579488 371.88068352C388.3579488 299.80113888 352.3181792 281.7812528 352.3181792 281.7812528C352.3181792 281.7812528 424.3977216 263.76136672 424.3977216 173.661936C424.3977216 155.6420512 424.3977216 47.5227328 280.23863328 47.5227328L80.25304288 47.5227328C71.27673504 47.5227328 64 54.6683584 64 63.4277312L64 464.09500064zM136.07954432 119.6022784L262.2187472 119.6022784C298.25851936 119.6022784 334.2982912 128.6122208 334.2982912 173.661936C334.2982912 218.71165152 294.5146416 227.7215945600001 262.2187472 227.7215945600001L136.07954432 227.7215945600001L136.07954432 119.6022784zM136.07954432 298.8925712L244.19886112 298.8925712C262.3702656 298.8925712 316.27840544 298.8925712 316.27840544 353.8607971200001C316.27840544 408.82902336 244.19886112 407.9204556800001 244.19886112 407.9204556800001L136.07954432 407.9204556800001L136.07954432 298.8925712z" />
    <glyph glyph-name="book"
      unicode="&#xF205;"
      horiz-adv-x="512" d=" M143.53447136 408.63950944L143.53447136 171.08472C143.53447136 158.0908768 154.1264512 147.2587008 167.19232 147.2587008L357.5489792 147.2587008C370.3769472 147.2587008 381.2068288 157.9259712 381.2068288 171.08472L381.2068288 408.63950944C381.2068288 421.6333504 370.614848 432.46552864 357.5489792 432.46552864L167.19232 432.46552864C154.36435456 432.46552864 143.53447136 421.79825632 143.53447136 408.63950944zM214.83617856 75.956992L214.83617856 55.5850752L179.18532512 75.956992L143.53447136 55.5850752L143.53447136 75.956992L143.53447136 103.77368C115.81473952 113.5944512 96 140.1602944 96 171.08472L96 408.63950944C96 447.96692672 128.0279104 480 167.19232 480L357.5489792 480C396.9380736 480 428.7412992 447.81757664 428.7412992 408.63950944L428.7412992 171.08472C428.7412992 131.7573024 396.7133888 99.7242272 357.5489792 99.7242272L214.83617856 99.7242272L214.83617856 75.956992zM214.83617856 28.4225216L143.53447136 28.4225216L214.83617856 28.4225216zM191.06894304 384.93105696L191.06894304 289.86211392L333.6723584 289.86211392L333.6723584 384.93105696L191.06894304 384.93105696zM191.06894304 242.32764256L191.06894304 194.7931712L333.6723584 194.7931712L333.6723584 242.32764256L191.06894304 242.32764256z" />
    <glyph glyph-name="book-1"
      unicode="&#x62;&#x6F;&#x6F;&#x6B;"
      horiz-adv-x="512" d=" M143.53447136 408.63950944L143.53447136 171.08472C143.53447136 158.0908768 154.1264512 147.2587008 167.19232 147.2587008L357.5489792 147.2587008C370.3769472 147.2587008 381.2068288 157.9259712 381.2068288 171.08472L381.2068288 408.63950944C381.2068288 421.6333504 370.614848 432.46552864 357.5489792 432.46552864L167.19232 432.46552864C154.36435456 432.46552864 143.53447136 421.79825632 143.53447136 408.63950944zM214.83617856 75.956992L214.83617856 55.5850752L179.18532512 75.956992L143.53447136 55.5850752L143.53447136 75.956992L143.53447136 103.77368C115.81473952 113.5944512 96 140.1602944 96 171.08472L96 408.63950944C96 447.96692672 128.0279104 480 167.19232 480L357.5489792 480C396.9380736 480 428.7412992 447.81757664 428.7412992 408.63950944L428.7412992 171.08472C428.7412992 131.7573024 396.7133888 99.7242272 357.5489792 99.7242272L214.83617856 99.7242272L214.83617856 75.956992zM214.83617856 28.4225216L143.53447136 28.4225216L214.83617856 28.4225216zM191.06894304 384.93105696L191.06894304 289.86211392L333.6723584 289.86211392L333.6723584 384.93105696L191.06894304 384.93105696zM191.06894304 242.32764256L191.06894304 194.7931712L333.6723584 194.7931712L333.6723584 242.32764256L191.06894304 242.32764256z" />
    <glyph glyph-name="branch"
      unicode="&#xF127;"
      horiz-adv-x="512" d=" M362.6666666666667 256C362.6666666666667 240.2560000000001 354.0266666666667 226.6453333333334 341.3333333333333 219.2426666666667L341.3333333333333 213.3333333333334C341.3333333333333 178.048 312.6186666666667 149.3333333333334 277.3333333333333 149.3333333333334L228.7573333333334 149.3333333333334C221.3546666666667 136.6400000000001 207.744 128 192 128C168.448 128 149.3333333333333 147.1146666666667 149.3333333333333 170.6666666666667C149.3333333333333 186.4106666666667 157.9733333333333 200.0213333333334 170.6666666666667 207.424L170.6666666666667 304.576C157.9733333333333 311.9786666666667 149.3333333333333 325.5893333333334 149.3333333333333 341.3333333333334C149.3333333333333 364.8853333333334 168.448 384 192 384C215.552 384 234.6666666666667 364.8853333333334 234.6666666666667 341.3333333333334C234.6666666666667 325.5893333333334 226.0266666666667 311.9786666666667 213.3333333333333 304.576L213.3333333333333 207.424C219.7333333333334 203.6906666666667 225.024 198.4 228.7573333333334 192L277.3333333333333 192C289.088 192 298.6666666666667 201.5786666666667 298.6666666666667 213.3333333333334L298.6666666666667 219.2426666666667C285.9733333333333 226.6453333333334 277.3333333333333 240.2560000000001 277.3333333333333 256C277.3333333333333 279.552 296.448 298.6666666666667 320 298.6666666666667C343.552 298.6666666666667 362.6666666666667 279.552 362.6666666666667 256" />
    <glyph glyph-name="branch-1"
      unicode="&#xF128;"
      horiz-adv-x="512" d=" M362.6666666666667 256C362.6666666666667 240.2560000000001 354.0266666666667 226.6453333333334 341.3333333333333 219.2426666666667L341.3333333333333 213.3333333333334C341.3333333333333 178.048 312.6186666666667 149.3333333333334 277.3333333333333 149.3333333333334L228.7573333333334 149.3333333333334C221.3546666666667 136.6400000000001 207.744 128 192 128C168.448 128 149.3333333333333 147.1146666666667 149.3333333333333 170.6666666666667C149.3333333333333 186.4106666666667 157.9733333333333 200.0213333333334 170.6666666666667 207.424L170.6666666666667 304.576C157.9733333333333 311.9786666666667 149.3333333333333 325.5893333333334 149.3333333333333 341.3333333333334C149.3333333333333 364.8853333333334 168.448 384 192 384C215.552 384 234.6666666666667 364.8853333333334 234.6666666666667 341.3333333333334C234.6666666666667 325.5893333333334 226.0266666666667 311.9786666666667 213.3333333333333 304.576L213.3333333333333 207.424C219.7333333333334 203.6906666666667 225.024 198.4 228.7573333333334 192L277.3333333333333 192C289.088 192 298.6666666666667 201.5786666666667 298.6666666666667 213.3333333333334L298.6666666666667 219.2426666666667C285.9733333333333 226.6453333333334 277.3333333333333 240.2560000000001 277.3333333333333 256C277.3333333333333 279.552 296.448 298.6666666666667 320 298.6666666666667C343.552 298.6666666666667 362.6666666666667 279.552 362.6666666666667 256" />
    <glyph glyph-name="branch-2"
      unicode="&#x62;&#x72;&#x61;&#x6E;&#x63;&#x68;"
      horiz-adv-x="512" d=" M362.6666666666667 256C362.6666666666667 240.2560000000001 354.0266666666667 226.6453333333334 341.3333333333333 219.2426666666667L341.3333333333333 213.3333333333334C341.3333333333333 178.048 312.6186666666667 149.3333333333334 277.3333333333333 149.3333333333334L228.7573333333334 149.3333333333334C221.3546666666667 136.6400000000001 207.744 128 192 128C168.448 128 149.3333333333333 147.1146666666667 149.3333333333333 170.6666666666667C149.3333333333333 186.4106666666667 157.9733333333333 200.0213333333334 170.6666666666667 207.424L170.6666666666667 304.576C157.9733333333333 311.9786666666667 149.3333333333333 325.5893333333334 149.3333333333333 341.3333333333334C149.3333333333333 364.8853333333334 168.448 384 192 384C215.552 384 234.6666666666667 364.8853333333334 234.6666666666667 341.3333333333334C234.6666666666667 325.5893333333334 226.0266666666667 311.9786666666667 213.3333333333333 304.576L213.3333333333333 207.424C219.7333333333334 203.6906666666667 225.024 198.4 228.7573333333334 192L277.3333333333333 192C289.088 192 298.6666666666667 201.5786666666667 298.6666666666667 213.3333333333334L298.6666666666667 219.2426666666667C285.9733333333333 226.6453333333334 277.3333333333333 240.2560000000001 277.3333333333333 256C277.3333333333333 279.552 296.448 298.6666666666667 320 298.6666666666667C343.552 298.6666666666667 362.6666666666667 279.552 362.6666666666667 256" />
    <glyph glyph-name="bullet-list"
      unicode="&#xF14F;"
      horiz-adv-x="512" d=" M64 415.97135712C64 433.660288 78.3317424 448 96.02864288 448L104.51223168 448C122.20116288 448 136.54087456 433.6682576 136.54087456 415.97135712L136.54087456 407.48776832C136.54087456 389.7988371200001 122.20913216 375.45912544 104.51223168 375.45912544L96.02864288 375.45912544C78.339712 375.45912544 64 389.7908678400001 64 407.48776832L64 415.97135712zM245.35218656 448L462.9748096 448C483.0064192 448 499.245248 431.76117216 499.245248 411.72956256C499.245248 391.69795328 483.0064192 375.45912544 462.9748096 375.45912544L245.35218656 375.45912544C225.32057728 375.45912544 209.08174944 391.69795328 209.08174944 411.72956256C209.08174944 431.76117216 225.32057728 448 245.35218656 448zM64 270.8896076800001C64 288.57853888 78.3317424 302.91825056 96.02864288 302.91825056L104.51223168 302.91825056C122.20116288 302.91825056 136.54087456 288.58650816 136.54087456 270.8896076800001L136.54087456 262.4060188800001C136.54087456 244.717088 122.20913216 230.3773760000001 104.51223168 230.3773760000001L96.02864288 230.3773760000001C78.339712 230.3773760000001 64 244.7091184 64 262.4060188800001L64 270.8896076800001zM245.35218656 302.91825056L462.9748096 302.91825056C483.0064192 302.91825056 499.245248 286.67942272 499.245248 266.64781344C499.245248 246.6162038400001 483.0064192 230.3773760000001 462.9748096 230.3773760000001L245.35218656 230.3773760000001C225.32057728 230.3773760000001 209.08174944 246.6162038400001 209.08174944 266.64781344C209.08174944 286.67942272 225.32057728 302.91825056 245.35218656 302.91825056zM64 125.8078592C64 143.4967904 78.3317424 157.8365024 96.02864288 157.8365024L104.51223168 157.8365024C122.20116288 157.8365024 136.54087456 143.5047584 136.54087456 125.8078592L136.54087456 117.3242688C136.54087456 99.6353376 122.20913216 85.2956256 104.51223168 85.2956256L96.02864288 85.2956256C78.339712 85.2956256 64 99.6273696 64 117.3242688L64 125.8078592zM245.35218656 157.8365024L462.9748096 157.8365024C483.0064192 157.8365024 499.245248 141.5976736 499.245248 121.566064C499.245248 101.5344544 483.0064192 85.2956256 462.9748096 85.2956256L245.35218656 85.2956256C225.32057728 85.2956256 209.08174944 101.5344544 209.08174944 121.566064C209.08174944 141.5976736 225.32057728 157.8365024 245.35218656 157.8365024z" />
    <glyph glyph-name="bullet-list-1"
      unicode="&#xF1B7;"
      horiz-adv-x="512" d=" M64 415.97135712C64 433.660288 78.3317424 448 96.02864288 448L104.51223168 448C122.20116288 448 136.54087456 433.6682576 136.54087456 415.97135712L136.54087456 407.48776832C136.54087456 389.7988371200001 122.20913216 375.45912544 104.51223168 375.45912544L96.02864288 375.45912544C78.339712 375.45912544 64 389.7908678400001 64 407.48776832L64 415.97135712zM245.35218656 448L462.9748096 448C483.0064192 448 499.245248 431.76117216 499.245248 411.72956256C499.245248 391.69795328 483.0064192 375.45912544 462.9748096 375.45912544L245.35218656 375.45912544C225.32057728 375.45912544 209.08174944 391.69795328 209.08174944 411.72956256C209.08174944 431.76117216 225.32057728 448 245.35218656 448zM64 270.8896076800001C64 288.57853888 78.3317424 302.91825056 96.02864288 302.91825056L104.51223168 302.91825056C122.20116288 302.91825056 136.54087456 288.58650816 136.54087456 270.8896076800001L136.54087456 262.4060188800001C136.54087456 244.717088 122.20913216 230.3773760000001 104.51223168 230.3773760000001L96.02864288 230.3773760000001C78.339712 230.3773760000001 64 244.7091184 64 262.4060188800001L64 270.8896076800001zM245.35218656 302.91825056L462.9748096 302.91825056C483.0064192 302.91825056 499.245248 286.67942272 499.245248 266.64781344C499.245248 246.6162038400001 483.0064192 230.3773760000001 462.9748096 230.3773760000001L245.35218656 230.3773760000001C225.32057728 230.3773760000001 209.08174944 246.6162038400001 209.08174944 266.64781344C209.08174944 286.67942272 225.32057728 302.91825056 245.35218656 302.91825056zM64 125.8078592C64 143.4967904 78.3317424 157.8365024 96.02864288 157.8365024L104.51223168 157.8365024C122.20116288 157.8365024 136.54087456 143.5047584 136.54087456 125.8078592L136.54087456 117.3242688C136.54087456 99.6353376 122.20913216 85.2956256 104.51223168 85.2956256L96.02864288 85.2956256C78.339712 85.2956256 64 99.6273696 64 117.3242688L64 125.8078592zM245.35218656 157.8365024L462.9748096 157.8365024C483.0064192 157.8365024 499.245248 141.5976736 499.245248 121.566064C499.245248 101.5344544 483.0064192 85.2956256 462.9748096 85.2956256L245.35218656 85.2956256C225.32057728 85.2956256 209.08174944 101.5344544 209.08174944 121.566064C209.08174944 141.5976736 225.32057728 157.8365024 245.35218656 157.8365024z" />
    <glyph glyph-name="bullet-list-2"
      unicode="&#x62;&#x75;&#x6C;&#x6C;&#x65;&#x74;&#x2D;&#x6C;&#x69;&#x73;&#x74;"
      horiz-adv-x="512" d=" M64 415.97135712C64 433.660288 78.3317424 448 96.02864288 448L104.51223168 448C122.20116288 448 136.54087456 433.6682576 136.54087456 415.97135712L136.54087456 407.48776832C136.54087456 389.7988371200001 122.20913216 375.45912544 104.51223168 375.45912544L96.02864288 375.45912544C78.339712 375.45912544 64 389.7908678400001 64 407.48776832L64 415.97135712zM245.35218656 448L462.9748096 448C483.0064192 448 499.245248 431.76117216 499.245248 411.72956256C499.245248 391.69795328 483.0064192 375.45912544 462.9748096 375.45912544L245.35218656 375.45912544C225.32057728 375.45912544 209.08174944 391.69795328 209.08174944 411.72956256C209.08174944 431.76117216 225.32057728 448 245.35218656 448zM64 270.8896076800001C64 288.57853888 78.3317424 302.91825056 96.02864288 302.91825056L104.51223168 302.91825056C122.20116288 302.91825056 136.54087456 288.58650816 136.54087456 270.8896076800001L136.54087456 262.4060188800001C136.54087456 244.717088 122.20913216 230.3773760000001 104.51223168 230.3773760000001L96.02864288 230.3773760000001C78.339712 230.3773760000001 64 244.7091184 64 262.4060188800001L64 270.8896076800001zM245.35218656 302.91825056L462.9748096 302.91825056C483.0064192 302.91825056 499.245248 286.67942272 499.245248 266.64781344C499.245248 246.6162038400001 483.0064192 230.3773760000001 462.9748096 230.3773760000001L245.35218656 230.3773760000001C225.32057728 230.3773760000001 209.08174944 246.6162038400001 209.08174944 266.64781344C209.08174944 286.67942272 225.32057728 302.91825056 245.35218656 302.91825056zM64 125.8078592C64 143.4967904 78.3317424 157.8365024 96.02864288 157.8365024L104.51223168 157.8365024C122.20116288 157.8365024 136.54087456 143.5047584 136.54087456 125.8078592L136.54087456 117.3242688C136.54087456 99.6353376 122.20913216 85.2956256 104.51223168 85.2956256L96.02864288 85.2956256C78.339712 85.2956256 64 99.6273696 64 117.3242688L64 125.8078592zM245.35218656 157.8365024L462.9748096 157.8365024C483.0064192 157.8365024 499.245248 141.5976736 499.245248 121.566064C499.245248 101.5344544 483.0064192 85.2956256 462.9748096 85.2956256L245.35218656 85.2956256C225.32057728 85.2956256 209.08174944 101.5344544 209.08174944 121.566064C209.08174944 141.5976736 225.32057728 157.8365024 245.35218656 157.8365024z" />
    <glyph glyph-name="calendar-filled"
      unicode="&#xF206;"
      horiz-adv-x="512" d=" M152.7111104 431.71555584L152.7111104 407.57333376C152.7111104 394.2468272 141.89539488 383.43111168 128.56888832 383.43111168C115.24238176 383.43111168 104.42666624 394.2468272 104.42666624 407.57333376L104.42666624 431.71555584L104.42666624 455.85777792C104.42666624 469.18428448 115.24238176 480 128.56888832 480C141.89539488 480 152.7111104 469.18428448 152.7111104 455.85777792L152.7111104 431.71555584zM345.8488864000001 431.71555584L345.8488864000001 455.85777792C345.8488864000001 469.18428448 356.6646016000001 480 369.9911104000001 480C383.317616 480 394.1333312 469.18428448 394.1333312 455.85777792L394.1333312 431.71555584L394.1333312 407.57333376C394.1333312 394.2468272 383.317616 383.43111168 369.9911104000001 383.43111168C356.6646016000001 383.43111168 345.8488864000001 394.2468272 345.8488864000001 407.57333376L345.8488864000001 431.71555584zM418.275552 431.71555584L418.3962656 431.71555584C445.000992 431.71555584 466.5599968 410.1082672 466.5599968 383.57596512L466.5599968 93.5795936C466.5599968 66.999008 445.025136 45.4400032 418.3962656 45.4400032L80.16373312 45.4400032C53.55900448 45.4400032 32 67.0231488 32 93.5795936L32 383.57596512C32 410.15655136 53.53486208 431.71555584 80.16373312 431.71555584L80.28444416 431.71555584L80.28444416 407.57333376C80.28444416 380.72065568 101.90212608 359.2888896 128.56888832 359.2888896C155.4215664 359.2888896 176.85333248 380.90657152 176.85333248 407.57333376L176.85333248 431.71555584L321.7066656 431.71555584L321.7066656 407.57333376C321.7066656 380.72065568 343.3243456 359.2888896 369.9911104000001 359.2888896C396.8437856 359.2888896 418.275552 380.90657152 418.275552 407.57333376L418.275552 431.71555584zM128.56888832 238.5536368L176.85333248 238.5536368L176.85333248 286.8622233600001L128.56888832 286.8622233600001L128.56888832 238.5536368zM128.56888832 141.9847488L176.85333248 141.9847488L176.85333248 190.2933344L128.56888832 190.2933344L128.56888832 141.9847488zM225.13777664 238.5536368L273.4222208 238.5536368L273.4222208 286.8622233600001L225.13777664 286.8622233600001L225.13777664 238.5536368zM225.13777664 141.9847488L273.4222208 141.9847488L273.4222208 190.2933344L225.13777664 190.2933344L225.13777664 141.9847488zM321.7066656 238.5536368L369.9911104000001 238.5536368L369.9911104000001 286.8622233600001L321.7066656 286.8622233600001L321.7066656 238.5536368zM321.7066656 141.9847488L369.9911104000001 141.9847488L369.9911104000001 190.2933344L321.7066656 190.2933344L321.7066656 141.9847488z" />
    <glyph glyph-name="calendar-filled-1"
      unicode="&#x63;&#x61;&#x6C;&#x65;&#x6E;&#x64;&#x61;&#x72;&#x2D;&#x66;&#x69;&#x6C;&#x6C;&#x65;&#x64;"
      horiz-adv-x="512" d=" M152.7111104 431.71555584L152.7111104 407.57333376C152.7111104 394.2468272 141.89539488 383.43111168 128.56888832 383.43111168C115.24238176 383.43111168 104.42666624 394.2468272 104.42666624 407.57333376L104.42666624 431.71555584L104.42666624 455.85777792C104.42666624 469.18428448 115.24238176 480 128.56888832 480C141.89539488 480 152.7111104 469.18428448 152.7111104 455.85777792L152.7111104 431.71555584zM345.8488864000001 431.71555584L345.8488864000001 455.85777792C345.8488864000001 469.18428448 356.6646016000001 480 369.9911104000001 480C383.317616 480 394.1333312 469.18428448 394.1333312 455.85777792L394.1333312 431.71555584L394.1333312 407.57333376C394.1333312 394.2468272 383.317616 383.43111168 369.9911104000001 383.43111168C356.6646016000001 383.43111168 345.8488864000001 394.2468272 345.8488864000001 407.57333376L345.8488864000001 431.71555584zM418.275552 431.71555584L418.3962656 431.71555584C445.000992 431.71555584 466.5599968 410.1082672 466.5599968 383.57596512L466.5599968 93.5795936C466.5599968 66.999008 445.025136 45.4400032 418.3962656 45.4400032L80.16373312 45.4400032C53.55900448 45.4400032 32 67.0231488 32 93.5795936L32 383.57596512C32 410.15655136 53.53486208 431.71555584 80.16373312 431.71555584L80.28444416 431.71555584L80.28444416 407.57333376C80.28444416 380.72065568 101.90212608 359.2888896 128.56888832 359.2888896C155.4215664 359.2888896 176.85333248 380.90657152 176.85333248 407.57333376L176.85333248 431.71555584L321.7066656 431.71555584L321.7066656 407.57333376C321.7066656 380.72065568 343.3243456 359.2888896 369.9911104000001 359.2888896C396.8437856 359.2888896 418.275552 380.90657152 418.275552 407.57333376L418.275552 431.71555584zM128.56888832 238.5536368L176.85333248 238.5536368L176.85333248 286.8622233600001L128.56888832 286.8622233600001L128.56888832 238.5536368zM128.56888832 141.9847488L176.85333248 141.9847488L176.85333248 190.2933344L128.56888832 190.2933344L128.56888832 141.9847488zM225.13777664 238.5536368L273.4222208 238.5536368L273.4222208 286.8622233600001L225.13777664 286.8622233600001L225.13777664 238.5536368zM225.13777664 141.9847488L273.4222208 141.9847488L273.4222208 190.2933344L225.13777664 190.2933344L225.13777664 141.9847488zM321.7066656 238.5536368L369.9911104000001 238.5536368L369.9911104000001 286.8622233600001L321.7066656 286.8622233600001L321.7066656 238.5536368zM321.7066656 141.9847488L369.9911104000001 141.9847488L369.9911104000001 190.2933344L321.7066656 190.2933344L321.7066656 141.9847488z" />
    <glyph glyph-name="calendar"
      unicode="&#xF11A;"
      horiz-adv-x="512" d=" M288 256L352 256L352 320L288 320L288 256zM288 128L352 128L352 192L288 192L288 128zM160 128L224 128L224 192L160 192L160 128zM160 256L224 256L224 320L160 320L160 256zM96 96L416 96L416 352L96 352L96 96zM416 448L384 448C384 465.6 369.6 480 352 480C334.4 480 320 465.6 320 448L192 448C192 465.6 177.6 480 160 480C142.4 480 128 465.6 128 448L96 448C60.8 448 32 419.2 32 384L32 96C32 60.8 60.8 32 96 32L416 32C451.2 32 480 60.8 480 96L480 384C480 419.2 451.2 448 416 448z" />
    <glyph glyph-name="calendar-1"
      unicode="&#x63;&#x61;&#x6C;&#x65;&#x6E;&#x64;&#x61;&#x72;"
      horiz-adv-x="512" d=" M288 256L352 256L352 320L288 320L288 256zM288 128L352 128L352 192L288 192L288 128zM160 128L224 128L224 192L160 192L160 128zM160 256L224 256L224 320L160 320L160 256zM96 96L416 96L416 352L96 352L96 96zM416 448L384 448C384 465.6 369.6 480 352 480C334.4 480 320 465.6 320 448L192 448C192 465.6 177.6 480 160 480C142.4 480 128 465.6 128 448L96 448C60.8 448 32 419.2 32 384L32 96C32 60.8 60.8 32 96 32L416 32C451.2 32 480 60.8 480 96L480 384C480 419.2 451.2 448 416 448z" />
    <glyph glyph-name="camera-filled"
      unicode="&#xF207;"
      horiz-adv-x="512" d=" M160.83200064 405.0488892800001L160.83200064 426.52444448C160.83200064 438.38506624 170.55959648 448 182.58755008 448L310.85245248 448C322.867712 448 332.6080032 438.46775648 332.6080032 426.52444448L332.6080032 405.0488892800001L397.148496 405.0488892800001C432.6557152 405.0488892800001 461.4400032 376.34399488 461.4400032 341.2239712L461.4400032 125.2649216C461.4400032 90.015392 432.5964064 61.4400032 397.148496 61.4400032L96.29150752 61.4400032C60.78428832 61.4400032 32 90.144896 32 125.2649216L32 341.2239712C32 376.47349984 60.84359456 405.0488892800001 96.29150752 405.0488892800001L160.83200064 405.0488892800001zM246.72000128 147.342224C294.15463424 147.342224 332.6080032 185.8019584 332.6080032 233.24444576C332.6080032 280.6869328 294.15463424 319.14666752 246.72000128 319.14666752C199.28536832 319.14666752 160.83200064 280.6869328 160.83200064 233.24444576C160.83200064 185.8019584 199.28536832 147.342224 246.72000128 147.342224zM354.0800032 319.14666752C354.0800032 307.20335552 363.693344 297.671112 375.5520032 297.671112C387.4933376 297.671112 397.0240032 307.28604576 397.0240032 319.14666752C397.0240032 331.0899792 387.4106592 340.62222304 375.5520032 340.62222304C363.6106688 340.62222304 354.0800032 331.00728928 354.0800032 319.14666752zM246.72000128 190.2933344C223.0026848 190.2933344 203.77600096 209.52320224 203.77600096 233.24444576C203.77600096 256.96568928 223.0026848 276.1955568 246.72000128 276.1955568C270.43731776 276.1955568 289.6640016 256.96568928 289.6640016 233.24444576C289.6640016 209.52320224 270.43731776 190.2933344 246.72000128 190.2933344z" />
    <glyph glyph-name="camera-filled-1"
      unicode="&#x63;&#x61;&#x6D;&#x65;&#x72;&#x61;&#x2D;&#x66;&#x69;&#x6C;&#x6C;&#x65;&#x64;"
      horiz-adv-x="512" d=" M160.83200064 405.0488892800001L160.83200064 426.52444448C160.83200064 438.38506624 170.55959648 448 182.58755008 448L310.85245248 448C322.867712 448 332.6080032 438.46775648 332.6080032 426.52444448L332.6080032 405.0488892800001L397.148496 405.0488892800001C432.6557152 405.0488892800001 461.4400032 376.34399488 461.4400032 341.2239712L461.4400032 125.2649216C461.4400032 90.015392 432.5964064 61.4400032 397.148496 61.4400032L96.29150752 61.4400032C60.78428832 61.4400032 32 90.144896 32 125.2649216L32 341.2239712C32 376.47349984 60.84359456 405.0488892800001 96.29150752 405.0488892800001L160.83200064 405.0488892800001zM246.72000128 147.342224C294.15463424 147.342224 332.6080032 185.8019584 332.6080032 233.24444576C332.6080032 280.6869328 294.15463424 319.14666752 246.72000128 319.14666752C199.28536832 319.14666752 160.83200064 280.6869328 160.83200064 233.24444576C160.83200064 185.8019584 199.28536832 147.342224 246.72000128 147.342224zM354.0800032 319.14666752C354.0800032 307.20335552 363.693344 297.671112 375.5520032 297.671112C387.4933376 297.671112 397.0240032 307.28604576 397.0240032 319.14666752C397.0240032 331.0899792 387.4106592 340.62222304 375.5520032 340.62222304C363.6106688 340.62222304 354.0800032 331.00728928 354.0800032 319.14666752zM246.72000128 190.2933344C223.0026848 190.2933344 203.77600096 209.52320224 203.77600096 233.24444576C203.77600096 256.96568928 223.0026848 276.1955568 246.72000128 276.1955568C270.43731776 276.1955568 289.6640016 256.96568928 289.6640016 233.24444576C289.6640016 209.52320224 270.43731776 190.2933344 246.72000128 190.2933344z" />
    <glyph glyph-name="camera-rotate"
      unicode="&#xF208;"
      horiz-adv-x="512" d=" M160.83200064 405.0488892800001L160.83200064 426.52444448C160.83200064 438.38506624 170.55959648 448 182.58755008 448L310.85245248 448C322.867712 448 332.6080032 438.46775648 332.6080032 426.52444448L332.6080032 405.0488892800001L397.148496 405.0488892800001C432.6557152 405.0488892800001 461.4400032 376.34399488 461.4400032 341.2239712L461.4400032 125.2649216C461.4400032 90.015392 432.5964064 61.4400032 397.148496 61.4400032L96.29150752 61.4400032C60.78428832 61.4400032 32 90.144896 32 125.2649216L32 341.2239712C32 376.47349984 60.84359456 405.0488892800001 96.29150752 405.0488892800001L160.83200064 405.0488892800001zM246.71731712 128.303296C258.57597536 128.303296 268.18931744 137.9182304 268.18931744 149.7788512C268.18931744 161.6394752 258.57597536 171.2544096 246.71731712 171.2544096C211.14134272 171.2544096 182.3013168 200.09920928 182.3013168 235.68107456C182.3013168 271.2629395200001 211.14134272 300.1077408 246.71731712 300.1077408C279.02224 300.1077408 305.7729488 276.32338752 310.41906016 245.30780576L304.82054944 250.9072432C300.65498144 255.0949766400001 295.15814944 257.1995808000001 289.66131744 257.1995808000001C284.16448544 257.1995808000001 278.64618144 255.0949766400001 274.45914144 250.9072432C266.10653344 242.51030112 266.10653344 228.89479904 274.45914144 220.51933216L317.33872576 177.6541248C321.5687104 173.42344 327.0655424000001 171.2544096 332.6267904 171.2544096C338.0806784 171.2544096 343.5989824 173.3804896 347.8933824 177.6541248L390.7300224 220.51933216C399.1255744 228.89479904 399.1255744 242.51030112 390.7300224 250.9072432C386.5215104 255.0949766400001 381.0246784000001 257.17810528 375.5278464 257.17810528C370.0524864 257.17810528 364.5556544 255.0949766400001 360.3686144 250.9072432L353.7387776 244.27118176C349.3633792 299.55792 303.11960064 343.05885152 246.71731712 343.05885152C187.42402624 343.05885152 139.35731648 294.98418304 139.35731648 235.68107456C139.35731648 176.3779648 187.42402624 128.303296 246.71731712 128.303296z" />
    <glyph glyph-name="camera-rotate-1"
      unicode="&#x63;&#x61;&#x6D;&#x65;&#x72;&#x61;&#x2D;&#x72;&#x6F;&#x74;&#x61;&#x74;&#x65;"
      horiz-adv-x="512" d=" M160.83200064 405.0488892800001L160.83200064 426.52444448C160.83200064 438.38506624 170.55959648 448 182.58755008 448L310.85245248 448C322.867712 448 332.6080032 438.46775648 332.6080032 426.52444448L332.6080032 405.0488892800001L397.148496 405.0488892800001C432.6557152 405.0488892800001 461.4400032 376.34399488 461.4400032 341.2239712L461.4400032 125.2649216C461.4400032 90.015392 432.5964064 61.4400032 397.148496 61.4400032L96.29150752 61.4400032C60.78428832 61.4400032 32 90.144896 32 125.2649216L32 341.2239712C32 376.47349984 60.84359456 405.0488892800001 96.29150752 405.0488892800001L160.83200064 405.0488892800001zM246.71731712 128.303296C258.57597536 128.303296 268.18931744 137.9182304 268.18931744 149.7788512C268.18931744 161.6394752 258.57597536 171.2544096 246.71731712 171.2544096C211.14134272 171.2544096 182.3013168 200.09920928 182.3013168 235.68107456C182.3013168 271.2629395200001 211.14134272 300.1077408 246.71731712 300.1077408C279.02224 300.1077408 305.7729488 276.32338752 310.41906016 245.30780576L304.82054944 250.9072432C300.65498144 255.0949766400001 295.15814944 257.1995808000001 289.66131744 257.1995808000001C284.16448544 257.1995808000001 278.64618144 255.0949766400001 274.45914144 250.9072432C266.10653344 242.51030112 266.10653344 228.89479904 274.45914144 220.51933216L317.33872576 177.6541248C321.5687104 173.42344 327.0655424000001 171.2544096 332.6267904 171.2544096C338.0806784 171.2544096 343.5989824 173.3804896 347.8933824 177.6541248L390.7300224 220.51933216C399.1255744 228.89479904 399.1255744 242.51030112 390.7300224 250.9072432C386.5215104 255.0949766400001 381.0246784000001 257.17810528 375.5278464 257.17810528C370.0524864 257.17810528 364.5556544 255.0949766400001 360.3686144 250.9072432L353.7387776 244.27118176C349.3633792 299.55792 303.11960064 343.05885152 246.71731712 343.05885152C187.42402624 343.05885152 139.35731648 294.98418304 139.35731648 235.68107456C139.35731648 176.3779648 187.42402624 128.303296 246.71731712 128.303296z" />
    <glyph glyph-name="camera-take-picture"
      unicode="&#xF209;"
      horiz-adv-x="512" d=" M256 32C132.288216 32 32 132.2882176 32 256C32 379.711784 132.288216 480 256 480C379.7117824 480 480 379.711784 480 256C480 132.2882176 379.7117824 32 256 32zM256 64C362.038672 64 448 149.961328 448 256C448 362.038672 362.038672 448 256 448C149.961328 448 64 362.038672 64 256C64 149.961328 149.961328 64 256 64zM256 96C167.63444 96 96 167.6344416 96 256C96 344.36556 167.63444 416 256 416C344.3655584 416 416 344.36556 416 256C416 167.6344416 344.3655584 96 256 96z" />
    </font>
</defs>
</svg>
