<?xml version="1.0" standalone="no"?>
<!DOCTYPE svg PUBLIC "-//W3C//DTD SVG 1.1//EN" "http://www.w3.org/Graphics/SVG/1.1/DTD/svg11.dtd" >
<svg xmlns="http://www.w3.org/2000/svg">
<metadata></metadata>
<defs>
<font id="atlassian-iconsregular" horiz-adv-x="2048" >
<font-face units-per-em="2048" ascent="1664" descent="-384" />
<missing-glyph horiz-adv-x="500" />
<glyph />
<glyph />
<glyph unicode="&#xd;" />
<glyph unicode="&#x2000;" horiz-adv-x="832" />
<glyph unicode="&#x2001;" horiz-adv-x="1665" />
<glyph unicode="&#x2002;" horiz-adv-x="832" />
<glyph unicode="&#x2003;" horiz-adv-x="1665" />
<glyph unicode="&#x2004;" horiz-adv-x="555" />
<glyph unicode="&#x2005;" horiz-adv-x="416" />
<glyph unicode="&#x2006;" horiz-adv-x="277" />
<glyph unicode="&#x2007;" horiz-adv-x="277" />
<glyph unicode="&#x2008;" horiz-adv-x="208" />
<glyph unicode="&#x2009;" horiz-adv-x="333" />
<glyph unicode="&#x200a;" horiz-adv-x="92" />
<glyph unicode="&#x202f;" horiz-adv-x="333" />
<glyph unicode="&#x205f;" horiz-adv-x="416" />
<glyph unicode="&#xe000;" horiz-adv-x="1000" d="M0 0z" />
<glyph unicode="&#xe001;" d="M2048 518v236q0 21 -20.5 40t-43.5 22l-310 56q-23 6 -30.5 22t4.5 34l176 258q11 18 8.5 42.5t-18.5 39.5l-166 166q-17 17 -40.5 20t-41.5 -10l-258 -174q-18 -11 -35 -3t-21 29l-56 306q-3 23 -22 42.5t-40 19.5h-236q-22 0 -41.5 -19.5t-22.5 -42.5l-56 -310 q-3 -21 -20.5 -28t-35.5 4l-256 176q-19 12 -43.5 9t-40.5 -19l-166 -166q-16 -16 -18.5 -40t8.5 -42l176 -258q12 -18 4.5 -34t-30.5 -22l-302 -56q-21 -3 -37.5 -22t-16.5 -40v-236q0 -22 16.5 -41.5t37.5 -22.5l304 -56q21 -3 28.5 -19.5t-4.5 -34.5l-176 -258 q-11 -18 -8.5 -43t18.5 -41l166 -166q16 -16 40.5 -18t43.5 10l256 172q18 14 35.5 7t20.5 -29l56 -306q3 -21 22.5 -38.5t41.5 -17.5h236q21 0 40 17.5t22 38.5l56 308q4 22 21 28t35 -6l258 -172q18 -14 43 -12t41 18l164 166q16 16 19.5 41t-7.5 43l-174 258 q-13 18 -5 34.5t31 19.5l306 56q23 3 43.5 22.5t20.5 41.5zM1408 640q0 -99 -53 -188t-142 -142.5t-189 -53.5q-99 0 -188 53.5t-142.5 142.5t-53.5 188t53.5 188t142.5 142.5t188 53.5q100 0 189 -53.5t142 -142.5t53 -188z" />
<glyph unicode="&#xe002;" d="M1280 896h462q78 0 128 -45.5t50 -120.5v-188q0 -74 -49.5 -116t-128.5 -42h-462v-462q0 -79 -42 -128.5t-116 -49.5h-188q-75 0 -120.5 50t-45.5 128v462h-454q-80 0 -133 42t-53 116v188q0 75 53.5 120.5t132.5 45.5h454v454q0 79 45.5 132.5t120.5 53.5h188 q74 0 116 -53t42 -133v-454z" />
<glyph unicode="&#xe003;" d="M1024 -384q166 0 322.5 52t282.5 147t220.5 221.5t146.5 283t52 322.5q0 207 -81.5 396t-218.5 326t-326.5 218.5t-397.5 81.5t-397.5 -81.5t-326.5 -218.5t-218.5 -326t-81.5 -396q0 -166 52 -322.5t146.5 -283t220.5 -221.5t282.5 -147t322.5 -52zM1024 1464 q168 0 321 -65t263.5 -175t176 -262.5t65.5 -319.5q0 -168 -65.5 -321t-176 -263.5t-263.5 -176t-321 -65.5t-321 65.5t-263.5 176t-176 263.5t-65.5 321q0 167 65.5 319.5t176 262.5t263.5 175t321 65zM820 932h-4q-8 -33 -35 -54.5t-61 -21.5q-40 0 -69 29.5t-29 70.5 q0 14 2 20q15 126 114 210q108 96 284 96q187 0 294 -98q110 -92 110 -222q0 -69 -40 -134q-38 -61 -172 -174q-71 -58 -84 -90q-9 -21 -12 -58q-4 -36 -4 -70q0 -26 -12.5 -38.5t-28.5 -15t-49 -2.5h-16h-17.5t-16.5 1t-16.5 3.5t-13 7t-12 10.5t-7 16t-3.5 22l-2 12v46 q0 87 30 150q33 60 126 138q94 76 112 100q28 34 28 82q0 64 -50 108t-134 44q-80 0 -138 -46q-52 -47 -74 -142zM1024 286q60 0 103 -42t43 -102q0 -59 -43 -102.5t-103 -43.5t-103 43.5t-43 102.5q0 60 43 102t103 42z" />
<glyph unicode="&#xe004;" d="M1520 392l512 -512q12 -14 12 -32t-12 -30l-186 -186q-14 -12 -32 -12t-30 12l-512 512q-201 -132 -446 -132q-168 0 -321 65.5t-263.5 176t-176 263.5t-65.5 321t65.5 321t176 263.5t263.5 176t321 65.5t321 -65.5t263.5 -176t176 -263.5t65.5 -321q0 -245 -132 -446z M262 838q0 -152 76 -282t206 -206t282 -76t282 76t206 206t76 282t-76 282t-206 206t-282 76t-282 -76t-206 -206t-76 -282z" />
<glyph unicode="&#xe005;" d="M1814 1370l204 -204q22 -25 22 -59.5t-22 -56.5l-1098 -1112q-27 -23 -66.5 -40.5t-71.5 -17.5h-96q-34 0 -74.5 17.5t-63.5 40.5l-518 528q-22 22 -22 56t22 60l204 202q23 26 56.5 26t59.5 -26l328 -330q26 -26 60 -26t56 26l904 916q26 22 60 22t56 -22z" />
<glyph unicode="&#xe006;" d="M2048 384v-384q0 -52 -38 -90t-90 -38h-1792q-52 0 -90 38t-38 90v384l384 1024h1280zM768 384v-128q0 -48 40 -88t88 -40h256q48 0 88 40t40 88v128h512l-256 896h-1024l-256 -896h512zM640 896v256h768v-256h-128v128h-512v-128h-128zM640 640v-128h-128v256h1024v-256 h-128v128h-768z" />
<glyph unicode="&#xe007;" d="M2048 384v-384q0 -52 -38 -90t-90 -38h-1792q-52 0 -90 38t-38 90v384l384 1024h1280zM768 384v-128q0 -48 40 -88t88 -40h256q48 0 88 40t40 88v128h512l-256 896h-1024l-256 -896h512z" />
<glyph unicode="&#xe008;" d="M1024 640l-896 768h1792zM642 770l-642 -642v1152zM1406 766l642 514v-1152zM132 0l636 640l260 -256l252 256l644 -640h-1792z" />
<glyph unicode="&#xe009;" d="M128 1408h1792q52 0 90 -38t38 -90t-38 -90t-90 -38h-1792q-52 0 -90 38t-38 90t38 90t90 38zM128 768h1792q52 0 90 -38t38 -90t-38 -90t-90 -38h-1792q-52 0 -90 38t-38 90t38 90t90 38zM128 128h1792q52 0 90 -38t38 -90t-38 -90t-90 -38h-1792q-52 0 -90 38t-38 90 t38 90t90 38z" />
<glyph unicode="&#xe00a;" d="M512 -134v360q-234 102 -373 279.5t-139 386.5t137.5 387t373.5 281.5t513 103.5t513 -103.5t373.5 -281.5t137.5 -387q0 -155 -84.5 -298.5t-224.5 -246t-328 -164t-387 -61.5q-6 0 -108.5 -89.5t-201.5 -178.5l-100 -90q-13 -13 -36.5 -18t-33.5 0q-16 7 -23.5 32 t-8 40t-0.5 48zM968 322l56 4q225 0 416.5 76t302.5 207t111 285q0 153 -111 283.5t-302.5 206.5t-416.5 76q-169 0 -321.5 -45t-262.5 -121t-175 -181t-65 -221q0 -149 90 -266.5t270 -213.5l110 -56v-322z" />
<glyph unicode="&#xe00b;" d="M512 -134v360q-234 102 -373 279.5t-139 386.5t137.5 387t373.5 281.5t513 103.5t513 -103.5t373.5 -281.5t137.5 -387q0 -155 -84.5 -298.5t-224.5 -246t-328 -164t-387 -61.5q-6 0 -108.5 -89.5t-201.5 -178.5l-100 -90q-13 -13 -36.5 -18t-33.5 0q-16 7 -23.5 32 t-8 40t-0.5 48zM968 322l56 4q225 0 416.5 76t302.5 207t111 285q0 153 -111 283.5t-302.5 206.5t-416.5 76q-169 0 -321.5 -45t-262.5 -121t-175 -181t-65 -221q0 -149 90 -266.5t270 -213.5l110 -56v-322zM1152 1024h256v-256h-256v-256h-256v256h-256v256h256v256h256 v-256z" />
<glyph unicode="&#xe00c;" d="M1398 454l384 -384q10 -10 10 -24t-10 -24l-140 -138q-9 -10 -22.5 -10t-23.5 10l-384 384q-155 -100 -336 -100q-126 0 -241 49.5t-198 133t-132 198.5t-49 241t49 241t132 198t198 132t241 49t241 -49t198.5 -132t133 -198t49.5 -241q0 -181 -100 -336zM454 790 q0 -175 124 -299.5t298 -124.5q115 0 212.5 57t154.5 154.5t57 212.5q0 174 -124.5 298t-299.5 124q-174 0 -298 -124t-124 -298z" />
<glyph unicode="&#xe00d;" d="M1024 1536q182 0 348 -71t286 -191t191 -286t71 -348t-71 -348t-191 -286t-286 -191t-348 -71t-348 71t-286 191t-191 286t-71 348t71 348t191 286t286 191t348 71zM1168 640l266 266q30 30 30 72.5t-30 71.5q-28 30 -71 30t-73 -30l-266 -266l-264 262q-30 30 -72 30 t-72 -30q-30 -28 -30 -71t30 -73l264 -262l-266 -266q-30 -30 -30 -72t30 -72q28 -30 71 -30t73 30l266 266l266 -266q30 -30 72 -30t72 30t30 72t-30 72z" />
<glyph unicode="&#xe00e;" d="M1232 642l386 -386q44 -44 44 -105t-44 -105t-105 -44t-105 44l-386 386l-386 -386q-44 -44 -105 -44t-105 44t-44 105t44 105l386 386l-382 382q-44 44 -44 105t44 103q44 44 105 44t105 -44l382 -382l388 388q44 44 105 44t105 -44q42 -44 42 -105t-42 -103z" />
<glyph unicode="&#xe00f;" d="M1190 640l310 -310q34 -34 34 -83t-34 -85q-34 -34 -84 -34t-84 34l-308 310l-310 -310q-34 -34 -84 -34t-84 34q-34 36 -34 85t34 83l310 310l-306 306q-34 34 -34 83t34 83t84 34t84 -34l306 -304l310 310q34 34 83 34t83 -34q36 -34 36 -83.5t-36 -84.5z" />
<glyph unicode="&#xe010;" d="M1024 -384q208 0 397.5 81.5t326.5 218.5t218.5 326.5t81.5 397.5t-81.5 397.5t-218.5 326.5t-326.5 218.5t-397.5 81.5t-397.5 -81.5t-326.5 -218.5t-218.5 -326.5t-81.5 -397.5t81.5 -397.5t218.5 -326.5t326.5 -218.5t397.5 -81.5zM1024 1466q168 0 321 -65.5 t263.5 -176t176 -263.5t65.5 -321t-65.5 -321t-176 -263.5t-263.5 -176t-321 -65.5t-321 65.5t-263.5 176t-176 263.5t-65.5 321t65.5 321t176 263.5t263.5 176t321 65.5zM1536 640v-256h-640v768h256v-512h384z" />
<glyph unicode="&#xe011;" d="M1024 -384q208 0 397.5 81.5t326.5 218.5t218.5 326.5t81.5 397.5t-81.5 397.5t-218.5 326.5t-326.5 218.5t-397.5 81.5t-397.5 -81.5t-326.5 -218.5t-218.5 -326.5t-81.5 -397.5t81.5 -397.5t218.5 -326.5t326.5 -218.5t397.5 -81.5zM1024 1466q168 0 321 -65.5 t263.5 -176t176 -263.5t65.5 -321t-65.5 -321t-176 -263.5t-263.5 -176t-321 -65.5t-321 65.5t-263.5 176t-176 263.5t-65.5 321t65.5 321t176 263.5t263.5 176t321 65.5zM1152 512h-256v640h256v-640zM1152 128h-256v256h256v-256z" />
<glyph unicode="&#xe012;" d="M1024 -384q208 0 397.5 81.5t326.5 218.5t218.5 326.5t81.5 397.5t-81.5 397.5t-218.5 326.5t-326.5 218.5t-397.5 81.5t-397.5 -81.5t-326.5 -218.5t-218.5 -326.5t-81.5 -397.5t81.5 -397.5t218.5 -326.5t326.5 -218.5t397.5 -81.5zM1024 1466q168 0 321 -65.5 t263.5 -176t176 -263.5t65.5 -321t-65.5 -321t-176 -263.5t-263.5 -176t-321 -65.5t-321 65.5t-263.5 176t-176 263.5t-65.5 321t65.5 321t176 263.5t263.5 176t321 65.5zM896 1152h256v-256h-256v256zM896 768h256v-640h-256v640z" />
<glyph unicode="&#xe013;" d="M1024 -384q208 0 397.5 81.5t326.5 218.5t218.5 326.5t81.5 397.5t-81.5 397.5t-218.5 326.5t-326.5 218.5t-397.5 81.5t-397.5 -81.5t-326.5 -218.5t-218.5 -326.5t-81.5 -397.5t81.5 -397.5t218.5 -326.5t326.5 -218.5t397.5 -81.5zM1024 1466q168 0 321 -65.5 t263.5 -176t176 -263.5t65.5 -321t-65.5 -321t-176 -263.5t-263.5 -176t-321 -65.5t-321 65.5t-263.5 176t-176 263.5t-65.5 321t65.5 321t176 263.5t263.5 176t321 65.5zM1422 1008l104 -102q10 -14 10 -31t-10 -27l-554 -558q-36 -28 -70 -28h-48q-18 0 -38.5 8.5 t-31.5 19.5l-262 264q-10 12 -10 29t10 29l104 102q10 14 28 14t30 -14l166 -166q12 -12 29 -12t29 12l456 460q14 10 31 10t27 -10z" />
<glyph unicode="&#xe014;" d="M398 474l998 990q57 57 125.5 67.5t133 -18t125.5 -89.5l26 -24q61 -61 90.5 -126.5t20 -135t-66.5 -126.5l-996 -990l-598 -152zM336 -46l374 102l-264 254z" />
<glyph unicode="&#xe015;" d="M1536 512v256q-17 9 -35.5 17t-60.5 21.5t-84.5 20t-104.5 6t-123 -13.5t-137 -44t-150.5 -80t-160.5 -128.5t-168 -182.5q31 153 102.5 287.5t163.5 229t198 168t210.5 115.5t194.5 61t157 13l-2 278l512 -512zM0 1280h832q0 -67 -51 -127.5t-125 -94.5t-144 -34h-256 v-896h1280q0 70 34 144t94.5 125t127.5 51v-576h-1792v1408z" />
<glyph unicode="&#xe016;" d="M640 178l-200 -124q-14 14 -20 22q-123 132 -180 306.5t-32 359.5q19 146 85.5 274t170.5 224q121 110 275 167.5t321 50.5l28 206l342 -366l-426 -284l28 216q-117 3 -223.5 -38.5t-190.5 -119.5q-156 -147 -186 -360q-18 -134 23.5 -260t130.5 -222q36 -36 54 -52z M1042 264l-30 -226q117 -1 225 40.5t193 119.5q157 148 184 360q18 134 -23 260t-129 222q-40 40 -62 58l200 126l28 -30q123 -132 180 -306.5t32 -359.5q-19 -146 -85.5 -274t-170.5 -224q-120 -111 -277 -169t-325 -49l-26 -196l-344 370z" />
<glyph unicode="&#xe017;" d="M1024 1664q134 0 251.5 -85t189 -233t71.5 -322t-71.5 -321.5t-189 -232t-251.5 -84.5t-252 85t-189 233t-71 322q0 130 42 248.5t111.5 203.5t164 135.5t194.5 50.5zM1990 -384h-1932q2 17 6.5 46.5t20.5 107t34 141.5t48.5 126.5t64.5 84.5q53 36 170 69.5t208 48.5 l90 16q9 -10 25 -26t60 -57.5t83 -73t83 -57.5t71 -26t70 24.5t85 60t80.5 71t62.5 60.5l24 24q14 -2 38.5 -6t90.5 -17.5t123.5 -28t119.5 -37t96 -45.5q40 -26 73 -88t51.5 -131.5t31.5 -135t18 -108.5z" />
<glyph unicode="&#xe018;" d="M962 1610q56 0 95 -39t39 -95q0 -57 -39 -96.5t-95 -39.5q-57 0 -96.5 39.5t-39.5 96.5q0 56 39.5 95t96.5 39zM448 1480q56 0 95 -39t39 -95t-39 -95t-95 -39t-95 39t-39 95t39 95t95 39zM1472 1478q56 0 95 -39t39 -95t-39 -95t-95 -39t-95 39t-39 95t39 95t95 39z M1420 -384h-256q-15 0 -27.5 20.5t-14.5 39.5q-4 59 -25 115.5t-47 99.5t-74.5 98.5t-85 92t-102.5 100.5t-106 104q-87 88 -124.5 127.5t-102 114.5t-107.5 138q-150 215 -170 420q-3 23 16 36q13 10 26 10q6 0 14 -4q138 -51 268 -82q28 -6 38 -32q17 -49 50 -103 t60.5 -92.5t86.5 -103.5t85.5 -92.5t99.5 -102.5q12 -16 30 -16q20 0 32 16q69 70 99.5 102t86.5 94.5t85.5 103t61.5 94t49 102.5q11 26 38 32q147 35 266 80q12 4 16 4q13 0 26 -10q19 -15 16 -38q-21 -206 -170 -418q-43 -63 -107.5 -138t-102 -114.5t-124.5 -127.5 q-8 -10 -26 -28q-7 -7 -8 -19t6 -23q16 -20 80 -108q48 -69 65.5 -96t47 -76.5t40 -80t21 -74t12.5 -91.5q3 -20 -10 -40q-23 -34 -32 -34zM1152 1024h-384q0 -48 29 -107.5t75 -103.5t90 -45q41 1 86.5 45t74.5 104t29 107zM740 -384h-256q-13 0 -30 34q-12 20 -12 50 q1 26 3.5 48t9.5 46t10.5 39t16.5 40.5t18 36.5t24 41.5t25 40.5t31.5 47.5t33.5 50.5q13 20 34 20q16 0 30 -14q93 -96 170 -198q9 -9 12 -27t-6 -41q-15 -28 -34.5 -56t-27 -46.5t-10.5 -51.5q-2 -19 -14.5 -39.5t-27.5 -20.5z" />
<glyph unicode="&#xe019;" d="M1920 1088v-1088q0 -159 -112.5 -271.5t-271.5 -112.5h-896q-159 0 -271.5 112.5t-112.5 271.5v1280q0 159 112.5 271.5t271.5 112.5h704zM1792 1024h-512v512h-640q-105 0 -182 -74q-74 -77 -74 -182v-1280q0 -105 74 -182q77 -74 182 -74h896q105 0 182 74 q74 77 74 182v1024zM1408 1152h266l-266 266v-266z" />
<glyph unicode="&#xe01a;" d="M1344 930h576q32 0 50 -4q35 -13 56 -38q22 -22 22 -58q0 -34 -26 -70q-16 -19 -40 -36l-462 -302q-7 -3 -14 -17.5t-6 -26.5q0 -2 1 -5.5t1 -4.5l202 -592q10 -30 10 -58q0 -35 -20 -64q-11 -17 -32.5 -27.5t-39.5 -10.5h-4q-11 1 -21 3.5t-17 4.5t-15.5 6.5t-12 7 t-13 8.5t-11.5 8l-478 388q-8 8 -22 8q-20 0 -24 -8l-454 -386q-2 -2 -8.5 -6.5t-9 -6.5t-8.5 -6t-10 -6t-10.5 -5t-12.5 -4t-14 -2.5t-17 -1.5q-20 -2 -43 9.5t-35 30.5q-20 27 -20 62q0 27 10 54l178 590l2 10q1 13 -6.5 28.5t-15.5 17.5l-464 304q-14 10 -40 36 q-26 36 -26 70q0 35 22 60q9 12 40 30q18 8 66 12h576q10 -3 30 10q10 8 18 24l166 598q12 36 24 54q26 46 82 46t82 -46q12 -18 24 -54l166 -598q8 -16 20 -24q15 -12 28 -12z" />
<glyph unicode="&#xe01b;" d="M750 966l168 598q6 27 24 54q29 44 82 46q58 -3 82 -46q19 -28 24 -54l168 -598q0 -12 18 -24q12 -10 28 -10h574q29 0 50 -8q34 -8 58 -36q22 -22 22 -60q-2 -40 -26 -68q-19 -22 -40 -34l-462 -306q-7 -2 -14 -15.5t-6 -24.5q0 -10 2 -12l202 -594q10 -30 10 -56 q0 -37 -20 -64q-11 -17 -33 -27.5t-41 -10.5h-2q-21 1 -40 8t-25 11.5t-25 18.5l-478 388q-4 8 -22 8q-8 0 -24 -8l-454 -386q-1 -1 -7.5 -6t-8.5 -6t-8 -5.5t-8.5 -5.5t-8.5 -4.5t-10.5 -4.5t-11 -3t-13 -3t-14.5 -2h-4q-19 0 -41 11.5t-35 28.5q-18 29 -18 64q0 20 8 52 l182 590l2 12q0 12 -8 27.5t-16 18.5l-462 306q-19 10 -40 34q-26 30 -28 68q0 38 22 60q22 25 40 30q34 14 68 14h576q14 0 26 10q18 12 18 24zM1024 1416l-136 -486q-16 -61 -68 -100q-52 -40 -114 -40h-478l378 -250q43 -26 66.5 -74t23.5 -98q0 -16 -8 -48l-150 -488 l372 316q48 42 118 42q63 0 114 -38l392 -320l-168 490q-8 21 -8 54q-2 46 21 93t65 71l376 250h-478q-63 0 -112 40q-53 38 -70 98z" />
<glyph unicode="&#xe01c;" d="M2048 634q-10 14 -28 37t-78.5 90t-124 128t-159.5 135.5t-191 128t-213 90.5t-230 37t-229.5 -35.5t-215 -91.5t-189 -124.5t-161 -137t-122 -124.5t-79.5 -91l-28 -36q10 -13 28 -36t78 -89.5t124 -127t159.5 -134.5t190.5 -127t212.5 -89.5t229.5 -36.5t229.5 35 t215 91t189.5 123.5t161.5 135t122.5 123.5t80 91zM1408 640q0 -101 -56.5 -190.5t-145.5 -141.5t-182 -52q-92 0 -180.5 52t-146 142t-57.5 190t57.5 190t146.5 142t180 52q93 0 182 -52.5t145.5 -142t56.5 -189.5zM1152 640q0 69 -31 98.5t-97 29.5t-97 -29.5t-31 -98.5 t31 -98.5t97 -29.5t97 29.5t31 98.5z" />
<glyph unicode="&#xe01d;" d="M1940 768q30 -33 57 -65t39 -47l12 -16q-10 -13 -28 -36t-78.5 -89.5t-124 -127t-159.5 -134.5t-191 -127t-213 -89.5t-230 -36.5t-229.5 35.5t-215 91.5t-189 124.5t-161 137t-122 124.5t-79.5 91l-28 36q40 54 108 128q58 64 124 125.5t161.5 134t191 126.5t211 90 t222.5 36q112 0 230 -36t214 -89t192 -126t161 -134.5t125 -126.5zM1024 384q106 0 181 75.5t75 180.5q0 106 -75 181t-181 75t-181 -75t-75 -181q0 -105 75 -180.5t181 -75.5z" />
<glyph unicode="&#xe01e;" d="M1024 1280q87 0 171 -19.5t168.5 -62.5t161 -93.5t169 -130t170 -153t184.5 -181.5q-256 -254 -368 -349q-227 -194 -420 -255q-114 -36 -236 -36q-103 0 -200 27t-177 69t-177.5 119t-176.5 149t-200 187q-20 20 -31 30.5t-29 27.5t-33 31q35 32 102 95q75 69 111.5 103 t102.5 93t103 88t96 73.5t99.5 66.5t95.5 49.5t102 40.5t101.5 22t110.5 9zM1024 1152q-190 0 -388 -132q-64 -42 -145 -109t-136 -117t-165 -152l-4 -4q121 -114 169 -158.5t128.5 -112.5t142.5 -109q103 -67 194 -98q93 -32 204 -32q219 0 434 152q147 103 408 360 q-242 242 -412 358q-112 77 -218 116q-102 38 -212 38zM1024 1024q159 0 271.5 -112.5t112.5 -271.5t-112.5 -271.5t-271.5 -112.5t-271.5 112.5t-112.5 271.5t112.5 271.5t271.5 112.5zM1024 896q-103 0 -182 -76q-74 -74 -74 -180q0 -108 74 -182q77 -74 182 -74t182 74 q74 74 74 182q0 106 -74 180q-79 76 -182 76z" />
<glyph unicode="&#xe01f;" d="M1920 -128h-1024v1536h1024v-1536zM128 1024h512v256h-512v-256zM1152 1152v-1024h512v1024h-512zM128 512h512v256h-512v-256zM128 0h512v256h-512v-256z" />
<glyph unicode="&#xe020;" d="M256 1152h384v384h-384v-384zM896 1152h384v384h-384v-384zM1536 1152h384v384h-384v-384zM256 512h384v384h-384v-384zM896 512h384v384h-384v-384zM1536 512h384v384h-384v-384zM256 -128h384v384h-384v-384zM896 -128h384v384h-384v-384zM1536 -128h384v384h-384v-384 z" />
<glyph unicode="&#xe021;" d="M128 1024h1792v256h-1792v-256zM128 512h1792v256h-1792v-256zM128 0h1792v256h-1792v-256z" />
<glyph unicode="&#xe022;" d="M384 1664h1280q159 0 271.5 -112.5t112.5 -271.5v-1280q0 -159 -112.5 -271.5t-271.5 -112.5h-1280q-159 0 -271.5 112.5t-112.5 271.5v1280q0 159 112.5 271.5t271.5 112.5zM1356 0h264q0 177 -44.5 346t-124 312t-194 263.5t-250 204.5t-295.5 131t-328 47v-280 q197 0 377 -81t310.5 -218t207.5 -327t77 -398zM940 0h238q0 227 -106.5 420t-289.5 305.5t-398 112.5v-280q144 0 272.5 -74.5t206 -204t77.5 -279.5zM540 58q54 0 93 41.5t39 98.5t-38 98.5t-94 41.5t-95 -41t-39 -99q0 -57 39.5 -98.5t94.5 -41.5z" />
<glyph unicode="&#xe023;" d="M640 798l100 96l348 -320l356 322l92 -98l-422 -414h-42z" />
<glyph unicode="&#xe024;" d="M866 384l-96 100l320 348l-322 356l98 92l414 -422v-42z" />
<glyph unicode="&#xe025;" d="M386 1406l610 -1042q7 -1 18.5 -1t46.5 4t69.5 15t82 37.5t88 64.5t83 103t72.5 147q69 126 139 171.5t257 109.5q43 15 66 23q-9 42 -28 83t-38.5 70t-37.5 66t-29 73t-10 88.5t17 115.5q-106 -18 -197 -56t-154.5 -83t-115 -88.5t-102 -81.5t-91.5 -53 q-58 -21 -244.5 37.5t-343.5 127.5zM1040 -254l114 150l-932 1514l-90 -154z" />
<glyph unicode="&#xe026;" d="M1508 -58h-264q-18 0 -30.5 11t-13.5 29q-4 52 -20.5 106t-37 98t-60.5 101t-68.5 94t-85.5 98.5t-87.5 93t-96.5 97.5q-191 194 -267 285q-44 54 -79 103q-153 218 -174 430q-3 24 16 40q16 8 26 8t16 -2q145 -56 276 -86q28 -6 38 -32q23 -62 62 -124.5t99.5 -133 t106.5 -118.5t128 -130q16 -16 32 -16q20 0 32 16q82 82 128 130t106.5 118.5t99.5 133t62 124.5q10 26 38 32q144 34 276 84q6 2 16 2q15 0 26 -8q18 -15 18 -38q-24 -213 -176 -430q-45 -64 -108 -136.5t-111.5 -123t-126.5 -128.5l-26 -26q-7 -7 -8.5 -17.5t6.5 -22.5 q56 -72 82 -108q48 -69 92 -154q270 -41 434 -127t164 -189q0 -86 -120.5 -160t-325.5 -120q-4 -2 -10 -2q-18 0 -30 12t-12 30q0 30 30 40q146 41 234 93.5t88 92.5q0 42 -94.5 77.5t-259.5 58.5q-7 0 -12.5 -5t-5.5 -11v-4q15 -61 22 -142q0 -17 -12 -32q-12 -12 -32 -12z M994 1124q-61 58 -101 122.5t-53 99.5q-4 8 -4 16q0 17 12 28.5t28 11.5q5 0 25 -1t53 -2t70 -1t70 1t53 2t25 1q16 0 28 -11.5t12 -28.5q0 -8 -4 -16q-13 -35 -53 -99.5t-101 -122.5q-12 -12 -30 -12t-30 12zM468 -174v-2q30 -7 30 -38q0 -18 -12 -30t-30 -12q-8 0 -10 2 q-205 46 -325.5 120t-120.5 160q0 103 164 189t434 127q35 70 76 130q12 18 36 18q18 0 30 -12q105 -108 176 -198q9 -9 12 -26t-6 -40q-65 -118 -74 -232q-1 -18 -13.5 -29t-30.5 -11h-264q-20 0 -32 12q-12 15 -12 32q2 59 20 140v6q0 16 -16 16h-4q-163 -23 -256.5 -59 t-93.5 -77q0 -40 88 -92.5t234 -93.5z" />
<glyph unicode="&#xe027;" d="M1482 596l-910 924q-99 102 -236 102q-134 0 -235 -101t-101 -241t100 -240l1176 -1200q134 -136 322 -136t318 136q87 88 117.5 206.5t0 237t-117.5 206.5l-906 926q-22 22 -48 25.5t-45 -9.5t-32 -33.5t-9.5 -47.5t24.5 -49l902 -928q84 -87 84 -210t-84 -208 q-84 -87 -204 -87t-204 87l-1180 1204q-48 45 -50 119t50 125q51 51 120 51.5t122 -51.5l908 -930q20 -18 20 -47.5t-20 -50.5q-18 -18 -47.5 -18t-50.5 18l-458 488q-18 18 -41 20.5t-40.5 -9t-29.5 -29.5t-9.5 -41.5t20.5 -42.5l474 -496q65 -68 147 -71.5t153 63.5 q64 70 64 169t-64 169z" />
<glyph unicode="&#xe028;" d="M384 1664h256v-384h-256v384zM1408 1664h256v-384h-256v384zM2048 1340v-1724h-2048v1724h256v-188h512v188h512v-188h512v188h256zM128 -256h1792v1280h-1792v-1280zM256 640h256v256h-256v-256zM640 640h256v256h-256v-256zM1024 640h256v256h-256v-256zM256 256h256 v256h-256v-256zM640 256h256v256h-256v-256zM1024 256h256v256h-256v-256zM1408 256h256v256h-256v-256zM256 -128h256v256h-256v-256zM640 -128h256v256h-256v-256z" />
<glyph unicode="&#xe029;" d="M0 1536h2048v-128h-2048v128zM0 1280h1536v-128h-1536v128zM0 1024h2048v-128h-2048v128zM0 768h2048v-128h-2048v128zM0 512h1280v-128h-1280v128zM0 256h2048v-128h-2048v128zM0 0h1280v-128h-1280v128z" />
<glyph unicode="&#xe02a;" d="M528 680l114 -110l388 364l402 -368l104 114l-476 472h-48zM512 242l114 -110l390 364l400 -368l104 114l-476 472h-46z" />
<glyph unicode="&#xe02b;" d="M512 1038l114 110l390 -364l400 368l104 -114l-476 -472h-46zM528 600l114 110l388 -364l402 368l104 -114l-476 -472h-48z" />
<glyph unicode="&#xe02c;" d="M1520 352l366 366q106 106 144 249t0 286t-144 249t-249 144t-286 0t-249 -144l-288 -288q148 18 290 -24l154 154q97 97 236 97.5t236 -95.5q96 -97 96 -235.5t-96 -236.5l-156 -154l-210 -210q-62 -62 -144 -84q-34 -11 -82 -14q-45 0 -80 8q-96 19 -164 90 q-71 68 -90 164q-18 -12 -32 -26l-144 -142q40 -86 108 -154t154 -108q38 -19 74 -28q38 -14 86 -20q182 -25 340 60q67 37 112 82q5 2 10.5 7.5t7.5 6.5zM474 560l210 210q63 63 142 84q37 11 84 14q45 0 80 -8q96 -19 164 -90q71 -68 90 -164q12 6 32 26l144 142 q-40 86 -108 154t-154 108q-32 16 -74 30q-43 12 -86 18q-180 25 -340 -60q-67 -37 -112 -82q-8 -4 -18 -14l-366 -366q-106 -106 -144 -249t0 -286t144 -249t249 -144t286 0t249 144l288 288q-148 -18 -290 24l-154 -156q-98 -96 -236 -96t-236 96q-96 98 -96 236t96 236z " />
<glyph unicode="&#xe02d;" d="M1666 768h122q54 0 93 -32t39 -78v-932q0 -46 -39 -78t-93 -32h-1528q-54 0 -93 32t-39 78v932q0 46 39 78t93 32h124v324q0 118 47 222.5t129.5 182t203.5 122.5t262 45q139 0 259 -45t203 -122t130.5 -182.5t47.5 -222.5v-324zM1406 1074v18q0 145 -98 230.5t-284 85.5 t-285 -85.5t-99 -230.5v-324h766v306z" />
<glyph unicode="&#xe02e;" d="M1666 768h122q54 0 93 -32t39 -78v-932q0 -46 -39 -78t-93 -32h-1528q-54 0 -93 32t-39 78v932q0 46 39 78t93 32h1146v306v18q0 145 -98 230.5t-284 85.5t-285 -85.5t-99 -230.5v-68l-256 128q0 96 48.5 188t131.5 164t204.5 116t257.5 44q139 0 259 -45t203 -122 t130.5 -182.5t47.5 -222.5v-324z" />
<glyph unicode="&#xe02f;" d="M512 640q0 106 -75 181t-181 75t-181 -75t-75 -181t75 -181t181 -75t181 75t75 181zM1280 640q0 106 -75 181t-181 75t-181 -75t-75 -181t75 -181t181 -75t181 75t75 181zM2048 640q0 106 -75 181t-181 75t-181 -75t-75 -181t75 -181t181 -75t181 75t75 181z" />
<glyph unicode="&#xe030;" d="M1012 1096l-96 180q-532 -277 -532 -762q0 -161 100 -276q99 -114 236 -114q122 0 204 88q82 85 82 214q0 118 -82 212q-85 91 -214 106q0 202 302 352zM1792 1096l-94 180q-534 -276 -534 -762q0 -161 100 -276q102 -114 238 -114q122 0 204 88t82 214q0 119 -84 212 q-85 91 -212 106q0 202 300 352z" />
<glyph unicode="&#xe031;" d="M380 -384h1288q117 0 204.5 39.5t133.5 114.5q90 149 -8 348l-684 1336q-32 64 -72.5 109t-80.5 65t-71.5 28t-61.5 8q-87 0 -164 -56.5t-128 -159.5l-686 -1328q-40 -79 -46.5 -154t6 -117t34.5 -77q47 -75 133 -115.5t203 -40.5zM218 -52l742 1444q4 6 10 17.5t9.5 17 t8.5 14t9 13t9 9.5t10.5 7t11.5 2q13 0 24.5 -12t17 -23t18.5 -39l742 -1452q12 -29 9.5 -55t-11.5 -41q-29 -44 -104 -44h-1400q-32 2 -63.5 12.5t-38.5 23.5q-10 13 -12.5 42.5t8.5 63.5zM1152 1024v-640h-256v640h256zM1152 256v-256h-256v256h256z" />
<glyph unicode="&#xe800;" d="M256 1408h1152v256h-1408v-2048q52 2 276 0h1772v832h-256v-576h-1536v1536zM1876 1262l156 -154q16 -20 16 -46t-16 -42l-830 -848q-52 -44 -104 -44h-74q-25 0 -56 13.5t-48 30.5l-390 402q-18 16 -18 42t18 46l154 154q16 20 42 20t46 -20l246 -250q20 -20 46 -20 t42 20l684 696q18 18 44 18t42 -18z" />
<glyph unicode="&#xe801;" d="M638 1664v-256h-382v-384h-256v640h638zM2048 1664v-638h-256v382h-384v256h640zM1280 1024h256q52 0 90 -38t38 -90v-512q0 -52 -38 -90t-90 -38h-1024q-52 0 -90 38t-38 90v512q0 52 38 90t90 38h256q0 52 38 90t90 38h256q52 0 90 -38t38 -90zM1024 384q106 0 181 75 t75 181t-75 181t-181 75t-181 -75t-75 -181t75 -181t181 -75zM1152 640q0 52 -38 90t-90 38t-90 -38t-38 -90t38 -90t90 -38t90 38t38 90zM2048 256v-640h-638v256h382v384h256zM640 -128v-256h-640v638h256v-382h384z" />
<glyph unicode="&#xec00;" d="M1024 1152h768q53 0 90.5 -37t37.5 -91v-1024q0 -52 -38 -90t-90 -38h-1534q-52 0 -90 38t-38 90v1152v128q0 54 37.5 91t90.5 37h640q53 0 89.5 -37t36.5 -91v-128z" />
<glyph unicode="&#xec01;" d="M1792 770h128q73 2 109.5 -44.5t4.5 -119.5l-242 -604v-2v-2q-15 -35 -33.5 -60.5t-34.5 -37t-30 -18.5t-22 -8h-8h-2q0 -2 2 -2h-1536q-54 0 -91 37t-37 91v1280q0 54 37 91t91 37h640q54 0 91 -37t37 -91v-128h768q54 0 91 -37t37 -91v-254zM1664 1024h-896v256h-640 v-1278l256 640q1 4 4 11t13.5 25.5t24 34t36.5 32.5t50 25h1152v254z" />
<glyph unicode="&#xec02;" d="M640 1664h896q159 0 271.5 -112.5t112.5 -271.5v-1280q0 -159 -112.5 -271.5t-271.5 -112.5h-896q-159 0 -271.5 112.5t-112.5 271.5v1280q0 159 112.5 271.5t271.5 112.5zM1792 0v1280q0 106 -75.5 181t-180.5 75h-896q-105 0 -180.5 -75t-75.5 -181v-1280 q0 -106 75.5 -181t180.5 -75h896q105 0 180.5 75t75.5 181zM1536 896h-896v-128h896v128zM1536 640h-896v-128h896v128zM1536 384h-896v-128h896v128zM1536 128h-896v-128h896v128z" />
<glyph unicode="&#xec03;" d="M640 1664h896q159 0 271.5 -112.5t112.5 -271.5v-1280q0 -159 -112.5 -271.5t-271.5 -112.5h-896q-159 0 -271.5 112.5t-112.5 271.5v1280q0 159 112.5 271.5t271.5 112.5zM1792 0v1280q0 106 -75.5 181t-180.5 75h-896q-105 0 -180.5 -75t-75.5 -181v-1280 q0 -106 75.5 -181t180.5 -75h896q105 0 180.5 75t75.5 181z" />
<glyph unicode="&#xec04;" d="M640 922v-692q96 -45 146 -130q174 74 320 192t218 256q-78 41 -125 117t-47 167q0 132 94 226t226 94t226 -94t94 -226q0 -108 -65 -193.5t-167 -114.5q-57 -142 -184 -280.5t-271 -236t-283 -151.5q-27 -105 -113 -172.5t-197 -67.5q-132 0 -226 94t-94 226 q0 96 53.5 176t138.5 118v692q-85 38 -138.5 118t-53.5 176q0 132 94 226t226 94t226 -94t94 -226q0 -96 -53.5 -176t-138.5 -118z" />
<glyph unicode="&#xec05;" d="M768 1664h894q160 0 273 -112.5t113 -271.5v-1024q0 -127 -76.5 -228.5t-195.5 -139.5q-36 -120 -137.5 -196t-230.5 -76h-896q-159 0 -271.5 112.5t-112.5 271.5v1024q0 129 76 230.5t196 137.5q36 120 137.5 196t230.5 76zM1918 256v1024q0 105 -75 180.5t-181 75.5 h-894q-71 0 -129.5 -35t-92.5 -93h862q159 0 271.5 -112.5t112.5 -271.5v-990q58 35 92 94t34 128zM640 1278h-126q-106 0 -181 -75t-75 -181v-1024q0 -106 75 -181t181 -75h126v1536zM1666 -2v1024q0 106 -75.5 181t-182.5 75h-640v-1020q52 -1 98.5 4t99.5 21.5t91 44.5 t65 77.5t30 116.5q-57 20 -92.5 69t-35.5 113q0 83 55.5 137.5t136.5 54.5t136.5 -54.5t55.5 -137.5q0 -65 -34.5 -113.5t-91.5 -68.5q-2 -173 -145 -285t-369 -109v-386h640q107 0 182.5 75t75.5 181z" />
<glyph unicode="&#xec06;" d="M768 1664h894q160 0 273 -112.5t113 -271.5v-1024q0 -127 -76.5 -228.5t-195.5 -139.5q-36 -120 -137.5 -196t-230.5 -76h-896q-159 0 -271.5 112.5t-112.5 271.5v1024q0 129 76 230.5t196 137.5q36 120 137.5 196t230.5 76zM1918 256v1024q0 105 -75 180.5t-181 75.5 h-894q-71 0 -129.5 -35t-92.5 -93h862q159 0 271.5 -112.5t112.5 -271.5v-990q58 35 92 94t34 128zM1666 -2v1024q0 106 -75.5 181t-182.5 75h-894q-106 0 -181 -75t-75 -181v-1024q0 -106 75 -181t181 -75h894q107 0 182.5 75t75.5 181zM886 242l6 14q-15 27 -36.5 50.5 t-37 36t-61.5 45.5t-73 54q-47 34 -88 107.5t-76 226.5q-61 17 -98.5 66.5t-37.5 117.5q0 83 55 137.5t137 54.5q81 0 136.5 -54.5t55.5 -137.5q0 -65 -34.5 -113.5t-91.5 -66.5q53 -210 134 -260q10 -6 38 -23.5t41 -26t34 -24.5t37.5 -32t31.5 -36q15 20 31.5 36t37.5 32 t34 24.5t41 26t38 23.5q82 53 134 260q-55 20 -88.5 68.5t-33.5 111.5q0 83 55 137.5t137 54.5q81 0 136.5 -54.5t55.5 -137.5q0 -68 -39.5 -118.5t-100.5 -67.5q-60 -257 -164 -332q-27 -21 -73 -54t-61.5 -45.5t-37 -36t-36.5 -50.5l4 -12q55 -20 89.5 -68.5t34.5 -111.5 q0 -83 -55.5 -137.5t-136.5 -54.5q-82 0 -137 54.5t-55 137.5q0 63 32 110.5t86 67.5z" />
<glyph unicode="&#xec07;" d="M768 1664h894q160 0 273 -112.5t113 -271.5v-1024q0 -127 -76.5 -228.5t-195.5 -139.5q-36 -120 -137.5 -196t-230.5 -76h-896q-159 0 -271.5 112.5t-112.5 271.5v1024q0 129 76 230.5t196 137.5q36 120 137.5 196t230.5 76zM1918 256v1024q0 105 -75 180.5t-181 75.5 h-894q-71 0 -129.5 -35t-92.5 -93h862q159 0 271.5 -112.5t112.5 -271.5v-990q58 35 92 94t34 128zM1666 -2v1024q0 106 -75.5 181t-182.5 75h-894q-106 0 -181 -75t-75 -181v-1024q0 -106 75 -181t181 -75h894q107 0 182.5 75t75.5 181zM1280 512v-384h-640v384h128v384 h384v-384h128zM1024 768h-128v-256h128v256z" />
<glyph unicode="&#xec08;" d="M1152 1536v-400q167 -44 275.5 -182t108.5 -314q0 -178 -108.5 -315.5t-275.5 -180.5v-400h-256v400q-167 43 -275.5 180.5t-108.5 315.5q0 176 108.5 314t275.5 182v400h256zM1024 320q132 0 226 93.5t94 226.5q0 132 -94 225t-226 93t-226 -93t-94 -225 q0 -133 94 -226.5t226 -93.5z" />
<glyph unicode="&#xec09;" d="M894 1024h-510l640 640l640 -640h-512v-896h-258v896zM1408 768h512q60 0 94 -32.5t34 -95.5v-898q0 -58 -34.5 -92t-93.5 -34h-1792q-58 0 -93 35t-35 93v896q0 63 34 95.5t94 32.5h512v-256h-384v-640h1538v640h-386v256z" />
<glyph unicode="&#xec0a;" d="M150 1410l118 108q12 8 37 12.5t44 5.5h19h530q982 -984 1022 -1024l-768 -768l-1024 1024v530q0 5 0.5 21t1.5 26t3 24t6.5 24t10.5 17zM440 1224q-56 -57 -56 -136t56 -136q56 -56 136 -56t136 56q56 57 56 136t-56 136q-59 56 -136 56t-136 -56z" />
<glyph unicode="&#xec0b;" d="M1664 768h-512q-1 -43 1.5 -84.5t8.5 -80t12.5 -70.5t17.5 -65.5t18.5 -56t20 -51.5t18.5 -41.5t18 -36t13 -26.5q39 -80 119.5 -161.5t167 -142t167.5 -109.5t134 -74l52 -25q-207 0 -382 32.5t-298 83.5t-222.5 127t-160.5 148.5t-106 162.5t-65.5 155.5t-32 142 t-12.5 106t-1 62.5v2v2h-512l768 768z" />
<glyph unicode="&#xec0c;" d="M1028 134l-660 762h528v768h256v-768h534zM2048 384v-644q0 -58 -39.5 -91t-100.5 -33h-1764q-61 0 -102.5 33t-41.5 91v644h256v-512h1536v512h256z" />
<glyph unicode="&#xec0d;" d="M2048 128l-512 -384v256h-398q-70 3 -133 25t-111 55.5t-92 73.5t-80.5 80t-70.5 73t-69.5 54t-69.5 23h-512v512h512q34 2 69.5 23t69.5 54t70.5 73t80.5 80t92 73.5t111 55.5t133 25h398v256l512 -384l-512 -384v256h-384q-25 -2 -49 -9t-41 -15t-39.5 -23.5t-34 -25 t-35.5 -30t-33 -27.5q-94 -99 -152 -252q22 -59 61.5 -130.5t90.5 -125.5q9 -7 33 -27.5t35.5 -30t34 -25t39.5 -23.5t41 -15t49 -9h384v256z" />
<glyph unicode="&#xec0e;" d="M1024 1280h768q52 0 90 -38t38 -90v-512h-512v128q0 62 -33 95t-95 33h-638q-128 0 -128 -128v-768h-256q-52 0 -90 38t-38 90v1136v144q0 52 38 90t90 38h640q52 0 89 -37.5t37 -90.5v-128zM1280 512h544q39 0 67.5 -28.5t28.5 -67.5v-578q0 -39 -28.5 -66.5 t-67.5 -27.5h-1088q-39 0 -66.5 27.5t-27.5 66.5v836q0 39 27 66.5t65 27.5h454q39 0 65.5 -27.5t26.5 -66.5v-162z" />
<glyph unicode="&#xec0f;" d="M0 512h1024v-640l1024 832l-1024 832v-640h-1024v-384z" />
<glyph unicode="&#xec10;" d="M2048 896h-1024v640l-1024 -832l1024 -832v640h1024v384z" />
<glyph unicode="&#xec11;" d="M1024 -384q208 0 397.5 81.5t326.5 218.5t218.5 326.5t81.5 397.5t-81.5 397.5t-218.5 326.5t-326.5 218.5t-397.5 81.5t-397.5 -81.5t-326.5 -218.5t-218.5 -326.5t-81.5 -397.5t81.5 -397.5t218.5 -326.5t326.5 -218.5t397.5 -81.5zM1024 1466q168 0 321 -65.5 t263.5 -176t176 -263.5t65.5 -321t-65.5 -321t-176 -263.5t-263.5 -176t-321 -65.5t-321 65.5t-263.5 176t-176 263.5t-65.5 321t65.5 321t176 263.5t263.5 176t321 65.5zM768 640q0 52 -38 90t-90 38t-90 -38t-38 -90t38 -90t90 -38t90 38t38 90zM1152 640q0 52 -38 90 t-90 38t-90 -38t-38 -90t38 -90t90 -38t90 38t38 90zM1536 640q0 52 -38 90t-90 38t-90 -38t-38 -90t38 -90t90 -38t90 38t38 90z" />
<glyph unicode="&#xec12;" d="M1024 -384q208 0 397.5 81.5t326.5 218.5t218.5 326.5t81.5 397.5t-81.5 397.5t-218.5 326.5t-326.5 218.5t-397.5 81.5t-397.5 -81.5t-326.5 -218.5t-218.5 -326.5t-81.5 -397.5t81.5 -397.5t218.5 -326.5t326.5 -218.5t397.5 -81.5zM1024 1466q168 0 321 -65.5 t263.5 -176t176 -263.5t65.5 -321t-65.5 -321t-176 -263.5t-263.5 -176t-321 -65.5t-321 65.5t-263.5 176t-176 263.5t-65.5 321t65.5 321t176 263.5t263.5 176t321 65.5zM1296 1092l-724 -724l180 -180l724 724z" />
<glyph unicode="&#xec13;" d="M1024 -384q208 0 397.5 81.5t326.5 218.5t218.5 326.5t81.5 397.5t-81.5 397.5t-218.5 326.5t-326.5 218.5t-397.5 81.5t-397.5 -81.5t-326.5 -218.5t-218.5 -326.5t-81.5 -397.5t81.5 -397.5t218.5 -326.5t326.5 -218.5t397.5 -81.5zM1024 1466q168 0 321 -65.5 t263.5 -176t176 -263.5t65.5 -321t-65.5 -321t-176 -263.5t-263.5 -176t-321 -65.5t-321 65.5t-263.5 176t-176 263.5t-65.5 321t65.5 321t176 263.5t263.5 176t321 65.5zM1536 768h-1024v-256h1024v256z" />
<glyph unicode="&#xec14;" d="M896 928v-576q79 -46 108 -124q130 54 190 164t78 286q-55 34 -87.5 91t-32.5 127q0 110 74 183t182 73t182 -73t74 -183q0 -78 -39 -139.5t-105 -92.5q-7 -64 -17.5 -120.5t-30 -122t-46.5 -120t-68 -108.5t-92 -93t-122.5 -68t-155.5 -40q-35 -56 -92.5 -88t-127.5 -32 q-108 0 -182 73t-74 183q0 73 34.5 131.5t93.5 92.5v576q-59 34 -93.5 92.5t-34.5 131.5q0 110 74 183t182 73t182 -73t74 -183q0 -73 -34.5 -131.5t-93.5 -92.5z" />
<glyph unicode="&#xec15;" d="M1920 768v-768q0 -159 -112.5 -271.5t-271.5 -112.5h-896q-159 0 -271.5 112.5t-112.5 271.5v1280q0 159 112.5 271.5t271.5 112.5h256v-128h-256q-105 0 -180.5 -75t-75.5 -181v-1280q0 -106 75.5 -181t180.5 -75h896q105 0 180.5 75t75.5 181v768h128zM1696 1036v-158 q0 -47 -14 -54q-3 -2 -14.5 1t-15.5 7q-174 158 -180 158q-117 0 -220 44.5t-165.5 122.5t-62.5 169q0 139 131.5 238.5t316.5 99.5q122 0 225 -45.5t163 -123t60 -169.5q0 -91 -61 -168.5t-163 -121.5zM1280 1408h-128v-128h128v128zM1536 1408h-128v-128h128v128z M1792 1280v128h-128v-128h128zM1538 640h-896v-128h896v128zM1534 384h-896v-128h896v128zM1534 128h-896v-128h896v128z" />
<glyph unicode="&#xec16;" d="M1536 1536v-256h-384q-52 0 -112 -56.5t-116.5 -147t-115.5 -199.5t-115.5 -218t-109.5 -199.5t-105 -147t-94 -56.5q-84 -2 -180 -2t-150 1l-54 1v-256h512q51 0 107.5 56.5t109.5 147t108.5 199.5l111 218t109.5 199.5t112 147t110 56.5h256v-256l512 384zM0 1280h512 q97 0 238 -238q-50 -94 -138 -270q-71 123 -126 187.5t-102 64.5h-384v256zM1536 -256v256h-384q-58 0 -119.5 63t-132.5 179q26 45 73.5 129.5t66.5 118.5q66 -112 125 -173t115 -61h256v256l512 -384z" />
<glyph unicode="&#xec17;" d="M1280 1664h644q58 0 91 -39.5t33 -100.5v-1764q0 -61 -33 -102.5t-91 -41.5h-644v256h512v1536h-512v256zM1530 644l-762 -658v526h-768v256h768v534z" />
<glyph unicode="&#xec18;" d="M278 1282l118 108q12 8 37 12.5t44 5.5h19h400l896 -896l-640 -640l-896 896v402q0 5 0.5 21t1.5 26t3 24t6.5 24t10.5 17zM568 1096q-56 -57 -56 -136t56 -136q56 -56 136 -56t136 56q56 57 56 136t-56 136q-59 56 -136 56t-136 -56z" />
<glyph unicode="&#xec19;" d="M384 1664h1280q159 0 271.5 -112.5t112.5 -271.5v-1280q0 -159 -112.5 -271.5t-271.5 -112.5h-1280q-159 0 -271.5 112.5t-112.5 271.5v1280q0 159 112.5 271.5t271.5 112.5zM1920 0v1280q0 106 -75.5 181t-180.5 75h-1280q-105 0 -180.5 -75t-75.5 -181v-1280 q0 -106 75.5 -181t180.5 -75h1280q105 0 180.5 75t75.5 181zM386 1022h384q62 1 109 14.5t68 25.5t62.5 44.5t60.5 45.5q83 59 159 91t181 33l256 2v-640h-256q-56 0 -105 10t-92.5 31t-72 38.5t-70.5 46.5q-19 13 -60.5 45.5t-62.5 44.5t-68 25.5t-109 14.5h-384v128z M1234 256h432v-128h-386q-12 0 -53 0.5t-56 0t-48.5 -2t-52 -5.5t-45 -10t-47 -16.5t-40.5 -24.5q-63 -44 -119 -56t-179 -14h-256v382h256q123 -2 179 -14t119 -56q80 -58 296 -58v2z" />
</font>
</defs>
</svg>
