<?xml version="1.0" standalone="no"?>
<!DOCTYPE svg PUBLIC "-//W3C//DTD SVG 1.1//EN" "http://www.w3.org/Graphics/SVG/1.1/DTD/svg11.dtd">
<svg xmlns="http://www.w3.org/2000/svg">
<metadata>Opoloo / Guenther Beyer</metadata>
<defs>
<font id="androidicons" horiz-adv-x="1000" >
<font-face font-family="androidicons" font-weight="400" font-stretch="normal" units-per-em="1000" ascent="850" descent="-150" />
<missing-glyph horiz-adv-x="1000" />
<glyph glyph-name="dialer" unicode="&#xe8e5;" d="m132 873l0-184l185 0l0 184l-185 0z m264 0l0-184l185 0l0 184l-185 0z m264 0l0-184l185 0l0 184l-185 0z m-528-263l0-185l185 0l0 185l-185 0z m264 0l0-185l185 0l0 185l-185 0z m264 0l0-185l185 0l0 185l-185 0z m-528-264l0-185l185 0l0 185l-185 0z m264 0l0-185l185 0l0 185l-185 0z m264 0l0-185l185 0l0 185l-185 0z m-264-264l0-185l185 0l0 185l-185 0z" horiz-adv-x="1000" />
<glyph glyph-name="rss" unicode="&#xe8c5;" d="m0 873l0-976l977 0l0 976l-977 0z m101-101c260 0 460-118 590-273c129-155 192-344 185-504l-135 6c6 118-45 282-153 412c-108 129-268 225-487 225l0 134z m0-252c275 0 522-229 522-522l-135 0c0 216-188 387-387 387l0 135z m110-303c60 0 109-49 109-110c0-60-49-109-109-109c-61 0-110 49-110 109c0 61 49 110 110 110z" horiz-adv-x="1000" />
<glyph glyph-name="star_0" unicode="&#xe8e7;" d="m488 873l-135-328l-353-27l271-229l-84-345l302 186l302-185l-84 344l270 230l-354 26l-135 328z m0-119l25-60l68-165l0-1l11-26l28-1l0 0l177-14l66-5l-50-43l-136-115l-22-18l7-28l1 0l42-172l15-64l-56 34l-151 93l0 1l-24 14l-25-14l-151-94l-56-35l15 65l42 172l7 28l-21 18l-135 115l-51 43l66 5l176 13l29 2l10 26l0 0l0 1l68 165l25 60z" horiz-adv-x="1000" />
<glyph glyph-name="star_5" unicode="&#xe8e8;" d="m488 873l-135-327l-353-28l270-229l-83-344l302 186l302-186l-85 345l271 230l-354 26l-135 327z m0-118l25-61l68-165l0 0l11-27l27-1l1 0l177-14l66-5l-51-43l-135-115l-22-18l7-27l1 0l42-172l15-64l-56 33l-151 93l0 1l-24 15l-1 570z" horiz-adv-x="1000" />
<glyph glyph-name="star10" unicode="&#xe8e9;" d="m488 873l-135-328l-353-27l271-229l-84-345l302 186l302-185l-84 344l270 230l-354 26l-135 328z" horiz-adv-x="1000" />
<glyph glyph-name="navigate" unicode="&#xe8ea;" d="m488 873l-370-976l370 222l370-222l-370 976z" horiz-adv-x="1000" />
<glyph glyph-name="calendar_month" unicode="&#xe8eb;" d="m214 873l0-61l-168 0l-46 0l0-38l0-847l46 0l931 0l0 46l0 801l0 38l-46 0l-183 0l0 61l-107 0l0-61l-321 0l0 61l-106 0z m-153-122l153 0l0-45l106 0l0 45l321 0l0-45l107 0l0 45l168 0l0-763l-855 0l0 763z m259-137l0-137l138 0l0 137l-138 0z m184 0l0-137l137 0l0 137l-137 0z m183 0l0-137l137 0l0 137l-137 0z m-550-198l0-138l138 0l0 138l-138 0z m183 0l0-138l138 0l0 138l-138 0z m184 0l0-138l137 0l0 138l-137 0z m183 0l0-138l137 0l0 138l-137 0z m-550-199l0-137l138 0l0 137l-138 0z m183 0l0-137l138 0l0 137l-138 0z m184 0l0-137l137 0l0 137l-137 0z" horiz-adv-x="1000" />
<glyph glyph-name="overflow" unicode="&#xe8ec;" d="m364 873l0-248l248 0l0 248l-248 0z m0-364l0-248l248 0l0 248l-248 0z m0-364l0-248l248 0l0 248l-248 0z" horiz-adv-x="1000" />
<glyph glyph-name="send" unicode="&#xe8ed;" d="m0 873l94-446l577-42l-577-42l-94-446l977 488l-977 488z" horiz-adv-x="1000" />
<glyph glyph-name="bell" unicode="&#xe8ee;" d="m488 873c-35 0-65-24-85-62c-158-38-223-179-223-349l0-154c0-69-69-154-103-154l0-51l103 0l617 0l103 0l0 51c-35 0-103 85-103 154l0 154c0 170-66 311-224 349c-19 38-50 62-85 62z m-154-822c0-85 69-154 154-154c85 0 155 69 155 154l-309 0z" horiz-adv-x="1000" />
<glyph glyph-name="heart" unicode="&#xe8ef;" d="m278 810c-132-2-278-88-278-315c0-373 460-448 489-535c28 87 488 162 488 535c0 403-460 363-488 191c-13 75-108 125-211 124z" horiz-adv-x="1000" />
<glyph glyph-name="barcode_1" unicode="&#xe8f0;" d="m0 734l0-698l109 0l0 698l-109 0z m186 0l0-698l93 0l0 698l-93 0z m124 0l0-698l62 0l0 698l-62 0z m124 0l0-698l62 0l0 698l-62 0z m140 0l0-698l108 0l0 698l-108 0z m186 0l0-698l46 0l0 698l-46 0z m124 0l0-698l93 0l0 698l-93 0z" horiz-adv-x="1000" />
<glyph glyph-name="barcode_2" unicode="&#xe8f1;" d="m0 873l0-39l0-39l0-39l0-39l0-39l0-39l0-39l39 0l39 0l39 0l39 0l39 0l39 0l39 0l0 39l0 39l0 39l0 39l0 39l0 39l0 39l-39 0l-39 0l-39 0l-39 0l-39 0l-39 0l-39 0z m313 0l0-39l39 0l0 39l-39 0z m78 0l0-39l0-39l0-39l0-39l-39 0l0-39l39 0l0-39l0-39l0-39l39 0l39 0l0 39l-39 0l0 39l39 0l0 39l-39 0l0 39l39 0l0-39l39 0l0 39l0 39l-39 0l-39 0l0 39l39 0l39 0l0 39l39 0l39 0l0-39l39 0l0 39l0 39l-39 0l-39 0l-39 0l-39 0l-39 0l-39 0z m117-78l0-39l39 0l0 39l-39 0z m0-117l0-39l39 0l0-39l39 0l0 39l0 39l-39 0l-39 0z m78 0l39 0l0-39l0-39l39 0l0 39l0 39l0 39l0 39l-39 0l-39 0l0-39l0-39z m-39-78l-39 0l0-39l0-39l39 0l0 39l0 39z m-39-78l-39 0l-39 0l0-39l0-39l39 0l39 0l39 0l0-39l-39 0l0-39l0-39l39 0l39 0l0 39l0 39l39 0l39 0l39 0l0-39l0-39l39 0l0-39l0-40l-39 0l0 40l0 39l-39 0l0-39l0-40l-39 0l-39 0l0-39l39 0l0-39l-39 0l-39 0l-39 0l0 39l39 0l0 39l0 40l-39 0l0-40l-39 0l-39 0l0-39l39 0l0-39l0-39l-39 0l-39 0l0-39l39 0l39 0l39 0l0 39l39 0l0-39l-39 0l0-39l0-39l39 0l39 0l0 39l0 39l39 0l0-39l0-39l39 0l0-39l0-39l-39 0l-39 0l0-39l39 0l39 0l39 0l39 0l0 39l-39 0l0 39l0 39l0 39l39 0l39 0l0-39l0-39l0-39l39 0l0-39l39 0l0 39l0 39l-39 0l0 39l0 39l39 0l39 0l0 39l-39 0l0 39l39 0l0 39l-39 0l-39 0l0 39l39 0l0 39l-39 0l-39 0l0 40l39 0l0 39l-39 0l0 39l-39 0l0 39l0 39l-39 0l-39 0l0 39l0 39l0 39l-39 0l-39 0l0-39l39 0l0-39l0-39l-39 0l0 39l-39 0l-39 0l0 39z m234-78l39 0l0 39l0 39l0 39l-39 0l0-39l-39 0l0-39l39 0l0-39z m78-117l39 0l0 39l0 39l0 39l0 39l0 39l-39 0l0-39l0-39l0-39l0-39l0-39z m39 195l39 0l0 39l-39 0l0-39z m39 0l0-39l40 0l0-39l-40 0l0-39l40 0l39 0l0 39l0 39l0 39l0 39l-39 0l0-39l-40 0z m-39-195l0-39l39 0l0 39l-39 0z m0-352l39 0l40 0l39 0l0 39l-39 0l-40 0l-39 0l0-39z m-468 156l0 39l0 39l-39 0l-39 0l0-39l0-39l39 0l39 0z m39 117l0 40l-39 0l0-40l39 0z m0 40l39 0l0 39l-39 0l0-39z m0 39l0 39l0 39l0 39l-39 0l0-39l-39 0l0 39l0 39l-39 0l0-39l-40 0l0-39l40 0l0-39l39 0l39 0l0-39l39 0z m-117 39l-40 0l0-39l40 0l0 39z m0-39l0-39l0-40l39 0l0 40l0 39l-39 0z m-40 0l-39 0l0 39l-39 0l0-39l-39 0l0 39l0 39l-39 0l-39 0l0-39l39 0l0-39l-39 0l0-39l-39 0l-39 0l0-40l39 0l39 0l39 0l0 40l39 0l39 0l0-40l39 0l0 40l39 0l0 39z m-39-79l0-39l39 0l0 39l-39 0z m-39 0l-39 0l-39 0l0-39l39 0l39 0l0 39z m-117 79l0 39l-39 0l-39 0l0-39l39 0l39 0z m0 78l0 39l-39 0l-39 0l0-39l39 0l39 0z m156-39l39 0l0 39l-39 0l0-39z m39 78l0 39l-39 0l0 39l-39 0l-39 0l-39 0l0-39l0-39l39 0l0 39l39 0l0-39l39 0l39 0z m-156 78l0 39l-39 0l0-39l39 0z m117 0l39 0l0-39l40 0l0 39l0 39l-40 0l-39 0l0-39z m118-39l39 0l0 39l0 39l-39 0l0-39l0-39z m234-156l0-39l39 0l0 39l-39 0z m-78 273l0 39l-39 0l0-39l39 0z m-156 78l-39 0l0-39l0-39l39 0l0 39l0 39z m351 195l0-39l0-39l0-39l0-39l0-39l0-39l0-39l39 0l39 0l39 0l39 0l39 0l40 0l39 0l0 39l0 39l0 39l0 39l0 39l0 39l0 39l-39 0l-40 0l-39 0l-39 0l-39 0l-39 0l-39 0z m-664-39l39 0l39 0l39 0l39 0l39 0l0-39l0-39l0-39l0-39l0-39l-39 0l-39 0l-39 0l-39 0l-39 0l0 39l0 39l0 39l0 39l0 39z m703 0l39 0l39 0l39 0l39 0l40 0l0-39l0-39l0-39l0-39l0-39l-40 0l-39 0l-39 0l-39 0l-39 0l0 39l0 39l0 39l0 39l0 39z m-664-39l0-39l0-39l0-39l39 0l39 0l39 0l0 39l0 39l0 39l-39 0l-39 0l-39 0z m235 0l0-39l39 0l0 39l-39 0z m468 0l0-39l0-39l0-39l39 0l39 0l39 0l0 39l0 39l0 39l-39 0l-39 0l-39 0z m-781-234l0-39l39 0l0 39l-39 0z m938-195l0-39l0-39l39 0l0 39l0 39l-39 0z m-274-157l39 0l39 0l39 0l0-39l0-39l0-39l-39 0l-39 0l-39 0l0 39l0 39l0 39z m-664-39l0-39l0-39l0-39l0-39l0-39l0-39l0-39l39 0l39 0l39 0l39 0l39 0l39 0l39 0l0 39l0 39l0 39l0 39l0 39l0 39l0 39l-39 0l-39 0l-39 0l-39 0l-39 0l-39 0l-39 0z m703 0l0-39l39 0l0 39l-39 0z m235 0l0-39l39 0l0 39l-39 0z m-899-39l39 0l39 0l39 0l39 0l39 0l0-39l0-39l0-39l0-39l0-39l-39 0l-39 0l-39 0l-39 0l-39 0l0 39l0 39l0 39l0 39l0 39z m39-39l0-39l0-39l0-39l39 0l39 0l39 0l0 39l0 39l0 39l-39 0l-39 0l-39 0z m274-39l0-39l-39 0l0-39l39 0l39 0l0-39l-39 0l-39 0l0-39l39 0l39 0l39 0l39 0l39 0l39 0l0 39l0 39l-39 0l0-39l-39 0l-39 0l0 39l39 0l0 39l-39 0l-39 0l0 39l-39 0z m586-117l0-39l39 0l0 39l-39 0z" horiz-adv-x="1000" />
<glyph glyph-name="monolog" unicode="&#xe8f2;" d="m122 873c-68 0-122-54-122-122l0-488c0-67 54-122 122-122l122 0l-61-244l366 244l306 0c67 0 122 55 122 122l0 488c0 68-55 122-122 122l-733 0z" horiz-adv-x="1000" />
<glyph glyph-name="dialog" unicode="&#xe8f3;" d="m446 873c-42 0-79-33-76-75l0-228l228 0c42 0 69-34 76-75l0-101l189-127l-38 152l76 0c42 0 76 34 76 76l0 303c0 42-34 75-76 75l-455 0z m-370-370c-42 0-76-34-76-76l0-303c0-42 34-76 76-76l76 0l-38-151l227 151l189 0c42 0 76 34 76 76l0 303c0 42-34 76-76 76l-454 0z" horiz-adv-x="1000" />
<glyph glyph-name="user" unicode="&#xe8f4;" d="m488 873c-186 0-338-151-338-338c0-186 152-338 338-338c187 0 338 152 338 338c0 187-151 338-338 338z m-209-453l418 0c0-75-118-150-209-150c-90 0-209 79-209 150z m-2-239c-132-55-227-160-247-284l917 0c-21 124-116 229-247 284c-62-37-134-59-212-59c-77 0-149 22-211 59z" horiz-adv-x="1000" />
<glyph glyph-name="users" unicode="&#xe8f5;" d="m488 723c-128 0-232-104-232-232c0-128 104-231 232-231c128 0 232 103 232 231c0 128-104 232-232 232z m-317-114c-69 0-125-56-125-126c0-70 56-126 125-126c29 0 54 9 75 25c-4 9-8 19-12 30c-15-16-41-27-63-27c-33 0-78 29-78 56l134 0c-3 16-5 33-5 50c0 35 7 67 19 97c-20 14-44 21-70 21z m634 0c-26 0-49-7-69-21c12-30 19-62 19-97c0-17-2-34-5-50l133 0c0-27-44-56-78-56c-21 0-47 11-63 27c-3-11-7-21-12-30c21-16 47-25 75-25c70 0 126 56 126 126c0 70-56 126-126 126z m-460-191l287 0c0-52-82-103-144-103c-62 0-143 54-143 103z m-252-67c-50-21-85-60-93-107l265 0c20 14 41 26 64 36c-23 17-43 38-60 61c0 1 0 1-1 1c-5 3-11 6-17 9c-23-14-51-23-80-23c-28 0-55 9-78 23z m633 0c-6-3-12-6-18-9c0 0 0 0 0-1c-17-23-37-44-60-61c23-10 44-22 64-36l265 0c-8 47-44 86-93 107c-23-14-50-23-79-23c-29 0-56 9-79 23z m-383-103c-90-38-155-116-169-201l629 0c-14 85-80 163-170 201c-42-25-92-40-145-40c-53 0-102 15-145 40z" horiz-adv-x="1000" />
<glyph glyph-name="sun" unicode="&#xe8f6;" d="m488 873l-51-91c17 2 33 5 51 5c18 0 35-3 52-5l-52 91z m0-135c-194 0-352-158-352-353c0-194 158-352 352-352c195 0 353 158 353 352c0 195-158 353-353 353z m-345-8l28-100c10 13 21 27 33 39c13 13 26 23 40 33l-101 28z m690 0l-100-28c14-10 27-20 39-33c13-12 23-26 33-39l28 100z m-741-293l-92-52l92-51c-3 17-5 33-5 51c0 18 2 35 5 52z m793 0c2-17 5-34 5-52c0-18-3-34-5-51l92 51l-92 52z m-714-297l-28-100l101 28c-14 10-27 21-40 33c-12 13-23 26-33 39z m634 0c-10-13-20-26-33-39c-12-12-25-23-39-33l100-28l-28 100z m-368-151l51-92l52 92c-17-3-34-5-52-5c-18 0-34 2-51 5z" horiz-adv-x="1000" />
<glyph glyph-name="cloud" unicode="&#xe8f7;" d="m401 647c-135 0-245-107-251-241c-3 0-5 0-8 0c-78 0-142-63-142-141c0-78 64-142 142-142l745 0c49 0 90 41 90 91c0 49-41 89-90 89c-5 0-10 0-14-1c0 1 0 2 0 2c0 95-77 171-172 171c-20 0-39-3-58-10c-30 105-127 182-242 182z" horiz-adv-x="1000" />
<glyph glyph-name="rain" unicode="&#xe8f8;" d="m402 873c-134 0-243-105-248-238c-3 0-6 0-9 0c-77 0-140-63-140-140c0-77 63-140 140-140l737 0c50 0 89 40 89 89c0 49-39 89-89 89c-5 0-9-1-14-1l0 2c0 94-75 169-169 169c-20 0-39-3-57-10c-30 104-126 180-240 180z m136-581a31 31 0 0 1-4 0a31 31 0 0 1-19-13l-164-236a31 31 0 1 1 50-34l164 234a31 31 0 0 1-27 49z m-326-73a31 31 0 0 1-6-1a31 31 0 0 1-19-14l-164-234a31 31 0 1 1 51-35l164 234a31 31 0 0 1-26 50z m581-25a31 31 0 0 1-3-1a31 31 0 0 1-24-13l-163-234a31 31 0 0 1 51-36l163 235a31 31 0 0 1-24 49z" horiz-adv-x="1000" />
<glyph glyph-name="cloudy" unicode="&#xe800;" d="m650 742c-105 0-197-50-256-128l7 0c122 0 226-73 278-176c8 1 15 4 23 4c109 0 198-78 222-180c2-1 3-2 5-3c28 48 44 103 44 161c0 178-145 322-323 322z m-249-190c-136 0-246-107-251-241c-3 0-6 0-9 0c-78 0-141-64-141-142c0-78 63-141 141-141l746 0c49 0 90 40 90 90c0 50-41 90-90 90c-5 0-10 0-15-1c0 1 0 2 0 2c0 95-76 171-170 171c-21 0-40-4-58-10c-30 105-128 182-243 182z" horiz-adv-x="1000" />
<glyph glyph-name="mist" unicode="&#xe801;" d="m387 695c-48-3-78-23-99-39c-23-17-35-28-69-28c-1 0-2 0-3 0c-36 0-46 10-69 28c-22 16-55 35-104 37c-26 1-43-16-43-35c0-24 22-28 37-28c36 0 48-11 70-28c23-17 56-40 109-40c54 0 88 23 111 40c21 16 32 27 64 28c4 0 7 0 10 0c35 0 47-11 69-28c22-16 55-39 105-40c4 0 7 0 10 0c50 1 82 24 104 40c31 21 46 27 76 28c34 0 46-11 68-28c42-24 77-39 111-39c17 1 33 14 33 32c0 18-16 31-33 32c-35 0-54 17-71 29c-23 16-54 37-104 39c-43 0-84-19-118-39c-23-17-34-28-70-28l-1 0c-37 0-48 10-71 28c-22 16-56 38-108 39l-13 0l-1 0z m0-162c-48-3-78-23-99-39c-23-17-35-28-69-28c-1 0-2 0-3 0c-36 0-46 10-69 28c-22 16-55 35-104 38c-26 0-43-17-43-36c0-24 22-28 37-28c36 0 48-11 70-28c23-17 56-40 109-40c54 0 88 23 111 40c21 16 32 27 64 28c4 0 7 0 10 0c35-1 47-11 69-28c22-16 55-39 105-40c4 0 7 0 10 0c50 1 82 24 104 40c31 21 46 27 76 28c34-1 46-11 68-28c42-24 77-39 111-39c17 1 33 14 33 32c0 17-16 30-33 31c-35 0-54 19-71 30c-23 16-54 37-104 39c-43 0-84-19-118-39c-23-17-34-28-70-28l-1 0c-37 0-48 10-71 28c-22 16-56 38-108 39l-13 0l-1 0z m0-162c-48-3-78-23-99-40c-23-16-35-27-69-27c-1 0-2 0-3 0c-36 0-46 10-69 27c-22 17-55 36-104 38c-26 1-43-16-43-35c0-24 22-28 37-28c36 0 48-11 70-28c23-17 56-40 109-40c54 0 88 23 111 40c21 16 32 27 64 28c4 0 7 0 10 0c35-1 47-11 69-28c22-17 55-39 105-40c4 0 7 0 10 0c50 1 82 24 104 40c31 21 46 27 76 28c34-1 46-12 68-28c42-24 77-39 111-39c17 1 33 14 33 31c0 18-16 32-33 32c-35 0-54 18-71 29c-23 17-54 38-104 40c-43 0-84-19-118-40c-23-17-34-27-70-27l-1 0c-37 0-48 10-71 27c-22 17-56 38-108 40l-13 0l-1 0z m0-162c-48-3-78-23-99-40c-23-16-35-27-69-28c-1 0-2 0-3 0c-36 0-46 11-69 28c-22 17-55 36-104 38c-26 1-43-16-43-35c0-24 22-28 37-28c36-1 48-11 70-28c23-17 56-40 109-40c54 0 88 23 111 40c21 16 32 27 64 28c4 0 7 0 10 0c35-1 47-11 69-28c22-16 55-39 105-40c4 0 7 0 10 0c50 1 82 24 104 40c31 21 46 27 76 28c34-1 46-11 68-28c42-24 77-39 111-39c17 1 33 14 33 31c0 18-16 31-33 32c-35 0-54 18-71 29c-23 17-54 38-104 40c-43 0-84-19-118-40c-23-17-34-27-70-28l-1 0c-37 0-48 11-71 28c-22 17-56 39-108 40l-13 0l-1 0z" horiz-adv-x="1000" />
<glyph glyph-name="flag" unicode="&#xe802;" d="m178 873c-25 0-45-9-45-22l0-932c0-12 20-22 45-22c24 0 44 10 44 22l0 932c0 13-20 22-44 22z m233-44c-88 0-145-44-145-44l0-444c0 0 61 44 145 44c84 0 196-89 288-89c92 0 144 45 144 45l0 444c0 0-64-45-144-45c-80 0-200 89-288 89z" horiz-adv-x="1000" />
<glyph glyph-name="umbrella" unicode="&#xe803;" d="m488 840c-24 0-44-23-51-56c-246-21-437-195-437-405l3 0c11 31 60 54 119 54c59 0 108-23 120-54l5 0c11 31 60 54 119 54c59 0 108-23 120-54l5 0c11 31 60 54 119 54c59 0 108-23 120-54l5 0c12 31 61 54 120 54c59 0 108-23 119-54l3 0c0 210-192 384-437 405c-7 33-28 56-52 56z m-42-466l0-308c0-22-7-33-14-40c-8-7-17-11-28-11c-22 1-43 11-43 51a43 43 0 1 1-85 0c0-80 63-134 127-136c31 0 64 11 88 35c25 24 40 60 40 101l0 308c-20-9-35-22-40-37l-5 0c-6 15-20 28-40 37z" horiz-adv-x="1000" />
<glyph glyph-name="1z" unicode="&#xe804;" d="m0 846l0-271l326 0l173-3c103-5 184-88 184-192c0-104-81-177-184-182c-4-1-7 0-11 0l-162-3l-326 0l0-271l326 0l173 0c1 0 2 0 3 0c6 0 12 0 19 0c251 0 456 207 456 456c0 249-205 466-456 466c-6 0-11 1-17 0c-2 1-3 0-5 0l-173 0l-326 0z m54-54l109 0l0-163l-109 0l0 163z m0-651l109 0l0-163l-109 0l0 163z" horiz-adv-x="1000" />
<glyph glyph-name="pie_chart" unicode="&#xe805;" d="m485 873c-60 0-116-11-169-33c38-92 169-412 169-412l190 403c-58 27-122 42-190 42z m231-94l-189-403l396-198c31 59 48 126 48 198c0 178-104 332-255 403z m-435-27c-161-67-276-226-276-411c0-245 200-444 445-444c174 0 324 100 397 246l-397 198c0 0-131 319-169 411z" horiz-adv-x="1000" />
<glyph glyph-name="clock" unicode="&#xe806;" d="m488 873c-270 0-488-218-488-488c0-270 218-488 488-488c270 0 489 218 489 488c0 270-219 488-489 488z m0-89c220 0 399-179 399-399c0-220-179-399-399-399c-220 0-398 179-398 399c0 220 178 399 398 399z m-52-81l-16-318l245-246l44 37l-200 238l-14 289l-59 0z" horiz-adv-x="1000" />
<glyph glyph-name="settings" unicode="&#xe807;" d="m692 873c-45 0-82-32-82-71l0-196c0-40 37-72 82-72c45 0 81 32 81 72l0 196c0 39-36 71-81 71z m-692-135l0-68l570 0l0 68l-570 0z m814 0l0-68l163 0l0 68l-163 0z m-529-190c-45 0-81-32-81-72l0-195c0-40 36-72 81-72c45 0 81 32 81 72l0 195c0 40-36 72-81 72z m-285-136l0-67l163 0l0 67l-163 0z m407 0l0-67l570 0l0 67l-570 0z m285-176c-45 0-82-32-82-72l0-196c0-39 37-71 82-71c45 0 81 32 81 71l0 196c0 40-36 72-81 72z m-692-136l0-67l570 0l0 67l-570 0z m814 0l0-67l163 0l0 67l-163 0z" horiz-adv-x="1000" />
<glyph glyph-name="music_1" unicode="&#xe808;" d="m943 873l-610-89l0-590c-25 6-71 19-102 14c-109-16-197-99-197-184c0-85 88-141 197-124c103 15 182 89 191 169l1 0l0 14l0 514l431 62l0-389c-26 6-78 18-108 13c-109-16-198-98-198-184c0-85 89-141 198-125c103 16 187 90 196 170l1 0l0 729z" horiz-adv-x="1000" />
<glyph glyph-name="music_2" unicode="&#xe809;" d="m412 873l0-664c-27 6-76 19-108 14c-114-17-206-103-206-192c0-90 92-148 206-131c108 16 191 94 200 177l1 0l0 15l0 492c105 24 211 58 374-75l0 178c-181 228-252 52-467 186z" horiz-adv-x="1000" />
<glyph glyph-name="headphones" unicode="&#xe80a;" d="m488 852c-257 0-467-212-467-461l0-116c-17-25-21-53-21-145c0-91 32-169 106-169l3 452c0 171 191 354 379 354c189 0 380-183 380-354l2-452c74 0 107 78 107 169c0 92-4 120-22 145l0 116c0 249-209 461-467 461z m-297-509c-23 0-42-14-42-33l0-359c0-19 19-33 42-33l85 0c23 0 42 14 42 33l0 359c0 19-19 33-42 33l-85 0z m510 0c-23 0-43-14-43-33l0-359c0-19 20-33 43-33l85 0c22 0 42 14 42 33l0 359c0 19-20 33-42 33l-85 0z" horiz-adv-x="1000" />
<glyph glyph-name="tiles_large" unicode="&#xe80b;" d="m0 873l0-394l394 0l0 394l-394 0z m582 0l0-394l395 0l0 394l-395 0z m-582-582l0-394l394 0l0 394l-394 0z m582 0l0-394l395 0l0 394l-395 0z" horiz-adv-x="1000" />
<glyph glyph-name="tiles_small" unicode="&#xe80c;" d="m0 873l0-266l266 0l0 266l-266 0z m355 0l0-266l266 0l0 266l-266 0z m355 0l0-266l267 0l0 266l-267 0z m-710-355l0-266l266 0l0 266l-266 0z m355 0l0-266l266 0l0 266l-266 0z m355 0l0-266l267 0l0 266l-267 0z m-710-355l0-266l266 0l0 266l-266 0z m355 0l0-266l266 0l0 266l-266 0z m355 0l0-266l267 0l0 266l-267 0z" horiz-adv-x="1000" />
<glyph glyph-name="business" unicode="&#xe80d;" d="m317 857c-27 0-57-22-57-49l0-81l106 0l0 33l244 0l0-33l106 0l0 81c0 27-30 49-57 49l-342 0z m-317-163l0-341l977 0l0 341l-977 0z m49-390l0-391l879 0l0 391l-391 0l0-98l-97 0l0 98l-391 0z" horiz-adv-x="1000" />
<glyph glyph-name="folder_open" unicode="&#xe80e;" d="m0 757l0-744l824 0l153 465l-831 0l-94-278l63 325l722 0l0 93l-464 0l-91 139l-282 0z" horiz-adv-x="1000" />
<glyph glyph-name="folder_closed" unicode="&#xe80f;" d="m0 776l0-782l977 0l0 635l-586 0l-95 147l-296 0z" horiz-adv-x="1000" />
<glyph glyph-name="folder_tabs" unicode="&#xe810;" d="m0 776l0-782l977 0l0 635l-586 0l-95 147l-296 0z m368 0l72-98l280 0l-71 98l-281 0z" horiz-adv-x="1000" />
<glyph glyph-name="phone_end" unicode="&#xe811;" d="m489 588c-105 0-409-41-469-160c-29-58-27-161 7-245l276 71c-10 97-43 144-57 156c64 29 140 49 243 48c102 1 178-19 242-48c-13-12-47-59-57-156l275-71c34 84 37 187 7 245c-59 119-363 160-467 160z" horiz-adv-x="1000" />
<glyph glyph-name="phone_start" unicode="&#xe812;" d="m215 872c-98-42-184-125-208-198c-48-146 169-430 256-516c87-86 371-301 517-252c73 24 155 111 197 209l-287 167c-71-89-83-155-81-176c-77 29-156 75-239 159c-86 84-132 163-161 240c20-2 86 10 174 82l-168 285z" horiz-adv-x="1000" />
<glyph glyph-name="phone_incoming" unicode="&#xe813;" d="m923 873l-304-306l0 257l-77 0l0-385l385 0l0 76l-258 0l307 306l-53 52z m-732-112c-87-37-163-110-184-175c-43-130 150-382 227-458c77-77 329-268 459-225c65 22 138 100 174 186l-253 148c-63-78-74-137-72-156c-68 26-139 67-213 142c-76 74-117 144-143 212c18-1 77 9 155 73l-150 253z" horiz-adv-x="1000" />
<glyph glyph-name="phone_outgoing" unicode="&#xe814;" d="m578 873l0-79l266 0l-317-315l55-55l315 317l0-266l79 1l0 397l-398 0z m-381-83c-89-38-168-114-190-181c-45-135 155-395 235-474c79-79 340-277 475-232c66 23 142 103 180 193l-263 153c-65-82-76-143-74-162c-71 27-143 69-220 147c-78 76-121 149-148 219c19-1 80 9 161 75l-156 262z" horiz-adv-x="1000" />
<glyph glyph-name="phone_missed" unicode="&#xe815;" d="m627 873l-51-50l147-148l-147-147l51-51l147 148l147-148l50 51l-146 147l146 148l-50 50l-147-147l-147 147z m-421-62c-91-39-172-117-194-185c-46-138 159-404 240-485c82-81 349-284 486-237c68 23 146 105 184 196l-268 157c-67-83-78-145-76-165c-72 27-147 71-226 150c-80 78-123 153-151 225c20-2 82 9 165 76l-160 268z" horiz-adv-x="1000" />
<glyph glyph-name="plane" unicode="&#xe816;" d="m889 870c-64-4-142-100-295-252l-478 73l-116-58l464-174l-193-211l-211 15l-36-43l169-93l42-42l93-169l44 35l-16 212l209 194l166-457l70 105l-76 483c201 201 305 274 224 355c-20 20-39 28-60 27z" horiz-adv-x="1000" />
<glyph glyph-name="flash" unicode="&#xe817;" d="m316 873l-82-424l164 0l-37-212l149 0l-85-340l318 453l-149 0l107 255l-180 0l112 268l-317 0z" horiz-adv-x="1000" />
<glyph glyph-name="android" unicode="&#xe818;" d="m314 873c-1 0-3 0-4 0c-3-1-6-2-8-4c-9-7-11-20-4-29l45-61c-77-38-127-106-127-180l544 0c0 74-49 142-126 180l45 61c7 9 5 22-4 29c-10 7-23 4-29-5l-52-69c-32 10-68 16-106 16c-37 0-73-6-105-16l-52 69c-3 5-8 8-13 9c-1 0-3 0-4 0z m68-148c22 0 40-17 40-39c0-22-18-40-40-40c-22 0-39 18-39 40c0 22 17 39 39 39z m213 0c21 0 39-17 39-39c0-22-18-40-39-40c-22 0-41 18-41 40c0 22 19 39 41 39z m-483-163c-33-1-62-29-62-60l0-252c0-31 30-59 63-59c33 0 59 28 58 59l0 252c1 32-26 61-59 60z m751 0c-33-1-58-29-57-60l0-252c-1-31 24-59 58-59c33 0 63 28 62 59l0 252c1 32-30 61-63 60z m-647-8l0-424c0-15 8-31 19-41c11-11 27-18 43-18l29 0l0-117c0-30 37-57 68-57c31 0 68 27 68 57l0 117l91 1l0-117c-1-29 38-58 68-58c30 0 68 29 68 58l0 116l31 0c16-1 30 7 41 18c11 10 18 26 18 41l0 424l-544 0z" horiz-adv-x="1000" />
<glyph glyph-name="expand" unicode="&#xe819;" d="m0 873l0-488l83 0l0 340l285-276l58 58l-277 284l339 0l0 82l-488 0z m894-488l0-339l-285 276l-58-59l277-284l-340 0l0-82l489 0l0 488l-83 0z" horiz-adv-x="1000" />
<glyph glyph-name="collapse" unicode="&#xe81a;" d="m374 873l0-313l-262 255l-54-54l255-262l-313 0l0-76l451 0l0 450l-77 0z m152-525l0-451l76 0l0 313l263-254l54 54l-256 261l314 0l0 77l-451 0z" horiz-adv-x="1000" />
<glyph glyph-name="plus" unicode="&#xe81b;" d="m434 873l0-434l-434 0l0-108l434 0l0-434l109 0l0 434l434 0l0 108l-434 0l0 434l-109 0z" horiz-adv-x="1000" />
<glyph glyph-name="minus" unicode="&#xe81c;" d="m0 439l0-108l977 0l0 108l-977 0z" horiz-adv-x="1000" />
<glyph glyph-name="video" unicode="&#xe81d;" d="m93 664c-64 0-93-28-93-93l0-372c0-64 57-93 93-93l605 0l0 558l-605 0z m814-46l-163-117l0-232l163-116l70 0l0 465l-70 0z" horiz-adv-x="1000" />
<glyph glyph-name="camera" unicode="&#xe81e;" d="m326 763l0-60l-73 0l-253-103l0-592l977 0l0 695l-326 0l0 60l-325 0z m-311-15l0-92l163 59l0 33l-163 0z m473-138c143 0 259-116 259-259c0-143-116-258-259-258c-143 0-258 115-258 258c0 143 115 259 258 259z m0-72c-102 0-186-83-186-186c0-102 84-185 186-186c103 0 186 84 186 186c0 103-83 186-186 186z" horiz-adv-x="1000" />
<glyph glyph-name="ruler" unicode="&#xe81f;" d="m0 873l0-744l0-232l233 0l744 0l0 229l-153 0l0-61l-46 0l0 61l-91 0l0-61l-46 0l0 61l-92 0l0-61l-45 0l0 61l-92 0l0-61l-46 0l0 61l-91 0l0-61l-46 0l0 808l-229 0z" horiz-adv-x="1000" />
<glyph glyph-name="anchor" unicode="&#xe820;" d="m488 871c-87 0-156-70-156-156c0-61 33-112 83-139l0-429c-71-37-262 44-288 138l78 18l-177 155l-28-181l51 0c0-190 397-291 437-378c40 87 437 188 437 378l52 0l-28 181l-178-155l78-18c-25-94-217-175-287-138l0 429c49 27 83 78 83 139c0 86-70 156-157 156z m0-62c53 0 95-42 95-94c0-53-42-95-95-95c-52 0-94 42-94 95c0 52 42 94 94 94z" horiz-adv-x="1000" />
<glyph glyph-name="contrast" unicode="&#xe821;" d="m488 873c-125 0-250-47-345-142c-191-191-191-500 0-691c191-191 500-191 691 0c190 191 190 500 0 691c-96 95-221 142-346 142z m294-194c162-162 162-425 0-587c-162-162-425-162-587 0l587 587z" horiz-adv-x="1000" />
<glyph glyph-name="yinyang" unicode="&#xe822;" d="m488 873c-125 1-250-47-345-142c-96-95-143-221-143-346c0-125 48-250 144-346c190-191 499-189 689 1c191 191 192 500 1 691c-96 95-221 142-346 142z m127-126c39 1 79-11 114-33c16-12 32-26 47-41c159-159 159-416 0-575c-159-159-416-160-575-1c-3 3-6 8-10 11c80-74 205-73 283 5c79 79 79 208 0 287c-80 79-80 208 0 288c39 39 89 59 141 59z m3-142c-16 0-32-6-44-18c-23-24-23-62 0-86c24-24 63-24 87 0c24 24 24 62 0 86c-12 12-28 18-43 18z m-288-288c15 0 31-6 43-18c24-24 24-62 0-86c-24-23-63-23-86 0c-24 24-24 62 0 86c11 12 27 18 43 18z" horiz-adv-x="1000" />
<glyph glyph-name="shield" unicode="&#xe823;" d="m488 873l-406-81c0-128-34-815 406-895l1 0c439 80 406 767 406 895l-406 81l-1 0z m1-81l327-68c0-106 27-679-327-745l0 813z" horiz-adv-x="1000" />
<glyph glyph-name="achievement" unicode="&#xe824;" d="m193 873c0-68 0-136 3-189c-60 25-190 50-190-48c0-136 184-235 311-311c36-60 62-120 92-152c0-128-14-231-125-231l0-45l409 0l0 45c-111 0-125 103-125 231c29 32 56 92 92 152c127 76 310 175 310 311c0 98-129 73-189 48c2 53 2 121 2 189l-590 0z m-55-232c4 1 8 0 11 0c18 0 38-4 54-7c15-92 47-175 77-239c-63 47-186 133-186 198c0 35 20 46 44 48z m689 0c30 1 55-8 55-48c0-65-122-151-186-198c31 64 62 147 77 239c17 3 36 7 54 7z" horiz-adv-x="1000" />
<glyph glyph-name="arrow_right-1" unicode="&#xe825;" d="m516 846l-90-91l308-307l-734 0l0-127l734 0l-308-308l90-89l461 460l-461 462z" horiz-adv-x="1000" />
<glyph glyph-name="arrow_left" unicode="&#xe826;" d="m460 846l-460-462l460-460l90 89l-307 308l734 0l0 127l-734 0l307 307l-90 91z" horiz-adv-x="1000" />
<glyph glyph-name="search" unicode="&#xe827;" d="m347 873c-192 0-347-155-347-346c0-192 155-347 347-347c80 0 155 27 214 74l79-80c-17-18-17-46 0-64l197-196c18-18 46-18 63 0l63 63c18 18 18 46 0 63l-196 197c-17 17-46 17-64 0l-80 80c45 58 71 131 71 210c0 191-156 346-347 346z m0-72c151 0 274-123 274-274c0-151-123-274-274-274c-151 0-274 123-274 274c0 151 123 274 274 274z" horiz-adv-x="1000" />
<glyph glyph-name="arrow_top" unicode="&#xe828;" d="m487 873l-459-460l88-90l308 308l0-734l127 0l0 734l307-308l91 90l-462 460z" horiz-adv-x="1000" />
<glyph glyph-name="arrow_bottom" unicode="&#xe829;" d="m424 873l0-733l-308 307l-88-90l459-460l462 460l-91 90l-307-308l0 734l-127 0z" horiz-adv-x="1000" />
<glyph glyph-name="arrow_right_top" unicode="&#xe82a;" d="m98 129l518 519l-434 0l0 126l651 1l1-652l-128 0l0 435l-519-519l-89 90z" horiz-adv-x="1000" />
<glyph glyph-name="arrow_left_top" unicode="&#xe82b;" d="m834 129l-519 519l435 0l-1 126l-650 1l-1-652l127 0l0 435l519-519l90 90z" horiz-adv-x="1000" />
<glyph glyph-name="arrow_left_bottom" unicode="&#xe82c;" d="m834 685l-519-519l435 0l-1-126l-650-1l-1 652l127 0l0-435l519 519l90-90z" horiz-adv-x="1000" />
<glyph glyph-name="arrow_right_bottom" unicode="&#xe82d;" d="m98 685l518-519l-434 0l0-126l651-1l1 652l-128 0l0-435l-519 519l-89-90z" horiz-adv-x="1000" />
<glyph glyph-name="tick" unicode="&#xe82e;" d="m898 751l-574-574l-245 245l-79-80l324-323l653 653l-79 79z" horiz-adv-x="1000" />
<glyph glyph-name="cancel" unicode="&#xe82f;" d="m158 801l-85-85l330-331l-330-330l85-86l330 331l331-331l85 86l-331 330l331 331l-85 85l-331-330l-330 330z" horiz-adv-x="1000" />
<glyph glyph-name="bookmark" unicode="&#xe830;" d="m256 873l0-976l232 152l233-152l0 976l-465 0z" horiz-adv-x="1000" />
<glyph glyph-name="lab" unicode="&#xe831;" d="m410 873c-39 0-71-31-71-70c0-38 32-70 71-70c39 0 70 32 70 70c0 39-31 70-70 70z m0-39c16 0 30-14 30-31c0-16-14-30-30-30c-17 0-30 14-30 30c0 17 13 31 30 31z m165-50c-55 0-100-45-100-101c0-56 45-101 100-101c56 0 101 45 101 101c0 56-45 101-101 101z m0-50c29 0 51-23 51-51c0-28-22-51-51-51c-28 0-51 23-51 51c0 28 23 51 51 51z m-199-30c-39 0-71-32-71-70c0-39 32-70 71-70c39 0 70 31 70 70c0 38-31 70-70 70z m0-42c15 0 28-13 28-28c0-16-13-29-28-29c-16 0-28 13-28 29c0 15 12 28 28 28z m-12-120l0-222l-215-423l679 0l-215 423l0 222l-249 0z m56-56l136 0l0-179l104-206l-344 0l104 206l0 179z" horiz-adv-x="1000" />
<glyph glyph-name="wizard" unicode="&#xe832;" d="m240 873l-48-186l-188-41l138-135l-59-184l186 53l130-144l24 99l-145 145c13 52 61 103 112 112l148-148l97 21l-138 134l58 184l-186-53l-129 143z m321-452l-112-112l412-412c56 13 100 54 112 112l-412 412z" horiz-adv-x="1000" />
<glyph glyph-name="temperature" unicode="&#xe833;" d="m488 873c-60 0-114-48-114-108l0-463c-65-38-103-108-103-188c0-120 97-217 217-217c120 0 217 97 217 217c0 80-37 150-102 188l0 463c0 60-55 108-115 108z m0-54c31 0 55-23 55-54l0-463l0-32l27-16c48-28 81-80 81-140c0-91-72-163-163-163c-90 0-162 72-162 163c0 60 32 112 81 140l27 16l0 32l0 463c0 31 23 54 54 54z m-108-711c0-60 48-109 108-109c60 0 109 49 109 109l-217 0z" horiz-adv-x="1000" />
<glyph glyph-name="grow" unicode="&#xe834;" d="m0 821c43-60-6-229 124-356c67-65 155-44 226 13c93-128 124-333 105-529l114 0c1 108-12 201-33 280c24 63 62 122 114 167c43-56 107-86 169-50c120 71 114 206 158 243c-130 23-236 53-339-25c-41-32-39-86-13-134c-42-31-81-71-114-118c-34 95-76 163-112 205c48 53 63 115 20 169c-105 129-248 124-419 135z" horiz-adv-x="1000" />
<glyph glyph-name="ball" unicode="&#xe835;" d="m488 873c-106 0-211-33-299-102l249-249c78 102 105 230 83 350c-10 1-22 1-33 1z m117-14c18-137-19-280-109-395l71-71c96 76 212 114 328 114c23 0 45-2 68-5c-21 84-64 163-130 229c-65 65-144 108-228 128z m-476-143c-94-102-137-234-128-364c134-24 276 12 382 109l-254 255z m766-290c-95 0-190-30-270-91l249-249c76 97 109 217 101 334c-26 5-53 6-80 6z m-454-22c-119-110-277-155-427-136c20-84 64-163 129-228c66-66 145-109 228-129c-19 150 26 308 136 426l-66 67z m124-124c-98-107-134-249-110-382c130-9 262 34 364 128l-254 254z" horiz-adv-x="1000" />
<glyph glyph-name="steering_wheel" unicode="&#xe836;" d="m488 873c-269 0-488-218-488-488c0-269 219-488 488-488c270 0 489 219 489 488c0 270-219 488-489 488z m0-122c181 0 330-130 360-302l-154-30c-22 22-53 44-87 44l-237 0c-33 0-62-20-84-41l-157 31c32 170 180 298 359 298z m-364-397l128-49c13-54 60-93 118-93l51 0l20-190c-170 22-303 160-317 332z m729-9c-18-168-151-302-318-323l22 190l50 0c54 0 99 35 115 84l131 49z" horiz-adv-x="1000" />
<glyph glyph-name="signal" unicode="&#xe837;" d="m488 873c-236 0-427-191-427-427c0-198 135-363 317-412l0 66c-146 47-253 184-253 346c0 201 163 363 363 363c201 0 364-162 364-363c0-162-107-299-254-346l0-66c183 49 317 214 317 412c0 236-191 427-427 427z m0-175c-139 0-251-112-251-251c0-102 61-189 148-229l0 66c-54 35-90 94-90 163c0 107 86 193 193 193c107 0 194-86 194-193c0-69-36-128-90-163l0-66c87 40 148 127 148 229c0 139-113 251-252 251z m0-169c-45 0-82-37-82-83c0-29 15-55 38-69l0-480l88 0l0 480c23 14 39 40 39 69c0 46-37 83-83 83z" horiz-adv-x="1000" />
<glyph glyph-name="pin" unicode="&#xe838;" d="m614 873c-15-1-28-6-38-16l-7-6c-31-32-16-98 34-148l6-6l-224-223c-74 69-165 90-209 46c-46-46-22-144 54-220l48-73l-274-300l-4-30l30 3l325 275l48-48c76-76 174-100 220-54c44 44 22 136-47 210l224 223l6-6c50-50 116-65 147-33l7 6c32 31 16 97-34 147l-203 203c-34 34-76 53-109 50z" horiz-adv-x="1000" />
<glyph glyph-name="glasses" unicode="&#xe839;" d="m258 714l-258-301l159 0l179 301l-80 0z m381 0l179-301l159 0l-259 301l-79 0z m-639-338l1-149c1-98 79-170 176-170l59 0c97 0 201 81 202 178l0 78l100 0l0-78c0-97 107-178 205-178l58 0c98 0 176 72 176 170l-2 149l-975 0z m63-63l313 0l0-77l0 0c-2-60-75-123-140-123l-59 0c-69 0-113 47-114 115l0 85z m539 0l312 0l0-85c-1-68-44-115-113-115l-59 0c-66 0-139 63-140 123l0 0l0 77z" horiz-adv-x="1000" />
<glyph glyph-name="globe" unicode="&#xe83a;" d="m488 873c-269 0-488-218-488-488c0-269 219-488 488-488c270 0 489 219 489 488c0 270-219 488-489 488z m-2-58l43-18l-20-49c-25-12-49-20-74-28l-16-27l-13-6l-19 38l13 15l0 16l-37 26l11 10l61 18l51 5z m-118-3l6-11c-12-4-23-8-35-14l-17-4l-8-7l-22 4l5 6l8 2l14 8l17 1l10 12l22 3z m-98-46l8-16l7 13l15 3l2-9l31-3l8-18l19-7l-18-14c-11 7-22 14-33 21l-17 7c-7-5-13-11-20-16l-10-19l-15 0l5 16l-19-18l-41-24l4-17l32-14l5-22l13 26l16 6l-1 12l19 32l22-13l-2-15l19 7l9-18l-4-10l12-5l10-9l-4-10l-28-10l-19 0l-28-13l45 0l-16-23l-29-6l-14-19l-24-9l-10-28l-32-27l-4-36l-18 22l-25 5l-4-11l-20 0l-23-18l-5-23l1-21l18-9l11 5l12 16l11 0c-2-13-3-27-5-40l20 1l0-19l7-19c8-5 20-5 29-8l0 4l29 27l28-22l33 4l14-36l24-5l14-26c27-14 54-29 82-42l-3-27l-20-28l2-40l-12-29l-26-6l-11-17l4-11l-16-41l-21-9l-5-11l-13-14l4-9c0 0-4-3-8-5c-3-3-56 26-57 30c-1 4 0 4 0 4l12 45l-12 21l1 40l-13 17l-29 27l-30 55l9 28l-4 7l11 16l13 35l0 4l-10 4l-14-1l-23 16l-15 19l-35 9l-35 22c0 0-15 23-16 27c22 171 114 261 160 303c3 1 17 4 17 4l8 20l14-1l10-6l-1-20l2 5l14 11l-1 19l3 7z m424-15l22-7l39-8l-9-11l-22 0l22-23l17 19l5 9c0 0 63-57 99-120c36-62 54-136 54-151l-12-14c-8 9-17 16-25 24l-19-2l-17 20l0-25l14-11l12-12l12 16c4-6 6-13 9-19l0-19l-14-17l-28-18l-19-21c9 1 18 3 28 4l0-14l-20-49l-18-19l-15-32l0-54l5-20l-8-9l-18-13l-19-15l16-18l-22-19l4-13l-32-35l-21 0l-20-13l-11 0l0 17l-4 29c-7 19-14 38-21 57c0 14 1 27 2 41l8 19l-12 23l2 30l-16 19l8 25l-14 15l-22 0l-7 7l-22-12l-10 8l-19-17c-14 16-30 32-44 48l-17 39l15 23l-8 11l18 42c15 18 31 36 47 54l28 8l32 4l21-7l31-30l10 11l17 4l28-10l20 0l15 14l6 9l-13 9l-26 1c-7 9-13 19-22 28l-7-3l-4-25l-15 18l-3 19l-17 13l-7 0l18-20l-6-16l-15-4l8 17l-14 8l-14 15l-24-5l-5-8l-14-10l-8-21l-21-10l-9 10l-10 0l0 34l21 11l18 0l-5 14l-13 12l23 5l12 14l5 10l-13-13l-19-4l4 23l0 16l-7 8l0 10l9 0c5-10 11-19 15-29l11-11l6 7l18 0l-5 14l11 6l0-15l25-5l25 20l1 11l22 15c-8-1-15-2-23-4l0 17l7 19l-7 0l-19-18l-4-9l4-13l-8-23l-13 8l-12 13l-17-13l-7 31l31 20l0 11l20 13l31 7z m-164-24l11-11l-21-14l-11 8l1 11l6-1l14 7z m-218-3l16-8l0-14l-14 0l-15 13l13 9z m255-66l6-17l-13-7l-6 21l13 3z m-230-35l16-10l-11-15l-5 25z" horiz-adv-x="1000" />
<glyph glyph-name="mail" unicode="&#xe83b;" d="m0 727l0-145l488-228l489 228l0 145l-977 0z m0-205l0-479l977 0l0 479l-489-228l-488 228z" horiz-adv-x="1000" />
<glyph glyph-name="share_2" unicode="&#xe83c;" d="m488 742c-154 0-285-86-336-221l-152 0l0-127l195 0c26 0 48 19 55 40c0 2 0 4 1 6c26 107 123 186 237 186c51 0 97-15 136-41c10-6 21-10 33-10c32 0 58 26 58 58c0 21-12 39-28 49c-57 38-125 60-199 60z m0-220c-77 0-139-62-139-139c0-77 62-140 139-140c77 0 140 63 140 140c0 77-63 139-140 139z m293-146c-26 0-48-19-54-40c-1-2-1-4-1-6c-26-107-123-186-238-186c-50 0-97 15-136 42c-9 6-20 9-32 9c-32 0-58-26-58-58c0-21 11-39 28-49c57-38 125-59 198-59c154 0 286 85 337 220l152 0l0 127l-196 0z" horiz-adv-x="1000" />
<glyph glyph-name="phone" unicode="&#xe83d;" d="m377 873c-78 0-142-57-153-133l-2 0l0-22l0-377l0-289c0-86 69-155 155-155l222 0c86 0 156 69 156 155l0 378l0 288l0 22l-3 0c-10 76-74 133-153 133l-222 0z m-96-133l414 0l0-695l-414 0l0 695z" horiz-adv-x="1000" />
<glyph glyph-name="laptop" unicode="&#xe83e;" d="m170 677c-23 0-42-19-42-42l0-437c0-2 0-4 0-6l-128-36l0-62l977 0l0 62l-128 36c0 2 0 4 0 6l0 437c0 23-19 42-42 42l-637 0z m13-56l611 0l0-402l-611 0l0 402z" horiz-adv-x="1000" />
<glyph glyph-name="monitor" unicode="&#xe83f;" d="m44 777c-24 0-44-19-44-44l0-504c0-24 20-44 44-44l888 0c25 0 45 20 45 44l0 504c0 25-20 44-45 44l-888 0z m15-59l858 0l0-473l-858 0l0 473z m230-577l0-37l-111-111l621 0l-111 111l0 37l-399 0z" horiz-adv-x="1000" />
<glyph glyph-name="tablet" unicode="&#xe840;" d="m168 873c-23 0-42-18-42-42l0-892c0-23 19-42 42-42l640 0c24 0 43 19 43 42l0 892c0 24-19 42-43 42l-640 0z m55-97l530 0l0-782l-530 0l0 782z" horiz-adv-x="1000" />
<glyph glyph-name="tv" unicode="&#xe841;" d="m315 821l-40-41l152-152l-386 0c-23 0-41-18-41-41l0-556c0-22 18-40 41-41l257 0l0-40l380 0l0 40l258 0c22 0 41 19 41 41l0 556c0 23-19 41-41 41l-386 0l152 152l-40 40l-174-173l-173 174z m-261-247l868 0l0-529l-868 0l0 529z" horiz-adv-x="1000" />
<glyph glyph-name="database" unicode="&#xe842;" d="m0 840l0-236l977 0l0 236l-977 0z m67-118l202 0l0-67l-202 0l0 67z m-67-219l0-236l977 0l0 236l-977 0z m67-118l202 0l0-67l-202 0l0 67z m-67-219l0-236l977 0l0 236l-977 0z m67-118l202 0l0-67l-202 0l0 67z" horiz-adv-x="1000" />
<glyph glyph-name="puzzle" unicode="&#xe843;" d="m598 873c-63 0-113-50-113-113c0-27 10-53 25-72l0-26l-279 0l0-305l-39 0c-19 15-44 35-70 35c-63 0-114-51-114-114c0-63 51-114 114-114c26 0 50 17 69 33l39 0l1-272l0-28l271 0l0 49c-15 19-17 51-17 78c0 63 50 114 113 114c62 0 112-51 112-114c0-27-4-59-20-78l0-49l278 0l0 300l-49 0c-19-16-44-33-71-33c-62 0-112 51-112 114c0 63 50 114 112 114c27 0 52-20 71-35l49 0l0 305l-283 0l0 26c16 19 25 45 25 72c0 63-50 113-112 113z" horiz-adv-x="1000" />
<glyph glyph-name="reload" unicode="&#xe844;" d="m827 873l-119-118c-64 36-137 57-216 57c-242 0-438-195-438-437l0-10l96 0c0 3-1 7-1 10c0 189 154 342 343 342c52 0 101-12 145-33l-94-95l284 0l0 284z m0-467c0-4 1-7 1-11c0-188-154-342-343-342c-52 0-101 12-145 33l94 96l-285 0l0-285l119 119c64-37 138-58 217-58c242 0 437 196 437 437l0 11l-95 0z" horiz-adv-x="1000" />
<glyph glyph-name="attachment" unicode="&#xe845;" d="m171 580c-58 0-103-26-132-63c-28-38-40-86-39-133c1-47 15-94 43-131c29-37 73-63 128-63l612 0l0 56l-612 0c-38 0-64 16-84 42c-19 25-31 61-31 98c-1 36 9 72 28 97c19 26 45 41 87 41l668 0c30 0 48-10 62-25c13-15 20-36 20-58c0-21-8-50-21-66c-13-15-32-25-61-25l-539 0c-9 0-14 3-19 8c-4 5-7 20-8 28c0 8 3 22 7 27c3 4 8 7 20 7l427 0l0 56l-427 0c-25 0-48-10-62-27c-15-16-21-45-20-65c1-20 7-47 22-63c14-15 36-27 60-27l539 0c43 0 79 18 103 45c23 27 35 68 35 102c0 34-11 68-34 95c-24 26-60 44-104 44l-668 0z" horiz-adv-x="1000" />
<glyph glyph-name="attachment_2" unicode="&#xe846;" d="m760 873c-37-1-75-17-106-49c-184-183-368-367-551-551c-47-47-64-106-57-160c8-54 37-103 77-141c39-39 90-66 144-74c54-7 112 9 157 54l505 505l-46 45l-505-504c-31-31-65-40-102-35c-38 5-77 25-108 55c-31 30-52 67-57 104c-5 36 4 71 38 105c183 184 367 368 551 551c24 25 48 32 71 30c24-1 47-12 65-30c18-18 30-43 31-66c2-24-5-47-30-72l-444-443c-8-9-14-10-22-10c-8 1-17 5-24 11c-6 6-10 15-10 21c-1 7 0 13 10 24l353 351l-46 46l-353-351c-21-22-31-49-29-75c2-25 14-47 31-63c17-16 39-27 64-29c25-1 52 8 72 29l444 443c36 36 51 81 49 122c-3 41-22 79-50 107c-28 28-65 47-107 50c-5 0-10 1-15 0z" horiz-adv-x="1000" />
<glyph glyph-name="trash" unicode="&#xe847;" d="m384 873c-23 0-41-18-41-41l0-95c-111-18-187-57-187-102c0-92 149-115 332-115c184 0 333 20 333 115c0 47-66 88-187 105l0 92c0 23-19 41-42 41l-208 0z m21-62l166 0l0-65c-20 2-54 3-83 3c-28 0-56-2-83-4l0 66z m-205-315l39-516c0-46 100-83 249-83c150 0 250 37 250 83l39 516c-57-28-165-45-289-45c-124 0-231 17-288 45z" horiz-adv-x="1000" />
<glyph glyph-name="upload" unicode="&#xe848;" d="m488 793l-299-298l68-67l184 185l0-458l94 0l0 458l186-185l67 67l-300 298z m-488-727l0-89l977 0l0 89l-977 0z" horiz-adv-x="1000" />
<glyph glyph-name="download" unicode="&#xe849;" d="m441 793l0-458l-184 185l-68-67l299-298l300 298l-67 67l-186-185l0 458l-94 0z m-441-727l0-89l977 0l0 89l-977 0z" horiz-adv-x="1000" />
<glyph glyph-name="crop" unicode="&#xe84a;" d="m155 873l0-177l-155 0l0-67l155 0l0-488l0-66l67 0l532 0l0-178l67 0l0 178l156 0l0 66l-156 0l0 488l0 67l-67 0l-532 0l0 177l-67 0z m67-244l532 0l0-488l-532 0l0 488z m172-227l-111-89l0-111l413 0l0 67l-66 66l-67-44l-169 111z" horiz-adv-x="1000" />
<glyph glyph-name="home" unicode="&#xe84b;" d="m488 832l-488-372l68-90l420 321l420-321l69 90l-489 372z m0-201l-386-294l0-398l295 0l0 312l179 0l0-312l299 0l0 397l-387 295z" horiz-adv-x="1000" />
<glyph glyph-name="inbox" unicode="&#xe84c;" d="m186 736l-186-320l116 0l116 244l512 0l116-244l117 0l-186 320l-605 0z m-186-366l0-295c0-23 18-41 41-41l895 0c22 0 41 18 41 41l0 295l-347 0l-40-107l-204 0l-40 107l-346 0z" horiz-adv-x="1000" />
<glyph glyph-name="drop" unicode="&#xe84d;" d="m450 736l0-373l-150 150l-56-54l244-243l244 243l-54 54l-151-150l0 373l-77 0z m-450-339l193-362l590 0l194 362l-95 0l-159-290l-470 0l-158 290l-95 0z" horiz-adv-x="1000" />
<glyph glyph-name="help" unicode="&#xe84e;" d="m488 873c-269 0-488-218-488-488c0-270 219-488 488-488c270 0 489 218 489 488c0 270-219 488-489 488z m0-81c225 0 407-182 407-407c0-224-182-407-407-407c-224 0-406 183-406 407c0 225 182 407 406 407z m12-131c-53 0-96-13-129-40c-33-27-49-64-48-112l1-3l95 0c0 24 8 42 23 54c16 13 35 19 58 19c26 0 46-8 60-22c15-15 21-35 21-61c0-23-6-43-18-62c-13-19-29-38-50-59c-30-25-49-46-58-62c-8-17-13-45-13-83l98 0c0 23 2 41 6 53c4 12 13 25 29 38c30 25 55 52 75 81c20 29 30 61 30 96c0 51-16 91-48 120c-31 29-75 43-132 43z m-58-504l0-94l100 0l0 94l-100 0z" horiz-adv-x="1000" />
<glyph glyph-name="info" unicode="&#xe84f;" d="m488 873c-269 0-488-218-488-488c0-270 219-488 488-488c270 0 489 218 489 488c0 270-219 488-489 488z m0-81c225 0 407-182 407-407c0-224-182-407-407-407c-224 0-407 183-407 407c0 225 183 407 407 407z m0-148c-32 0-58-27-58-59c0-32 26-58 58-58c33 0 58 26 58 58c0 32-25 59-58 59z m-46-151l0-369l92 0l0 369l-92 0z" horiz-adv-x="1000" />
<glyph glyph-name="plusone" unicode="&#xe850;" d="m488 873c-269 0-488-218-488-488c0-270 219-488 488-488c270 0 489 218 489 488c0 270-219 488-489 488z m0-81c225 0 407-182 407-407c0-224-182-407-407-407c-224 0-406 183-406 407c0 225 182 407 406 407z m169-174l-200-42l0-59l108 9l0-379l92 0l0 471z m-338-125l0-92l-92 0l0-62l92 0l0-92l62 0l0 92l92 0l0 62l-92 0l0 92l-62 0z" horiz-adv-x="1000" />
<glyph glyph-name="undo" unicode="&#xe851;" d="m250 837l-250-251l250-251l65 67l-138 143l450 0c146 0 262-117 262-262c0-145-116-262-262-262l-523 0l0-87l523 0c193 0 350 157 350 349c0 192-157 349-350 349l-450 0l138 139l-65 66z" horiz-adv-x="1000" />
<glyph glyph-name="redo" unicode="&#xe852;" d="m727 837l-65-66l137-139l-450 0c-192 0-349-157-349-349c0-192 157-349 349-349l524 0l0 87l-524 0c-145 0-262 117-262 262c0 145 117 262 262 262l450 0l-137-143l65-67l250 251l-250 251z" horiz-adv-x="1000" />
<glyph glyph-name="sort_1" unicode="&#xe853;" d="m0 691l0-117l977 0l0 117l-977 0z m0-247l0-117l690 0l0 117l-690 0z m0-248l0-117l352 0l0 117l-352 0z" horiz-adv-x="1000" />
<glyph glyph-name="sort_2" unicode="&#xe854;" d="m208 626c-56 0-101-13-136-42c-35-28-52-61-50-97l1-3l100 0c0 18 8 33 22 44c14 12 33 17 56 17c27 0 48-6 62-20c14-14 21-33 21-58l0-41l-81 0c-65 0-114-12-150-37c-35-25-53-60-53-105c0-43 13-78 39-103c26-25 62-37 111-37c29 0 56 7 79 22c24 15 42 33 56 55c1-11 2-22 5-34c2-11 6-22 9-34l106 0c-6 17-9 34-12 52c-3 17-4 36-4 55l0 207c0 52-17 91-50 118c-34 28-77 41-131 41z m396-10l0-84l230 0l-235-311l0-68l378 0l0 83l-249 0l238 314l0 66l-362 0z m-140-193l0-77l116 0l0 77l-116 0z m-263-62l83 0l0-68c-6-17-21-32-42-45c-21-14-44-20-70-20c-22 0-39 5-51 15c-11 11-17 25-17 42c0 21 9 39 26 53c17 16 41 23 71 23z" horiz-adv-x="1000" />
<glyph glyph-name="document" unicode="&#xe855;" d="m101 873l0-976l775 0l0 976l-775 0z m100-150l575 0l0-65l-575 0l0 65z m0-158l575 0l0-65l-575 0l0 65z m0-158l575 0l0-65l-575 0l0 65z m0-158l575 0l0-65l-575 0l0 65z m0-158l575 0l0-65l-575 0l0 65z" horiz-adv-x="1000" />
<glyph glyph-name="picture" unicode="&#xe856;" d="m0 873l0-976l977 0l0 976l-977 0z m59-59l858 0l0-858l-858 0l0 858z m239-418l-180-134l0-247l740 0l0 135l-201 157l-158-90l-201 179z" horiz-adv-x="1000" />
<glyph glyph-name="movie" unicode="&#xe857;" d="m0 814l0-858l977 0l0 858l-977 0z m59-59l133 0l0-89l-133 0l0 89z m725 0l133 0l0-89l-133 0l0 89z m-725-163l133 0l0-88l-133 0l0 88z m725 0l133 0l0-88l-133 0l0 88z m-725-162l133 0l0-89l-133 0l0 89z m725 0l133 0l0-89l-133 0l0 89z m-725-163l133 0l0-89l-133 0l0 89z m725 0l133 0l0-89l-133 0l0 89z m-725-163l133 0l0-89l-133 0l0 89z m725 0l133 0l0-89l-133 0l0 89z" horiz-adv-x="1000" />
<glyph glyph-name="bulb" unicode="&#xe858;" d="m488 873c-164 0-298-132-298-297c0-57 17-110 45-156c40-85 93-178 93-253l0-19c0-13 4-26 11-36l0-159l38 0l0-19c0-21 16-37 37-37l149 0c20 0 37 16 37 37l0 19l37 0l0 159c7 10 11 23 11 36l0 19c0 75 53 168 93 253c28 46 45 99 45 156c0 165-133 297-298 297z m0-55c135 0 242-108 242-242c0-46-13-89-36-127l-2-2l-1-3c-39-83-99-176-99-277l0-19c0-6-2-9-8-9l-96 0l-95 0c-6 0-9 3-9 9l0 19c0 101-59 194-98 277l-1 3l-2 2c-23 38-37 81-37 127c0 134 108 242 242 242z m119-284a28 28 0 0 1-3 0a28 28 0 0 1-22-18l-63-160a28 28 0 0 1 52-20l63 159a28 28 0 0 1-27 39z m-241 0a28 28 0 0 1-23-39l63-159a28 28 0 1 1 51 20l-63 160a28 28 0 0 1-28 18z" horiz-adv-x="1000" />
<glyph glyph-name="news" unicode="&#xe859;" d="m0 731l0-610c0-45 36-82 81-82l814 0c45 0 82 37 82 82l0 468l-82 0l0 142l-81 0l-814 0z m61-61l773 0l0-488c0-45 18-82 41-82l-774 0c-22 0-40 19-40 41l0 529z m81-102l0-40l611 0l0 40l-611 0z m0-101l0-245l184 0l0 245l-184 0z m245 0l0-41l366 0l0 41l-366 0z m0-102l0-41l366 0l0 41l-366 0z m0-102l0-41l366 0l0 41l-366 0z" horiz-adv-x="1000" />
<glyph glyph-name="line_chart" unicode="&#xe85a;" d="m79 741l0-389l-79-86l52-48l213 229l178-161l140 140l91-73l303 302l-50 51l-257-258l-92 74l-137-138l-180 162l-75-80l0 275l-107 0z m107-458l-107-115l0-139l855 0l0 107l-748 0l0 147z" horiz-adv-x="1000" />
<glyph glyph-name="calculator" unicode="&#xe85b;" d="m128 873c-26 0-47-20-47-46l0-884c0-25 21-46 47-46l721 0c25 0 46 21 46 46l0 884c0 26-21 46-46 46l-721 0z m42-69l637 0c10 0 18-9 18-19l0-800c0-10-8-18-18-18l-637 0c-10 0-19 8-19 18l0 800c0 10 9 19 19 19z m74-117l0-116l488 0l0 116l-488 0z m0-186l0-93l116 0l0 93l-116 0z m186 0l0-93l116 0l0 93l-116 0z m186 0l0-93l116 0l0 93l-116 0z m-372-162l0-93l116 0l0 93l-116 0z m186 0l0-93l116 0l0 93l-116 0z m186 0l0-93l116 0l0 93l-116 0z m-372-163l0-93l116 0l0 93l-116 0z m186 0l0-93l116 0l0 93l-116 0z m186 0l0-93l116 0l0 93l-116 0z" horiz-adv-x="1000" />
<glyph glyph-name="stamp" unicode="&#xe85c;" d="m488 873c-84 0-152-68-152-151c0-34 11-65 29-90c13-136 37-255 37-410l-22-43l22-43l173 0l22 43l-22 43c0 155 23 274 36 410c18 25 29 56 29 90c0 83-68 151-152 151z m-347-781l-65-195l825 0l-65 195l-695 0z" horiz-adv-x="1000" />
<glyph glyph-name="turn_left" unicode="&#xe85d;" d="m570 792c-224 0-406-183-406-407c0-10 1-20 2-31l-111 110l-55-55l211-209l210 209l-56 55l-119-114c-1 11-2 23-2 35c0 181 146 327 326 326c181 0 326-145 326-326c0-180-145-326-326-326c-88 0-168 35-226 92l-58-57c74-71 174-115 284-115c224 0 407 182 407 406c0 224-183 407-407 407z" horiz-adv-x="1000" />
<glyph glyph-name="turn_right" unicode="&#xe85e;" d="m406 792c-224 0-406-183-406-407c0-224 182-406 406-406c111 0 211 44 284 115l-57 56c-58-56-138-91-227-91c-180 0-326 146-326 326c0 181 146 327 326 327c181 0 327-146 327-327c0-12-1-24-3-35l-119 114l-56-55l211-209l211 209l-55 55l-111-110c0 11 2 21 2 31c0 224-182 407-407 407z" horiz-adv-x="1000" />
<glyph glyph-name="map" unicode="&#xe85f;" d="m334 873l-333-68l0-840l333-68l305 68l337-41l0 922l-337-41l-305 68z m-7-60l0-855l-272 55l0 744l272 56z m595-28l0-799l-271 31l0 737l271 31z" horiz-adv-x="1000" />
<glyph glyph-name="location" unicode="&#xe860;" d="m488 873c-155 0-280-125-280-280c0-100 33-158 75-212c41-54 92-102 122-174c33-81 47-162 58-221c5-30 11-55 16-70c3-8 5-14 7-17c2-2 2-2 2-2c0 0 0 0 2 2c2 3 5 9 8 17c5 15 10 40 15 70c11 59 26 140 58 221c30 72 81 120 123 174c42 54 75 112 75 212c0 155-125 280-281 280z m0-185c53 0 95-42 95-95c0-52-42-95-95-95c-52 0-95 43-95 95c0 53 43 95 95 95z" horiz-adv-x="1000" />
<glyph glyph-name="armchair" unicode="&#xe861;" d="m488 763c-88 0-169-18-234-49c-65-31-116-76-134-135l-12-38l39-9c66-16 116-76 116-147l0-38l0-37l38 0l375 0l38 0l0 37l0 38c0 71 49 131 115 147l39 9l-12 38c-18 59-68 104-133 135c-65 31-146 49-235 49z m-375-265c-62 0-113-50-113-113c0-49 32-91 75-106l0-234l0-38l150 0l0 38l526 0l0-38l150 0l0 38l0 234c44 15 76 57 76 106c0 63-51 113-113 113c-62 0-113-50-113-113l0-113l-526 0l0 113c0 63-50 113-112 113z" horiz-adv-x="1000" />
<glyph glyph-name="exit" unicode="&#xe862;" d="m13 873l0-976l90 0l364 68l0 68l-359-46l0 796l359-46l0 68l-364 68l-90 0z m678-213l-62-62l170-170l-501 0l0-86l501 0l-170-169l62-61l273 273l-273 275z" horiz-adv-x="1000" />
<glyph glyph-name="picker" unicode="&#xe863;" d="m768 873c-26 0-50-9-66-26l-1 0l-136-136l-50 18l-61-60l34-35l-265-266l-27-107c0-26 27-52 53-52l106 26l266 265l35-34l61 61l-19 51l136 136l-1 0c17 17 28 41 28 66c0 52-42 93-93 93z m-251-268l74-75l-257-257l-87-22c0 0-3 1-5 4c-3 3-4 4-4 5l22 87l257 258z m-308-415c-8 0-93-169-93-200c0-51 42-93 93-93c51 0 93 42 93 93c0 37-85 200-93 200z" horiz-adv-x="1000" />
<glyph glyph-name="brush" unicode="&#xe864;" d="m922 803c-18 0-38-7-56-26c-151-134-247-211-382-348c28-9 59-29 87-57c26-26 43-54 53-80c137 141 203 248 329 399c45 55 19 106-23 112c-3 0-6 0-8 0z m-492-407l-67-67c29-9 63-29 93-59c36-35 58-76 63-108l74 75c-7 30-28 65-59 97c-35 34-73 56-104 62z m-112-104c-5-2-9-3-16-4c-215-8-154-256-302-246c127-139 455-68 478 79c1 2 1 2 2 3c-5 32-27 72-62 107c-33 33-70 54-100 61z" horiz-adv-x="1000" />
<glyph glyph-name="bug" unicode="&#xe865;" d="m338 873a38 38 0 0 1-4 0a38 38 0 0 1-22-65l66-66c-9-18-15-36-15-57c0 0 0-1 0-1c-38-16-73-39-103-68l-95 95a38 38 0 0 1-31 12a38 38 0 0 1-22-65l99-99c-46-66-73-148-73-237l0-9l-101-102a38 38 0 0 1 53-53l61 61c15-61 43-117 81-162l-95-96a38 38 0 1 1 53-53l97 97c57-44 126-71 201-71c75 0 144 27 201 71l98-97a38 38 0 1 1 53 53l-96 96c38 45 67 101 82 162l61-61a38 38 0 0 1 53 53l-102 102l0 9c0 89-27 171-72 237l99 99a38 38 0 0 1-28 65a38 38 0 0 1-25-12l-95-95c-31 29-66 52-104 68c0 0 0 1 0 1c0 13-2 25-6 37l85 85a38 38 0 0 1-28 64a38 38 0 0 1-26-11l-75-75c-21 16-46 25-75 25c-20 0-40-6-57-15l-66 67a38 38 0 0 1-27 11z m150-238c152 0 275-140 275-313c0-172-123-312-275-312l0 625z" horiz-adv-x="1000" />
<glyph glyph-name="creditcard" unicode="&#xe866;" d="m44 751c-24 0-44-19-44-44l0-89l977 0l0 89c0 25-20 44-45 44l-888 0z m-44-281l0-407c0-24 20-44 44-44l888 0c25 0 45 20 45 44l0 407l-977 0z m104-148l458 0l0-44l-458 0l0 44z m0-118l310 0l0-44l-310 0l0 44z" horiz-adv-x="1000" />
<glyph glyph-name="bargraph" unicode="&#xe867;" d="m264 788l0-806l186 0l0 806l-186 0z m527-232l0-574l186 0l0 574l-186 0z m-791-93l0-481l186 0l0 481l-186 0z m527-279l0-202l186 0l0 202l-186 0z" horiz-adv-x="1000" />
<glyph glyph-name="share" unicode="&#xe8e6;" d="m806 873c-84 0-152-68-152-151c0-9 1-17 3-25l-375-211c-27 30-67 49-111 49c-83 0-151-67-151-151c0-83 68-151 151-151c45 0 85 20 113 51l370-218c0-6-1-12-1-18c0-84 67-151 151-151c83 0 151 67 151 151c0 83-68 151-151 151c-46 0-88-21-116-53l-368 217c1 7 2 14 2 21c0 8-1 16-2 24l375 211c28-29 67-48 111-48c83 0 151 68 151 151c0 83-68 151-151 151l0 0z" horiz-adv-x="1000" />
<glyph glyph-name="link" unicode="&#xe869;" d="m663 873c-4 0-8 0-12 0c-34-3-68-20-96-48l-110-110c-56-55-70-143-24-188l11-11l201 201c13 13 33 13 45 1l143-143c12-13 12-32-1-45l-202-201l12-11c46-46 133-32 189 23l109 111c56 56 65 138 20 183l-210 210c-19 20-46 29-75 28z m-81-304c-14 0-27-5-38-16l-224-224c-21-21-21-53 0-74l38-38c21-21 54-21 74 0l225 224c20 21 20 54 0 75l-39 37c-10 11-23 16-36 16z m-316-90c-37-2-77-19-108-50l-109-111c-56-55-65-137-20-183l209-209c45-46 128-36 184 19l110 110c56 56 69 143 24 188l-12 12l-200-201c-13-14-33-14-46-1l-142 143c-13 12-12 32 1 45l201 200l-12 12c-17 17-39 25-64 26c-5 1-10 1-16 0z" horiz-adv-x="1000" />
<glyph glyph-name="tag" unicode="&#xe86a;" d="m566 873l-555-554l0-422l400 0l555 555l-400 421z m-24-244l45-44l-345-345l-45 44l345 345z m138-138l46-44l-346-346l-45 46l345 344z m-502-384c24 0 43-19 43-44c0-24-19-44-43-44c-25 0-44 20-44 44c0 25 19 44 44 44z" horiz-adv-x="1000" />
<glyph glyph-name="tags" unicode="&#xe86b;" d="m332 873l-223-439l363 364l-140 75z m229-61l-520-520l0-395l375 0l519 520l-374 395z m-22-229l42-41l-323-324l-43 42l324 323z m130-129l42-42l-324-324l-42 43l324 323z m-472-360c23 0 41-18 41-41c0-23-18-41-41-41c-23 0-41 18-41 41c0 23 18 41 41 41z" horiz-adv-x="1000" />
<glyph glyph-name="copy" unicode="&#xe86c;" d="m81 873l0-813l123 0l0 81l-41 0l0 651l488 0l0-41l81 0l0 122l-651 0z m163-162l0-814l651 0l0 814l-651 0z m82-82l488 0l0-651l-488 0l0 651z m81-149l0-41l183 0l0 41l-183 0z m0-81l0-41l325 0l0 41l-325 0z m0-82l0-40l224 0l0 40l-224 0z m0-81l0-41l183 0l0 41l-183 0z m0-81l0-41l305 0l0 41l-305 0z" horiz-adv-x="1000" />
<glyph glyph-name="cut" unicode="&#xe86d;" d="m17 873l0-976l692 0l0 244l-81 0l0-163l-529 0l0 814l529 0l0-163l81 0l0 244l-692 0z m843-172c-27 0-52-12-70-30c-36-38-64-158-164-226c-128 50-283 184-380 119l287-179l-287-179c97-65 252 70 380 120c100-68 128-189 164-227c18-18 43-29 70-29c55 0 99 44 99 99c0 55-44 99-99 99c-6 0-12 0-18-1l-137 92c3 8 5 17 5 26c0 10-2 19-5 26l137 93c6-1 12-2 18-2c55 0 99 45 99 99c0 55-44 100-99 100z m0-56c24 0 43-20 43-44c0-24-19-43-43-43c-24 0-43 19-43 43c0 24 19 44 43 44z m-230-231c16 0 29-13 29-29c0-16-13-29-29-29c-16 0-29 13-29 29c0 16 13 29 29 29z m230-202c24 0 43-19 43-43c0-24-19-43-43-43c-24 0-43 19-43 43c0 24 19 43 43 43z" horiz-adv-x="1000" />
<glyph glyph-name="paste" unicode="&#xe86e;" d="m488 873c-41 0-75-33-75-75l-300 0l0-901l751 0l0 901l-301 0c0 42-33 75-75 75z m0-37c21 0 38-17 38-38c0-20-17-37-38-37c-20 0-37 17-37 37c0 21 17 38 37 38z m-300-113l188 0l-113-112l0-38l451 0l0 38l-113 112l188 0l0-751l-601 0l0 751z m75-250l0-38l244 0l0 38l-244 0z m0-75l0-38l451 0l0 38l-451 0z m0-75l0-38l319 0l0 38l-319 0z m0-76l0-37l244 0l0 37l-244 0z m0-75l0-37l413 0l0 37l-413 0z" horiz-adv-x="1000" />
<glyph glyph-name="filter" unicode="&#xe86f;" d="m0 796l377-466l0-311c0-25 50-44 111-44c62 0 111 19 111 44l0 311l378 466l-977 0z m140-67l697 0l-289-358l-15-18l0-23l0-282c-11-3-25-7-45-7c-19 0-33 4-44 7l0 282l0 23l-14 18l-290 358z" horiz-adv-x="1000" />
<glyph glyph-name="volume" unicode="&#xe870;" d="m654 873c-3 0-5 0-7 0c-100-8-185-205-278-305l-122 0c-61 0-61-366 0-366l122 0c93-100 179-296 278-304c2-1 5-1 7-1c67 0 122 219 122 488c0 270-55 488-122 488z m0-81c33 0 61-182 61-407c0-225-28-407-61-407c-27 0-49 112-58 269c32 31 53 81 53 138c0 57-21 107-53 139c9 156 31 268 58 268z" horiz-adv-x="1000" />
<glyph glyph-name="volume_mute" unicode="&#xe871;" d="m418 836l0 0c-2 0-3 0-5 0c-93-8-172-190-258-282l-113 0c-56 0-56-338 0-338l113 0c86-92 166-274 258-282c1 0 3 0 5 0c63 0 113 202 113 451c0 249-50 451-113 451z m0-75c32 0 57-168 57-376c0-208-25-376-57-376c-24 0-45 103-52 248c29 29 48 75 48 128c0 52-19 99-48 128c7 144 28 248 52 248z m240-193l-47-47l136-136l-136-137l47-47l136 137l136-137l47 47l-136 137l136 136l-47 47l-136-136l-136 136z" horiz-adv-x="1000" />
<glyph glyph-name="volume_up" unicode="&#xe872;" d="m474 873c-2 0-4 0-6 0c-101-9-186-205-278-305l-123 0c-61 0-61-366 0-366l123 0c92-100 179-297 278-305c2 0 4 0 6 0c68 0 122 219 122 488c0 270-54 488-122 488z m0-81c34 0 61-182 61-407c0-225-27-407-61-407c-26 0-48 112-57 269c32 31 52 81 52 138c0 57-20 107-52 139c9 156 31 268 57 268z m420-95l-46-48c30-82 46-171 46-264c0-90-16-177-45-257l48-48c37 95 58 198 58 305c0 111-22 216-61 312z m-97-99l-43-46c14-53 21-109 21-167c0-56-7-111-20-163l44-44c21 65 31 135 31 207c0 74-11 146-33 213z m-95-111l-47-42c2-20 3-40 3-60c0-20-1-40-3-59l47-40c5 32 9 65 9 99c0 35-4 69-9 102z" horiz-adv-x="1000" />
<glyph glyph-name="volume_down" unicode="&#xe873;" d="m596 873c-2 0-4 0-6 0c-101-8-185-205-278-305l-122 0c-62 0-62-366 0-366l122 0c93-100 179-296 278-304c2-1 4-1 6-1c68 0 122 219 122 488c0 270-54 488-122 488z m0-81c34 0 61-182 61-407c0-225-27-407-61-407c-26 0-48 112-57 269c32 31 52 81 52 138c0 57-20 107-52 139c9 156 31 268 57 268z m228-305l-47-42c2-20 3-40 3-60c0-20-1-40-3-59l47-40c5 32 9 65 9 99c0 35-3 69-9 102z" horiz-adv-x="1000" />
<glyph glyph-name="halt" unicode="&#xe874;" d="m488 873c-125 0-249-48-345-143c-191-191-191-499 0-690c191-191 500-191 690 0c191 191 191 499 0 690c-95 95-220 143-345 143z m0-124c93 1 187-35 258-106c126-127 141-323 42-466l-507 508c62 43 134 64 207 64z m-299-156l507-508c-142-98-339-84-465 43c-127 126-141 323-42 465z" horiz-adv-x="1000" />
<glyph glyph-name="io" unicode="&#xe875;" d="m437 873l0-539l103 0l0 539l-103 0z m-103-25c-194-64-334-247-334-463c0-269 219-488 488-488c270 0 489 219 489 488c0 216-140 399-334 463l0-109c136-60 231-196 231-354c0-213-173-385-386-385c-213 0-385 172-385 385c0 158 95 294 231 354l0 109z" horiz-adv-x="1000" />
<glyph glyph-name="blob" unicode="&#xe876;" d="m488 873c-57-235-284-534-284-691c0-158 127-285 284-285c158 0 285 127 285 285c0 157-228 456-285 691z" horiz-adv-x="1000" />
<glyph glyph-name="mic" unicode="&#xe877;" d="m463 873c-82 0-149-61-149-138l0-395c0-77 67-139 149-139l50 0c82 0 149 62 149 139l0 395c0 77-67 138-149 138l-50 0z m-300-520c0-158 114-289 263-319l0-137l125 0l0 137c148 30 263 161 263 319l-87 0l0-13c0-115-99-204-214-204l-50 0c-115 0-214 89-214 204l0 13l-86 0z" horiz-adv-x="1000" />
<glyph glyph-name="micoff" unicode="&#xe878;" d="m480 873c-83 0-149-61-149-138l0-395c0-3 1-7 1-10l347 347l0 58c0 77-66 138-149 138l-50 0z m304-150l-638-637l46-46l637 638l-45 45z m-105-254l-257-257c18-7 37-11 58-11l50 0c83 0 149 62 149 139l0 129z m-500-116c0-51 13-99 34-142l64 65c-7 20-11 41-11 64l0 13l-87 0z m565 0l0-13c0-115-99-205-214-205l-50 0c-39 0-75 11-107 29l-66-67c39-31 85-53 136-63l0-137l124 0l0 137c149 30 264 161 264 319l-87 0z" horiz-adv-x="1000" />
<glyph glyph-name="warning" unicode="&#xe879;" d="m488 794l-488-818l977 0l-489 818z m-42-319l83 0l0-249l-83 0l0 249z m42-286c33 0 59-26 59-59c0-32-26-58-59-58c-32 0-59 26-59 58c0 33 27 59 59 59z" horiz-adv-x="1000" />
<glyph glyph-name="joypad" unicode="&#xe87a;" d="m212 597c-117 0-212-94-212-212c0-117 95-212 212-212c60 0 113 36 152 75l249 0c39-39 92-75 152-75c117 0 212 95 212 212c0 118-95 212-212 212l-553 0z m-9-95c64 0 116-52 116-116c0-64-52-116-116-116c-64 0-116 52-116 116c0 64 52 116 116 116z m571-6c20 0 36-17 36-37c0-19-16-36-36-36c-20 0-37 17-37 36c0 20 17 37 37 37z m-571-27c-15 0-27-13-27-28l0-28l-28 0c-15 0-28-12-28-27c0-16 13-28 28-28l28 0l0-27c0-16 12-28 27-28c16 0 28 12 28 28l0 27l27 0c16 0 28 12 28 28c0 15-12 27-28 27l-27 0l0 28c0 15-12 28-28 28z m497-47c20 0 36-16 36-36c0-20-16-36-36-36c-20 0-36 16-36 36c0 20 16 36 36 36z m147 0c20 0 36-16 36-36c0-20-16-36-36-36c-19 0-36 16-36 36c0 20 17 36 36 36z m-73-73c20 0 36-17 36-37c0-20-16-36-36-36c-20 0-37 16-37 36c0 20 17 37 37 37z" horiz-adv-x="1000" />
<glyph glyph-name="import" unicode="&#xe87b;" d="m224 873l0-244l81 0l0 163l529 0l0-814l-529 0l0 163l-81 0l0-244l692 0l0 976l-692 0z m230-214l-61-61l169-170l-501 0l0-86l501 0l-169-170l61-60l274 273l-274 274z" horiz-adv-x="1000" />
<glyph glyph-name="export" unicode="&#xe87c;" d="m0 829l0-888l555 0l0 222l-74 0l0-148l-407 0l0 740l407 0l0-148l74 0l0 222l-555 0z m728-194l-56-56l154-154l-456 0l0-79l455 0l-153-154l56-55l249 248l-249 250z" horiz-adv-x="1000" />
<glyph glyph-name="present" unicode="&#xe87d;" d="m455 821l-35-39l-420 0l0-78l39 0l0-547l899 0l0 547l39 0l0 78l-420 0l-30 39l-72 0z m-338-117l742 0l0-469l-742 0l0 469z m231-587l-56-168l92 0l57 168l-93 0z m188 0l56-168l93 0l-57 168l-92 0z" horiz-adv-x="1000" />
<glyph glyph-name="playback_play" unicode="&#xe87e;" d="m145 772l0-774l686 387l-686 387z" horiz-adv-x="1000" />
<glyph glyph-name="playback_pause" unicode="&#xe87f;" d="m145 728l0-686l280 0l0 686l-280 0z m407 0l0-686l279 0l0 686l-279 0z" horiz-adv-x="1000" />
<glyph glyph-name="playback_stop" unicode="&#xe880;" d="m145 728l0-686l686 0l0 686l-686 0z" horiz-adv-x="1000" />
<glyph glyph-name="playback_rew" unicode="&#xe881;" d="m518 696l-518-311l518-311l0 284l459-284l0 622l-459-284l0 284z" horiz-adv-x="1000" />
<glyph glyph-name="playback_prev" unicode="&#xe882;" d="m0 687l0-603l86 0l0 262l431-262l0 275l460-275l0 603l-460-276l0 276l-431-263l0 263l-86 0z" horiz-adv-x="1000" />
<glyph glyph-name="playback_forw" unicode="&#xe883;" d="m0 696l0-622l459 284l0-284l518 311l-518 311l0-284l-459 284z" horiz-adv-x="1000" />
<glyph glyph-name="playback_next" unicode="&#xe884;" d="m0 687l0-603l460 275l0-275l430 262l0-262l87 0l0 603l-87 0l0-263l-430 263l0-275l-460 275z" horiz-adv-x="1000" />
<glyph glyph-name="playback_shuff" unicode="&#xe885;" d="m737 781l0-157c-158-32-248-129-329-216c-99-105-184-197-408-197l0-92c251 0 376 120 475 227c79 84 142 157 262 184l0-136l240 195l-240 192z m-737-130l0-92c183 0 273-61 354-141c7 7 13 15 20 22c14 15 28 29 43 44c-92 88-212 167-417 167z m737-278l0-133c-84 19-139 60-192 112c-12-12-24-24-36-38c-9-9-18-18-27-28c65-61 143-117 255-139l0-158l240 193l-240 191z" horiz-adv-x="1000" />
<glyph glyph-name="playback_repeat" unicode="&#xe886;" d="m732 798l0-150l-394 0c-127 0-214-43-259-114c-46-71-51-157-51-243l98 79c4 46 14 85 32 113c27 43 72 71 180 71l394 0l0-150l245 198l-245 196z m216-319l-97-79c-5-46-15-85-32-113c-28-43-72-71-180-71l-395 0l0 150l-244-198l244-196l0 150l395 0c127 0 214 43 259 114c45 71 50 158 50 243z" horiz-adv-x="1000" />
<glyph glyph-name="playback_repeat_1" unicode="&#xe887;" d="m721 797l0-147l-388 0c-126 0-211-43-256-112c-44-70-49-155-49-239l96 77c4 45 14 84 32 112c26 42 70 69 177 69l388 0l0-148l240 196l-240 192z m49-412c-113 0-205-93-205-206c0-114 92-206 205-206c114 0 207 92 207 206c0 113-93 206-207 206z m-530-12l-240-196l240-193l0 148l284 0c-3 15-5 31-5 47c0 15 2 31 5 46l-284 0l0 148z m567-74l0-241l-55 0l0 191l-48 0l0 41l103 9z" horiz-adv-x="1000" />
<glyph glyph-name="more" unicode="&#xe888;" d="m488 873c-269 0-488-218-488-488c0-270 219-488 488-488c270 0 489 218 489 488c0 270-219 488-489 488z m0-81c225 0 407-182 407-407c0-224-182-407-407-407c-224 0-407 183-407 407c0 225 183 407 407 407z m-183-314l183-251l183 251l-366 0z" horiz-adv-x="1000" />
<glyph glyph-name="goright" unicode="&#xe889;" d="m563 779l0-257c-431 0-563-206-563-525c63 86 87 269 563 269l0-275l414 394l-414 394z" horiz-adv-x="1000" />
<glyph glyph-name="goleft" unicode="&#xe88a;" d="m414 779l-414-394l414-394l0 276c475 0 499-184 563-270c0 319-132 525-563 525l0 257z" horiz-adv-x="1000" />
<glyph glyph-name="like" unicode="&#xe88b;" d="m584 796c-26 0-39-16-39-16c0 0 3-101 3-125c0-24-116-213-145-237c-13-11-37-16-56-28l0 23c0 21-15 37-36 37l-272 0c-10 0-21-3-29-11c-7-8-11-18-10-29l32-400c2-20 18-36 39-36l240 0c21 0 35 17 36 39l0 60l30-8c20-6 46-31 73-31l358 0c86 0 115 108 29 108c86 0 116 109 30 109c86 0 115 110 29 110c86 0 115 109 29 109l-288 0c11 41 30 174 30 174c-4 64-48 144-48 144c-13 6-25 8-35 8z m-519-406l222 0l0-356l-195 0l-27 356z" horiz-adv-x="1000" />
<glyph glyph-name="dontlike" unicode="&#xe88c;" d="m666 796c-22 0-35-17-36-39l0-60l-30 9c-20 5-46 31-73 31l-358 0c-86 0-115-109-30-109c-85 0-115-109-29-109c-86 0-115-109-29-109c-86 0-115-109-30-109l289 0c-11-42-31-174-31-174c5-64 48-145 48-145c14-6 26-8 35-8c27 0 40 16 40 16c0 0-3 102-3 126c0 23 116 212 145 236c12 11 37 17 56 29l0-23c0-22 14-37 36-37l271 0c11 0 22 2 29 11c8 7 11 18 10 29l-31 399c-2 21-19 36-39 36l-240 0z m24-59l194 0l28-357l-222 0l0 357z" horiz-adv-x="1000" />
<glyph glyph-name="planet" unicode="&#xe88d;" d="m491 754c-28-1-57-4-85-12l0 0c-158-41-265-178-275-332c-149-138-175-273-58-304c45-12 105-6 171 12c89-85 220-123 348-90c136 36 234 143 265 271c-93-44-207-72-314-85c-20-2-39-4-57-4c147 32 293 114 375 207c1 1 3 1 4 2c0 1 0 1 1 2c50 50 86 103 102 154c43 136-81 202-277 146c-9-2-17-5-26-8c-53 27-112 42-174 41z m212-47c118 0 181-62 149-166c-3-8-6-15-9-23c-32 82-92 148-164 188c8 1 16 1 24 1z m-573-321c0-31 4-63 12-94c10-39 27-75 47-107c-8 1-17 2-24 4c-86 22-95 102-35 197z" horiz-adv-x="1000" />
<glyph glyph-name="knight" unicode="&#xe88e;" d="m293 873l39-100c-83-99-157-183-240-284c-34-41 50-147 103-142c82 35 177 73 264 118c40-154-276-189-317-368l616 0c-25 149 193 226 119 461c-82 262-343 291-584 315z m-200-826l0-150l717 0l0 150l-717 0z" horiz-adv-x="1000" />
<glyph glyph-name="flags" unicode="&#xe88f;" d="m155 795c-51-3-102-16-155-46l0-533c37 21 72 33 108 40l0 64c-15-2-29-5-43-9l0 395c37 16 74 25 111 24c87-1 184-40 292-69c80-21 177-33 270-9l-1-73c22-4 46-6 67-6l0 176c-216-125-419 42-626 46c-7 0-15 0-23 0z m173-194c-51-2-103-16-156-46l0-533c277 159 528-160 805 0l0 533c-217-125-420 43-627 46c-7 0-15 0-22 0z m21-65c86-1 183-40 291-69c80-21 178-33 271-9l1-393c-102-44-208-17-325 19c-103 32-223 67-350 33l0 395c38 16 74 25 112 24z" horiz-adv-x="1000" />
<glyph glyph-name="coffee" unicode="&#xe890;" d="m366 873c-80 0-158-60-158-144c0-150 181-172 242-305c30 80-73 182-94 205c-30 31-47 56-47 101c0 39 34 72 62 72c31 0 74-24 76-57c1-20-26-39-52-30c-26 10-16 31 1 49c-38-6-48-38-28-62c16-18 53-30 80-22c28 9 47 30 47 69c2 80-74 124-129 124z m-265-478l0-359c3-90 80-139 172-139l239 0c82 0 173 59 173 139l0 25c54 24 120 30 156 70c23 27 35 67 35 118c-7 85-67 129-144 120c-16-2-31-7-47-12l0 38l-584 0z m654-105c27-2 41-17 41-41c0-40-7-57-15-66c-29-22-64-25-96-37l0 122c20 12 40 19 57 22c5 0 9 0 13 0z" horiz-adv-x="1000" />
<glyph glyph-name="coffee2go" unicode="&#xe891;" d="m214 873l-21-126l-70 0l0-112l731 0l0 112l-71 0l-21 126l-548 0z m-21-281l83-695l424 0l83 695l-590 0z" horiz-adv-x="1000" />
<glyph glyph-name="guitar" unicode="&#xe892;" d="m894 873l-117-116l11-27l-283-261c-68 47-146 54-188 12c-55-54-48-99-72-123c-24-24-120 5-208-84c-65-65-42-194 52-288c94-94 224-117 289-52c88 88 59 184 83 208c24 24 69 17 124 71c42 43 35 120-12 188l260 284l27-11l117 117l-18 65l-65 17z m-495-512c17 0 33-7 46-19c25-25 25-66 0-91c-25-25-66-25-91 0c-25 25-25 66 0 91c12 12 29 19 45 19z" horiz-adv-x="1000" />
<glyph glyph-name="record" unicode="&#xe893;" d="m488 873c-269 0-488-219-488-488c0-270 219-488 488-488c270 0 489 218 489 488c0 269-219 488-489 488z m-15-342c5 0 10 0 15 0c81 0 146-66 146-146c0-81-65-146-146-146c-80 0-145 65-145 146c0 75 57 138 130 146z m6-56c-46-4-81-43-81-90c0-50 40-91 90-91c50 0 91 41 91 91c0 50-41 90-91 90c-3 0-6 1-9 0z" horiz-adv-x="1000" />
<glyph glyph-name="basket" unicode="&#xe894;" d="m488 740c-35 0-64-28-64-64c0-2 0-5 0-7l-204-205l103 0l150 150c5-1 10-2 15-2c6 0 11 1 16 2l150-150l103 0l-205 205c0 2 1 5 1 7c0 36-29 64-65 64z m-488-348l193-362l590 0l194 362l-977 0z m135-73l707 0l-119-217l-470 0l-118 217z" horiz-adv-x="1000" />
<glyph glyph-name="sms" unicode="&#xe895;" d="m0 686l0-602l792 0l0 424l185 178l-977 0z m86-196l430 0l0-74l-430 0l0 74z m0-136l614 0l0-73l-614 0l0 73z" horiz-adv-x="1000" />
<glyph glyph-name="bluetooth" unicode="&#xe896;" d="m488 873c-272 0-359-179-359-488c0-308 87-488 359-488c272 0 360 180 360 488c0 309-88 488-360 488z m-42-53l278-260l-190-180l190-180l-278-260l1 370l-156-149l-41 39l190 180l-190 180l41 39l156-149l-1 370z m67-148l0-224l118 112l-118 112z m0-360l0-224l118 112l-118 112z" horiz-adv-x="1000" />
<glyph glyph-name="restaurant" unicode="&#xe897;" d="m794 873c-101 0-161-91-161-182l0-287c0-20 17-55 40-87l0-378c0-22 10-41 30-41l54 0c21 0 37 19 37 41l0 934z m-493-8l-20-205l-18 0l-18 203l-24 0c-26-90-38-199-38-292c0-41 38-76 80-91l-20-544c0-48 142-55 141-2l-20 544c43 14 80 49 80 91c8 93-20 202-38 292l-24 0l-18-203l-18 0l-16 206l-29 1z" horiz-adv-x="1000" />
<glyph glyph-name="tshirt" unicode="&#xe898;" d="m308 796c-38-1-73-6-100-32l-208-204l182-145l54 49l0-490l505 0l0 490l54-49l182 145l-212 204c-36 34-87 32-137 32l-17 0c0-2 1-4 1-6c0-44-56-79-126-79c-69 0-125 35-125 79c0 2 0 4 0 6l-16 0c-13 0-25 0-37 0z" horiz-adv-x="1000" />
<glyph glyph-name="ticket" unicode="&#xe899;" d="m0 670l0-208c45 0 81-34 81-77c0-42-36-76-81-76l0-209l610 0l0 82l41 0l0-82l326 0l0 209c-45 0-82 34-82 76c0 43 37 77 82 77l0 208l-326 0l0-81l-41 0l0 81l-610 0z m610-163l41 0l0-81l-41 0l0 81z m0-162l41 0l0-82l-41 0l0 82z" horiz-adv-x="1000" />
<glyph glyph-name="rocket" unicode="&#xe89a;" d="m488 873c-83-28-147-178-147-400c0-163 35-302 87-340l0-151l121 0l0 151c52 38 87 177 87 340c0 222-64 372-148 400z m0-181c29 0 52-23 52-51c0-28-23-51-52-51c-28 0-51 23-51 51c0 28 23 51 51 51z m-112-538l-88-86l0-171l88 85l0 172z m225 0l0-172l87-85l0 171l-87 86z" horiz-adv-x="1000" />
<glyph glyph-name="book" unicode="&#xe89b;" d="m105 682l0-505c234 0 278-29 360-71l0 505c-41 43-103 71-360 71z m721 0c-219-4-276-31-314-71l0-505c82 42 126 71 360 71l0 505c-16 0-32 0-46 0z m-826-53l0-540l428 0c-69 33-119 53-323 53l-35 0l0 35l0 452l-70 0z m907 0l0-452l0-35l-35 0c-204 0-255-20-323-53l428 0l0 540l-70 0z" horiz-adv-x="1000" />
<glyph glyph-name="lock_closed" unicode="&#xe89c;" d="m488 873c-144 0-262-117-262-262l0-190l-143 0l0-524l810 0l0 524l-143 0l0 190c0 145-117 262-262 262z m0-119c79 0 143-64 143-143l0-190l-286 0l0 190c0 79 64 143 143 143z" horiz-adv-x="1000" />
<glyph glyph-name="lock_open" unicode="&#xe89d;" d="m488 873c-135 0-244-109-244-244l0-133l111 0l0 133c0 74 60 134 133 134c74 0 133-60 133-134l0-244l-199 0l-67 0l-111 0l-89 0l-44 0l0-488l755 0l0 488l-134 0l0 244c0 135-109 244-244 244z" horiz-adv-x="1000" />
<glyph glyph-name="key" unicode="&#xe89e;" d="m313 873c-173 0-313-139-313-312c0-173 140-313 313-313c51 0 99 13 141 35l152-152l97 0l0-97l98 0l0-98l39-39l137 0l0 137l-386 385c22 43 34 91 34 142c0 173-140 312-312 312z m-88-136c48 0 88-40 88-88c0-49-40-88-88-88c-49 0-88 39-88 88c0 48 39 88 88 88z" horiz-adv-x="1000" />
<glyph glyph-name="wifi" unicode="&#xe89f;" d="m489 773c-185 0-355-65-489-172l93-115c108 87 246 139 396 139c150 0 287-52 395-139l93 115c-134 107-304 172-488 172z m0-192c-139 0-267-49-368-130l92-115c75 61 171 97 276 97c104 0 199-36 275-96l92 114c-101 81-229 130-367 130z m-21-196c-84-4-162-36-225-86l93-113c42 33 94 53 153 53c57 0 110-20 152-53l92 114c-67 54-152 85-244 85c-7 0-14 1-21 0z m21-200c-45 0-86-16-119-42l118-146l119 146c-33 26-74 42-118 42z" horiz-adv-x="1000" />
<glyph glyph-name="bars" unicode="&#xe8a0;" d="m807 810l0-849l170 0l0 849l-170 0z m-269-191l0-658l170 0l0 658l-170 0z m-269-191l0-467l170 0l0 467l-170 0z m-269-213l0-254l170 0l0 254l-170 0z" horiz-adv-x="1000" />
<glyph glyph-name="list" unicode="&#xe8a1;" d="m0 765l0-109l977 0l0 109l-977 0z m0-217l0-109l977 0l0 109l-977 0z m0-217l0-109l977 0l0 109l-977 0z m0-217l0-109l705 0l0 109l-705 0z" horiz-adv-x="1000" />
<glyph glyph-name="list_2" unicode="&#xe8a2;" d="m78 780c-43 0-78-34-78-78c0-43 35-77 78-77c43 0 77 34 77 77c0 44-34 78-77 78z m158-25l0-105l741 0l0 105l-741 0z m-158-186c-43 0-78-35-78-78c0-43 35-78 78-78c43 0 77 35 77 78c0 43-34 78-77 78z m158-25l0-106l741 0l0 106l-741 0z m-158-187c-43 0-78-34-78-78c0-43 35-77 78-77c43 0 77 34 77 77c0 44-34 78-77 78z m158-25l0-105l741 0l0 105l-741 0z m-158-186c-43 0-78-35-78-78c0-43 35-78 78-78c43 0 77 35 77 78c0 43-34 78-77 78z m158-25l0-106l476 0l0 106l-476 0z" horiz-adv-x="1000" />
<glyph glyph-name="eye_open" unicode="&#xe8a3;" d="m488 620c-270 0-488-199-488-235c0-36 218-235 488-235c269 0 489 199 489 235c0 36-220 235-489 235z m-101-83c-28-27-46-65-46-107c0-81 65-148 147-148c81 0 148 67 148 148c0 42-18 80-46 107c78-16 149-48 205-83c40-24 72-49 93-69c-21-19-53-45-93-69c-79-49-190-93-307-93c-117 0-227 44-307 93c-39 24-72 50-92 69c20 20 53 45 92 69c56 35 128 67 206 83z m134-14c33 0 61-27 61-61c0-34-28-61-61-61c-34 0-61 27-61 61c0 34 27 61 61 61z" horiz-adv-x="1000" />
<glyph glyph-name="save" unicode="&#xe8a4;" d="m23 873l0-976l930 0l0 759l-182 217l-112 0l0-372l-496 0l0 372l-140 0z m372-46l0-233l186 0l0 233l-186 0z m-232-481l651 0l0-356l-651 0l0 356z m93-77l0-47l465 0l0 47l-465 0z m0-140l0-46l465 0l0 46l-465 0z" horiz-adv-x="1000" />
<glyph glyph-name="drag" unicode="&#xe8a5;" d="m488 833l-259-259l58-57l201 198l203-198l57 57l-260 259z m-488-405l0-89l977 0l0 89l-977 0z m287-175l-58-56l259-260l260 260l-57 56l-203-198l-201 198z" horiz-adv-x="1000" />
<glyph glyph-name="cart" unicode="&#xe8a6;" d="m52 780c-29 0-52-23-52-51c0-29 23-52 52-52l65 0l117-487c-5-2-9-5-13-9c-29-18-49-51-49-88c0-57 46-103 103-103c57 0 103 46 103 103l275 0c0-57 46-103 103-103c57 0 103 46 103 103c0 37-20 70-49 88c-10 9-22 15-37 15l-435 0c0 1 0 2 0 3l-129 534c-1 6-4 11-7 16c0 1-1 2-1 3c0 0 0 0 0 0c-9 17-26 28-46 28l-103 0z m269-103l74-343l447 0l135 343l-656 0z" horiz-adv-x="1000" />
<glyph glyph-name="box" unicode="&#xe8a7;" d="m146 829l-146-240l0-648l977 0l0 648l-147 240l-684 0z m56-90l242 0l0-132l-311 0l69 132z m331 0l242 0l68-132l-310 0l0 132z m-444-221l799 0l0-488l-799 0l0 488z" horiz-adv-x="1000" />
<glyph glyph-name="mouse" unicode="&#xe8a8;" d="m335 873c-22-1-37-29-27-48c18-38 48-62 79-74c31-13 63-15 91-19c28-3 53-7 69-14c16-7 25-13 31-34c7-23 5-32 0-40c-5-9-17-19-34-30c-17-11-37-24-56-43c-18-20-33-49-33-84c10 1 20 3 30 3c13 0 14-2 25-4l0-194l176 0c0 99-71 180-165 195c0 19 6 29 16 39c10 11 26 21 44 33c18 12 39 27 54 51c14 24 17 57 6 92c-12 38-38 64-67 77c-29 12-60 15-88 18c-28 4-54 8-74 16c-20 8-34 18-45 41c-6 12-19 20-32 19z m131-386c-93-15-175-96-175-195l175 0l0 195z m-175-238l0-154c0-110 88-198 197-198c110 0 198 88 198 198l0 154l-395 0z" horiz-adv-x="1000" />
<glyph glyph-name="plug" unicode="&#xe8a9;" d="m345 873c-29 0-52-23-52-52l0-221l-78 0l0-234c0-87 70-157 156-157l235 0c86 0 156 70 156 157l0 234l-78 0l0 221c0 29-24 52-52 52l-13 0c-29 0-53-23-53-52l0-221l-156 0l0 221c0 29-23 52-52 52l-13 0z m65-716l0-260l156 0l0 260l-156 0z" horiz-adv-x="1000" />
<glyph glyph-name="compass-1" unicode="&#xe8aa;" d="m486 873c-125 0-251-48-346-143c-191-191-189-499 1-689c191-191 500-192 690-1c191 190 191 499 0 690c-95 95-220 143-345 143z m0-101c100 0 199-38 274-113c152-152 152-397 0-548c-151-152-396-152-548 0c-151 151-151 396 0 548c76 75 175 113 274 113z m225-162l-290-162l-160-288l289 161l161 289z m-272-195l76-75l-185-113l109 188z" horiz-adv-x="1000" />
<glyph glyph-name="bike" unicode="&#xe8ab;" d="m568 664c-21 0-20-41 10-41l6 0l25-43l-205 0l44 40l-149 0c-21 0-20-40 10-40l68 0l-10-12l-84-105c-28 15-59 24-92 24c-106 0-191-85-191-190c0-105 85-191 191-191c102 0 185 80 190 181l73 0l15 0l10 12l170 208l30-53c-50-34-83-92-83-157c0-105 85-191 190-191c105 0 191 86 191 191c0 105-86 190-191 190c-16 0-32-2-48-6l-78 142l62 0c30 0 32 41 10 41l-164 0z m-161-148l167 0l-135-165l-65 0c-9 27-23 52-42 73l75 92z m-216-78c78 0 141-63 141-141c0-78-63-142-141-142c-78 0-142 64-142 142c0 78 64 141 142 141z m595 0c78 0 142-63 142-141c0-78-64-142-142-142c-78 0-141 64-141 142c0 78 63 141 141 141z" horiz-adv-x="1000" />
<glyph glyph-name="bus" unicode="&#xe8ac;" d="m188 873c-59 0-107-65-107-122l0-651l407 0l407 0l0 651c0 57-47 122-107 122l-600 0z m219-40l163 0l0-95l-163 0l0 95z m-285-122l733 0l0-326l-733 0l0 326z m88-394c47 0 85-36 85-81c0-45-38-81-85-81c-47 0-85 36-85 81c0 45 38 81 85 81z m557 0c47 0 85-36 85-81c0-45-38-81-85-81c-48 0-85 36-85 81c0 45 38 81 85 81z m-686-244l0-62l0-42c0-35 29-72 64-72l64 0c35 0 63 37 63 72l0 50l432 0l0-50c0-35 29-72 64-72l64 0c35 0 63 37 63 72l0 42l0 62l-814 0z" horiz-adv-x="1000" />
<glyph glyph-name="train" unicode="&#xe8ad;" d="m160 873c-65 0-118-59-118-123l0-692l446 0l447 0l0 692c0 64-52 123-117 123l-212 0l-118 0l-117 0l-211 0z m235-46l93 0l95 0l0-77l-95 0l-93 0l0 77z m-306-123l352 0l0-323l-352 0l0 323z m446 0l353 0l0-323l-353 0l0 323z m-352-415c52 0 94-41 94-92c0-51-42-92-94-92c-52 0-94 41-94 92c0 51 42 92 94 92z m611 0c52 0 94-41 94-92c0-51-42-92-94-92c-52 0-94 41-94 92c0 51 42 92 94 92z m-752-277c0-38 31-69 71-69l117 0l0-46l258 0l259 0l0 46l117 0c39 0 71 31 71 69l-447 0l-446 0z" horiz-adv-x="1000" />
<glyph glyph-name="car" unicode="&#xe8ae;" d="m212 797c-41 0-154-237-212-405l0-209l488 0l489 0l0 209c-58 168-172 405-213 405l-276 0l-276 0z m17-70l259 0l259 0c32 0 78-145 123-251l-382 0l-382 0c45 106 91 251 123 251z m-86-293c56 0 101-44 101-99c0-55-45-100-101-100c-56 0-101 45-101 100c0 55 45 99 101 99z m680 0c55 0 100-44 100-99c0-55-45-100-100-100c-56 0-101 45-101 100c0 55 45 99 101 99z m-823-293l0-63l0-42c0-34 28-62 64-62l63 0c36 0 64 28 64 62l0 42l594 0l0-42c0-34 29-62 64-62l64 0c35 0 64 28 64 62l0 42l0 63l-977 0z" horiz-adv-x="1000" />
<glyph glyph-name="dice" unicode="&#xe8af;" d="m51 873c-29 0-51-22-51-50l0-65l0-746l0-64c0-29 22-51 51-51l64 0l746 0l65 0c28 0 51 22 51 51l0 64l0 746l0 65c0 28-23 50-51 50l-65 0l-746 0l-64 0z m58-108l759 0l0-760l-759 0l0 760z m379-298c-45 0-81-37-81-82c0-45 36-81 81-81c45 0 82 36 82 81c0 45-37 82-82 82z" horiz-adv-x="1000" />
<glyph glyph-name="dice2" unicode="&#xe8b0;" d="m51 873c-29 0-51-22-51-50l0-65l0-746l0-64c0-29 22-51 51-51l64 0l746 0l65 0c28 0 51 22 51 51l0 64l0 746l0 65c0 28-23 50-51 50l-65 0l-746 0l-64 0z m58-108l759 0l0-760l-759 0l0 760z m244-145c-45 0-82-36-82-81c0-45 37-81 82-81c45 0 81 36 81 81c0 45-36 81-81 81z m271-307c-45 0-81-37-81-82c0-44 36-81 81-81c45 0 81 37 81 81c0 45-36 82-81 82z" horiz-adv-x="1000" />
<glyph glyph-name="dice3" unicode="&#xe8b1;" d="m51 873c-29 0-51-22-51-50l0-65l0-746l0-64c0-29 22-51 51-51l64 0l746 0l65 0c28 0 51 22 51 51l0 64l0 746l0 65c0 28-23 50-51 50l-65 0l-746 0l-64 0z m58-108l759 0l0-760l-759 0l0 760z m189-90c-45 0-81-37-81-82c0-45 36-81 81-81c45 0 82 36 82 81c0 45-37 82-82 82z m190-208c-45 0-81-37-81-82c0-45 36-81 81-81c45 0 82 36 82 81c0 45-37 82-82 82z m190-208c-45 0-81-37-81-82c0-45 36-81 81-81c45 0 82 36 82 81c0 45-37 82-82 82z" horiz-adv-x="1000" />
<glyph glyph-name="dice4" unicode="&#xe8b2;" d="m51 873c-29 0-51-22-51-50l0-65l0-746l0-64c0-29 22-51 51-51l64 0l746 0l65 0c28 0 51 22 51 51l0 64l0 746l0 65c0 28-23 50-51 50l-65 0l-746 0l-64 0z m58-108l759 0l0-760l-759 0l0 760z m189-90c-45 0-81-37-81-82c0-45 36-81 81-81c45 0 82 36 82 81c0 45-37 82-82 82z m380 0c-45 0-81-37-81-82c0-45 36-81 81-81c45 0 82 36 82 81c0 45-37 82-82 82z m-380-416c-45 0-81-37-81-82c0-45 36-81 81-81c45 0 82 36 82 81c0 45-37 82-82 82z m380 0c-45 0-81-37-81-82c0-45 36-81 81-81c45 0 82 36 82 81c0 45-37 82-82 82z" horiz-adv-x="1000" />
<glyph glyph-name="dice5" unicode="&#xe8b3;" d="m51 873c-29 0-51-22-51-50l0-65l0-746l0-64c0-29 22-51 51-51l64 0l746 0l65 0c28 0 51 22 51 51l0 64l0 746l0 65c0 28-23 50-51 50l-65 0l-746 0l-64 0z m58-108l759 0l0-760l-759 0l0 760z m189-90c-45 0-81-37-81-82c0-45 36-81 81-81c45 0 82 36 82 81c0 45-37 82-82 82z m380 0c-45 0-81-37-81-82c0-45 36-81 81-81c45 0 82 36 82 81c0 45-37 82-82 82z m-190-208c-45 0-81-37-81-82c0-45 36-81 81-81c45 0 82 36 82 81c0 45-37 82-82 82z m-190-208c-45 0-81-37-81-82c0-45 36-81 81-81c45 0 82 36 82 81c0 45-37 82-82 82z m380 0c-45 0-81-37-81-82c0-45 36-81 81-81c45 0 82 36 82 81c0 45-37 82-82 82z" horiz-adv-x="1000" />
<glyph glyph-name="dice6" unicode="&#xe8b4;" d="m51 873c-29 0-51-22-51-50l0-65l0-746l0-64c0-29 22-51 51-51l64 0l746 0l65 0c28 0 51 22 51 51l0 64l0 746l0 65c0 28-23 50-51 50l-65 0l-746 0l-64 0z m58-108l759 0l0-760l-759 0l0 760z m189-90c-45 0-81-37-81-82c0-45 36-81 81-81c45 0 82 36 82 81c0 45-37 82-82 82z m380 0c-45 0-81-37-81-82c0-45 36-81 81-81c45 0 82 36 82 81c0 45-37 82-82 82z m-380-208c-45 0-81-37-81-82c0-45 36-81 81-81c45 0 82 36 82 81c0 45-37 82-82 82z m380 0c-45 0-81-37-81-82c0-45 36-81 81-81c45 0 82 36 82 81c0 45-37 82-82 82z m-380-208c-45 0-81-37-81-82c0-45 36-81 81-81c45 0 82 36 82 81c0 45-37 82-82 82z m380 0c-45 0-81-37-81-82c0-45 36-81 81-81c45 0 82 36 82 81c0 45-37 82-82 82z" horiz-adv-x="1000" />
<glyph glyph-name="pill" unicode="&#xe8b5;" d="m204 589c-113 0-204-91-204-204c0-113 91-203 204-203l569 0c113 0 204 90 204 203c0 113-91 204-204 204l-569 0z m305-82l264 0c68 0 122-54 122-122c0-67-54-122-122-122l-264 0l0 244z" horiz-adv-x="1000" />
<glyph glyph-name="mustache" unicode="&#xe8b6;" d="m377 533c-75 0-102-72-163-99c-61-26-141-26-214 28c0-109 144-224 288-224c109 0 174 52 200 113c26-61 91-113 199-113c145 0 290 115 290 224c-73-54-154-54-215-28c-61 27-88 99-164 99c-53 0-91-18-110-57c-19 39-58 57-111 57z" horiz-adv-x="1000" />
<glyph glyph-name="font_bigger" unicode="&#xe8b7;" d="m557 751l-237-732l105 0l12 0l55 0l41 142l231 0l41-142l172 0l-237 732l-183 0z m89-197l4 0l76-262l-155 0l75 262z m-488-47l-158-488l114 0l27 95l144 0l61 189l-66 204l-122 0z m59-131l0 0l1 0l52-175l-104 0l51 175z" horiz-adv-x="1000" />
<glyph glyph-name="font_smaller" unicode="&#xe8b8;" d="m237 751l-237-732l172 0l40 142l232 0l41-142l85 266l-150 466l-183 0z m90-197l4 0l75-262l-155 0l76 262z m370-47l-158-488l60 0l55 0l2 0l-1 4l27 91l153 0l27-95l115 0l-158 488l-122 0z m60-131l2 0l51-175l-104 0l51 175z" horiz-adv-x="1000" />
<glyph glyph-name="font_bold" unicode="&#xe8b9;" d="m201 753l0-15l0-706l0-15l14 0l278 0c88 0 159 19 208 57c50 38 75 95 75 168c0 39-10 75-32 105c-17 25-44 43-76 54c22 13 45 26 57 47c18 28 27 61 27 97c0 68-27 122-80 157c-53 35-124 51-214 51l-243 0l-14 0z m164-125l15 0l78 0c41 0 72-8 95-24c23-17 34-45 34-78c0-30-11-55-33-72c-22-16-53-24-92-25l-97 0l0 15l0 169l0 15z m0-277l0 0l138 0c35 0 63-10 82-30c0 0 0 1 1 0c18-19 27-45 27-78c0-32-11-59-32-76c-21-17-52-23-89-23l-112 0l-15 0l0 14l0 178l0 15z" horiz-adv-x="1000" />
<glyph glyph-name="font_underline" unicode="&#xe8ba;" d="m164 849l0-442c0-95 30-169 90-221c59-53 138-79 235-79c97 0 175 26 234 79c60 52 90 126 90 221l0 442l-183 0l0-442c0-52-12-90-37-114c-24-25-59-37-104-37c-45 0-80 12-105 37c-25 25-37 63-37 114l0 442l-183 0z m-93-835l0-93l835 0l0 93l-835 0z" horiz-adv-x="1000" />
<glyph glyph-name="font_faces" unicode="&#xe8bb;" d="m448 833l0-204l99 0l6 82l98 0l0-397l-81-13l0-79l285 0l0 79l-75 13l0 397l91 0l6-82l100 0l0 204l-529 0z m-448-326l0-122l163 0l0-447l159 0l0 447l172 0l0 122l-494 0z" horiz-adv-x="1000" />
<glyph glyph-name="balloon" unicode="&#xe8bc;" d="m488 873c-194 0-351-180-351-402c0-221 157-400 351-400c195 0 352 179 352 400c0 222-157 402-352 402z m22-88c5 0 11-1 16-1c-99-13-178-113-196-241l-76 0c23 138 128 242 256 242z m-77-778l-55-110l220 0l-55 110l-110 0z" horiz-adv-x="1000" />
<glyph glyph-name="process_end" unicode="&#xe8bd;" d="m536 804c-185-10-339-141-383-314l63 0c43 140 172 245 325 253c6 0 11 0 17 0c6 0 11 0 18 0c188-10 340-167 340-358c0-197-161-356-358-356c-161 0-297 105-342 251l-63 0c46-180 210-314 405-314c231 0 419 188 419 419c0 224-176 407-397 419c-7 0-15 0-22 0c-7 0-15 0-22 0z m-38-203l-42-57l120-124l-576 0l0-70l576 0l-120-124l42-56l215 215l-215 216z" horiz-adv-x="1000" />
<glyph glyph-name="process_save" unicode="&#xe8be;" d="m469 763c-168-8-306-127-346-283l57 0c39 127 155 221 293 228c5 0 10 0 15 0c6 0 11 0 17 0c138-7 253-101 292-228l58 0c-41 156-180 275-347 283c-6 1-13 0-20 0c-6 0-13 1-19 0z m-160-215l-40-35l93-96l-362 0l0-63l362 0l-93-97l40-34l166 162l-166 163z m360 0l-167-163l167-162l38 34l-92 97l362 0l0 63l-363 0l93 96l-38 35z m-546-257c42-163 189-284 365-284c176 0 325 121 367 284l-58 0c-40-132-163-227-309-227c-145 0-268 95-308 227l-57 0z" horiz-adv-x="1000" />
<glyph glyph-name="process_start" unicode="&#xe8bf;" d="m324 718c-3 0-6 0-9 0c-176-9-315-156-315-333c0-183 149-332 333-332c149 0 274 99 316 235l-66 0c-39-100-137-170-250-170c-149 0-270 119-270 267c0 144 114 261 256 268c4 1 9 0 14 0c5 0 8 1 13 0c107-5 199-75 237-171l67 0c-40 131-158 228-300 236c-6 0-12 0-17 0c-3 0-6 0-9 0z m453-133l-40-52l112-116l-536 0l0-65l535 0l-111-116l40-51l200 200l-200 200z" horiz-adv-x="1000" />
<glyph glyph-name="alarm" unicode="&#xe8c0;" d="m275 820c-126-56-225-161-275-290l63-23c43 111 127 201 234 250l-22 63z m429 0l-22-63c105-48 188-135 232-243l63 23c-51 126-149 228-273 283z m-215-86c-216 0-391-176-391-392c0-217 175-392 391-392c217 0 392 175 392 392c0 216-175 392-392 392z m0-63c182 0 330-148 330-329c0-182-148-329-330-329c-181 0-328 147-328 329c0 181 147 329 328 329z m-34-64l-15-268l4-28l200-178l32 33l-166 177l-14 264l-41 0z" horiz-adv-x="1000" />
<glyph glyph-name="eye_closed" unicode="&#xe8c1;" d="m488 631c-270 0-488-198-488-235c0-37 186-257 488-257c301 0 489 220 489 257c0 37-220 235-489 235z m0-43c151 0 320-94 400-192c-87-87-257-151-400-146c-143 5-304 60-399 146c71 94 247 192 399 192z" horiz-adv-x="1000" />
<glyph glyph-name="font_italic" unicode="&#xe8c2;" d="m399 803l-20-100l86-18l-120-600l-93-17l-20-101l346 0l20 101l-86 17l120 600l93 18l20 100l-346 0z" horiz-adv-x="1000" />
<glyph glyph-name="location_2" unicode="&#xe8c3;" d="m460 873l0-115c-184-14-331-162-344-346l-116 0l0-55l116 0c14-184 161-331 345-344l0-116l56 0l0 116c184 14 331 161 344 346l116 0l0 55l-116 0c-14 184-162 331-346 344l0 115l-55 0z m27-169c176 0 320-143 320-318c0-176-142-319-318-319c-176-1-319 142-320 318c0 176 143 319 318 319z m1-125c-107 0-194-87-193-194c0-107 87-194 194-194c107 1 193 88 193 195c0 107-87 193-194 193z" horiz-adv-x="1000" />
<glyph glyph-name="edit" unicode="&#xe8c4;" d="m791 873c-16 1-29-3-38-12l-106-106c29 29 100 6 159-52c58-59 82-130 52-159l106 105c29 30 6 101-53 159c-40 40-86 64-120 65z m-155-145c-11-1-21-5-28-12l-40-40c29 29 100 6 158-53c59-58 83-129 53-158l40 39c29 30 5 100-53 159c-44 43-95 68-130 65z m-70-79c-15 1-29-4-38-13l-39-39c29 29 100 5 158-53c58-58 82-129 53-158l40 39c29 29 5 100-53 159c-40 40-86 64-121 65z m-88-79c-12-1-22-6-29-13l-219-219l-45-45c29-29 71-36 103-21c3-21 12-42 29-58c17-17 37-26 58-29c-15-32-8-74 21-103l45 44l219 220c29 29 6 100-52 158c-44 44-95 69-130 66z m-333-317l-145-356l356 145c-29 29-35 71-20 104c-21 2-42 12-58 28c-17 17-27 38-29 59c-32-16-74-9-104 20z" horiz-adv-x="1000" />
<glyph glyph-name="emo_basic" unicode="&#xe8c6;" d="m469 873c-2 0-4 0-6 0c-258-13-463-227-463-488c0-269 219-488 488-488c270 0 489 219 489 488c0 261-206 475-463 488c-9 1-17 0-26 0c-6 0-12 1-19 0z m4-71c5 0 10 0 15 0c8 0 14 0 21 0c221-11 396-194 396-417c0-230-187-416-417-416c-230 0-416 186-416 416c0 223 175 406 395 417c2 0 4 0 6 0z m-140-246c-34 0-61-27-61-61c0-34 27-62 61-62c34 0 61 28 61 62c0 34-27 61-61 61z m311 0c-34 0-62-27-62-61c0-34 28-62 62-62c34 0 61 28 61 62c0 34-27 61-61 61z m-316-285c-7-8-13-17-13-25c0-39 78-104 173-104c96 0 173 65 173 104c0 8-5 17-13 25c-38-16-95-25-160-25c-64 0-122 9-160 25z" horiz-adv-x="1000" />
<glyph glyph-name="emo_cool" unicode="&#xe8c7;" d="m469 874c-2 0-4 0-6-1c-258-13-463-227-463-488c0-269 219-488 488-488c270 0 489 219 489 488c0 261-206 475-463 488c-9 1-17 0-26 0c-6 0-12 1-19 1z m4-72c5 0 10 0 15 0c8 0 14 0 21 0c221-11 396-194 396-417c0-230-187-416-417-416c-230 0-416 186-416 416c0 223 175 406 395 417c2 0 4 0 6 0z m-316-234l1-91c1-74 38-129 112-129l44 0c74 0 147 61 148 135l0 21l44 0l0-21c0-74 75-135 149-135l45 0c74 0 111 55 111 129l-1 91l-653 0z m171-319c-7-8-13-16-13-25c0-38 78-104 173-104c96 0 173 66 173 104c0 9-5 17-13 25c-38-15-95-25-160-25c-64 0-122 10-160 25z" horiz-adv-x="1000" />
<glyph glyph-name="emo_wonder" unicode="&#xe8c8;" d="m469 874c-2 0-4 0-6-1c-258-13-463-227-463-488c0-269 219-488 488-488c270 0 489 219 489 488c0 261-206 475-463 488c-9 1-17 0-26 0c-6 0-12 1-19 1z m3-72c6 0 11 0 16 0c8 0 14 0 21 0c221-11 396-194 396-417c0-230-187-416-417-416c-230 0-416 186-416 416c0 223 175 406 395 417c2 0 4 0 5 0z m-139-224c-34 0-61-27-61-61c0-34 27-62 61-62c34 0 61 28 61 62c0 34-27 61-61 61z m311 0c-34 0-62-27-62-61c0-34 28-62 62-62c34 0 61 28 61 62c0 34-27 61-61 61z m-156-238c-66 0-119-54-119-120c0-66 53-121 119-121c66 0 119 55 119 121c0 66-53 120-119 120z" horiz-adv-x="1000" />
<glyph glyph-name="emo_shame" unicode="&#xe8c9;" d="m463 873c-258-13-463-227-463-487c0-270 219-489 488-489c270 0 489 219 489 489c0 260-205 474-463 487c-9 1-17 0-26 0c-8 0-17 1-25 0z m4-71c8 1 14 0 21 0c8 0 14 1 21 0c220-11 396-194 396-416c0-230-187-417-417-417c-230 0-416 187-416 417c0 222 175 405 395 416z m-134-224c-34 0-61-27-61-61c0-34 27-62 61-62c34 0 61 28 61 62c0 34-27 61-61 61z m311 0c-34 0-62-27-62-61c0-34 28-62 62-62c34 0 61 28 61 62c0 34-27 61-61 61z m-250-252c-5 0-10 0-16 0c-40-6-73-29-99-51a33 33 0 1 1 41-50c23 19 46 33 67 36c20 2 42-2 74-34c42-42 89-57 130-51c41 6 73 28 99 49a33 33 0 1 1-42 50c-22-18-45-32-66-35c-21-3-43 1-75 33c-36 37-76 53-113 53z" horiz-adv-x="1000" />
<glyph glyph-name="emo_laugh" unicode="&#xe8ca;" d="m469 873c-2 0-4 0-6 0c-258-13-463-227-463-488c0-270 219-488 488-488c270 0 489 218 489 488c0 261-206 475-463 488c-9 0-17 0-26 0c-6 0-12 0-19 0z m4-71c5 0 10 0 15 0c8 0 14 0 21 0c221-12 396-194 396-417c0-230-187-416-417-416c-230 0-416 186-416 416c0 223 175 405 395 417c2 0 4 0 6 0z m-140-224c-34 0-61-28-61-62c0-34 27-62 61-62c34 0 61 28 61 62c0 34-27 62-61 62z m311 0c-34 0-62-28-62-62c0-34 28-62 62-62c34 0 61 28 61 62c0 34-27 62-61 62z m-156-216c-134 0-269-43-269-95c0-133 121-218 269-218c149 0 269 85 269 218c0 52-134 95-269 95z" horiz-adv-x="1000" />
<glyph glyph-name="emo_angry" unicode="&#xe8cb;" d="m469 874c-2 0-4 0-6-1c-258-13-463-227-463-488c0-269 219-488 488-488c270 0 489 219 489 488c0 261-206 475-463 488c-9 1-17 0-26 0c-6 0-12 1-19 1z m4-72c5 0 10 0 15 0c8 0 14 0 21 0c221-11 396-194 396-417c0-230-187-416-417-416c-230 0-416 186-416 416c0 223 175 406 395 417c2 0 4 0 6 0z m-253-341c-3 0-24-7-27-34c-4-30 22-54 22-54l57 0c0-3 0-6 0-9c0-34 27-62 61-62c34 0 61 28 61 62c0 3 0 6 0 9c10 0 37 0 37 0c11 16 14 42-4 58c-1 0-207 29-207 30c0 0 0 0 0 0z m537 0c0 0 0 0 0 0c-1-1-206-30-207-30c-19-16-15-42-4-58c0 0 26 0 37 0c0-3-1-6-1-9c0-34 28-62 62-62c34 0 61 28 61 62c0 3 0 6-1 9l57 0c0 0 27 24 23 54c-4 27-24 34-27 34z m-325-262c-18 0-33-15-33-33c0-18 15-33 33-33l113 0c18 0 33 15 33 33c0 18-15 33-33 33l-113 0z" horiz-adv-x="1000" />
<glyph glyph-name="emo_tongue" unicode="&#xe8cc;" d="m463 873c-258-13-463-227-463-488c0-269 219-488 488-488c270 0 489 219 489 488c0 261-205 475-463 488c-9 0-17 0-26 0c-8 0-17 0-25 0z m4-71c8 0 14 0 21 0c8 0 14 0 21 0c220-11 396-194 396-417c0-230-187-416-417-416c-230 0-416 186-416 416c0 223 175 406 395 417z m-134-224c-34 0-61-28-61-62c0-34 27-61 61-61c34 0 61 27 61 61c0 34-27 62-61 62z m311 0c-34 0-62-28-62-62c0-34 28-61 62-61c33 0 61 27 61 61c0 34-28 62-61 62z m-308-270c-18 0-33-10-33-22c0-12 15-22 33-22l61 0l0-65c0-49 40-87 90-87c49 0 88 38 88 87l0 65l66 0c18 0 32 10 32 22c0 12-14 22-32 22l-305 0z" horiz-adv-x="1000" />
<glyph glyph-name="emo_err" unicode="&#xe8cd;" d="m499 873c-91 3-183-20-265-70c-7-5-14-10-21-15c-7-5-15-9-21-14c-206-156-254-449-107-664c153-223 457-280 679-128c223 153 280 457 127 679c-92 135-240 209-392 212z m-1-71c130-3 256-66 334-181c130-190 81-449-109-579c-189-130-448-82-578 108c-126 183-84 433 91 567c6 4 11 8 17 12c6 4 12 9 18 12c70 44 149 63 227 61z m-165-224c-34 0-61-27-61-61c0-34 27-62 61-62c34 0 61 28 61 62c0 34-27 61-61 61z m311 0c-34 0-62-27-62-61c0-34 28-62 62-62c34 0 61 28 61 62c0 34-27 61-61 61z m54-282c-4 0-7-1-7-2c0-1-245-96-247-97c-23-23-11-46 10-57c2 0 270 72 270 72c0 0 34 35 20 62c-11 20-35 22-46 22l0 0z" horiz-adv-x="1000" />
<glyph glyph-name="emo_kiss" unicode="&#xe8ce;" d="m463 873c-258-13-463-227-463-487c0-270 219-489 488-489c270 0 489 219 489 489c0 260-205 474-463 487c-9 1-17 0-26 0c-8 0-17 1-25 0z m4-71c8 1 14 0 21 0c8 0 14 1 21 0c220-11 396-194 396-416c0-230-187-417-417-417c-230 0-416 187-416 417c0 222 175 405 395 416z m-230-254c0 1-24-5-27-34c-4-29 23-54 23-54c0 0 172 0 172 0c11 16 14 42-4 58c-1 0-164 29-164 30z m503 0c0-1-163-30-165-30c-18-16-14-42-4-58c1 0 172 0 172 0c0 0 28 25 24 54c-4 29-27 35-27 34z m-331-199c-8 0-22-6-34-16c-5-4-17-14-27-22c-19-16-51-38-73-51c-9-5-16-9-15-9c0-1 5-4 12-7c18-9 38-23 49-34c6-5 21-22 34-37c13-15 27-31 32-35c22-20 48-34 72-38c4-1 19-2 34-1c30 0 38 2 59 12c24 12 38 25 70 62c13 15 28 32 33 37c12 11 32 25 50 34c6 3 12 6 12 7c0 0-7 4-15 9c-22 13-54 36-73 52c-10 8-22 17-27 21c-12 10-26 16-35 16c-4 0-11-2-24-8c-42-20-67-19-109 0c-13 6-20 8-25 8z m49-97c3 0 9-1 13-2c11-3 24-3 35 0c4 1 10 2 12 2c3 0 13-5 24-10c11-6 21-10 22-10c1 0 2-1 2-2c0-1-1-1-1-1c-1 0-12-6-25-12c-13-6-26-12-30-14c-11-3-34-2-44 1c-4 2-18 8-30 14c-12 6-23 11-24 11c-1 0-1 0-1 1c0 1 1 2 2 2c1 0 11 4 22 10c11 5 21 10 23 10z" horiz-adv-x="1000" />
<glyph glyph-name="emo_sad" unicode="&#xe8cf;" d="m469 874c-2 0-4 0-6-1c-258-13-463-227-463-488c0-269 219-488 488-488c270 0 489 219 489 488c0 261-206 475-463 488c-9 1-17 0-26 0c-6 0-12 1-19 1z m4-72c5 0 10 0 15 0c8 0 14 0 21 0c221-11 396-194 396-417c0-230-187-416-417-416c-230 0-416 186-416 416c0 223 175 406 395 417c2 0 4 0 6 0z m-140-224c-34 0-61-27-61-61c0-34 27-62 61-62c34 0 61 28 61 62c0 34-27 61-61 61z m311 0c-34 0-62-27-62-61c0-34 28-62 62-62c34 0 61 28 61 62c0 34-27 61-61 61z m0-132c-20-39-58-78-58-117c0-39 28-59 58-59c29 0 57 20 57 59c0 39-38 78-57 117z m-156-201c-95 0-173-65-173-103c0-9 6-18 13-26c38 16 96 26 160 26c65 0 122-10 160-26c8 8 13 17 13 26c0 38-77 103-173 103z" horiz-adv-x="1000" />
<glyph glyph-name="emo_wink" unicode="&#xe8d0;" d="m469 874c-2 0-4 0-6-1c-258-13-463-227-463-488c0-269 219-488 488-488c270 0 489 219 489 488c0 261-206 475-463 488c-9 1-17 0-26 0c-6 0-12 1-19 1z m4-72c5 0 10 0 15 0c8 0 14 0 21 0c221-11 396-194 396-417c0-230-187-416-417-416c-230 0-416 186-416 416c0 223 175 406 395 417c2 0 4 0 6 0z m-140-224c-34 0-61-27-61-61c0-34 27-62 61-62c34 0 61 28 61 62c0 34-27 61-61 61z m407-30c0 0 0 0 0 0c-1-1-207-30-208-30c-18-16-15-42-4-58c0-1 216 0 216 0c0 0 26 25 23 54c-4 28-24 34-27 34z m-412-277c-7-8-13-16-13-25c0-38 78-104 173-104c96 0 173 66 173 104c0 9-5 17-13 25c-38-16-95-25-160-25c-64 0-122 9-160 25z" horiz-adv-x="1000" />
<glyph glyph-name="emo_evil" unicode="&#xe8d1;" d="m468 873c-100-5-190-40-264-97l-204 56l63-231c-29-61-47-130-47-203c0-262 214-476 476-476c263 0 476 214 476 476c0 77-18 150-51 215l60 219l-198-54c-74 56-164 90-262 95c-8 1-16 0-25 0c-8 0-16 1-24 0z m4-69c7 0 13 0 20 0c7 0 14 0 21 0c91-5 175-40 240-95l139 38l-43-156c31-58 49-123 49-193c0-224-181-406-406-406c-224 0-406 182-406 406c0 66 16 128 44 183l-45 166l145-39c66 56 150 91 242 96z m-241-290c0 1-23-5-27-33c-3-29 22-52 22-52l56 0c-1-3-1-6-1-9c0-33 27-60 60-60c33 0 60 27 60 60c0 3 0 6-1 9c11 0 36-1 37 0c10 15 13 40-4 56c-1 0-202 28-202 29z m523 0c-1-1-201-29-202-29c-18-16-14-41-4-56c0-1 26 0 36 0c0-3 0-6 0-9c0-33 26-60 60-60c33 0 59 27 59 60c0 3 0 6 0 9l56 0c0 0 25 23 21 52c-3 28-26 34-26 33z m-417-252c-8-8-13-16-13-25c0-37 75-100 168-100c93 0 169 63 169 100c0 9-6 17-13 25c-37-15-93-25-156-25c-63 0-118 10-155 25z" horiz-adv-x="1000" />
<glyph glyph-name="amazon" unicode="&#xe8d2;" d="m495 813c-114 0-242-43-269-184c-3-16 8-23 18-25l117-13c11 1 19 11 21 22c10 49 51 72 97 72c25 0 52-9 67-31c17-25 15-59 15-88l0-15c-70-8-161-13-227-42c-75-32-128-99-128-197c0-125 79-188 180-188c86 0 133 21 199 88c22-32 29-47 69-80c9-5 20-4 28 3l1-1c24 22 68 60 92 80c10 8 8 22 0 33c-22 30-45 55-45 111l0 188c0 79 6 153-53 207c-46 45-123 60-182 60l0 0z m66-359l0-26c0-47 1-86-23-128c-19-34-49-54-83-54c-47 0-73 35-73 87c0 103 92 121 179 121z m344-271c-34-1-75-8-105-30c-10-6-8-16 2-14c35 4 112 13 126-5c13-17-16-89-29-121c-4-10 5-14 13-6c58 48 73 148 61 162c-6 8-34 14-68 14z m-898-19c-1 0-1 0-1 0c-6-2-9-10-2-17c128-115 297-184 484-184c133 0 288 42 395 121c17 13 3 33-15 25c-120-51-251-76-369-76c-176 0-346 49-484 129c-2 1-4 1-6 2c-1 0-2 0-2 0z" horiz-adv-x="1000" />
<glyph glyph-name="html5" unicode="&#xe8d3;" d="m57 825l79-879l352-98l353 98l79 879l-863 0z m160-175l271 0l0 0l270 0l-9-120l-1 0l-260 0l0 0l-153 0l10-102l143 0l0 0l222 0l29 0l-3-29l-25-284l-2-18l-221-62l-222 62l-15 169l50 0l59 0l8-86l120-32l120 32l13 144l-133 0l0 0l-241 0c-10 109-20 217-30 326z" horiz-adv-x="1000" />
<glyph glyph-name="dropbox" unicode="&#xe8d4;" d="m297 831l-295-192l203-155l-203-155l295-175l193 148l193-148l292 175l-189 161l189 158l-288 183l-197-165l-193 165z m194-169l291-170l-290-186l-283 178l282 178z m-1-405l-171-131l-19-16l-21 13l-72 43l0-83l282-189l288 188l0 87l-75-46l-21-13l-20 16l-171 131z" horiz-adv-x="1000" />
<glyph glyph-name="facebook" unicode="&#xe8d5;" d="m0 825l0-977l540 0l0 386l-93 0l0 128l93 0l0 80c0 111 40 207 171 203l111 0l0-145l-70 0c-51 0-58-36-58-72l0-66l126 0l-14-128l-112 0l0-386l283 0l0 977l-977 0z" horiz-adv-x="1000" />
<glyph glyph-name="github" unicode="&#xe8d6;" d="m488 833c-270 0-488-219-488-489c0-225 152-414 359-471c5 11 8 21 8 21l0 90c-126-28-153 59-153 59c-20 52-48 66-48 66c-40 27 3 27 3 27c44-4 68-48 68-48c41-71 110-44 132-34c7 31 23 50 39 60c-132 16-242 94-237 249c0 54 20 100 52 135c-5 13-22 63 6 132c0 0 42 14 138-51c40 11 83 17 125 17c39 0 78-6 114-15c93 62 134 49 134 49c23-58 14-104 8-124c36-36 59-84 59-143c-1-149-49-224-226-249c20-14 41-41 41-91l0-129c0 0 1-9 5-18c203 60 350 246 350 468c0 270-219 489-489 489z" horiz-adv-x="1000" />
<glyph glyph-name="gmail" unicode="&#xe8d7;" d="m0 712l0-740l977 0l0 740l-977 0z m44-44l105 0l339-275l339 275l105 0l0-651l-103 0l0 509l-341-267l-340 267l0-509l-104 0l0 651z" horiz-adv-x="1000" />
<glyph glyph-name="google_play" unicode="&#xe8d8;" d="m61 833c-20-6-32-28-32-58l0-431l0-431c0-30 12-50 32-57l445 489l-445 488z m78-23l395-435l132 145l-527 290z m564-311l-141-155l142-155l193 106c36 20 50 30 50 49c0 19-14 28-50 49l-194 106z m-169-185l-396-435l529 290l-133 145z" horiz-adv-x="1000" />
<glyph glyph-name="pinterest" unicode="&#xe8d9;" d="m488 826c-269 0-488-218-488-488c0-200 120-372 292-447c-1 34 0 74 9 112c9 39 62 266 62 266c0 0-15 31-15 77c0 73 42 126 94 126c45 0 66-33 66-73c0-44-29-111-43-173c-12-52 26-94 77-94c92 0 155 119 155 260c0 107-72 187-203 187c-148 0-241-111-241-234c0-43 13-73 32-96c9-11 11-15 7-27c-2-9-7-31-9-39c-4-13-14-17-25-12c-68 27-100 102-100 186c0 139 117 305 349 305c187 0 309-135 309-280c0-191-106-334-263-334c-53 0-103 28-120 61c0 0-28-113-34-135c-10-38-30-75-49-105c44-13 90-19 138-19c270 0 489 218 489 488c0 270-219 488-489 488z" horiz-adv-x="1000" />
<glyph glyph-name="soundcloud" unicode="&#xe8da;" d="m599 554c-27 0-53-5-77-14c-9-4-11-7-12-14l0-381c1-8 6-14 13-15c1 0 331 0 333 0c67 0 121 54 121 120c0 66-54 120-121 120c-16 0-32-3-46-9c-10 108-100 193-211 193z m-113-28c-7 0-13-6-13-13l-6-270l6-99c0-7 6-13 13-13c7 0 13 6 13 13l6 98l-6 271c0 7-6 13-13 13l0 0z m-41-23c-7 0-12-6-12-13l-5-247c0-1 5-100 5-100c0-7 5-12 12-12c7 0 12 5 12 11l0 1l6 100l-6 247c0 7-5 13-12 13z m-123-28c-5 0-9-5-9-10l-7-222l7-102c0-6 4-10 9-10c6 0 10 4 10 10l0 0l7 102l-7 222c0 5-4 10-10 10z m41-6c-6 0-10-4-11-10l-5-217l5-101c1-6 5-10 11-10l0 0c6 0 11 5 11 11l6 100l-6 217c-1 6-5 10-11 10z m-81-3c-5 0-9-4-9-9l-6-214l6-103c0-5 4-9 9-9c5 0 9 4 9 9l8 103l-8 214c0 5-4 9-9 9z m122-4c-6 0-12-5-12-11l-5-208l5-101c0-6 6-11 12-11c6 0 11 4 11 11l0 0l6 100l-6 209c0 6-5 11-11 11l0 0z m-162-13c-4 0-8-4-8-8l-7-198l7-104c0-4 4-8 8-8c4 0 8 3 8 8l9 104l-9 198c0 4-4 8-8 8z m-39-38c-4 0-8-3-8-7l-8-161l8-105c0-4 4-7 8-7c4 0 7 3 7 7l9 105l-9 161c0 4-3 7-7 7z m-78-56c-4 0-6-2-6-6l-9-106l9-104c0-3 2-5 6-5c2 0 5 2 5 5l10 104l-10 106c0 4-2 6-5 6z m-39-4c-3 0-5-1-5-4l-9-104l9-101c0-2 2-4 5-4c2 0 4 2 5 4l10 101l-10 104c-1 3-3 4-5 4z m77-3c-3 0-6-3-6-6l-8-99l8-105c0-3 3-6 6-6c4 0 7 3 7 6l9 105l-9 99c0 3-3 6-7 6z m-116-14c-2 0-4-1-4-4l-9-87l9-86c1-2 2-4 4-4c2 0 4 2 5 4l10 86l-10 87c-1 3-3 4-5 4z m-36-33c-2 0-3-2-4-4l-7-54l7-54c1-2 2-3 4-3c2 0 4 1 4 3l9 54l-9 54c0 2-2 4-4 4z" horiz-adv-x="1000" />
<glyph glyph-name="circles" unicode="&#xe8db;" d="m679 826c-164 0-298-134-298-298c0-164 134-298 298-298c164 0 297 134 297 298c0 164-133 298-297 298z m0-118c100 0 181-80 181-180c0-100-81-181-181-181c-100 0-181 81-181 181c0 100 81 180 181 180z m-330-82c-196-20-348-186-348-388c0-215 173-389 388-389c203 0 370 156 387 355c-31-9-63-15-97-15c-20 0-41 2-60 6c-20-108-115-190-229-190c-129 0-234 104-234 233c0 115 82 210 190 230c-3 20-6 40-6 60c0 34 5 67 15 98c-2 0-4 0-6 0z m204-35c-9-19-15-40-15-63c0-78 63-141 141-141c23 0 44 6 63 15c-39 83-106 150-189 189z" horiz-adv-x="1000" />
<glyph glyph-name="vimeo" unicode="&#xe8dc;" d="m816 818c-2 0-4 0-7 0c-68-3-129-53-230-164c-5-8-7-61 24-48c116 54 106-7 114-32c38-87-54-255-196-336c-103 164-24 513-206 560c-110 34-205-132-312-227c-5-25-10-51 30-44l96 37c105-208 176-649 316-618c122-15 488 376 529 625c20 167-89 237-151 247c-2 0-5 0-7 0z" horiz-adv-x="1000" />
<glyph glyph-name="youtube" unicode="&#xe8dd;" d="m488 16c0 0-394 1-441 47c-47 47-47 278-47 279c0 1 0 231 47 278c47 46 441 48 441 48c0 0 394-2 441-48c47-47 48-278 48-278c0-1-1-232-48-279c-47-46-441-47-441-47z m-114 147l344 179l-344 179l0-358z" horiz-adv-x="1000" />
<glyph glyph-name="foursquare" unicode="&#xe8de;" d="m487 834c-29 0-59-11-81-33l-373-373c-44-44-44-117 0-162l373-373c44-44 118-44 162 0l372 373c45 45 45 118 0 162l-1 2l-393-393c-17-16-39-25-63-25l-17 0l-4 2c-16 4-31 12-42 24l-258 258c-17 17-27 40-27 64c0 23 10 46 27 63l76 76c17 16 40 26 63 26c24 0 47-10 63-26l119-119l253 252l-168 169c-22 22-52 33-81 33z m381-162c-8 0-16-3-22-9l-364-364l-160 159c-6 6-14 9-23 9c-8 0-16-3-22-9l-76-76c-13-12-13-33 0-45l257-259c6-5 12-8 20-9c1 0 2 0 3 0l1 0l0 0c8 0 16 3 22 9l463 463c13 13 13 33 0 46l-76 76c-6 6-14 9-23 9z" horiz-adv-x="1000" />
<glyph glyph-name="gplus" unicode="&#xe8df;" d="m0 832l0-180c52 56 126 86 185 97c18 3 35 5 49 6c13 1 25 0 31 0l7 0l308 0l-91-54l-81 0c1-2 46-38 72-92c15-29 25-64 25-100c0-17-1-35-6-52c-10-29-16-47-25-60c-31-44-43-37-94-96c-28-32-36-53-37-69c0-11 1-25 13-36c12-13 29-24 56-46c43-35 87-71 113-113c26-43 32-92 26-145c-1-12-5-24-10-36l436 0l0 690l-118 0l0-118l-84 0l0 118l-118 0l0 84l118 0l0 118l84 0l0-118l118 0l0 202l-977 0z m198-128c-28 1-47-7-47-7c-31-20-112-30-79-228c32-194 207-166 207-166c0 0 152 32 79 250c-42 127-113 151-160 151z m-198-378l0-269c107 53 242 49 242 49c0 0 10 2-2 15c-50 58-25 140-25 140c0 0-63-8-121 8c-19 6-66 34-66 34c0 0-12 8-28 23z m294-264c-30-2-60 0-83-2c-69-6-107-18-144-43c-18-12-35-20-52-44c-6-9-11-18-15-27l0-90l453 0c1 18-1 38-6 60c-13 62-153 146-153 146z" horiz-adv-x="1000" />
<glyph glyph-name="linkedin" unicode="&#xe8e0;" d="m4 832l0-976l976 0l0 976l-976 0z m232-160c52 0 84-33 85-77c0-43-33-77-86-77l-2 0c-51 0-83 34-83 77c0 44 34 77 86 77z m442-205c99 0 174-64 174-201l0-259l-152 0l0 242c0 60-21 101-76 101c-42 0-67-27-78-54c-4-10-5-23-5-36l0-253l-152 0c0 0 2 408 0 450l152 0l0-63c20 30 57 73 137 73z m-137-73c0-1-1-2-2-2l2 0l0 2z m-382 63l152 0l0-450l-152 0l0 450z" horiz-adv-x="1000" />
<glyph glyph-name="paypal" unicode="&#xe8e1;" d="m192 828l-183-839l242 0l59 278l173 0c165 0 303 102 340 276c41 196-95 285-220 285l-411 0z m672-169c24-44 33-102 18-175c-37-174-175-276-340-276l-173 0l-59-278l-146 0l-18-79l242 0l59 279l174 0c165 0 302 102 339 275c28 130-22 213-96 254z m-468-1l119 0c59 0 98-51 81-115l-1-6l-2-6l-3-5l-2-6l-3-6l-2-5l-2-6l-4-5l-4-5l-3-5l-4-5l-4-5l-4-4l-4-5l-5-3l-5-5l-4-3l-5-4l-5-3l-5-3l-6-3l-5-3l-5-3l-6-2l-5-2l-6-2l-5-1l-7-2l-5-1l-6-1l-6 0l-5 0l-113 0l51 230z" horiz-adv-x="1000" />
</font>
</defs>
</svg>
