<?xml version="1.0" standalone="no"?>
<!DOCTYPE svg PUBLIC "-//W3C//DTD SVG 1.1//EN" "http://www.w3.org/Graphics/SVG/1.1/DTD/svg11.dtd" >
<!--
2013-9-30: Created.
-->
<svg>
<metadata>
Created by iconfont
</metadata>
<defs>

<font id="iconfont" horiz-adv-x="1024" >
  <font-face
    font-family="iconfont"
    font-weight="500"
    font-stretch="normal"
    units-per-em="1024"
    ascent="896"
    descent="-128"
  />
    <missing-glyph />
    
    <glyph glyph-name="resource" unicode="&#59708;" d="M1040.414303 636.527744L521.46979 896 0 636.527744l521.46979-259.472257zM521.46979 818.979038L883.847102 636.527744 521.46979 454.076449 160.355117 636.527744zM1042.308261 384.631319l-88.38471 31.565968L521.46979 201.548705 90.909988 414.934649l-1.893958 1.262638L0 384.631319l521.46979-260.103575 520.838471 260.103575zM521.46979-50.979038l-430.559802 213.385943-1.893958 1.262639-89.01603-31.565968 521.46979-260.103576 520.838471 260.103576-88.38471 31.565968L521.46979-50.979038z"  horiz-adv-x="1042" />

    
    <glyph glyph-name="menu" unicode="&#59707;" d="M1024 0v-128H0v128h1024z m0 448v-128H0V448h1024z m0 448v-128H0V896h1024z"  horiz-adv-x="1024" />

    
    <glyph glyph-name="help-v1" unicode="&#59701;" d="M512 844.8C763.733333 844.8 972.8 640 972.8 384S763.733333-76.79999999999995 512-76.79999999999995 51.2 132.26666699999998 51.2 384 260.266667 844.8 512 844.8z m0-68.266667c-217.6 0-392.533333-174.933333-392.533333-392.533333s174.933333-392.533333 392.533333-392.533333 392.533333 174.933333 392.533333 392.533333-174.933333 392.533333-392.533333 392.533333zM512 213.33333300000004c25.6 0 42.666667-17.066667 42.666667-42.666666s-17.066667-42.666667-42.666667-42.666667-42.666667 17.066667-42.666667 42.666667 17.066667 42.666667 42.666667 42.666666z m0 418.133334c89.6 0 162.133333-72.533333 162.133333-157.866667 0-64-46.933333-123.733333-110.933333-136.533333h-4.266667c-4.266667 0-8.533333-4.266667-8.533333-17.066667V256h-64v38.4c4.266667 64 12.8 85.333333 55.466667 98.133333h8.533333c38.4 4.266667 64 38.4 64 72.533334 0 51.2-42.666667 93.866667-98.133333 93.866666-51.2 0-93.866667-38.4-93.866667-89.6v-8.533333H358.4c-8.533333 98.133333 64 166.4 153.6 170.666667z"  horiz-adv-x="1024" />

    
    <glyph glyph-name="emoj_pos" unicode="&#59702;" d="M512 832c249.6 0 448-198.4 448-448s-198.4-448-448-448-448 198.4-448 448 198.4 448 448 448z m0-64C300.8 768 128 595.2 128 384s172.8-384 384-384 384 172.8 384 384-172.8 384-384 384zM416 320c0-51.2 44.8-96 96-96s89.6 38.4 96 89.6V320h64c0-89.6-70.4-160-160-160-83.2 0-153.6 64-160 147.2V320h64zM339.2 467.2c25.6 0 44.8-19.2 44.8-38.4 0-25.6-19.2-44.8-44.8-44.8-19.2 0-38.4 19.2-38.4 44.8 0 19.2 19.2 38.4 38.4 38.4z m339.2 0c25.6 0 38.4-19.2 38.4-38.4 6.4-25.6-12.8-44.8-38.4-44.8-19.2 0-38.4 19.2-38.4 44.8 0 19.2 19.2 38.4 38.4 38.4z"  horiz-adv-x="1024" />

    
    <glyph glyph-name="like-v1" unicode="&#59703;" d="M541.866667 810.666667c59.733333 0 110.933333-38.4 123.733333-98.133334v-4.266666c4.266667-29.866667 8.533333-55.466667 8.533333-85.333334 0-21.333333-4.266667-46.933333-8.533333-68.266666l-4.266667-17.066667h153.6c42.666667-4.266667 76.8-21.333333 102.4-59.733333 12.8-21.333333 17.066667-42.666667 21.333334-68.266667v-29.866667l-72.533334-324.266666c0-4.266667-4.266667-8.533333-4.266666-12.8l-4.266667-4.266667c-8.533333-21.333333-25.6-38.4-46.933333-51.2-17.066667-12.8-29.866667-17.066667-51.2-21.333333h-12.8l-469.333334-8.533334H153.6c-34.133333 0-64 25.6-68.266667 59.733334V435.2c0 38.4 29.866667 68.266667 68.266667 68.266667H273.066667C354.133333 512 418.133333 584.5333330000001 422.4 665.6v8.533333C418.133333 750.933333 473.6 810.666667 541.866667 810.666667z m0-64c-29.866667 0-55.466667-25.6-55.466667-64v-21.333334c-4.266667-106.666667-85.333333-200.533333-196.266667-221.866666H277.333333v-422.4h477.866667c8.533333 0 12.8 4.266667 21.333333 8.533333s12.8 12.8 21.333334 21.333333l4.266666 12.8 72.533334 328.533334v12.8c0 12.8-4.266667 25.6-8.533334 34.133333-8.533333 17.066667-21.333333 25.6-46.933333 29.866667L810.666667 469.333333h-221.866667l17.066667 93.866667c4.266667 21.333333 4.266667 38.4 4.266666 59.733333 0 17.066667 0 38.4-4.266666 59.733334l-4.266667 12.8v4.266666c-4.266667 25.6-25.6 42.666667-55.466667 46.933334h-4.266666zM213.333333 439.466667H149.333333l-4.266666-4.266667v-413.866667h59.733333l8.533333 418.133334z"  horiz-adv-x="1024" />

    
    <glyph glyph-name="edit-v1" unicode="&#59704;" d="M541.866667 802.133333v-64h-384v-704h704v384h64v-448H93.866667V802.133333h448z m264.533333 8.533334s4.266667 0 4.266667-4.266667L934.4 682.666667c4.266667 0 4.266667-4.266667 0-8.533334l-413.866667-413.866666-4.266666-4.266667H401.066667c-8.533333 0-17.066667 8.533333-17.066667 17.066667v119.466666s0 4.266667 4.266667 4.266667L802.133333 810.666667h4.266667z m0-85.333334l-358.4-358.4v-46.933333h46.933333L853.333333 678.4 806.4 725.333333z"  horiz-adv-x="1024" />

    
    <glyph glyph-name="emoj_neg" unicode="&#59705;" d="M512 832c249.6 0 448-198.4 448-448s-198.4-448-448-448-448 198.4-448 448 198.4 448 448 448z m0-64C300.8 768 128 595.2 128 384s172.8-384 384-384 384 172.8 384 384-172.8 384-384 384z m0-448c89.6 0 160-70.4 160-160h-64v6.4C601.6 217.6 563.2 256 512 256s-96-44.8-96-96h-64v12.8C358.4 256 428.8 320 512 320zM339.2 467.2c25.6 0 44.8-19.2 44.8-38.4 0-25.6-19.2-44.8-44.8-44.8-19.2 0-38.4 19.2-38.4 44.8 0 19.2 19.2 38.4 38.4 38.4z m339.2 0c25.6 0 38.4-19.2 38.4-38.4 6.4-25.6-12.8-44.8-38.4-44.8-19.2 0-38.4 19.2-38.4 44.8 0 19.2 19.2 38.4 38.4 38.4z"  horiz-adv-x="1024" />

    
    <glyph glyph-name="service" unicode="&#59706;" d="M247.466667 221.866667H149.333333c-51.2 0-93.866667 42.666667-93.866666 93.866666v170.666667c0 51.2 42.666667 93.866667 93.866666 93.866667h38.4c34.133333 145.066667 166.4 256 324.266667 256 157.866667 0 290.133333-110.933333 324.266667-256h38.4c51.2 0 93.866667-42.666667 93.866666-93.866667v-170.666667c0-51.2-42.666667-93.866667-93.866666-93.866666h-38.4c-29.866667-119.466667-123.733333-217.6-243.2-247.466667-8.533333-8.533333-21.333333-17.066667-38.4-17.066667h-85.333334c-25.6 0-42.666667 17.066667-42.666666 42.666667v42.666667c0 25.6 17.066667 42.666667 42.666666 42.666666h85.333334c21.333333 0 42.666667-17.066667 42.666666-38.4 102.4 34.133333 179.2 128 179.2 243.2V512c0 149.333333-119.466667 264.533333-264.533333 264.533333-145.066667 0-260.266667-115.2-264.533333-256v-298.666666z m627.2 298.666666h-34.133334v-234.666666h34.133334c17.066667 0 34.133333 12.8 34.133333 34.133333v170.666667c-4.266667 17.066667-17.066667 29.866667-34.133333 29.866666z m-695.466667 0h-29.866667c-17.066667 0-29.866667-8.533333-29.866666-25.6v-174.933333c0-17.066667 12.8-34.133333 34.133333-34.133333h34.133333V520.533333z"  horiz-adv-x="1024" />

    
    <glyph glyph-name="new-copy" unicode="&#59692;" d="M896 640v-640H256V640h640z m-64-64H320v-512h512V576z m-160 192v-64H192v-480H128V768h544z"  horiz-adv-x="1024" />

    
    <glyph glyph-name="new-arrow-right" unicode="&#59693;" d="M633.6 371.20000000000005L403.2 192c-6.4-6.4-19.2 0-19.2 12.8V563.2c0 12.8 12.8 19.2 19.2 12.8l230.4-179.2c6.4-6.4 6.4-19.2 0-25.6z"  horiz-adv-x="1024" />

    
    <glyph glyph-name="new-close" unicode="&#59694;" d="M832 652.8l-51.2 51.2L512 428.8 243.2 704l-51.2-51.2L467.2 384 192 115.20000000000005l51.2-51.2L512 339.20000000000005l268.8-275.2 51.2 51.2L556.8 384z"  horiz-adv-x="1024" />

    
    <glyph glyph-name="new-home-search" unicode="&#59695;" d="M481.882353 745.4117650000001c180.705882 0 331.294118-150.588235 331.294118-331.294118 0-78.305882-30.117647-156.611765-78.305883-210.823529l126.494118-126.494118-42.164706-42.164706-126.494118 126.494118c-60.235294-48.188235-132.517647-78.305882-210.823529-78.305883-180.705882 0-331.294118 150.588235-331.294118 331.294118S301.176471 745.4117650000001 481.882353 745.4117650000001z m0-60.235294c-150.588235 0-271.058824-120.470588-271.058824-271.058824s120.470588-271.058824 271.058824-271.058823 271.058824 120.470588 271.058823 271.058823-120.470588 271.058824-271.058823 271.058824z"  horiz-adv-x="1024" />

    
    <glyph glyph-name="new-down" unicode="&#59696;" d="M512 192L256 512h512z"  horiz-adv-x="1024" />

    
    <glyph glyph-name="new-edit" unicode="&#59697;" d="M541.866667 802.133333v-64h-384v-704h704v384h64v-448H93.866667V802.133333h448z m264.533333 8.533334s4.266667 0 4.266667-4.266667L934.4 682.666667c4.266667 0 4.266667-4.266667 0-8.533334l-413.866667-413.866666-4.266666-4.266667H401.066667c-8.533333 0-17.066667 8.533333-17.066667 17.066667v119.466666s0 4.266667 4.266667 4.266667L802.133333 810.666667h4.266667z m0-85.333334l-358.4-358.4v-46.933333h46.933333L853.333333 678.4 806.4 725.333333z"  horiz-adv-x="1024" />

    
    <glyph glyph-name="help" unicode="&#59698;" d="M512 844.8C763.733333 844.8 972.8 640 972.8 384S763.733333-76.8 512-76.8 51.2 132.266667 51.2 384 260.266667 844.8 512 844.8z m0-68.266667c-217.6 0-392.533333-174.933333-392.533333-392.533333s174.933333-392.533333 392.533333-392.533333 392.533333 174.933333 392.533333 392.533333-174.933333 392.533333-392.533333 392.533333zM512 213.333333c25.6 0 42.666667-17.066667 42.666667-42.666666s-17.066667-42.666667-42.666667-42.666667-42.666667 17.066667-42.666667 42.666667 17.066667 42.666667 42.666667 42.666666z m0 418.133334c89.6 0 162.133333-72.533333 162.133333-157.866667 0-64-46.933333-123.733333-110.933333-136.533333h-4.266667c-4.266667 0-8.533333-4.266667-8.533333-17.066667V256h-64v38.4c4.266667 64 12.8 85.333333 55.466667 98.133333h8.533333c38.4 4.266667 64 38.4 64 72.533334 0 51.2-42.666667 93.866667-98.133333 93.866666-51.2 0-93.866667-38.4-93.866667-89.6v-8.533333H358.4c-8.533333 98.133333 64 166.4 153.6 170.666667z"  horiz-adv-x="1024" />

    
    <glyph glyph-name="new-like" unicode="&#59699;" d="M85.333333 810.666667h853.333334v-853.333334H85.333333zM541.866667 810.666667c59.733333 0 110.933333-38.4 123.733333-98.133334v-4.266666c4.266667-29.866667 8.533333-55.466667 8.533333-85.333334 0-21.333333-4.266667-46.933333-8.533333-68.266666l-4.266667-17.066667h153.6c42.666667-4.266667 76.8-21.333333 102.4-59.733333 12.8-21.333333 17.066667-42.666667 21.333334-68.266667v-29.866667l-72.533334-324.266666c0-4.266667-4.266667-8.533333-4.266666-12.8l-4.266667-4.266667c-8.533333-21.333333-25.6-38.4-46.933333-51.2-17.066667-12.8-29.866667-17.066667-51.2-21.333333h-12.8l-469.333334-8.533334H153.6c-34.133333 0-64 25.6-68.266667 59.733334V435.2c0 38.4 29.866667 68.266667 68.266667 68.266667H273.066667C354.133333 512 418.133333 584.5333330000001 422.4 665.6v8.533333C418.133333 750.933333 473.6 810.666667 541.866667 810.666667z m0-64c-29.866667 0-55.466667-25.6-55.466667-64v-21.333334c-4.266667-106.666667-85.333333-200.533333-196.266667-221.866666H277.333333v-422.4h477.866667c8.533333 0 12.8 4.266667 21.333333 8.533333s12.8 12.8 21.333334 21.333333l4.266666 12.8 72.533334 328.533334v12.8c0 12.8-4.266667 25.6-8.533334 34.133333-8.533333 17.066667-21.333333 25.6-46.933333 29.866667L810.666667 469.333333h-221.866667l17.066667 93.866667c4.266667 21.333333 4.266667 38.4 4.266666 59.733333 0 17.066667 0 38.4-4.266666 59.733334l-4.266667 12.8v4.266666c-4.266667 25.6-25.6 42.666667-55.466667 46.933334h-4.266666zM213.333333 439.466667H149.333333l-4.266666-4.266667v-413.866667h59.733333l8.533333 418.133334z"  horiz-adv-x="1024" />

    
    <glyph glyph-name="customer-service" unicode="&#59700;" d="M0 896h1024v-1024H0zM247.466667 221.866667H149.333333c-51.2 0-93.866667 42.666667-93.866666 93.866666v170.666667c0 51.2 42.666667 93.866667 93.866666 93.866667h38.4c34.133333 145.066667 166.4 256 324.266667 256 157.866667 0 290.133333-110.933333 324.266667-256h38.4c51.2 0 93.866667-42.666667 93.866666-93.866667v-170.666667c0-51.2-42.666667-93.866667-93.866666-93.866666h-38.4c-29.866667-119.466667-123.733333-217.6-243.2-247.466667-8.533333-8.533333-21.333333-17.066667-38.4-17.066667h-85.333334c-25.6 0-42.666667 17.066667-42.666666 42.666667v42.666667c0 25.6 17.066667 42.666667 42.666666 42.666666h85.333334c21.333333 0 42.666667-17.066667 42.666666-38.4 102.4 34.133333 179.2 128 179.2 243.2V512c0 149.333333-119.466667 264.533333-264.533333 264.533333-145.066667 0-260.266667-115.2-264.533333-256v-298.666666z m627.2 298.666666h-34.133334v-234.666666h34.133334c17.066667 0 34.133333 12.8 34.133333 34.133333v170.666667c-4.266667 17.066667-17.066667 29.866667-34.133333 29.866666z m-695.466667 0h-29.866667c-17.066667 0-29.866667-8.533333-29.866666-25.6v-174.933333c0-17.066667 12.8-34.133333 34.133333-34.133333h34.133333V520.5333330000001z"  horiz-adv-x="1024" />

    
    <glyph glyph-name="logo" unicode="&#59691;" d=""  horiz-adv-x="1024" />

    
    <glyph glyph-name="pfs" unicode="&#59690;" d="M928 896v-1024h-164.352v64H864v320h-768V896h832zM628.992 160c30.08 0 53.696-5.888 70.528-17.92 17.92-12.8 28.224-32.768 30.72-59.712h-41.472c-3.584 15.168-10.368 26.24-19.712 32.768-9.28 6.912-23.616 10.048-42.24 10.048-16.064 0-28.288-2.112-36.864-6.592a26.24 26.24 0 0 1-15.744-25.536c0-10.368 5.76-18.944 17.92-25.152 5.376-2.752 20.032-7.936 43.648-15.232 34.752-10.304 56.96-18.56 66.944-24.128 22.208-12.8 33.28-30.336 33.28-53.12 0-22.08-8.96-39.68-26.88-52.48-17.92-12.416-43.264-18.944-75.84-18.944-31.488 0-56.192 5.888-73.728 17.6-21.504 14.464-33.28 37.248-35.072 68.672h41.472c2.88-18.624 9.664-32.128 20.8-40.064 9.984-6.848 25.408-10.688 46.528-10.688 18.56 0 33.664 3.136 44.352 8.96 10.752 6.208 16.512 14.144 16.512 24.512 0 13.12-8.256 23.488-24 31.04-4.992 2.432-21.504 7.936-49.728 16.256-31.552 9.6-51.2 16.512-58.752 20.672-19.648 11.392-29.312 27.968-29.312 49.664 0 21.76 9.28 39.04 28.608 51.456 17.92 12.032 40.448 17.92 68.032 17.92z m-427.072-4.8c61.568 0 92.736-25.216 92.736-75.584 0-50.752-31.168-76.224-93.44-76.224h-63.36v-94.592H96v246.4z m302.848 0v-34.56h-132.48v-68.288H497.28v-34.496H372.352v-109.056h-41.92v246.4h174.336z m-306.048-34.56h-60.8v-82.752h60.8c18.624 0 32.256 3.456 40.832 9.6 8.576 6.592 12.864 17.28 12.864 32.128 0 14.848-4.672 25.152-13.248 31.36-8.576 6.592-22.208 9.664-40.448 9.664zM864 538.112h-704V320h704V538.112zM416 467.2v-64h-192v64h192z m448 364.8h-704v-229.888h704V832z m-448-102.4v-64h-192v64h192z"  horiz-adv-x="1024" />

    
    <glyph glyph-name="collection" unicode="&#59680;" d="M1039.753846 541.538462l-315.076923 47.261538L582.892308 872.369231c0 7.876923-7.876923 15.753846-15.753846 15.753846-15.753846 7.876923-39.384615 0-47.261539-15.753846L378.092308 588.8l-315.076923-47.261538c-7.876923 0-15.753846-7.876923-23.63077-7.876924-15.753846-15.753846-15.753846-39.384615 0-55.138461l228.43077-220.553846-55.138462-315.076923v-23.63077c7.876923-15.753846 31.507692-23.630769 55.138462-15.753846L551.384615 45.29230800000005l275.692308-149.661539c7.876923-7.876923 15.753846-7.876923 23.630769 0 23.630769 0 39.384615 23.630769 31.507693 47.261539l-55.138462 315.076923 228.430769 220.553846c7.876923 7.876923 7.876923 15.753846 7.876923 23.630769 15.753846 15.753846 0 31.507692-23.630769 39.384616z"  horiz-adv-x="1102" />

    
    <glyph glyph-name="message" unicode="&#59681;" d="M896 768c38.4 0 64-25.6 64-64v-576c0-38.4-25.6-64-64-64h-224l-128-128-128 128H192c-38.4 0-64 25.6-64 64V704c0 38.4 25.6 64 64 64h704z m0-64H192v-576h249.6l102.4-102.4 102.4 102.4H896V704zM448 448v-64H320V448h128z m128 0v-64H512V448h64z m192 0v-64h-128V448h128z"  horiz-adv-x="1024" />

    
    <glyph glyph-name="collection-outline" unicode="&#59682;" d="M1039.753846 541.538462l-315.076923 47.261538L582.892308 872.369231c0 7.876923-7.876923 15.753846-15.753846 15.753846-15.753846 7.876923-39.384615 0-47.261539-15.753846L378.092308 588.8l-315.076923-47.261538c-7.876923 0-15.753846-7.876923-23.63077-7.876924-15.753846-15.753846-15.753846-39.384615 0-55.138461l228.43077-220.553846-55.138462-315.076923v-23.63077c7.876923-15.753846 31.507692-23.630769 55.138462-15.753846L551.384615 45.29230800000005l275.692308-149.661539c7.876923-7.876923 15.753846-7.876923 23.630769 0 23.630769 0 39.384615 23.630769 31.507693 47.261539l-55.138462 315.076923 228.430769 220.553846c7.876923 7.876923 7.876923 15.753846 7.876923 23.630769 15.753846 15.753846 0 31.507692-23.630769 39.384616zM740.430769 281.6l47.261539-259.938462-236.307693 126.03077-236.307692-126.03077 47.261539 259.938462-189.046154 189.046154L433.230769 502.153846 551.384615 738.461538l118.153847-236.307692 259.938461-39.384615-189.046154-181.169231z"  horiz-adv-x="1102" />

    
    <glyph glyph-name="qr-code" unicode="&#59683;" d="M512 320v-384H128V320h384z m64-384v64h64V320h64v-320h64V320h64v-320h64V320h64v-384H576z m-128 320H192v-256h256v256z m-96-96v-64h-64v64h64zM512 768v-384H128V768h384z m448 0v-384H576V768h384zM448 704H192v-256h256V704z m448 0h-256v-256h256V704zM352 608v-64h-64v64h64z m448 0v-64h-64v64h64z"  horiz-adv-x="1024" />

    
    <glyph glyph-name="real-name" unicode="&#59684;" d="M905.846154 691.2h315.076923c23.630769 0 39.384615-15.753846 39.384615-39.384615s-15.753846-39.384615-39.384615-39.384616h-315.076923c-23.630769 0-39.384615 15.753846-39.384616 39.384616s15.753846 39.384615 39.384616 39.384615z m70.892308-661.661538h244.184615c23.630769 0 39.384615-15.753846 39.384615-39.384616s-15.753846-39.384615-39.384615-39.384615h-244.184615c-23.630769 0-39.384615 15.753846-39.384616 39.384615s15.753846 39.384615 39.384616 39.384616zM409.6 320.98461499999996c110.276923 0 212.676923-31.507692 283.569231-94.523077 15.753846-15.753846 15.753846-39.384615 0-55.138461-7.876923-15.753846-39.384615-23.630769-55.138462-7.876923-63.015385 47.261538-141.784615 78.769231-228.430769 78.769231C220.553846 242.21538499999997 78.769231 124.06153800000004 78.769231-33.476923000000056v-55.138462c0-23.630769-15.753846-39.384615-39.384616-39.384615s-39.384615 15.753846-39.384615 39.384615v55.138462c0 212.676923 173.292308 354.461538 409.6 354.461538z m441.107692-173.292307c15.753846-15.753846 15.753846-39.384615 0-55.138462l-173.292307-204.8c-15.753846-15.753846-39.384615-15.753846-63.015385 0l-118.153846 126.030769c-15.753846 15.753846-15.753846 39.384615 0 55.138462 15.753846 15.753846 39.384615 15.753846 55.138461 0l86.646154-94.523077L787.692308 147.69230800000003c15.753846 15.753846 47.261538 15.753846 63.015384 0z m370.215385 212.676923c23.630769 0 39.384615-15.753846 39.384615-39.384616s-15.753846-39.384615-39.384615-39.384615h-236.307692c-23.630769 0-39.384615 15.753846-39.384616 39.384615s15.753846 39.384615 39.384616 39.384616h236.307692zM409.6 896c133.907692 0 244.184615-110.276923 244.184615-244.184615S543.507692 407.630769 409.6 407.630769 165.415385 517.907692 165.415385 651.815385 275.692308 896 409.6 896z m0-78.769231C315.076923 817.230769 244.184615 738.461538 244.184615 651.815385S315.076923 486.4 409.6 486.4s165.415385 70.892308 165.415385 165.415385S496.246154 817.230769 409.6 817.230769z"  horiz-adv-x="1260" />

    
    <glyph glyph-name="user-avatar" unicode="&#59685;" d="M512 603.4285709999999c-43.885714 0-73.142857-29.257143-73.142857-73.142857s29.257143-73.142857 73.142857-73.142857 73.142857 29.257143 73.142857 73.142857-29.257143 73.142857-73.142857 73.142857m0-219.428571c-80.457143 0-146.285714 65.828571-146.285714 146.285714s65.828571 146.285714 146.285714 146.285715 146.285714-65.828571 146.285714-146.285715-65.828571-146.285714-146.285714-146.285714M731.428571 128H658.285714c0 80.457143-65.828571 146.285714-146.285714 146.285714s-146.285714-65.828571-146.285714-146.285714H292.571429c0 124.342857 95.085714 219.428571 219.428571 219.428571s219.428571-95.085714 219.428571-219.428571M512 822.857143C270.628571 822.857143 73.142857 625.371429 73.142857 384s197.485714-438.857143 438.857143-438.857143 438.857143 197.485714 438.857143 438.857143-197.485714 438.857143-438.857143 438.857143m0-950.857143c-285.257143 0-512 226.742857-512 512s226.742857 512 512 512 512-226.742857 512-512-226.742857-512-512-512"  horiz-adv-x="1024" />

    
    <glyph glyph-name="switch-account" unicode="&#59686;" d="M1024 384c0-285.257143-226.742857-512-512-512-175.542857 0-329.142857 87.771429-424.228571 226.742857L0 10.971428999999944V259.657143h241.371429l-109.714286-109.714286c80.457143-124.342857 219.428571-212.114286 380.342857-212.114286 241.371429 0 438.857143 190.171429 446.171429 431.542858V384h65.828571zM512 566.857143c102.4 0 182.857143-80.457143 182.857143-182.857143S614.4 201.14285700000005 512 201.14285700000005 329.142857 281.6 329.142857 384 409.6 566.857143 512 566.857143z m0-73.142857c-58.514286 0-109.714286-51.2-109.714286-109.714286S453.485714 274.285714 512 274.285714 621.714286 325.48571400000003 621.714286 384 570.514286 493.714286 512 493.714286zM512 896c175.542857 0 329.142857-87.771429 424.228571-226.742857L1024 757.028571v-241.371428h-241.371429l109.714286 109.714286C811.885714 749.714286 665.6 830.171429 512 830.171429 270.628571 830.171429 73.142857 640 65.828571 398.628571V384H0c0 285.257143 226.742857 512 512 512z"  horiz-adv-x="1024" />

    
    <glyph glyph-name="move-sort" unicode="&#59687;" d="M384 128c-38.4 0-64-25.6-64-64s25.6-64 64-64 64 25.6 64 64-25.6 64-64 64z m0 320c-38.4 0-64-25.6-64-64s25.6-64 64-64 64 25.6 64 64-25.6 64-64 64z m0 320c-38.4 0-64-25.6-64-64s25.6-64 64-64 64 25.6 64 64-25.6 64-64 64z m256-640c-38.4 0-64-25.6-64-64s25.6-64 64-64 64 25.6 64 64-25.6 64-64 64z m0 320c-38.4 0-64-25.6-64-64s25.6-64 64-64 64 25.6 64 64-25.6 64-64 64z m0 320c-38.4 0-64-25.6-64-64s25.6-64 64-64 64 25.6 64 64-25.6 64-64 64z"  horiz-adv-x="1024" />

    
    <glyph glyph-name="all" unicode="&#59688;" d="M960 192v-256H384v256h576zM320 192v-256H64v256h256z m576-64H448v-128h448v128zM256 128H128v-128h128v128z m704 384v-256H384V512h576zM320 512v-256H64V512h256z m576-64H448v-128h448V448zM256 448H128v-128h128V448z m704 384v-256H384V832h576zM320 832v-256H64V832h256z m576-64H448v-128h448V768zM256 768H128v-128h128V768z"  horiz-adv-x="1024" />

    
    <glyph glyph-name="multi-user" unicode="&#59689;" d="M512 288c121.6 0 217.6-96 224-211.2V0c0-19.2-12.8-32-32-32-12.8 0-25.6 12.8-32 25.6V64c0 83.2-64 153.6-147.2 160H320c-83.2 0-153.6-64-160-147.2V0c0-19.2-12.8-32-32-32-12.8 0-25.6 12.8-32 25.6V64c0 121.6 96 217.6 211.2 224H512zM704 288c121.6 0 217.6-96 224-211.2V0c0-19.2-12.8-32-32-32-12.8 0-25.6 12.8-32 25.6V64c0 89.6-70.4 160-160 160-19.2 0-32 12.8-32 32s12.8 32 32 32zM416 800c-108.8 0-192-83.2-192-192s83.2-192 192-192 192 83.2 192 192-83.2 192-192 192z m0-64c70.4 0 128-57.6 128-128s-57.6-128-128-128-128 57.6-128 128 57.6 128 128 128zM672 800c108.8 0 192-83.2 192-192s-83.2-192-192-192c-19.2 0-32 12.8-32 32s12.8 32 32 32c70.4 0 128 57.6 128 128s-57.6 128-128 128c-19.2 0-32 12.8-32 32s12.8 32 32 32z"  horiz-adv-x="1024" />

    
    <glyph glyph-name="vmware" unicode="&#59679;" d="M960 0h-320V339.2h-43.072c-11.2-21.12-30.08-37.696-52.928-45.76V0h-64V293.504a96.32 96.32 0 0 0-52.928 45.632L384 339.2V0H64V768h320v-351.936h37.504c9.6 27.2 31.232 48.832 58.432 58.432L480 768h64v-293.44c27.264-9.6 48.896-31.232 58.496-58.496L640 416V768h320v-768zM320 192V704H128v-512h192z m0-128v64H128v-64h192zM256 576H192V640h64v-64z m288-192a32 32 0 1 1-64 0 32 32 0 0 1 64 0z m352-192V704h-192v-512h192z m0-128v64h-192v-64h192z m-64 512h-64V640h64v-64z"  horiz-adv-x="1024" />

    
    <glyph glyph-name="yunzhinengwangcsn" unicode="&#59678;" d="M384 832v-64h256V832h64v-64h192v-192h64v-64h-64v-256h64v-64h-64v-192h-192v-64h-64v64H384v-64H320v64H128v192H64v64h64V512H64V576h64V768h192V832h64z m448-128H192v-640h640V704zM512 544c51.2 0 96-32 115.2-76.8v-6.4h6.4c51.2-12.8 89.6-57.6 96-108.8v-6.4c0-64-44.8-115.2-108.8-121.6H422.4c-64 6.4-115.2 57.6-115.2 121.6 0 57.6 38.4 108.8 96 115.2h6.4v6.4c6.4 44.8 44.8 70.4 89.6 76.8H512z m0-64c-25.6 0-51.2-19.2-57.6-51.2l-6.4-25.6h-32c-32-6.4-51.2-25.6-51.2-57.6s25.6-57.6 51.2-57.6h192c32 0 51.2 25.6 51.2 57.6s-25.6 57.6-57.6 57.6H576l-6.4 25.6c-6.4 32-32 51.2-57.6 51.2z"  horiz-adv-x="1024" />

    
    <glyph glyph-name="bmr-adhoc" unicode="&#59676;" d="M674.487079 774.981818c58.889309 0 106.62943-47.740121 106.62943-106.632533 0-58.889309-47.740121-106.62943-106.62943-106.62943-44.941188 0-83.38463 27.796945-99.079758 67.137163l-62.845673 0.003103v-205.364751h62.845673c15.695127 39.337115 54.141673 67.137164 99.079758 67.137163 58.889309 0 106.62943-47.740121 106.62943-106.632533s-47.740121-106.632533-106.62943-106.632533c-44.938085 0-83.38463 27.800048-99.079758 67.137163l-62.845673 0.003103v-209.311806h61.362425c14.450812 40.88863 53.136291 70.330182 98.800485 71.071806l1.762521 0.012412c58.889309 0 106.62943-47.740121 106.62943-106.62943 0-58.892412-47.740121-106.632533-106.62943-106.632533-43.420703 0-80.778085 25.950642-97.410327 63.187006h-143.499637v651.636364l141.830206 0.003103C591.102448 747.184873 629.548994 774.981818 674.487079 774.981818zM388.158061 261.569939v-205.361648H309.173527V182.582303H232.162521v78.984533h155.998643z m-1.973528 450.22177v-394.928873H307.2V632.807176H188.720097v-497.614352h69.610279v-78.984533H109.735564V711.791709h276.448969z m288.299443-584.496097a27.648 27.648 0 1 1 0-55.289794 27.648 27.648 0 0 1 0 55.289794z m0 284.349285a27.648 27.648 0 1 1 0-55.289794 27.648 27.648 0 0 1 0 55.289794z m0 284.349285a27.648 27.648 0 1 1 0-55.289794 27.648 27.648 0 0 1 0 55.289794zM3375.538424 185.902545l33.016243 28.672c-11.29503 16.508121-23.024485 32.147394-34.319515 46.917819 24.327758 28.672 36.926061 66.466909 36.92606 112.950303 0 47.786667-13.032727 86.450424-39.098182 115.556848-27.368727 30.844121-64.729212 46.04897-112.081454 46.04897-47.786667 0-85.147152-15.204848-112.081455-46.483394-26.065455-29.540848-38.663758-67.770182-38.663757-115.122424 0-46.917818 12.598303-85.147152 38.663757-114.688 26.934303-30.409697 64.294788-46.04897 112.081455-46.04897 31.278545 0 58.647273 6.950788 81.237333 19.983515 11.29503-14.770424 22.590061-30.844121 34.319515-47.786667z m-115.556848 72.548849c-32.147394 0-57.344 10.860606-74.72097 32.147394-16.942545 20.852364-25.196606 48.655515-25.196606 83.843879 0 35.622788 8.254061 63.425939 25.196606 84.278303 17.811394 21.721212 42.573576 32.581818 74.72097 32.581818 32.147394 0 56.909576-9.991758 74.286545-30.844121 16.942545-20.852364 25.63103-49.524364 25.631031-86.016 0-29.975273-6.081939-54.737455-17.37697-73.852122-14.770424 17.37697-29.975273 34.319515-45.180121 50.393213l-29.540849-28.672c14.336-15.204848 29.106424-32.147394 44.745697-51.262061-14.770424-8.254061-32.147394-12.598303-52.565333-12.598303z m430.08-38.663758v43.442425h-180.286061v93.835636h162.474667v43.442424h-162.474667v86.016h172.900849v43.442424h-223.728485v-310.178909h231.113697zM2932.363636 362.278788m-31.030303 0a31.030303 31.030303 0 1 1 62.060606 0 31.030303 31.030303 0 1 1-62.060606 0ZM1086.060606 192.679564l30.657939 84.427248h141.026522l30.657939-84.427248h58.957576l-128.763346 336.765672h-62.73086L1027.10303 192.679564h58.957576z m155.176339 129.706666H1133.226667l53.297648 147.62977h1.886643l52.825987-147.62977z m238.188607-136.309915c32.072921 0 56.599273 10.848194 73.579054 32.544582v-25.941333h49.996024V536.048485h-53.769309v-133.008291c-20.281406 26.884655-44.336097 40.091152-72.635733 40.091151-34.902885 0-62.730861-12.734836-82.540606-38.204509-18.866424-23.58303-27.827976-53.297648-27.827976-89.143854 0-37.261188 9.433212-67.919127 28.299636-91.502158 20.281406-25.469673 48.581042-38.204509 84.89891-38.204509z m8.01823 43.392776c-24.054691 0-41.506133 8.489891-52.354327 25.469673-9.433212 14.149818-13.678158 34.431224-13.678158 60.844218s4.716606 46.222739 14.621479 59.900897c11.319855 16.036461 28.771297 24.054691 53.297648 24.054691 16.979782 0 31.601261-7.074909 42.921115-21.224728 12.263176-15.093139 18.866424-35.846206 18.866425-61.787539v-3.773285c0-23.58303-5.188267-43.392776-15.09314-58.485915-11.319855-16.508121-27.827976-24.998012-48.581042-24.998012z m405.628121 63.202521v44.336097h-238.188606v-44.336097h238.188606z m105.651976-99.992048v136.309915c0 20.753067 4.716606 37.261188 14.621479 50.467685 9.433212 13.206497 22.639709 19.809745 39.61949 19.809745 18.394764 0 32.072921-5.659927 41.506134-17.451442 8.01823-10.848194 12.263176-26.884655 12.263176-47.637722v-141.498181h53.769309v150.931394c0 32.544582-7.074909 57.070933-20.753067 73.579054-14.621479 17.451442-36.789527 25.941333-66.504145 25.941333-15.5648 0-29.242958-2.829964-41.034473-8.961551-13.206497-6.603248-24.526352-16.508121-33.487903-30.186279V536.048485h-53.769309v-343.368921h53.769309z m331.577406-6.603249c36.789527 0 66.975806 12.263176 89.615515 36.789527 21.696388 23.58303 33.016242 54.24097 33.016242 91.502158 0 37.732848-11.319855 68.390788-33.487903 92.445479-22.639709 24.526352-52.354327 36.317867-89.143854 36.317866-37.261188 0-66.975806-11.791515-89.143855-36.317866-22.639709-24.054691-33.487903-54.71263-33.487903-92.445479 0-37.261188 10.848194-67.919127 33.016243-91.502158 22.639709-24.526352 52.354327-36.789527 89.615515-36.789527z m0 43.864437c-22.639709 0-39.619491 8.961552-51.882667 26.412993-10.376533 15.093139-15.5648 34.431224-15.5648 58.014255 0 23.58303 5.188267 43.392776 15.5648 58.485915 12.263176 17.923103 29.242958 26.412994 51.882667 26.412994 22.168048 0 39.619491-8.489891 51.882667-26.412994 10.376533-15.093139 16.036461-34.902885 16.03646-58.485915 0-23.11137-5.659927-42.449455-16.03646-58.014255-12.263176-17.451442-29.714618-26.412994-51.882667-26.412993z m278.279757-43.864437c31.601261 0 57.070933 8.01823 75.937358 23.58303 19.338085 16.036461 32.072921 40.562812 37.732848 73.579055h-53.297648c-4.244945-35.374545-24.054691-53.297648-59.900897-53.297648-20.753067 0-36.317867 7.54657-46.6944 22.168048-11.319855 15.093139-16.508121 36.317867-16.508121 63.202521 0 26.412994 5.659927 47.166061 16.979782 61.78754 11.319855 15.093139 26.884655 22.168048 46.6944 22.168048 16.036461 0 29.242958-3.773285 39.14783-11.319854 9.433212-7.54657 16.036461-18.866424 19.338085-34.431225h53.297648c-4.716606 30.657939-16.979782 53.297648-36.317866 68.390788-18.866424 14.149818-43.864436 21.224727-75.465697 21.224727-38.204509 0-67.919127-12.734836-89.143855-38.204509-19.809745-23.11137-29.714618-53.297648-29.714618-90.087175 0-37.732848 9.904873-68.390788 30.186279-91.973819 20.753067-24.526352 49.996024-36.789527 87.728872-36.789527z"  horiz-adv-x="3822" />

    
    <glyph glyph-name="cloudflow" unicode="&#59677;" d="M896 832v-320H556.8v-64H896v-320H556.8v-43.072c21.12-11.2 37.568-30.016 45.696-52.736l284.864-0.192v-64h-284.8a96 96 0 0 0-181.12 0h-284.8v64l284.864 0.192c9.664 27.136 31.232 48.704 58.432 58.304V128H128V448h352V512H128V832h768zM512 32a32 32 0 1 1 0-64 32 32 0 0 1 0 64zM704 384H192v-192h512V384z m128 0h-64v-192h64V384zM320 320v-64H256V320h64z m384 448H192v-192h512V768z m128 0h-64v-192h64V768zM320 704v-64H256V704h64z"  horiz-adv-x="1024" />

    
    <glyph glyph-name="bmr-clickhouse" unicode="&#59675;" d="M0 896m87.552 0l0.056889 0q87.552 0 87.552-87.552l0-801.336889q0-87.552-87.552-87.552l-0.056889 0q-87.552 0-87.552 87.552l0 801.336889q0 87.552 87.552 87.552ZM394.069333 896m87.552 0l0.056889 0q87.552 0 87.552-87.552l0-801.336889q0-87.552-87.552-87.552l-0.056889 0q-87.552 0-87.552 87.552l0 801.336889q0 87.552 87.552 87.552ZM788.138667 896m87.552 0l0.056889 0q87.552 0 87.552-87.552l0-801.336889q0-87.552-87.552-87.552l-0.056889 0q-87.552 0-87.552 87.552l0 801.336889q0 87.552 87.552 87.552ZM1182.208 496.526222m65.649778 0l0.056889 0q65.649778 0 65.649777-65.649778l0-90.624q0-65.649778-65.649777-65.649777l-0.056889 0q-65.649778 0-65.649778 65.649777l0 90.624q0 65.649778 65.649778 65.649778ZM1753.486222 141.482667c60.472889 0 112.355556 17.066667 155.534222 51.313777 46.364444 36.522667 75.434667 87.04 88.007112 151.608889H1913.742222c-10.979556-43.52-30.663111-76.231111-58.936889-97.962666-26.737778-20.195556-61.269333-30.321778-102.115555-30.321778-62.862222 0-109.226667 19.456-139.093334 58.311111-28.273778 36.579556-42.382222 87.893333-42.382222 154.737778 0 64.568889 14.108444 115.882667 43.235556 153.201778 30.606222 41.244444 76.174222 61.44 136.647111 61.44 40.846222 0 73.841778-8.533333 100.579555-26.453334 26.737778-17.863111 44.771556-45.852444 54.215112-83.171555h83.285333c-8.647111 55.978667-33.792 101.091556-74.638222 133.688889-42.439111 34.247111-96.654222 50.631111-161.848889 50.631111-89.6 0-157.127111-28.785778-204.231111-87.893334-42.496-52.110222-62.919111-119.011556-62.919111-201.386666 0-84.024889 19.683556-150.869333 60.529777-200.647111 46.307556-57.571556 115.484444-87.096889 207.416889-87.096889z m414.833778 10.865777V718.506667H2084.977778v-566.044445h83.285333z m162.588444 451.811556c15.758222 0 29.866667 5.461333 40.903112 15.530667a54.897778 54.897778 0 0 1 17.237333 40.448 51.370667 51.370667 0 0 1-16.497778 39.651555c-10.979556 10.922667-25.144889 15.587556-41.642667 15.587556s-29.809778-4.664889-40.846222-15.587556a51.370667 51.370667 0 0 1-16.497778-39.651555c0-15.530667 5.518222-29.582222 16.497778-40.391111 11.036444-10.126222 24.348444-15.587556 40.846222-15.587556z m41.642667-410.168889V512.739556a41.642667 41.642667 0 0 1-83.228444 0v-318.748445a41.642667 41.642667 0 0 1 83.228444 0z m291.498667-52.508444c51.882667 0 94.264889 13.198222 125.724444 38.855111 31.402667 26.453333 52.622222 66.901333 62.008889 120.547555h-82.488889c-7.793778-60.643556-42.382222-91.761778-104.448-91.761777-36.124444 0-62.862222 13.198222-80.952889 38.115555-19.626667 25.6-29.013333 61.44-29.013333 106.496 0 45.112889 9.386667 80.896 29.809778 105.813333 19.683556 25.6 46.364444 38.115556 80.952889 38.115556 28.273778 0 51.029333-6.257778 68.323555-19.456 17.294222-12.515556 28.273778-32.711111 33.792-59.904h82.488889c-7.850667 49.777778-28.273778 87.04-59.733333 111.957333-31.402667 23.324444-73.045333 34.986667-124.871111 34.986667-62.862222 0-111.559111-20.992-146.944-62.976-32.995556-38.855111-49.493333-88.632889-49.493334-149.276444 0-62.236444 16.497778-112.014222 50.289778-150.869334 34.588444-40.391111 82.488889-60.643556 144.554667-60.643555z m342.584889 10.865777v140.743112l46.307555 42.780444 146.204445-183.523556h106.780444l-195.584 236.430223 179.882667 165.603555h-107.633778l-175.957333-165.603555V718.449778h-83.285334v-566.044445h83.285334z m497.322666 0V401.180444h293.831111v-248.832h85.617778v555.235556h-85.617778v-234.040889h-293.831111V707.5840000000001h-85.674666v-555.235556h85.674666z m668.615111-10.865777c61.269333 0 110.762667 20.992 148.48 61.44 36.124444 38.855111 54.215111 89.429333 54.215112 150.072889 0 61.44-18.887111 111.957333-55.011556 151.608888-36.977778 40.448-86.471111 60.643556-147.683556 60.643556-61.326222 0-110.819556-20.195556-147.740444-60.643556-36.920889-39.651556-55.011556-90.168889-55.011556-151.608888 0-60.643556 18.090667-111.217778 54.215112-150.072889 37.717333-40.448 87.210667-61.44 148.48-61.44z m0 67.640889c-38.513778 0-68.380444 15.530667-89.6 45.112888-18.830222 25.6-27.477333 58.311111-27.477333 98.759112 0 40.391111 8.647111 73.841778 27.477333 99.555555 21.219556 30.321778 51.086222 45.056 89.6 45.056 38.456889 0 68.323556-14.791111 90.339556-45.112889 18.830222-25.6 28.273778-59.050667 28.273778-99.555555 0-39.594667-9.443556-72.248889-28.273778-98.702223-22.016-29.582222-51.882667-45.112889-90.339556-45.112888z m428.942223-67.697778c51.086222 0 93.525333 21.845333 128.056889 65.365333 0-30.037333 24.405333-54.442667 54.442666-54.442667h28.842667V554.382222h-83.285333v-245.76c-7.054222-29.525333-20.423111-53.589333-39.253334-71.509333-18.887111-17.066667-38.513778-26.453333-60.529778-26.453333-32.199111 0-55.751111 8.533333-69.916444 24.120888-14.904889 15.587556-22.016 40.391111-22.016 74.638223V554.382222h-83.228444v-250.368c0-108.088889 48.696889-162.531556 146.887111-162.531555z m463.530666 0c120.206222 0 180.736 42.837333 180.736 127.601778 0 35.726222-16.497778 63.715556-48.696889 83.968-22.016 13.994667-56.604444 27.192889-102.968888 38.115555-40.846222 10.069333-67.527111 17.863111-81.692445 24.064-22.016 10.126222-32.995556 21.788444-32.995555 35.84a38.115556 38.115556 0 0 0 22.016 35.726222c12.515556 7.793778 31.402667 10.865778 56.547555 10.865778 28.273778 0 50.289778-4.664889 64.455111-13.994667 13.312-8.533333 22.755556-23.324444 29.013334-45.112888h80.952888c-9.443556 84.764444-67.584 126.748444-172.828444 126.748444-48.753778 0-88.746667-10.069333-119.466667-31.061333-30.606222-20.252444-45.511111-48.981333-45.511111-85.560889 0-34.190222 15.701333-61.44 47.104-80.839111 18.887111-12.515556 52.622222-24.120889 100.579556-35.043556 41.642667-9.329778 69.12-17.066667 81.692444-23.324444 23.552-10.865778 36.124444-26.396444 36.124445-45.852445 0-35.783111-32.995556-54.442667-97.393778-54.442666-31.402667 0-53.475556 5.461333-67.584 15.530666-14.108444 10.922667-24.348444 30.378667-29.013333 57.571556h-81.749334c9.443556-93.297778 69.12-140.743111 180.679111-140.743111z m426.666667 0c54.158222 0 98.986667 15.587556 134.314667 45.909333 28.273778 24.917333 46.364444 56.775111 55.751111 94.094222h-83.228445c-11.036444-23.324444-22.755556-41.187556-36.977777-52.110222-18.033778-13.198222-41.585778-20.195556-70.656-20.195555-32.995556 0-58.936889 10.865778-77.824 31.118222-18.830222 20.992-29.013333 51.313778-32.199112 90.168889H5688.888889c-0.796444 71.566222-17.294222 127.544889-48.696889 167.992889-34.588444 45.112889-85.674667 66.844444-151.665778 66.844444-59.733333 0-107.633778-20.195556-142.222222-61.44-36.124444-40.391111-53.418667-90.168889-53.418667-150.072889 0-66.048 18.887111-118.158222 56.604445-157.013333 34.531556-36.579556 82.488889-55.239111 142.222222-55.239111z m109.966222 251.221333h-219.192889c4.721778 34.190222 16.497778 59.847111 33.792 77.767111 18.830222 18.659556 43.235556 27.192889 74.638223 27.192889 65.991111 0 102.912-34.986667 110.762666-104.96z"  horiz-adv-x="5688" />

    
    <glyph glyph-name="master" unicode="&#59674;" d="M650.88-44.15999999999997H96v288h181.44l85.44 64a160 160 0 0 0 96 32h328l32 32a111.04 111.04 0 1 0 157.12-157.12l-210.56-210.56a160 160 0 0 0-114.56-48.32zM160 19.840000000000032h490.88a96 96 0 0 1 67.84 28.16L928 258.55999999999995a47.04 47.04 0 0 1-64 66.88l-192-192h-256v64h226.88l80 80h-264.32a96 96 0 0 1-57.6-19.2l-102.4-76.8H160zM256 211.84000000000003h64v-224H256zM96 307.84000000000003v480h832v-320h-64v256H160v-416H96zM896 563.8399999999999H128a32 32 0 1 0 0 64h768a32 32 0 0 0 0-64z"  horiz-adv-x="1024" />

    
    <glyph glyph-name="jiedian" unicode="&#59673;" d="M448 480H128V800h320z m-256 64h192V736H192zM256 512h64v-352H256zM896 480H576V800h320z m-256 64h192V736h-192zM704 512h64v-352h-64zM288-32a128 128 0 1 0 128 128 128 128 0 0 0-128-128z m0 192a64 64 0 1 1 64-64 64 64 0 0 1-64 64zM736-32a128 128 0 1 0 128 128 128 128 0 0 0-128-128z m0 192a64 64 0 1 1 64-64 64 64 0 0 1-64 64zM384 128h256v-64h-256zM832 128h128v-64h-128zM64 128h128v-64H64z"  horiz-adv-x="1024" />

    
    <glyph glyph-name="yunjisuan" unicode="&#59672;" d="M955.52 664a64 64 0 0 1-87.68 23.36 64 64 0 0 1-32-55.36l-16-9.28-58.24-32-101.44-58.56a164.16 164.16 0 0 1-12.16 13.44l-4.8 4.48c-4.48 4.16-9.28 8-14.08 11.84a150.08 150.08 0 0 1-17.28 11.84 214.72 214.72 0 0 1-18.88 10.24 200 200 0 0 1-19.2 7.68c-6.72 2.24-13.44 4.16-20.48 5.76s-13.76 2.56-20.48 3.2a124.8 124.8 0 0 1-18.88 0H512a192 192 0 0 1-146.24-69.76L261.76 589.76l-57.28 32-16 9.28a64 64 0 1 1-32-55.36l32-19.2 64-36.16 79.36-46.08v2.88a9.28 9.28 0 0 1 0-2.88 192 192 0 0 1 26.24-182.4 234.56 234.56 0 0 1 16.32-19.2l5.76-5.44a59.52 59.52 0 0 1 8.32-7.36l13.12-10.24 13.76-8.64 11.52-6.08h4.8a88 88 0 0 1 11.52-4.8H448.64l11.52-3.52h3.2a96 96 0 0 1 13.76-2.88v-203.84a64 64 0 0 1-32-55.04 64 64 0 0 1 128 0 64 64 0 0 1-32 55.04v199.04l16.64 3.52 15.68 5.12a198.72 198.72 0 0 1 44.16 22.72 204.16 204.16 0 0 1 25.6 21.12l10.56 11.2c3.52 4.16 6.72 8.32 9.92 12.8a96 96 0 0 1 9.28 14.08 61.12 61.12 0 0 1 4.8 8.96 151.04 151.04 0 0 1 7.68 16.32c1.6 3.84 2.88 7.68 4.16 11.52a221.76 221.76 0 0 1 6.4 24 189.44 189.44 0 0 1 8 54.72c0 5.76 0 11.2-2.24 16.96s-2.24 10.88-3.84 16.64a160 160 0 0 1-5.12 16.32l78.08 45.12 64 37.12 32 19.2a64 64 0 0 1 87.36 87.36z m-331.84-320a125.76 125.76 0 0 0-50.88-48.64 25.6 25.6 0 0 0-7.36-3.52 9.92 9.92 0 0 0-4.48-2.24l-5.76-1.92a6.72 6.72 0 0 0-3.52 0h-26.56a120.96 120.96 0 0 0-32 0h-3.2l-8.64 1.92h-5.76l-8.32-1.6h-3.2a64 64 0 0 0-11.84 5.44l-8 4.8-2.88 1.92-8 6.08a101.76 101.76 0 0 0-18.56 18.56 38.4 38.4 0 0 0-6.4 8.32 7.68 7.68 0 0 0-1.92 2.88 59.84 59.84 0 0 0-3.84 5.76v2.56a56.64 56.64 0 0 0-5.44 11.84 26.88 26.88 0 0 0-2.56 6.4 77.12 77.12 0 0 0-2.56 8 18.88 18.88 0 0 0-1.6 6.08 32 32 0 0 0 0 7.68 26.56 26.56 0 0 0 0 7.04 105.28 105.28 0 0 0 0 32 73.28 73.28 0 0 0 2.24 11.52 11.2 11.2 0 0 0 0 3.2 74.24 74.24 0 0 0 5.12 14.08 4.48 4.48 0 0 0 0 1.92 71.04 71.04 0 0 0 6.4 13.12 96 96 0 0 0 7.68 12.16 32 32 0 0 0 2.56 3.52 80.32 80.32 0 0 0 9.92 11.2 79.36 79.36 0 0 0 12.16 10.88l2.88 1.92a70.08 70.08 0 0 0 8.64 11.52 64 64 0 0 0 10.24 5.44h3.84a26.88 26.88 0 0 0 6.4 2.56l8 2.56h5.76a40.96 40.96 0 0 0 8.64 0h55.36a5.12 5.12 0 0 0 2.88 0 83.2 83.2 0 0 0 22.08-9.28h2.24a40.96 40.96 0 0 0 6.72-4.48 28.16 28.16 0 0 0 5.44-3.84 14.4 14.4 0 0 0 4.48-3.52 56 56 0 0 0 9.28-8.32 38.4 38.4 0 0 0 8.32-9.28 41.92 41.92 0 0 0 7.36-9.92 128 128 0 0 0 8.64-136.32z m-15.68-160v-13.12a266.24 266.24 0 0 1 27.2 13.12z m-219.52 0l11.2-5.76 4.16-2.24 11.2-4.8v13.12zM955.52 664a64 64 0 0 1-87.68 23.36 64 64 0 0 1-32-55.36l-16-9.28-58.24-32-101.44-58.56a164.16 164.16 0 0 1-12.16 13.44l-4.8 4.48c-4.48 4.16-9.28 8-14.08 11.84a150.08 150.08 0 0 1-17.28 11.84 214.72 214.72 0 0 1-18.88 10.24 200 200 0 0 1-19.2 7.68c-6.72 2.24-13.44 4.16-20.48 5.76s-13.76 2.56-20.48 3.2a124.8 124.8 0 0 1-18.88 0H512a192 192 0 0 1-146.24-69.76L261.76 589.76l-57.28 32-16 9.28a64 64 0 1 1-32-55.36l32-19.2 64-36.16 79.36-46.08v2.88a9.28 9.28 0 0 1 0-2.88 192 192 0 0 1 26.24-182.4 234.56 234.56 0 0 1 16.32-19.2l5.76-5.44a59.52 59.52 0 0 1 8.32-7.36l13.12-10.24 13.76-8.64 11.52-6.08h4.8a88 88 0 0 1 11.52-4.8H448.64l11.52-3.52h3.2a96 96 0 0 1 13.76-2.88v-203.84a64 64 0 0 1-32-55.04 64 64 0 0 1 128 0 64 64 0 0 1-32 55.04v199.04l16.64 3.52 15.68 5.12a198.72 198.72 0 0 1 44.16 22.72 204.16 204.16 0 0 1 25.6 21.12l10.56 11.2c3.52 4.16 6.72 8.32 9.92 12.8a96 96 0 0 1 9.28 14.08 61.12 61.12 0 0 1 4.8 8.96 151.04 151.04 0 0 1 7.68 16.32c1.6 3.84 2.88 7.68 4.16 11.52a221.76 221.76 0 0 1 6.4 24 189.44 189.44 0 0 1 8 54.72c0 5.76 0 11.2-2.24 16.96s-2.24 10.88-3.84 16.64a160 160 0 0 1-5.12 16.32l78.08 45.12 64 37.12 32 19.2a64 64 0 0 1 87.36 87.36z m-331.84-320a125.76 125.76 0 0 0-50.88-48.64 25.6 25.6 0 0 0-7.36-3.52 9.92 9.92 0 0 0-4.48-2.24l-5.76-1.92a6.72 6.72 0 0 0-3.52 0h-26.56a120.96 120.96 0 0 0-32 0h-3.2l-8.64 1.92h-5.76l-8.32-1.6h-3.2a64 64 0 0 0-11.84 5.44l-8 4.8-2.88 1.92-8 6.08a101.76 101.76 0 0 0-18.56 18.56 38.4 38.4 0 0 0-6.4 8.32 7.68 7.68 0 0 0-1.92 2.88 59.84 59.84 0 0 0-3.84 5.76v2.56a56.64 56.64 0 0 0-5.44 11.84 26.88 26.88 0 0 0-2.56 6.4 77.12 77.12 0 0 0-2.56 8 18.88 18.88 0 0 0-1.6 6.08 32 32 0 0 0 0 7.68 26.56 26.56 0 0 0 0 7.04 105.28 105.28 0 0 0 0 32 73.28 73.28 0 0 0 2.24 11.52 11.2 11.2 0 0 0 0 3.2 74.24 74.24 0 0 0 5.12 14.08 4.48 4.48 0 0 0 0 1.92 71.04 71.04 0 0 0 6.4 13.12 96 96 0 0 0 7.68 12.16 32 32 0 0 0 2.56 3.52 80.32 80.32 0 0 0 9.92 11.2 79.36 79.36 0 0 0 12.16 10.88l2.88 1.92a70.08 70.08 0 0 0 8.64 11.52 64 64 0 0 0 10.24 5.44h3.84a26.88 26.88 0 0 0 6.4 2.56l8 2.56h5.76a40.96 40.96 0 0 0 8.64 0h55.36a5.12 5.12 0 0 0 2.88 0 83.2 83.2 0 0 0 22.08-9.28h2.24a40.96 40.96 0 0 0 6.72-4.48 28.16 28.16 0 0 0 5.44-3.84 14.4 14.4 0 0 0 4.48-3.52 56 56 0 0 0 9.28-8.32 38.4 38.4 0 0 0 8.32-9.28 41.92 41.92 0 0 0 7.36-9.92 128 128 0 0 0 8.64-136.32zM416 184v-64H256a224 224 0 0 0-128 407.04l59.84-39.04A160 160 0 0 1 256 184zM800 678.08l-56.64-30.08A256 256 0 0 1 284.48 652.8l-54.4 32A320 320 0 0 0 800 678.08zM992 344a224 224 0 0 0-224-224h-160v64h160a160 160 0 0 1 72.96 302.4l64 35.84A222.08 222.08 0 0 0 992 344z"  horiz-adv-x="1024" />

    
    <glyph glyph-name="bmr-kafka" unicode="&#59671;" d="M313.685333 742.058667c35.396267 24.576 86.596267 22.971733 120.149334-3.9936 35.362133-26.555733 49.493333-76.561067 34.065066-117.6576-11.400533-33.1776-41.233067-58.4704-75.434666-66.56v-55.125334c31.6416-5.461333 60.450133-22.971733 80.827733-47.445333l47.5136 27.8528c-8.430933 27.477333-5.870933 58.231467 8.328533 83.3536 19.387733 35.6352 61.576533 57.514667 102.161067 52.155733 45.7728-5.12 84.309333-43.758933 89.634133-88.9856 7.338667-47.0016-21.981867-96.597333-67.447466-112.128-38.468267-14.574933-84.241067-2.116267-111.274667 28.296534-15.837867-9.1136-31.607467-18.363733-47.445333-27.5456 10.9568-30.378667 10.922667-64.170667 0-94.549334l47.274666-27.477333c24.814933 27.136 64.238933 40.823467 100.488534 31.5392 46.865067-10.4448 81.578667-56.4224 79.325866-103.901867-0.238933-50.517333-42.666667-97.041067-93.764266-100.693333-46.4896-5.256533-92.501333 26.350933-106.666667 69.973333-7.3728 21.1968-6.894933 44.373333-0.682667 65.809067l-47.445333 27.511467a137.216 137.216 0 0 0-80.827733-46.967467v-55.125333c23.005867-5.802667 44.475733-18.2272 58.9824-37.137067 19.217067-24.029867 26.897067-56.6272 20.343466-86.6304-7.509333-35.601067-34.952533-66.7648-70.178133-77.585067-32.6656-10.4448-70.485333-3.003733-96.3584 19.456-31.8464 26.385067-45.499733 72.055467-32.426667 111.274667 10.683733 34.850133 40.891733 62.532267 76.8 70.5536V235.51999999999998c-64.068267 9.9328-113.7664 71.338667-110.557866 135.338667 0.477867 61.508267 49.3568 117.930667 110.523733 127.8976 0.034133 18.363733 0.068267 36.693333 0 55.057066C314.026667 562.1759999999999 283.374933 589.312 272.827733 624.298667c-14.199467 42.5984 3.140267 93.013333 40.891734 117.76m40.925866-41.130667c-22.7328-7.850667-36.078933-33.860267-29.9008-56.797867 5.085867-23.893333 30.958933-40.8576 55.125334-35.566933 27.170133 4.1984 44.9536 34.372267 37.137066 60.1088-6.144 26.112-37.205333 42.257067-62.3616 32.256m247.978667-144.2816c-25.361067-8.533333-38.570667-39.867733-27.716267-63.965867 8.9088-22.4256 36.420267-35.328 59.392-26.862933 24.917333 7.8848 38.741333 37.888 29.4912 61.952-7.850667 24.064-37.2736 38.229333-61.166933 28.8768m-255.2832-123.904a69.7344 69.7344 0 0 1-41.540267-42.496 70.929067 70.929067 0 0 1 16.384-72.738133 69.256533 69.256533 0 0 1 76.5952-14.404267c23.8592 10.0352 40.0384 34.474667 41.2672 59.904a70.075733 70.075733 0 0 1-35.84 65.3312 68.642133 68.642133 0 0 1-56.866133 4.369067m251.392-166.2976c-22.528-10.308267-33.792-38.8096-24.1664-61.508267 8.533333-23.722667 37.888-37.000533 61.44-27.136 25.531733 9.045333 38.126933 41.2672 26.112 65.194667-10.001067 23.415467-40.277333 34.679467-63.3856 23.4496m-244.155733-142.7456c-21.674667-7.816533-35.157333-32.085333-30.378667-54.442667 4.096-24.8832 30.583467-43.690667 55.671467-38.161067 26.7264 4.437333 44.714667 33.826133 37.307733 59.460267-5.802667 26.624-37.000533 43.246933-62.600533 33.143467zM1703.048533 550.434133c26.487467 25.3952 65.4336 26.624 99.908267 27.8528 0.136533-19.524267 0.136533-39.150933 0.068267-58.709333-13.892267-0.955733-30.139733-1.1264-40.072534-12.663467-11.605333-13.277867-9.352533-32.187733-10.171733-48.571733h50.244267c0.068267-19.626667 0.068267-39.3216 0-58.948267-16.657067 0-33.3824 0-49.9712-0.068266-0.068267-87.4496 0-174.8992-0.068267-262.3488H1677.653333v262.3488c-12.970667 0.068267-26.0096 0.068267-38.980266 0.068266a10735.616 10735.616 0 0 0 0 58.948267h38.877866c-0.6144 31.914667 1.024 68.369067 25.531734 92.091733zM963.652267 570.0949330000001c25.088 0 50.210133 0.068267 75.298133 0l0.034133-233.949866c36.181333 40.7552 72.362667 81.5104 108.6464 122.197333 30.139733 0.034133 60.245333-0.136533 90.385067 0.034133-43.793067-47.104-87.517867-94.4128-131.208533-141.687466l131.6864-179.677867c-28.740267-0.1024-57.480533 0-86.2208-0.034133-37.7856 53.418667-75.332267 107.076267-113.220267 160.426666-0.170667-53.4528 0-106.939733-0.068267-160.426666h-75.3664l0.034134 433.152zM1854.293333 137.01120000000003c0.068267 144.384-0.034133 288.768 0 433.083733 25.122133 0 50.210133 0.068267 75.298134 0l0.034133-233.949866c36.181333 40.7552 72.2944 81.5104 108.6464 122.129066 30.1056 0.170667 60.245333-0.068267 90.385067 0.1024-43.7248-47.172267-87.517867-94.344533-131.140267-141.653333 43.793067-60.0064 87.825067-119.808 131.6864-179.746133l-86.357333 0.034133c-37.717333 53.4528-75.298133 107.042133-113.152 160.426667-0.170667-53.486933 0-106.973867-0.068267-160.4608l-75.332267 0.034133zM1287.441067 410.077867c39.867733 50.722133 113.390933 71.748267 173.841066 48.674133 23.3472-8.635733 42.5984-25.975467 55.9104-46.7968a1894.741333 1894.741333 0 0 0-0.273066 46.318933c25.122133 0.1024 50.2784 0.068267 75.400533 0.068267l0.034133-321.365333h-75.434666a1441.792 1441.792 0 0 0 0.375466 45.806933 112.366933 112.366933 0 0 0-60.552533-48.196267c-58.709333-19.456-129.058133-0.648533-167.901867 48.264534-50.858667 63.726933-52.0192 162.986667-1.365333 227.2256m113.220267-15.325867a90.692267 90.692267 0 0 1-59.904-42.427733c-24.132267-38.980267-18.773333-93.2864 12.936533-126.429867 33.757867-35.601067 96.938667-37.0688 132.130133-2.7648 34.816 33.757867 42.3936 92.808533 14.199467 132.949333-20.821333 32.256-62.5664 46.216533-99.362133 38.673067zM2211.362133 440.763733c59.1872 41.984 156.637867 37.888 196.369067-28.740266a2210.816 2210.816 0 0 0-0.068267 46.318933h75.298134l0.034133-321.365333-75.3664 0.034133a2164.394667 2164.394667 0 0 0 0.170667 45.841067 110.660267 110.660267 0 0 0-62.327467-48.913067c-51.336533-16.008533-111.274667-3.720533-150.869333 32.938667-76.9024 71.133867-71.509333 214.186667 16.725333 273.885866m69.5296-48.878933c-32.119467-9.864533-55.7056-39.389867-62.020267-71.918933-9.898667-42.496 9.8304-92.091733 49.664-111.889067 34.372267-16.2816 79.189333-12.561067 107.246934 14.336 45.397333 41.540267 42.837333 124.689067-10.24 158.72-24.576 16.042667-56.832 19.729067-84.650667 10.752z"  horiz-adv-x="2730" />

    
    <glyph glyph-name="bmr-hbase" unicode="&#59670;" d="M566.647467 469.6064h45.8752v-90.2144h-91.7504v90.2144h45.8752z m1020.416 44.1344h136.874666V554.837333h-136.874666c-11.025067 0-16.520533 5.0176-16.520534 14.779734V634.538667c0 9.796267 5.495467 14.813867 16.520534 14.813866h136.874666V690.688h-136.874666c-16.042667 0-29.7984-5.256533-40.8576-16.042667-11.264-10.752-16.7936-24.064-16.7936-40.106666v-64.9216c0-16.042667 5.5296-29.320533 16.7936-40.106667 11.0592-10.513067 24.814933-15.7696 40.8576-15.7696zM710.0416 571.392h-69.4272v-57.890133h-41.3696V690.688h171.451733c15.291733 0 27.818667-6.2464 37.102934-18.773333 8.772267-11.537067 13.038933-25.088 13.038933-40.8576 0-15.803733-4.266667-29.354667-13.038933-40.618667-9.557333-12.526933-21.845333-18.773333-37.102934-18.773333l-60.654933-0.273067z m-69.4272 41.3696h130.048c6.0416 0 9.045333 6.007467 9.045333 18.295467 0 12.288-3.003733 18.5344-9.0112 18.5344h-130.082133v-36.864zM566.613333 321.74080000000004H226.5088v147.8656H136.533333v-386.491733h89.975467v148.3776h294.263467v-148.616534h91.7504v238.865067h-45.8752zM177.8688 513.7066669999999H136.533333V636.2453330000001c0 14.813867 4.778667 27.8528 14.0288 38.638934A45.329067 45.329067 0 0 0 186.402133 691.2h117.077334c14.779733 0 27.067733-5.256533 36.352-16.042667 9.250133-10.786133 13.994667-23.552 13.994666-38.570666v-122.606934H312.285867V570.3679999999999H177.902933v-56.661333z m0 97.757866h134.382933v24.814934c0 9.0112-3.003733 13.5168-9.045333 13.5168H186.402133c-5.768533 0-8.533333-4.5056-8.533333-13.5168v-24.814934z m1856.6144-289.792h-242.346667c-12.561067 0-18.807467 9.557333-18.807466 28.603734 0 19.5584 6.2464 29.354667 18.773333 29.354666h333.380267v89.941334h-333.380267c-32.085333 0-58.368-11.776-78.711467-35.328-20.548267-23.552-30.8224-51.643733-30.8224-83.968 0-32.597333 10.0352-60.142933 30.071467-82.466134 21.060267-24.064 47.650133-36.113067 79.4624-36.113066h242.3808c12.561067 0 18.807467-9.762133 18.807467-29.320534 0-19.524267-6.2464-29.320533-18.773334-29.320533h-333.380266v-89.975467h333.346133c32.085333 0 58.6752 12.014933 79.735467 36.078934 19.524267 23.074133 29.320533 50.8928 29.320533 83.217066 0 32.597333-9.796267 60.416-29.354667 83.217067-21.2992 24.064-47.854933 36.113067-79.701333 36.113067z m146.397867-238.830933h411.306666v89.975467H2270.890667v58.641066h301.056v90.248534h-301.056v57.6512h322.116266v90.2144H2180.881067v-386.730667z m223.095466 608.085333V513.7066669999999h188.484267V554.837333h-147.114667v26.8288h137.8304V623.0357329999999H2445.312V649.557333h147.6608V690.961067h-188.996267z m-287.266133-67.925333h-106.018133V690.688h-41.3696v-177.186133h41.3696V581.6320000000001h106.018133v-68.164267h41.642667V690.688h-41.642667v-67.652267zM1133.397333 189.64480000000003c0-29.0816-9.284267-53.6576-27.818666-73.454933-20.0704-22.050133-47.104-33.109333-81.237334-33.109334H649.6256v237.909334h367.7184c13.038933 0 19.5584 9.762133 19.5584 29.320533s-6.519467 29.354667-19.5584 29.354667H649.6256v89.941333h367.957333c34.0992 0 61.166933-11.025067 80.964267-33.0752 18.056533-20.036267 27.067733-44.612267 27.067733-73.693867 0-36.078933-13.277867-64.170667-39.8336-83.968 32.085333-19.5584 47.616-49.390933 47.616-89.224533z m-89.224533 12.765867c0 19.5584-6.519467 29.354667-19.5584 29.354666h-284.501333v-58.6752h284.501333c13.038933 0 19.5584 9.796267 19.5584 29.354667z m130.833067 367.7184h-67.1744v-56.388267h-41.3696V636.2453330000001c0 14.813867 4.778667 27.8528 14.0288 38.638934A45.329067 45.329067 0 0 0 1116.330667 691.2h117.077333c15.018667 0 27.067733-5.256533 36.352-16.2816 9.250133-10.786133 13.994667-23.552 13.994667-38.6048V513.7066669999999H1242.453333V570.1290670000001h-67.447466z m0 41.3696h67.1744v24.814933c0 9.0112-3.003733 13.5168-9.045334 13.5168h-117.0432c-5.768533 0-8.533333-4.5056-8.533333-13.5168v-24.814933h67.447467z m437.896533-177.220267c20.309333-23.552 30.3104-51.643733 30.3104-83.968v-267.195733h-89.975467V206.16533300000003h-293.546666v-123.050666H1169.749333v267.195733c0 32.597333 10.001067 60.654933 30.3104 83.968 20.309333 23.552 46.3872 35.328 78.472534 35.328h255.419733c32.324267 0 58.641067-11.776 78.9504-35.328z m-59.665067-83.968c0 19.5584-6.485333 29.354667-19.5584 29.354667H1278.293333c-12.526933 0-18.773333-9.796267-18.773333-29.354667v-54.135467h293.512533v54.135467h0.238934z"  horiz-adv-x="2730" />

    
    <glyph glyph-name="bmr-hadoop" unicode="&#59669;" d="M1174.7328 279.00586699999997h139.025067l-9.0112-41.301334h-139.502934c-10.752 0.4096-17.646933 9.557333-15.496533 20.411734 2.594133 11.741867 13.789867 20.8896 24.9856 20.8896z m1328.878933 105.949866h114.517334c16.7936 0 27.5456-13.9264 23.688533-30.993066l-18.944-87.586134c-3.8912-16.964267-20.6848-30.856533-37.4784-30.856533h-114.926933l33.143466 149.435733z m-305.629866 0h100.727466c16.7936 0 27.5456-13.892267 24.098134-30.890666l-19.3536-87.688534c-3.8912-16.964267-20.6848-30.856533-37.444267-30.856533h-100.7616c-16.759467 0-27.5456 13.892267-24.098133 30.856533l19.387733 87.688534c3.857067 16.9984 20.650667 30.890667 37.444267 30.890666z m-336.213334 0h100.727467c16.7936 0 27.5456-13.892267 23.688533-30.890666l-18.944-87.688534c-3.857067-16.964267-20.650667-30.856533-37.444266-30.856533h-100.727467c-17.237333 0-27.5456 13.892267-24.132267 30.856533l19.387734 87.688534c3.857067 16.9984 20.650667 30.890667 37.444266 30.890666z m-319.419733 2.184534h114.517333l-32.733866-149.469867h-114.926934c-16.7936 0-27.101867 13.9264-23.6544 30.890667l19.3536 87.722666c3.8912 17.032533 20.650667 30.856533 37.444267 30.856534zM2160.981333 451.584c-31.8464 0-63.6928-26.282667-70.587733-58.436267l-36.590933-165.888c-6.894933-32.1536 13.312-58.2656 45.192533-58.2656h204.049067c31.8464 0 63.726933 26.112 70.587733 58.299734l36.181333 165.7856c7.304533 32.1536-12.9024 58.4704-44.782933 58.4704H2160.981333v0.034133z m-336.213333 0c-31.8464 0-63.6928-26.282667-70.587733-58.436267l-36.590934-165.888c-6.894933-32.1536 13.346133-58.2656 45.192534-58.2656h204.049066c31.880533 0 63.726933 26.112 70.621867 58.299734l36.181333 165.853866c7.304533 32.119467-12.970667 58.436267-44.817066 58.436267H1824.768z m614.741333 0l-51.2-232.5504-10.786133-50.039467-20.650667-94.788266h78.336l21.0944 94.788266h166.161067c31.8464 0 63.2832 26.112 70.587733 58.299734l36.181334 165.717333c7.304533 32.187733-13.346133 58.5728-44.782934 58.5728H2439.509333z m-1328.469333 2.116267l-14.609067-66.491734h211.7632c15.940267-0.648533 25.838933-13.585067 22.8352-29.627733l-2.594133-12.288h-182.954667c-31.8464 0-63.6928-26.282667-70.997333-58.436267l-1.7408-9.147733-10.752-48.264533c-6.894933-32.1536 13.312-58.2656 45.192533-58.2656h261.7344l7.304534 33.4848 30.993066 140.4928h-0.4096l6.007467 27.409066 5.154133 22.562134c6.894933 31.744-12.9024 57.787733-43.895466 58.4704H1111.04v0.1024z m-297.8816 94.651733l-31.8464-144.5888h0.4096l-1.262933-5.700267a837.973333 837.973333 0 0 1-1.297067-5.051733l-26.282667-120.081067-22.357333-101.717333h78.336l22.391467 101.717333h0.4096l17.646933 81.066667v0.443733l6.894933 30.549334h114.517334c16.7936 0 27.5456-13.9264 24.098133-30.993067l-18.090667-81.92-22.357333-100.898133h78.779733l21.947734 100.898133h0.4096l26.282666 120.9344c7.304533 32.187733-12.936533 58.5728-44.782933 58.5728H870.4l21.060267 96.768h-78.336z m879.035733 0l-20.650666-94.72h-166.161067c-31.880533 0-63.726933-26.282667-70.621867-58.436267l-36.590933-165.751466c-6.8608-32.1536 13.346133-58.2656 45.226667-58.2656h244.497066l62.429867 282.3168 20.650667 94.72h-78.779734v0.136533z m-1206.613333 176.981333a25.838933 25.838933 0 0 1-5.597867-0.375466c-30.139733 0.136533-59.392-9.079467-92.16-23.415467-30.958933-13.5168-46.6944-31.607467-63.317333-53.009067a26.2144 26.2144 0 0 1-0.4096-0.443733c-3.447467-0.682667-6.894933-1.365333-10.8544-2.7648-9.864533-3.4816-18.978133-10.1376-27.648-18.670933-8.533333-8.3968-15.837867-17.066667-23.552-25.634134a25.838933 25.838933 0 0 1-10.888533 0.682667c-53.077333-8.123733-92.808533-23.278933-130.8672-57.002667a188.245333 188.245333 0 0 1-28.8768-32.9728c-0.4096 1.706667 0 2.8672-1.024 4.8128a37.9904 37.9904 0 0 1-7.168 10.922667 26.282667 26.282667 0 0 1-15.36 17.783467 25.873067 25.873067 0 0 1-23.313067-1.809067 105.1648 105.1648 0 0 1-34.235733-32.494933 57.685333 57.685333 0 0 1-10.24-29.627734c-0.443733-8.874667 3.072-18.261333 8.192-26.624 1.877333-6.9632 3.754667-13.994667 7.406933-21.777066 6.8608-14.506667 23.620267-22.528 35.84-23.415467-1.024-13.7216-0.785067-28.672 1.024-45.9776 0.682667-6.9632 2.56-13.858133 3.925333-20.7872a26.385067 26.385067 0 0 1-5.7344-8.9088l-3.072-8.0896c-6.144-6.2464-12.356267-12.8-18.602666-19.319467-2.2528-2.1504-6.0416-3.8912-10.410667-13.038933-4.437333-9.1136-3.3792-17.8176-2.628267-23.04 2.56-18.705067 12.1856-34.816 24.951467-47.854933 7.031467-7.3728 17.408-16.042667 31.744-23.4496 5.768533-2.628267 12.458667-4.778667 20.206933-6.109867-3.959467-10.4448-3.140267-24.7808 2.4576-34.338133 5.597867-9.557333 13.0048-14.336 19.285334-17.851734 12.5952-6.485333 24.4736-8.669867 29.525333-10.001066h0.443733c5.632-1.706667 19.626667-5.632 34.816-7.3728 7.543467-0.887467 15.36-1.3312 24.712534 0.4096 9.386667 2.184533 24.4736 10.001067 28.7744 25.668266 2.4576 8.704 2.8672 16.520533 2.833066 24.3712 3.925333 7.3728 6.280533 10.8544 10.922667 18.670934 5.12 8.260267 7.406933 17.851733 8.704 27.409066 3.652267-0.443733 7.3728-0.443733 11.025067-0.853333-1.194667-3.072-2.9696-6.109867-3.242667-8.704-0.989867-10.001067 1.092267-16.964267 3.242667-23.483733 4.3008-12.629333 10.581333-22.186667 13.482666-26.965334 6.109867-10.001067 13.243733-22.6304 26.248534-33.4848 12.970667-11.298133 38.0928-17.408 57.685333-6.9632 17.544533 9.147733 21.845333 20.8896 24.439467 25.224534 1.706667 1.297067 3.8912 2.594133 6.0416 4.334933 4.744533 3.925333 9.898667 8.260267 15.0528 12.1856 2.594133 2.184533 4.3008 3.925333 6.894933 5.666133a57.105067 57.105067 0 0 1 22.801067-4.778666c9.489067-0.887467 31.4368-1.3312 39.185066-1.3312 7.748267 0 17.646933-1.706667 30.139734 6.9632 12.4928 8.704 15.496533 23.04 16.384 33.4848 0.8192 6.9632-0.887467 15.223467-3.4816 22.6304l-0.853334 33.450666a101.034667 101.034667 0 0 1-6.894933 31.744c9.489067-6.485333 21.0944-12.5952 36.181333-13.0048 31.402667-0.443733 58.094933 17.408 67.584 48.264534 0.853333 3.242667 1.706667 5.632 2.56 8.533333 28.842667-3.9936 59.835733-2.4576 89.122134 14.165333h0.443733c43.895467 24.9856 64.546133 74.786133 68.846933 119.739734 4.778667 40.686933-1.706667 94.481067-18.090666 134.724266a26.4192 26.4192 0 0 1-0.4096 0.750934c-4.3008 10.581333-10.308267 17.2032-20.241067 23.4496a41.506133 41.506133 0 0 1-20.206933 6.485333c-8.635733 0.4096-18.944-3.413333-25.838934-10.103467-12.4928-12.288-18.500267-22.493867-21.0944-24.712533h-0.443733a12.424533 12.424533 0 0 0-3.003733-1.160533 173.738667 173.738667 0 0 1-15.0528 25.7024c-8.635733 12.629333-19.797333 19.797333-29.2864 25.3952h-0.443734l-6.007466 3.618133a26.0096 26.0096 0 0 1-2.1504 1.1264 26.146133 26.146133 0 0 1-3.003734 2.594133c-11.605333 8.430933-22.8352 19.0464-37.4784 31.061334-28.842667 24.644267-58.948267 38.2976-89.941333 39.697066z m-1.297067-26.282666c24.951467-1.160533 48.64-11.434667 74.478934-33.518934 13.755733-11.434667 25.3952-22.562133 39.150933-32.426666a47.854933 47.854933 0 0 1-15.0528-3.584c6.894933 1.365333 15.0528 0 21.947733-1.297067l6.485334-3.857067c9.454933-5.768533 15.018667-8.942933 21.504-18.090666 6.894933-9.693867 12.458667-19.421867 17.646933-30.1056-3.447467 1.160533-6.0416 2.218667-8.6016 2.9696a14.4384 14.4384 0 0 1-6.0416 1.604266 17.408 17.408 0 0 1-11.195733-2.730666l-0.443734-0.4096a86.903467 86.903467 0 0 0-19.3536-6.519467c3.003733-0.785067 9.045333-1.160533 12.049067 0 0.443733 0 0.853333 0.443733 1.297067 0.443733a22.528 22.528 0 0 1-2.594134-7.714133 17.1008 17.1008 0 0 1 2.1504-10.3424c0-0.443733 0.443733-0.443733 0.443734-0.8192a10.683733 10.683733 0 0 0-1.297067 4.983467 7.441067 7.441067 0 0 0 8.192 6.929066 7.611733 7.611733 0 0 0 6.894933-8.3968 5.358933 5.358933 0 0 0-0.887466-2.525866c-3.857067-0.648533-7.304533-1.774933-11.605334-3.242667a273.408 273.408 0 0 0-7.748266-3.1744 121.7536 121.7536 0 0 0 35.7376 0.580267c0.853333-3.822933 1.706667-7.850667 2.1504-12.049067-1.297067 0-3.037867-0.4096-4.334934-0.4096h-0.4096c-5.597867 4.608-12.049067 3.822933-20.6848 1.809067-26.248533-6.075733-20.206933-21.026133-32.256-43.554134 12.458667 15.5648 11.605333 31.812267 32.256 36.727467 4.778667 1.1264 7.7824 2.56 11.195734 2.082133a25.770667 25.770667 0 0 1-12.9024-13.550933c-5.597867-16.0768-2.1504-29.661867-8.192-44.680533 7.338667 13.448533 8.192 26.555733 14.677333 40.686933 2.56 5.085867 11.605333 13.312 17.2032 13.312h4.7104c1.297067-8.977067 2.1504-17.851733 1.706667-25.1904a261.0176 261.0176 0 0 0-6.417067-41.028267c6.8608 9.0112 9.898667 28.16 13.312 41.5744 3.037867 14.062933 2.184533 30.856533-0.4096 45.909334-3.857067 20.650667 17.237333 17.3056 29.2864 27.0336 9.0112 7.133867 15.0528 18.568533 23.210667 26.624 8.192 8.021333 21.128533-3.754667 24.576-11.605334 13.755733-34.030933 20.206933-87.586133 16.349866-121.9584-3.8912-38.536533-22.391467-80.554667-55.978666-99.5328-43.008-24.1664-93.3888-9.386667-136.021334 5.085867-9.045333 3.072-15.496533 7.611733-23.688533 12.6976 2.594133-9.898667 3.447467-20.411733 0.443733-30.276267-4.744533-15.701333-12.049067-41.506133 9.045334-45.8752 8.192-2.1504 11.605333-1.706667 23.210666 4.369067-9.454933-2.184533-14.165333-1.7408-20.206933-0.443733-5.597867 0.853333-8.6016 4.778667-10.3424 8.704 1.706667-1.3312 5.188267-2.184533 10.786133-3.4816 15.496533-3.925333 30.549333 3.8912 33.553067 14.813866 1.706667 6.382933 1.297067 9.762133 4.778667 18.432 3.413333-0.989867 6.826667-1.911467 10.308266-2.730666-2.1504-6.382933-3.8912-12.731733-6.0416-19.114667-5.154133-16.622933-24.541867-30.1056-41.745066-29.696-15.940267 0.443733-26.282667 10.4448-37.034667 20.48-7.748267 6.7584-15.0528 13.312-22.391467 19.797333a170.325333 170.325333 0 0 0-54.237866 27.511467c12.936533-15.633067 21.981867-24.234667 40.482133-31.982933-2.594133-27.511467-12.049067-47.5136-20.241067-73.6256-3.857067-12.151467-32.290133-59.562667-40.448-64.341334-5.597867-3.072-41.335467-33.4848-48.0256-37.410133-4.983467-6.519467-9.352533-16.0768-16.861866-20.002133-22.869333-12.1856-37.546667 11.298133-49.834667 30.890666-5.563733 9.1136-21.0944 34.781867-7.5776 42.154667a368.64 368.64 0 0 1 33.041067 20.48c1.9456-3.515733 5.2224-6.997333 7.3728-10.478933l-1.4336 11.741866a80.4864 80.4864 0 0 0-0.4096 19.592534l1.570133 20.411733c-1.979733-6.929067-5.870933-13.892267-7.850667-20.855467-0.785067-2.594133-1.365333-4.778667-1.809066-6.9632a229.341867 229.341867 0 0 0-87.790934-1.297066 653.4144 653.4144 0 0 1-6.075733 30.856533c-0.853333-9.557333-0.4096-34.781867-0.4096-49.152 0-10.8544-0.546133-14.7456-6.144-23.893333-5.2224-8.704-7.4752-10.8544-14.848-25.668267 0.6144-9.1136 0.6144-15.633067-1.8432-24.337067-4.096-14.779733-45.329067-3.4816-56.2176-0.443733-13.380267 3.925333-41.0624 9.147733-34.133333 27.409067 6.144 15.6672 10.0352 32.597333 13.038933 54.784-24.576 35.669333-47.377067 84.7872-51.780267 128.068266-3.413333 33.6896-1.365333 54.442667 5.8368 75.025067 11.4688 32.6656 27.4432 60.928 53.1456 83.6608 34.6112 30.72 66.901333 43.008 117.589334 50.7904-12.1856-13.789867-24.234667-28.330667-37.341867-43.963733-13.312-15.837867-21.230933-31.778133-29.696-49.083734-11.639467-23.893333-11.400533-32.9728 4.096-53.9648 13.312-18.090667 20.48-26.180267 26.3168-43.895466-4.778667-10.001067-6.5536-18.466133-8.192-32.119467 16.384-18.0224 28.4672-30.583467 44.305067-34.065067 15.530667-3.925333 28.535467-3.072 42.461866 3.925334 30.856533 16.0768 59.426133 36.693333 94.1056 37.546666 16.349867 40.0384 14.609067 73.454933 6.8608 112.162134-5.154133 26.453333-7.304533 51.5072-9.0112 78.4384-6.485333-27.716267-7.7824-52.155733-3.037866-79.837867 6.0416-33.348267 10.3424-70.144-5.597867-99.4304-31.6416-2.4576-58.606933-21.8112-87.005867-36.6592-11.400533-5.973333-23.313067-6.519467-35.9424-3.072-11.707733 3.2768-19.626667 11.093333-32.290133 25.838933 0 14.7456 3.1744 21.572267 9.898667 34.986667 10.752 21.469867 22.664533 41.472 35.7376 62.600533-16.008533-19.524267-31.163733-35.84-43.758934-55.432533-4.846933 13.858133-11.707733 20.923733-23.1424 36.522667-11.127467 15.223467-12.288 21.9136-3.959466 39.5264 8.362667 17.749333 15.4624 33.314133 29.764266 48.878933 24.610133 26.8288 47.172267 56.763733 74.1376 83.2512 14.574933 14.336 20.514133 13.858133 39.936 16.827733 17.5104 2.696533 34.474667 6.075733 52.565334 10.24-17.237333-1.604267-34.065067-2.218667-50.858667-2.628266h-0.546133c16.5888 21.333333 26.0096 33.245867 53.111466 45.056 33.143467 14.5408 60.279467 22.596267 85.674667 21.504h0.443733v0.170666z m12.9024-92.433067c-36.181333-9.079467-43.042133-24.405333-38.2976-47.889067 3.857067 17.646933 11.195733 34.7136 38.2976 47.889067z m-106.769066-2.013867a2537.130667 2537.130667 0 0 0-43.8272-4.573866c-12.253867-1.160533-14.2336-0.989867-22.9376-9.6256-13.2096-13.243733-26.043733-58.504533-30.139734-76.5952 6.485333 15.018667 22.664533 57.1392 35.054934 67.857066 3.413333 2.935467 5.802667 4.778667 8.3968 6.075734-8.9088-15.018667-8.260267-18.773333-5.12-38.912 2.628267 20.48 9.6256 28.398933 21.162666 43.656533 12.5952 3.208533 24.507733 7.031467 37.410134 12.117333z m334.506666-1.706666c-8.192-17.066667-21.0944-31.402667-38.741333-40.106667-9.489067-4.7104-15.496533-3.072-25.838933-2.116267 10.752-3.208533 17.2032-6.929067 27.989333-3.208533 21.0944 7.714133 31.402667 25.053867 36.590933 45.4656z m-74.478933-27.409067c0.853333-1.570133 1.297067-3.1744 2.1504-4.778667-0.443733-0.443733-1.297067-0.887467-1.706667-1.365333a16.725333 16.725333 0 0 1-3.8912 6.007467h3.413334v0.136533z m-106.769067-13.4144c-11.605333-5.461333-25.3952-4.096-35.7376-10.990933-8.6016-6.075733-21.0944-25.258667-30.1056-33.416534 6.8608 2.594133 12.9024 7.031467 18.909867 11.6736 0-3.4816 0.443733-6.997333 2.1504-10.308266 1.706667-3.413333 3.8912-6.212267 6.894933-8.430934a8.192 8.192 0 0 0-2.1504 2.730667 9.966933 9.966933 0 0 0 4.744534 13.6192 10.24 10.24 0 0 0 13.789866-4.846933c0-0.477867 0.4096-0.955733 0.4096-1.467734-4.744533-3.618133-9.454933-7.850667-12.9024-12.765866-3.447467-4.334933-6.0416-9.216-7.748266-14.5408a134.929067 134.929067 0 0 0 65.4336 42.734933c-6.485333 0-14.199467-1.1264-22.391467-3.754667a17.408 17.408 0 0 1-2.1504 7.850667 25.088 25.088 0 0 1-13.346133 12.4928c5.154133 2.833067 10.3424 5.802667 14.199466 9.4208zM58.1632 520.874667a90.453333 90.453333 0 0 1-5.051733-12.629334c-4.778667-16.759467 2.184533-31.778133-12.9024-43.963733 7.099733-14.4384 6.792533-20.206933 23.278933-13.5168 6.382933 2.56 11.605333 6.178133 16.2816 10.478933a306.517333 306.517333 0 0 1-6.2464-18.090666c-0.443733-1.024-0.512-2.048-0.955733-3.072-11.776-5.051733-27.306667-8.260267-33.245867 4.232533a115.950933 115.950933 0 0 0-6.621867 19.7632c-19.421867 20.309333 9.659733 47.172267 25.463467 56.797867z m4.027733-9.1136c3.9936-2.321067 5.085867-6.621867 5.5296-12.424534-2.423467 2.423467-4.334933 4.130133-7.406933 3.6864 0.4096 2.048 0.580267 4.061867 1.058133 5.9392 0.443733 0.955733 0.443733 1.911467 0.8192 2.798934z m486.6048-107.997867c-4.3008-0.750933-12.049067-2.321067-16.349866-3.072-11.195733-1.9456-12.4928-4.676267-14.199467-15.9744-0.853333-5.358933-2.1504-11.946667-3.003733-17.3056 2.1504 6.0416 5.154133 13.038933 7.748266 18.773333 2.56 6.109867 4.3008 6.656 9.898667 9.898667 4.3008 2.2528 11.605333 5.358933 15.906133 7.68z m-473.565866-79.530667c8.977067-30.890667 24.1664-61.781333 41.0624-87.415466v-0.887467a34.372267 34.372267 0 0 0-4.846934-12.151467c-12.049067-16.110933-42.8032 7.816533-51.643733 16.964267-9.728 10.001067-16.247467 21.742933-17.783467 33.041067-1.1264 8.260267 0 8.260267 5.597867 13.892266 7.509333 7.850667 15.086933 15.701333 22.6304 23.483734 1.706667 4.369067 3.310933 8.704 4.983467 13.073066z m405.981866-20.48c1.706667-6.0416 3.447467-11.707733 6.0416-18.2272 4.3008-10.888533 6.485333-17.408 6.894934-29.149866l1.297066-36.522667c3.413333-6.519467 4.3008-8.260267 3.413334-16.0768-1.262933-15.6672-6.4512-16.964267-20.206934-16.520533-6.485333 0-31.402667 0.4096-37.888 0.853333-8.6016 0.853333-13.789867 1.7408-16.7936 3.4816 14.199467 10.4448 38.2976 53.486933 43.042134 68.7104 4.744533 15.6672 10.3424 29.115733 14.199466 43.485867z m62.464-13.892266h3.413334-3.413334z"  horiz-adv-x="2730" />

    
    <glyph glyph-name="bmr-druid" unicode="&#59668;" d="M2561.877333 590.267733L2521.531733 151.21066699999994h-50.039466l4.676266 39.355733a107.997867 107.997867 0 0 0-37.819733-34.884267c-16.930133-9.250133-36.181333-13.653333-55.7056-11.9808-38.6048 0-69.9392 12.731733-92.945067 34.816-23.995733 23.108267-38.980267 56.388267-43.554133 96.1536-5.870933 52.087467 5.9392 106.154667 34.542933 145.237334 25.156267 34.474667 63.2832 57.378133 113.800534 57.378133 21.026133 0 45.226667-4.1984 65.536-15.291733 14.4384-7.918933 26.897067-19.319467 34.816-35.191467l13.994666 163.464533h53.0432z m-160.802133-161.962666c-35.6352 0-61.44-17.271467-78.267733-42.496-20.411733-30.6176-27.716267-72.9088-23.4496-110.523734a84.650667 84.650667 0 0 1 25.941333-60.757333 77.550933 77.550933 0 0 1 60.2112-21.367467c33.792 0 58.7776 18.1248 75.434667 43.895467 20.5824 31.778133 28.5696 75.1616 24.507733 111.069867a86.596267 86.596267 0 0 1-26.624 58.026666 79.735467 79.735467 0 0 1-57.7536 22.152534zM1577.949867 590.506667L1538.048 151.21066699999994h-50.005333l4.676266 39.389866a107.997867 107.997867 0 0 0-37.888-34.781866 98.7136 98.7136 0 0 0-55.637333-11.8784c-38.638933 0-69.973333 12.765867-92.945067 34.816-24.029867 23.108267-38.980267 56.388267-43.554133 96.1536-5.870933 52.087467 5.9392 106.154667 34.5088 145.237333 25.156267 34.474667 63.317333 57.378133 113.834667 57.378133 20.992 0 45.226667-4.1984 65.501866-15.291733 14.472533-7.918933 26.9312-19.319467 34.816-35.157333l13.550934 163.4304h53.0432z m-160.324267-162.2016c-35.6352 0-61.44-17.271467-78.267733-42.496-20.445867-30.6176-27.7504-72.9088-23.4496-110.523734a84.650667 84.650667 0 0 1 26.180266-61.064533c16.4864-15.530667 38.468267-23.210667 59.938134-21.060267 33.792 0 58.7776 18.1248 75.4688 43.895467 20.548267 31.778133 28.535467 75.1616 24.4736 111.069867a86.596267 86.596267 0 0 1-26.624 58.026666 79.735467 79.735467 0 0 1-57.719467 22.152534z m457.1136 42.939733H1821.013333l-16.896-181.691733a335.701333 335.701333 0 0 1-1.877333-61.8496c3.208533-28.228267 12.629333-48.810667 28.433067-62.464 15.906133-13.653333 38.2976-20.343467 67.584-20.343467 39.424-1.262933 76.868267 17.681067 101.376 50.449067l-3.618134-44.1344h51.8144l29.661867 318.805333H2023.765333l-16.213333-174.421333a107.383467 107.383467 0 0 0-29.218133-69.905067c-17.2032-18.056533-40.618667-29.696-66.696534-31.061333a48.401067 48.401067 0 0 0-36.522666 9.3184 52.258133 52.258133 0 0 0-19.899734 33.109333c-0.6144 15.906133-0.170667 32.017067 1.4336 48.059733l18.090667 186.129067z m-74.478933 6.075733a86.869333 86.869333 0 0 1-19.7632 0.2048c-23.108267 0-45.124267-7.611733-63.453867-20.923733-15.496533-11.264-28.330667-26.555733-37.0688-44.782933l6.007467 58.197333h-50.005334l-27.989333-318.805333h53.4528l12.014933 141.448533a194.218667 194.218667 0 0 0 16.827734 72.157867 92.433067 92.433067 0 0 0 58.026666 50.449066c9.796267 2.628267 19.968 3.652267 45.7728 3.072l6.144 58.9824z m402.670933-7.304533h-53.691733l-27.989334-318.5664h53.691734l27.989333 318.5664z m10.4448 120.251733h-53.6576l-6.144-66.901333h54.408533l5.393067 66.901333zM271.837867 517.085867H200.6016c-16.520533 0-29.934933 14.4384-29.934933 32.256s13.4144 32.256 29.934933 32.256h71.236267c16.554667 0 29.934933-14.4384 29.934933-32.256s-13.380267-32.256-29.934933-32.256z m393.147733-330.683734H314.1632c-16.554667 0-29.934933 14.472533-29.934933 32.290134s13.380267 32.256 29.934933 32.256h350.8224a217.7024 217.7024 0 0 1 110.762667 28.603733c43.349333 25.6 71.850667 47.786667 71.850666 118.340267a125.815467 125.815467 0 0 1-27.921066 89.088 93.184 93.184 0 0 1-63.0784 27.306666H362.257067c-16.520533 0-29.934933 14.4384-29.934934 32.256s13.4144 32.290133 29.934934 32.290134h393.762133c39.253333-0.682667 76.834133-16.9984 105.540267-45.841067 32.085333-36.317867 48.7424-85.2992 46.114133-135.304533 0-114.005333-64.443733-152.098133-102.980267-174.933334a273.954133 273.954133 0 0 0-139.707733-36.352zM731.3408 42.87146700000005h-133.7344c-17.92 0-32.426667 13.9264-32.426667 31.1296 0 17.169067 14.506667 31.095467 32.426667 31.095466h133.7344c109.090133 0 294.229333 68.471467 295.7312 324.608 4.437333 75.3664-31.402667 147.6608-95.061333 191.8976a244.599467 244.599467 0 0 1-139.776 41.472H387.413333c-17.92 0-32.426667 13.9264-32.426666 31.1296 0 17.169067 14.506667 31.095467 32.426666 31.095467h404.821334a309.725867 309.725867 0 0 0 177.595733-52.667733c81.134933-56.081067 127.112533-147.8656 122.0608-243.712-1.501867-265.1136-187.938133-386.048-360.5504-386.048zM496.913067 42.66666699999996h-69.3248c-17.92 0-32.426667 13.9264-32.426667 31.1296 0 17.169067 14.506667 31.095467 32.426667 31.095466h69.3248c17.92 0 32.426667-13.9264 32.426666-31.095466 0-17.2032-14.506667-31.1296-32.426666-31.1296z"  horiz-adv-x="2730" />

    
    <glyph glyph-name="cpts" unicode="&#59667;" d="M0 896v-807.68h1024V896z m960-743.68H64V832h896zM127.36-7.67999999999995h768v-64h-768zM801.92 711.04A73.6 73.6 0 0 1 728.32 640a69.12 69.12 0 0 1 10.88-35.2l-90.24-108.16L552.96 576 417.92 423.68 312.32 519.04 128 320l46.72-44.16 140.8 153.6L423.04 332.79999999999995l136.32 154.88 97.28-80.64 135.68 158.72h9.6a73.6 73.6 0 1 1 0 147.2z"  horiz-adv-x="1024" />

    
    <glyph glyph-name="edap-tool-btn-add" unicode="&#59666;" d="M512-128A512 512 0 1 1 512 896a512 512 0 0 1 0-1024z m0 56.888889A455.111111 455.111111 0 1 0 512 839.111111a455.111111 455.111111 0 0 0 0-910.222222zM568.888889 611.555556v-199.111112h199.111111v-56.888888H568.888889V156.44444399999998H512V355.612444L312.888889 355.555556v56.888888L512 412.501333V611.555556h56.888889z"  horiz-adv-x="1024" />

    
    <glyph glyph-name="edap-hadoop" unicode="&#59665;" d="M806.685599 895.943983a42.555159 42.555159 0 0 1-9.276-0.662572c-50.054263 0.210818-98.662916-15.17891-152.993777-39.212185-51.499874-22.647898-77.581096-52.945484-105.168164-88.784577a43.60925 43.60925 0 0 1-0.722805-0.752922c-5.722208-1.144442-11.444416-2.258766-18.009898-4.638001-16.383586-5.842676-31.532379-16.985923-45.898133-31.261327-14.245287-14.064585-26.322158-28.550807-39.121834-42.976795-5.872793 1.686546-12.046754 2.108182-18.070131 1.174559-88.152123-13.642949-154.138219-38.97125-217.353561-95.500644-18.792936-16.744988-34.182665-35.537925-47.976198-55.20425-0.692688 2.891221 0 4.818702-1.716663 8.071325a63.697212 63.697212 0 0 1-11.866052 18.280949 43.880302 43.880302 0 0 1-25.539119 29.7856 42.615393 42.615393 0 0 1-38.730315-3.041806c-18.311066-11.233598-39.874756-28.129171-56.830562-54.421211-8.523079-13.100845-16.172767-29.273612-17.01604-49.60251-0.722805-14.937975 5.11987-30.598755 13.582715-44.572991 3.132156-11.745585 6.234195-23.491171 12.287689-36.501665 11.444416-24.334443 39.272418-37.796691 59.571199-39.272418-1.716662-22.949067-1.295026-48.006315 1.626312-76.978759 1.204675-11.655235 4.306715-23.250235 6.595598-34.815119-4.126013-4.276598-7.378637-9.336234-9.516936-14.937975-1.807013-4.668117-3.433325-9.035066-5.11987-13.552599-10.239741-10.480676-20.539716-21.413105-30.899925-32.345534-3.734494-3.614026-10.028923-6.565481-17.317209-21.834742-7.34852-15.299378-5.571624-29.87595-4.366948-38.609847 4.306715-31.321561 20.238547-58.276173 41.470951-80.110915 11.655235-12.408157 28.972444-26.984729 52.764783-39.362769 9.516936-4.366948 20.660183-8.011091 33.520093-10.209624-6.565481-17.467793-5.210221-41.501068 4.095897-57.523251 9.276001-16.022183 21.593807-24.033274 32.014249-29.87595 20.871001-10.932429 40.597561-14.576572 49.060406-16.744988h0.692688a338.513791 338.513791 0 0 1 57.764186-12.37804c12.588858-1.475727 25.539119-2.198533 41.109549 0.722805 15.600547 3.614026 40.627678 16.744988 47.76538 42.976795 4.06578 14.576572 4.818702 27.677418 4.728351 40.778263 6.505247 12.37804 10.420442 18.220716 18.160482 31.321561 8.432728 13.853767 12.287689 29.87595 14.456104 45.898133 6.053494-0.722805 12.197339-0.722805 18.28095-1.445611-1.987714-5.11987-4.939169-10.209624-5.360806-14.576572-1.656429-16.744988 1.807013-28.400223 5.360806-39.332652 7.137702-21.142053 17.588261-37.164236 22.376846-45.175328 10.14939-16.744988 22.015443-37.856925 43.609249-56.077641 21.533573-18.943521 63.245459-29.153145 95.801813-11.655234 29.183262 15.299378 36.320964 34.935587 40.597561 42.25399 2.861104 2.168416 6.445013 4.366948 10.028923 7.288286 7.83039 6.535364 16.443819 13.853767 24.997014 20.389131 4.306715 3.614026 7.167819 6.535364 11.444417 9.456702 12.890027-5.812559 23.611638-7.288286 36.471548-8.011091h1.44561c15.721014-1.44561 52.162445-2.168416 65.052473-2.168416 12.85991 0 29.303729-2.921338 50.024146 11.655235 20.750534 14.546456 25.749937 38.57973 27.165431 56.07764 1.44561 11.655235-1.415494 25.509002-5.722209 37.887042l-1.415493 56.07764c-0.722805 20.389131-5.722208 37.164236-11.444417 53.18642 15.751131-10.932429 35.025938-21.142053 60.05307-21.864859 52.192562-0.722805 96.524617 29.153145 112.245631 80.863837 1.44561 5.451156 2.861104 9.456702 4.306715 14.275403 47.885848-6.625715 99.385721-4.095896 147.994374 23.732106h0.692688c72.943096 41.892587 107.246228 125.286243 114.383931 200.608573 7.890624 68.124395-2.830987 158.234115-30.026535 225.665821a44.512756 44.512756 0 0 1-0.692688 1.234793c-7.167819 17.768962-17.166625 28.851976-33.610444 39.272418a68.515914 68.515914 0 0 1-33.610444 10.842079c-14.275404 0.752922-31.442028-5.661974-42.886445-16.865456-20.720417-20.569833-30.719223-37.676223-35.025938-41.410717h-0.722805c0.722805 0-4.276598-1.867247-4.999403-1.957598a291.682034 291.682034 0 0 1-25.027131 43.067146c-14.305521 21.17217-32.887639 33.128574-48.608653 42.525042h-0.722806l-9.998805 6.023377a43.067146 43.067146 0 0 1-3.58391 1.927481 43.549016 43.549016 0 0 1-4.999403 4.366948c-19.304923 14.124819-37.887042 31.923898-62.191368 52.011861C908.239737 870.675916 858.155356 893.564749 806.685599 895.943983zM791.536806 835.740329c41.139665-1.897364 80.110915-19.003755 122.666074-55.866822 22.708132-19.094105 41.862471-37.676223 64.540485-54.15016a78.002733 78.002733 0 0 1-24.816313-5.963143c11.323949 2.258766 24.816313 0 36.140262-2.168416 3.553792-2.168416 7.107585-4.336831 10.661377-6.445013 15.600547-9.57717 24.816313-14.877741 35.447574-30.207236 11.354066-16.172767 20.569833-32.345535 29.062795-50.204848-5.661974 1.957598-9.938572 3.704377-14.154937 4.939169a23.521287 23.521287 0 0 1-9.938572 2.680403 28.370106 28.370106 0 0 1-18.431533-4.517533l-0.722806-0.722805c-9.215767-4.336831-22.678015-9.336234-31.923898-10.872196 4.969286-1.325143 14.907858-1.957598 19.877144 0 0.692688 0 1.415494 0.722805 2.108182 0.722805a37.947275 37.947275 0 0 1-4.216364-12.85991 28.851976 28.851976 0 0 1 3.523676-17.256975c0-0.722805 0.692688-0.722805 0.692688-1.385377a18.009897 18.009897 0 0 0-2.108182 8.342378c0.692688 7.047351 6.38478 12.287689 13.462248 11.534767a12.649092 12.649092 0 0 0 11.354066-14.004352 9.035066 9.035066 0 0 0-1.415494-4.216364c-6.38478-1.084208-12.046754-2.951455-19.154339-5.421039-3.553792-1.505844-7.800273-3.342974-12.769559-5.300572a197.988404 197.988404 0 0 0 58.848393 1.023974c1.415494-6.38478 2.861104-13.130962 3.553793-20.118079-2.108182 0-4.969286-0.722805-7.077468-0.722806h-0.722805c-9.215767 7.709923-19.877144 6.38478-34.032081 3.041806-43.247847-10.14939-33.339392-35.116288-53.186419-72.702161 20.569833 25.990872 19.154339 53.126186 53.186419 61.317978 7.800273 1.897364 12.769559 4.276598 18.431534 3.493559a42.765977 42.765977 0 0 1-21.262521-22.647898c-9.215767-26.864262-3.553792-49.482043-13.492365-74.539291 12.046754 22.43708 13.492365 44.271821 24.123626 67.853343 4.246481 8.492962 19.154339 22.226261 28.370105 22.226261h7.800274c2.108182-14.968092 3.523676-29.755483 2.830987-42.043172-1.415494-22.406963-7.107585-55.716238-10.631261-68.425563 11.323949 15.028326 16.293235 46.982341 21.985327 69.389303 4.939169 23.430937 3.523676 51.43964-0.722806 76.557123-6.38478 34.453717 28.370106 28.882093 48.217134 45.145211 14.907858 11.89617 24.816313 30.990275 38.308678 44.482639 13.462248 13.34178 34.724769-6.324546 40.41686-19.395274 22.678015-56.800446 33.309275-146.217478 26.924495-203.560027-6.38478-64.29955-36.863068-134.471893-92.157669-166.094623-70.925265-40.356626-153.897284-15.66078-224.069626 8.492962-14.907858 5.11987-25.539119 12.679209-39.031483 21.17217 4.276598-16.564287 5.692091-34.03208 0.722805-50.506016-7.800273-26.20169-19.877144-69.298953 14.877741-76.557123 13.492365-3.614026 19.154339-2.891221 38.308678 7.25817-15.600547-3.614026-23.40082-2.891221-33.339392-0.722805-9.215767 1.44561-14.154936 7.980975-17.01604 14.516338 2.830987-2.168416 8.523079-3.614026 17.738846-5.812559 25.509002-6.535364 50.325315 6.535364 55.294601 24.75608 2.830987 10.661377 2.108182 16.263118 7.83039 30.74934 5.661974-1.656429 11.323949-3.19239 16.985923-4.54765-3.523676-10.691494-6.38478-21.262521-9.938572-31.923898-8.492962-27.737651-40.386743-50.234965-68.756849-49.51216-26.231807 0.722805-43.247847 17.40756-60.986693 34.122431-12.769559 11.293832-24.816313 22.196144-36.863067 33.008107-32.616587 10.54091-58.848394 22.858716-89.356799 45.92825 21.262521-26.051106 36.140262-40.41686 66.648667-53.306887-4.246481-45.958367-19.847027-79.357993-33.309275-122.876892-6.38478-20.328898-53.186419-99.445955-66.648667-107.42693-9.245884-5.059637-68.064161-55.866822-79.086941-62.402186-8.22191-10.872196-15.449962-26.864262-27.797885-33.369509-37.646107-20.328898-61.829965 18.85317-82.038395 51.499874-9.215767 15.239144-34.815119 58.065355-12.528625 70.413278 21.111937 11.595001 32.947872 19.575975 54.451329 34.092314 3.19239-5.782442 8.583312-11.595001 12.106988-17.40756l-2.319 19.575975a136.068088 136.068088 0 0 0-0.722805 32.676821c0.843273 11.625118 1.716662 22.497313 2.620169 34.092314-3.252624-11.595001-9.697637-23.190002-12.950261-34.815119a129.47249 129.47249 0 0 1-3.011689-11.625118 372.967507 372.967507 0 0 0-144.561049-2.168416 1103.181508 1103.181508 0 0 1-9.998806 51.499874c-1.415494-15.961949-0.722805-58.035238-0.722805-81.978162 0-18.130365-0.843273-24.695846-10.05904-39.904873-8.643546-14.516339-12.347923-18.160482-24.454911-42.826211 0.993857-15.239144 0.993857-26.11134-3.071922-40.657795-6.716065-24.665729-74.659759-5.782442-92.609422-0.692688-22.04556 6.505247-67.642524 15.239144-56.228225 45.717432 10.14939 26.11134 16.53417 54.421212 21.503456 91.434864-40.507211 59.510965-78.062967 141.519244-85.321136 213.709417-5.601741 56.258342-2.198533 90.862643 9.637403 125.195893 18.883287 54.511562 45.175328 101.674605 87.519669 139.62188 57.011264 51.228822 110.257917 71.768538 193.711806 84.748915-20.057846-23.0093-39.904873-47.28351-61.528797-73.364733-21.925092-26.412508-34.965704-53.035835-48.879704-81.917928-19.214573-39.844639-18.76282-55.023549 6.685948-90.049487 21.985326-30.116885 33.821262-43.699601 43.368315-73.244265-7.83039-16.684754-10.751728-30.839691-13.462248-53.608055 26.954612-30.056652 46.89199-51.048121 72.973213-56.830563 25.599352-6.535364 47.012458-5.11987 69.931408 6.505247 50.837302 26.864262 97.909994 61.257745 154.981492 62.643122 26.954612 66.859485 24.093508 122.635957 11.354065 187.236676-8.492962 44.121237-12.046754 85.923474-14.877741 130.9181-10.631261-46.31977-12.769559-87.098032-4.969286-133.237101 9.938572-55.686121 17.01604-117.064333-9.215767-165.974154-52.102212-4.06578-96.584851-36.351081-143.326257-61.167394-18.76282-9.938572-38.429146-10.902312-59.209796-5.119871-19.274807 5.481273-32.315418 18.521884-53.156303 43.12738 0 24.605495 5.149987 35.989678 16.233001 58.366523 17.708729 35.839093 37.344938 69.208602 58.908628 104.505592-26.382392-32.616587-51.319173-59.812134-72.099824-92.549188-7.950858 23.159885-19.274807 34.935587-38.067743 60.956576-18.3713 25.418651-20.298781 36.592016-6.535364 65.955978 13.763417 29.635015 25.448768 55.59577 49.000173 81.586643 40.567444 44.783808 77.701564 94.717604 122.093853 138.899075 24.033274 23.942924 33.821262 23.159885 65.805394 28.099054 28.851976 4.487416 56.800446 10.14939 86.586045 17.10639-28.370106-2.680403-56.07764-3.704377-83.815292-4.427182h-0.843272c27.285898 35.628275 42.826211 55.535536 87.489551 75.262097 54.601913 24.244093 99.265254 37.646107 141.097608 35.839093h0.722805V835.740329zM813.492015 715.272788c-54.963316-17.166625-65.413875-46.048718-58.215939-90.350656 5.872793 33.309275 17.01604 65.474109 58.215939 90.350656z m-180.701311-30.116885c-22.738248-2.740637-45.416263-5.270455-68.094278-7.559339-19.063988-1.957598-22.135911-1.686546-35.658392-16.022183-20.539716-21.925092-40.477094-96.976371-46.831757-127.002905 10.028923 24.966898 35.176522 94.777838 54.451329 112.516684 5.300572 4.878935 9.035066 7.920741 13.040611 10.089156-13.853767-24.966898-12.829793-31.170976-7.950857-64.540485 4.06578 33.971847 14.968092 47.072692 32.827405 72.400992C594.210974 670.368512 612.762975 676.723175 632.790704 685.155903z m572.22082 0c-15.269261-32.827405-39.362769-60.354238-72.280525-77.159461-17.678612-9.035066-28.91221-5.933026-48.187016-4.005545 20.087962-6.173961 32.134717-13.371897 52.192562-6.173962C1176.099314 612.574209 1195.374121 645.943718 1205.011524 685.155903z m-119.383333-55.113901c1.415494-2.620169 2.108182-5.300572 3.553792-8.011091-0.692688-0.722805-2.108182-1.44561-2.861104-2.258766a28.008703 28.008703 0 0 1-6.414896 10.059039h5.722208v0.240935zM894.145034 624.9221319999999c-19.575975-9.607286-42.705743-7.228052-60.083186-19.274807-14.486222-10.661377-35.477691-44.271821-50.686718-58.517108 11.595001 4.517533 21.714274 12.257572 31.863665 20.419249a40.025341 40.025341 0 0 1 15.209027-32.827405 14.275404 14.275404 0 0 0-3.614026 4.788584 17.799079 17.799079 0 0 0 7.950857 23.852573 16.985923 16.985923 0 0 0 23.159885-8.462844c0-0.843273 0.722805-1.686546 0.722805-2.590052-7.950858-6.324546-15.931832-13.7333-21.714274-22.406963-5.782442-7.529221-10.14939-16.082417-13.040611-25.448768 28.249638 36.049912 70.232576 63.245459 110.047099 74.900694-10.842079 0-23.88269-1.987714-37.646107-6.625715 0 4.728351-1.44561 9.366351-3.614026 13.793533-5.059637 10.510793-13.040611 18.130365-22.43708 21.864859 8.673663 4.939169 17.377443 10.119273 23.88269 16.53417z m-809.843045-60.233771a164.137025 164.137025 0 0 1-8.492962-22.286495c-8.071325-29.635015 3.704377-56.137874-21.804624-77.64133 11.98652-25.478885 11.474533-35.718626 39.332652-23.88269 10.751728 4.517533 19.606092 10.902312 27.466599 18.521884-3.794728-10.390325-7.258169-20.991469-10.54091-31.954015-0.722805-1.776896-0.87339-3.614026-1.596195-5.451156-19.907261-8.914598-46.078834-14.606689-56.107757 7.529221-4.878935 10.751728-7.649689 21.262521-11.203481 34.845237-32.767171 35.86921 16.263118 83.333422 42.946678 100.319344zM117.791966 534.5714760000001c6.655832-5.692091 8.432728-16.112534 9.155533-30.116885-4.005546 5.90291-7.137702 9.998806-12.28769 8.944715 0.722805 4.969286 0.993857 9.787988 1.807014 14.335637 0.692688 2.319 0.692688 4.638 1.325143 6.836533zM903.842671 353.87016400000005c-7.709923-1.204675-21.623924-3.824844-29.333846-5.029519-20.087962-3.252624-22.406963-7.800273-25.509002-26.502859-1.505844-8.884481-3.854961-19.847027-5.390922-28.701392 3.854961 10.028923 9.276001 21.623924 13.914001 31.110742 4.607883 10.089157 7.709923 11.052897 17.768962 16.383586 7.709923 3.734494 20.840885 8.914598 28.550807 12.739442zM114.780277 233.40262299999995c14.456105-52.704549 38.97125-105.409098 66.257148-149.168932v-1.505845c-1.746779-7.408754-3.734494-14.817508-7.830391-20.780651-19.455508-27.436482-69.027901 13.371897-83.333421 28.972444-15.690897 17.046157-26.20169 37.104003-28.671275 56.378809-1.807013 14.124819 0 14.124819 9.035066 23.762223 12.137105 13.371897 24.36456 26.713677 36.501665 40.055457l8.071325 22.286495z m669.950113-60.23377a274.063656 274.063656 0 0 1 9.637403-28.309872c6.926884-16.865456 10.360209-26.954612 11.052897-45.145211l2.047948-56.619745c5.51139-10.089157 6.926884-12.799676 5.51139-24.906664-2.047948-24.27421-10.330092-26.292041-32.405768-25.599352-10.330092 0-50.295198 0.662571-60.655407 1.325143-13.793533 1.35526-22.075677 2.71052-26.894379 5.421039 22.738248 16.142651 61.378212 82.851551 68.967668 106.433073 7.559338 24.27421 16.53417 45.175328 22.738248 67.401589z m116.251177 2.861104h5.722208-5.722208z"  horiz-adv-x="1295" />

    
    <glyph glyph-name="edap-plugin-spark" unicode="&#59664;" d="M512 896L353.792 558.848 0 504.832l255.936-262.336L195.52-128 512 46.912000000000035 828.48-128 768 242.49599999999998l256 262.336-353.792 54.016L512 896zM319.168 232.192l5.248 31.872-22.592 23.104-169.088 173.184 230.72 35.264 33.728 5.184 14.528 30.848L512 745.344l100.288-213.696 14.528-30.848 33.728-5.184 230.72-35.264-169.088-173.184-22.592-23.104 5.248-31.872 39.232-240.384-201.088 111.104L512 120.06399999999996l-30.976-17.152-201.088-111.104 39.232 240.384z"  horiz-adv-x="1024" />

    
    <glyph glyph-name="edap-plugin-shell" unicode="&#59663;" d="M1170.285714 749.714286H0v-877.714286h1170.285714V749.714286z m-73.142857-73.142857v-731.428572H73.142857V676.571429h1024zM1170.285714 896H0v-219.428571h1170.285714V896z m-73.142857-73.142857v-73.142857H73.142857V822.857143h1024zM663.478857 512.512l62.756572-37.595429-219.428572-365.714285-62.756571 37.595428zM836.754286 517.778286l206.848-206.994286-51.785143-51.638857-206.848 206.921143zM991.817143 362.56914300000005l51.785143-51.712-206.848-206.921143-51.785143 51.712zM333.531429 517.778286l51.785142-51.712-206.848-206.994286L126.683429 310.85714299999995zM178.468571 362.56914300000005l206.848-206.921143-51.785142-51.712L126.683429 310.85714299999995z"  horiz-adv-x="1170" />

    
    <glyph glyph-name="edap-plugin-python" unicode="&#59662;" d="M256 896v-256H0v-512h256v-256h512v256h256V640h-256V896H256z m64-64h384v-416H256V192H64V576h448V640H320V832z m0-672v192h448V576h192v-384H512v-64h192v-192H320v224zM384 704h64V768.064H384zM576 0h64v64H576z"  horiz-adv-x="1024" />

    
    <glyph glyph-name="edap-plugin-group" unicode="&#59661;" d="M512 896L64.64 657.28l-31.36-16.704-1.28-0.64v-512l3.2-1.856 33.984-17.92L512-128l442.88 236.16 33.92 17.92 3.264 1.856v512l-1.344 0.64-31.36 16.704L512 896zM132.48 621.44L512 823.6800000000001l379.52-202.24L512 417.92 132.48 621.44zM544 362.17600000000004l35.84 19.2 348.224 186.944v-401.92l-41.024-21.76h-0.64L544-38.464000000000055v400.64zM136.96 144.64L96 166.39999999999998V568.3199999999999l348.16-186.944 35.904-19.136v-400.704L136.96 144.64zM950.208 651.712l30.08-56.512-455.936-242.88-30.08 56.512zM950.208 403.2l30.08-56.448-455.936-242.88-30.08 56.448zM71.104 403.2l455.936-242.88-30.08-56.448L41.024 346.75199999999995z"  horiz-adv-x="1024" />

    
    <glyph glyph-name="edap-tool-execute" unicode="&#59660;" d="M512 844.8a460.8 460.8 0 1 0 0-921.6 460.8 460.8 0 0 0 0 921.6z m0-51.2a409.6 409.6 0 1 1 0-819.2 409.6 409.6 0 0 1 0 819.2zM376.6784 603.648l384-221.696-384-221.696V603.648z m51.2-88.6784v-266.0352l230.4 133.0176-230.4 133.0176z"  horiz-adv-x="1024" />

    
    <glyph glyph-name="edap-tool-async" unicode="&#59659;" d="M460.141714 792.795429L563.931429 896l415.524571-417.353143H0v146.285714l627.2 0.073143zM1022.756571 332.36114299999997v-146.285714l-627.273142 0.073142L562.614857 18.285713999999984l-103.643428-103.204571L43.373714 332.36114299999997z"  horiz-adv-x="1024" />

    
    <glyph glyph-name="edap-tool-sync" unicode="&#59658;" d="M460.141714 792.795429L563.931429 896l415.524571-417.353143H0v146.285714l627.2 0.073143zM0 332.36114299999997h979.382857L563.858286-84.84571400000004 460.068571 18.285713999999984l167.131429 167.862857H0z"  horiz-adv-x="1024" />

    
    <glyph glyph-name="edap-tool-stop" unicode="&#59657;" d="M512-76.79999999999995a460.8 460.8 0 1 1 0 921.6 460.8 460.8 0 0 1 0-921.6z m0 51.2a409.6 409.6 0 1 0 0 819.2 409.6 409.6 0 0 0 0-819.2zM358.4 588.8h51.2v-409.6H358.4V588.8z m256 0h51.2v-409.6h-51.2V588.8z"  horiz-adv-x="1024" />

    
    <glyph glyph-name="edap-tool-manual" unicode="&#59656;" d="M1024 896H0v-1024h1024V896z m-146.285714-146.285714v-731.428572H146.285714V749.714286h731.428572zM731.428571 640v-146.285714H219.428571v146.285714zM804.571429 420.571429v-146.285715H219.428571v146.285715zM585.142857 201.14285700000005v-146.285714H219.428571v146.285714z"  horiz-adv-x="1024" />

    
    <glyph glyph-name="edap-tool-setting" unicode="&#59655;" d="M600.558167 895.99488c12.79992 0 23.551853-9.215942 25.087843-21.503866l19.455878-135.679152c31.231805-12.79992 59.903626-29.695814 86.52746-50.175686l127.487203 51.19968a25.727839 25.727839 0 0 0 31.231805-11.26393l102.39936-177.150892a25.855838 25.855838 0 0 0-6.143962-32.767796l-108.031325-84.479472c2.047987-16.383898 3.583978-32.767795 3.583978-50.175686s-1.53599-33.791789-3.583978-50.175686l108.031325-84.479472c9.727939-7.679952 12.287923-21.503866 6.143962-32.767796l-102.39936-177.150892a24.959844 24.959844 0 0 0-31.231805-11.26393l-127.487203 51.19968a393.341542 393.341542 0 0 0-86.52746-50.175686l-19.455878-135.679152a24.959844 24.959844 0 0 0-25.087843-21.503866h-204.79872a24.959844 24.959844 0 0 0-25.087843 21.503866l-19.455879 135.679152a374.077662 374.077662 0 0 0-86.527459 50.175686l-127.487203-51.19968a25.727839 25.727839 0 0 0-31.231805 11.26393l-102.39936 177.150892a25.855838 25.855838 0 0 0 6.143962 32.767796l108.031324 84.479472A406.013462 406.013462 0 0 0 114.161207 383.99807999999996c0 16.895894 1.53599 33.791789 3.583977 50.175686L9.71386 518.653238a25.215842 25.215842 0 0 0-6.143962 32.767796l102.39936 177.150892a24.959844 24.959844 0 0 0 31.231805 11.26393l127.487203-51.19968a393.341542 393.341542 0 0 0 86.527459 50.175686l19.455879 135.679152A24.959844 24.959844 0 0 0 395.759447 895.99488h204.79872z m-33.407791-63.9996H429.231238l-19.839876-138.495134-33.919788-13.887914a328.957944 328.957944 0 0 1-72.319548-42.175736l-28.79982-21.631865-33.471791 13.439916-96.0634 38.591759-69.119568-119.551253 110.079312-86.015462-4.479972-36.031775a340.285873 340.285873 0 0 1-3.13598-42.239736c0-12.287923 1.087993-25.727839 3.13598-42.239736l4.479972-36.031775-28.607821-22.33586-81.471491-63.679602 69.119568-119.551253 129.919188 52.223674 28.991819-22.271861c22.719858-17.53589 46.527709-31.359804 71.807551-41.727739l33.919788-13.887914 5.119968-36.223773 14.719908-102.271361H567.086376l19.839876 138.495134 33.919788 13.887914a328.957944 328.957944 0 0 1 72.383548 42.175736l28.79982 21.631865 33.47179-13.439916 96.0634-38.591759 69.119568 119.551253-110.079312 86.015462 4.479972 36.031775c2.111987 16.831895 3.071981 29.631815 3.071981 42.239736s-0.959994 25.407841-3.071981 42.239736l-4.479972 36.031775 28.543822 22.33586 81.53549 63.679602-69.119568 119.551253-129.919188-52.223674-28.991819 22.271861A310.014062 310.014062 0 0 1 620.84604 679.676232l-33.919788 13.887913-5.119968 36.223774L567.086376 831.99528zM498.158807 563.19696c98.815382 0 179.19888-80.383498 179.19888-179.19888 0-98.815382-80.383498-179.19888-179.19888-179.19888a179.390879 179.390879 0 0 0-179.19888 179.19888c0 98.815382 80.383498 179.19888 179.19888 179.19888z m0-63.9996c-63.423604 0-115.19928-51.711677-115.19928-115.19928s51.775676-115.19928 115.19928-115.19928c63.487603 0 115.19928 51.711677 115.19928 115.19928s-51.711677 115.19928-115.19928 115.19928z"  horiz-adv-x="1024" />

    
    <glyph glyph-name="edap-tool-plan" unicode="&#59654;" d="M707.047619 847.238095v-48.761905h-170.666667v-73.874285a413.598476 413.598476 0 0 0 251.026286-103.911619l97.426286 97.523809 34.523428-34.523428-97.523809-97.52381A412.623238 412.623238 0 0 0 926.47619 310.85714299999995a414.47619 414.47619 0 1 0-438.857142 413.793524V798.47619H316.952381V847.238095h390.095238z m-195.047619-170.666666a365.714286 365.714286 0 1 1 0-731.428572 365.714286 365.714286 0 0 1 0 731.428572z m24.380952-170.666667v-219.428572H658.285714v-48.761904H487.619048V505.904762h48.761904z"  horiz-adv-x="1024" />

    
    <glyph glyph-name="edap-tool-format" unicode="&#59653;" d="M0-128h1024V896H0v-1024zM146.285714 749.714286h731.428572v-51.785143L518.290286 338.505143 363.081143 493.714286 259.730286 390.290286l155.136-155.209143 103.424-103.350857L621.714286 235.081143l256 256V18.285713999999984H146.285714V749.714286z"  horiz-adv-x="1024" />

    
    <glyph glyph-name="edap-tool-import" unicode="&#59652;" d="M68.266667 281.6v-341.333333h1092.266666V281.6h68.266667v-409.6H0V281.6h68.266667zM647.850667 896v-750.933333h-68.266667V896zM904.055467 349.866667l-48.264534 48.264533L614.4 156.808533 373.009067 398.1312 324.744533 349.866667 614.4 60.21119999999996 904.055467 349.866667z"  horiz-adv-x="1228" />

    
    <glyph glyph-name="edap-tool-output" unicode="&#59651;" d="M512 852.935111L753.379556 611.555556l-40.220445-40.220445L539.761778 744.675556 539.875556 213.33333300000004h-56.888889V743.424L310.784 571.335111 270.620444 611.555556 512 852.935111zM56.888889 270.222222v-284.444444h910.222222v284.444444h56.888889v-341.333333H0v341.333333h56.888889z"  horiz-adv-x="1024" />

    
    <glyph glyph-name="edap-tool-save" unicode="&#59650;" d="M843.337143 896H0v-1024h1024V629.76L843.337143 896z m-77.531429-146.285714L877.714286 584.777143V18.285713999999984H146.285714V749.714286h619.52zM804.571429 896H219.428571v-512h585.142858V896zM658.285714 749.714286v-219.428572H365.714286V749.714286h292.571428zM292.571429 237.71428600000002h438.857142v-146.285715H292.571429z"  horiz-adv-x="1024" />

    
    <glyph glyph-name="edap-plugin-more" unicode="&#59649;" d="M987.136 366.957714A475.501714 475.501714 0 0 0 36.571429 384a475.428571 475.428571 0 0 0 950.564571 17.042286L987.428571 384l-0.292571-17.042286z m-73.142857 33.206857A402.358857 402.358857 0 0 1 109.714286 384a402.285714 402.285714 0 0 1 804.278857-16.164571L914.285714 384l-0.292571 16.164571zM256 420.571429h73.142857v-73.142858h-73.142857zM475.428571 420.571429h73.142858v-73.142858h-73.142858zM694.857143 420.571429h73.142857v-73.142858h-73.142857z"  horiz-adv-x="1024" />

    
    </font>
</defs>
</svg>
