<?xml version="1.0" encoding="UTF-8" standalone="no"?>
<!DOCTYPE svg  PUBLIC '-//W3C//DTD SVG 1.1//EN'  'http://www.w3.org/Graphics/SVG/1.1/DTD/svg11.dtd'>
<svg xmlns="http://www.w3.org/2000/svg">
<defs>
<font id="Lyfeicons-Regular" horiz-adv-x="1500">
<font-face underline-position="-50" font-weight="400" descent="-250" panose-1="5 10 5 0 0 0 0 2 0 4" units-per-em="2000" unicode-range="U+0020-E09E" bbox="0 -218 3799 1687" underline-thickness="50" font-family="Lyfeicons" ascent="1750"/>
<missing-glyph horiz-adv-x="1000"/>
<glyph glyph-name=".notdef" horiz-adv-x="1000"/>
<glyph glyph-name=".null" horiz-adv-x="0"/>
<glyph glyph-name="nonmarkingreturn" horiz-adv-x="1000"/>
<glyph glyph-name="space" horiz-adv-x="1000" unicode=" "/>
<glyph glyph-name="space" horiz-adv-x="1000" unicode=" "/>
<glyph glyph-name="plus" d="M1500 656h-656v-656h-188v656h-656v188h656v656h188v-656h656v-188z" unicode=""/>
<glyph glyph-name="minus" d="M1500 656h-1500v188h1500v-188z" unicode=""/>
<glyph glyph-name="logo-pl" d="M1141 1389q81 -50 147 -117.5t113.5 -149.5t73 -176t25.5 -196q0 -103 -27 -199t-75.5 -179.5t-117 -152t-152 -117t-179.5 -75.5t-199 -27q-91 0 -175.5 21t-160.5 59v691q0 72 51 123q50 50 123 50q74 0 122 -52q49 -52 49 -129t-47 -129q-49 -49 -124 -49 q-20 0 -37.5 3.5t-34.5 11.5q-34 15 -66 49v-164q18 -8 29 -13t15 -7t12.5 -4t22.5 -7q25 -7 66 -7q97 0 199 80q102 81 102 236q0 136 -88 225q-89 92 -218 92q-132 0 -223 -85q-90 -86 -90 -208v-619q-63 52 -114.5 116t-87.5 138.5t-55.5 157t-19.5 170.5q0 103 27 199 t75.5 179.5t117 152t152 117t179 75.5t199.5 27q67 0 131 -12t124 -33v-996h136v930z" unicode=""/>
<glyph glyph-name="logo-plalyfe" horiz-adv-x="3799" unicode="" d="M3441 734q-3 0 -9 4q-5 4 -9 12q-2 8 -4 14.5t-2 14.5t2 14.5t4 12.5q7 12 14 12h250q-35 111 -141 111q-64 0 -108 -43q-43 -44 -43 -107t43 -106t105 -43q28 0 51 9q11 5 18 8t12 6q7 4 27 24l71 -77q-39 -42 -80 -59q-41 -18 -96 -18q-109 0 -186 74q-75 75 -75 181 q0 105 73 183q73 75 178 75q106 0 184 -78q79 -76 79 -182l-3 -42h-355zM3094 1013q0 74 42 118q43 44 113 44l29 -2v-103l-14 2q-11 0 -23 -5q-11 -6 -22 -16q-18 -20 -18 -38v-22h61v-101h-61v-355h-107v478zM2802 535q-56 0 -90 14q-35 13 -57 37q-22 22 -31 37 q-5 8 -8.5 15t-6.5 14l-5 32l-4 37v306h108v-302q0 -35 28 -61q30 -24 72 -24q39 0 68 24q28 24 28 57v306h108v-513q0 -57 -59 -96q-59 -40 -149 -40q-27 0 -46 3q-18 1 -50 11v113q5 -3 9.5 -5.5t9.5 -4.5l7 -3.5t6 -1.5l31 -7q8 -2 14.5 -3t11.5 -1q5 -1 10 -1h10 q38 0 63 17q24 15 24 43v23q-47 -26 -102 -26zM2411 1165h107v-630h-107v630zM2119 535q-56 0 -90 14q-35 13 -57 37q-22 22 -31 37q-5 8 -9 15t-6 14l-6 32l-3 37v306h108v-302q0 -36 29 -61q28 -24 71 -24q39 0 68 24t29 57v306h107v-513q0 -58 -59 -96q-59 -40 -149 -40 q-27 0 -46 3q-18 1 -50 11v113q5 -3 10 -5.5t8 -4.5q5 -2 8 -3.5t6 -1.5l31 -7q8 -2 14.5 -3t11.5 -1q5 -1 10 -1h10q38 0 63 17q25 15 25 43v23q-49 -26 -103 -26zM1654 523q-6 -1 -14 -2t-18 -3q-10 -1 -18 -2t-16 -1q-48 0 -84 14q-37 16 -65 40q-15 13 -25.5 23 t-17.5 18t-13.5 17.5t-12.5 20.5q-13 23 -19 48q-6 27 -6 63q0 55 11 97q12 41 44 83q31 42 85 70q54 27 115 27q107 0 180 -74q74 -73 74 -180v-247h-108v252q0 57 -43 99q-45 42 -103 42q-61 0 -105 -44q-43 -45 -43 -106q0 -62 44 -108q43 -45 107 -45t110 51v-131 q-16 -8 -31 -13q-8 -2 -14.5 -4.5t-13.5 -4.5zM1218 776q0 -57 15 -109t42.5 -98t65.5 -83t84 -64q-46 -94 -115.5 -171.5t-156.5 -133t-189.5 -86.5t-213.5 -31q-91 0 -175 21t-161 59v691q0 70 51 123q50 50 123 50q74 0 123 -52q48 -51 48 -129q0 -79 -47 -129 q-48 -49 -124 -49q-20 0 -37.5 3.5t-34.5 11.5q-16 8 -32.5 20t-33.5 29v-164q18 -8 29 -13t16 -7q4 -2 12 -4t22 -7q25 -7 66 -7q98 0 200 80q102 81 102 236q0 134 -89 225q-88 92 -217 92q-133 0 -222 -85q-92 -86 -92 -208v-619q-63 52 -114.5 116t-87.5 138.5 t-55.5 157t-19.5 170.5q0 103 27 199t75.5 179.5t117 152t152 117t179 75.5t199.5 27q68 0 131.5 -12t123.5 -33v-996h137v930q82 -51 148 -119.5t114 -152.5q-42 -27 -76.5 -63.5t-58.5 -80.5t-37.5 -93.5t-13.5 -103.5z"/>
<glyph glyph-name="cross" horiz-adv-x="1193" unicode="" d="M1193 1214l-464 -464l464 -464l-133 -133l-464 464l-463 -464l-133 133l464 464l-464 464l133 132l463 -463l464 463z"/>
<glyph glyph-name="tick" horiz-adv-x="1411" unicode="" d="M1411 1096l-944 -943l-463 461l133 133l330 -330l812 812z"/>
<glyph glyph-name="edit" horiz-adv-x="1231" unicode="" d="M0 134l64 237l173 -173zM207 341l935 936l89 -88l-936 -936zM118 430l936 935l45 -44l-936 -936z"/>
<glyph glyph-name="hamburger" d="M1500 1312h-1500v188h1500v-188zM1500 0h-1500v187h1500v-187zM1500 656h-1500v188h1500v-188z" unicode=""/>
<glyph glyph-name="cog" horiz-adv-x="1623" unicode="" d="M979 283q63 26 113 68.5t85 95.5t53.5 114.5t18.5 125.5q0 98 -37.5 179t-98.5 138.5t-140 89t-161 31.5q-98 0 -178.5 -37.5t-138.5 -98.5t-89.5 -140t-31.5 -161q0 -98 37.5 -179t99 -138.5t140 -89.5t161.5 -32q86 0 167 34zM1389 926q13 -30 21 -58l206 -73 q4 -28 5.5 -55t1.5 -54t-1.5 -53.5t-5.5 -52.5l-206 -74q-9 -29 -21 -57.5t-26 -56.5l93 -198q-63 -85 -151 -151l-198 93q-27 -14 -56 -26t-58 -21l-74 -206q-27 -4 -54 -6t-54 -2t-54 2t-53 6l-73 206q-58 17 -114 47l-198 -94q-85 64 -153 152l95 198q-15 27 -26.5 56 t-20.5 58l-207 74q-4 27 -5.5 54t-1.5 54q0 26 1.5 53t5.5 54l207 73q9 29 20.5 58t26.5 56l-95 198q67 87 153 152l198 -94q26 14 55.5 26t58.5 21l73 207q27 3 54 5t54 2t54 -2t53 -5l74 -207q29 -9 57.5 -20.5t56.5 -26.5l198 94q85 -66 151 -152l-93 -198 q7 -14 13.5 -27.5t12.5 -28.5z"/>
<glyph glyph-name="cog-double" horiz-adv-x="1749" unicode="" d="M1379 68q36 0 67.5 13.5t55 37t37 55t13.5 67.5t-13.5 67.5t-37 55t-55 37t-67.5 13.5t-67.5 -13.5t-55 -37t-37 -55t-13.5 -67.5t13.5 -67.5t37 -55t55 -37t67.5 -13.5zM1745 297q2 -14 3 -28t1 -28t-1 -28t-3 -28l-81 -22q-20 -76 -75 -131l21 -81q-45 -36 -97 -55 l-59 58q-18 -5 -36.5 -7.5t-38.5 -2.5t-39 2.5t-37 7.5l-59 -58q-52 19 -97 55l21 81q-55 55 -75 131l-81 22q-2 14 -3 28t-1 28t1 28t3 28l81 22q20 76 75 130l-21 81q44 35 97 56l59 -59q18 5 37 7.5t39 2.5q41 0 75 -10l59 59q53 -21 97 -56l-21 -81q55 -54 75 -130z M735 589.5q62 25.5 107 72t69.5 106t24.5 126.5q0 63 -25.5 124.5t-72 106.5t-104.5 69t-91.5 24.5t-36.5 0.5q-63 0 -124.5 -25.5t-106.5 -72t-70 -105.5t-25 -127q0 -63 25.5 -124.5t72.5 -106.5t105 -69t91.5 -24.5t36.5 -0.5q62 0 124 25.5zM1041 1071q5 -11 8.5 -22 t6.5 -22l155 -55q5 -40 5 -81q0 -40 -5 -80l-155 -55q-7 -22 -15.5 -43.5t-19.5 -41.5l71 -149q-50 -63 -114 -114l-149 71l-20 -10t-21 -10t-22 -8.5t-22 -7.5l-55 -154q-40 -5 -81 -5q-40 0 -80 5l-55 154q-46 14 -86 36l-148 -71q-65 49 -114 114l71 149q-6 10 -10.5 20 t-9.5 21q-8 20 -16 44l-155 55q-5 40 -5 81q0 40 5 80l155 55q13 43 36 86l-71 148q49 64 114 114l148 -71q11 6 21 10.5t21 9.5q20 8 44 16l55 154q41 6 83 6q39 0 78 -5l55 -155q46 -14 85 -36l149 71q32 -24 60 -53t53 -61l-70 -148q5 -11 10 -21t10 -21z"/>
<glyph glyph-name="eye" horiz-adv-x="1760" unicode="" d="M880 908q59 0 110.5 -22.5t90 -60.5t61 -90t22.5 -110q0 -59 -22.5 -110.5t-61 -90t-90 -61t-110.5 -22.5t-110.5 22.5t-90 61t-61 90t-22.5 110.5q0 8 0.5 16t1.5 16q20 -30 52.5 -48t70.5 -18q31 0 58.5 11.5t47.5 32t32 47.5t12 58q0 51 -31 90t-77 53q56 25 117 25z M122 638q69 -98 153 -177.5t180.5 -135.5t203.5 -86t221 -30t221 30t203.5 86t180.5 135.5t153 177.5q-69 99 -153 178.5t-180.5 135.5t-203.5 86t-221 30t-221 -30t-203.5 -86t-180.5 -135.5t-153 -178.5zM0 687q53 77 114.5 149t130 135t143 114.5t155 89t165 58 t172.5 20.5q132 0 256 -45t236.5 -122.5t210 -180.5t177.5 -218q-80 -116 -177.5 -218.5t-210 -179.5t-236.5 -122t-256 -45t-256 45t-236.5 122t-210.5 179.5t-177 218.5z"/>
<glyph glyph-name="reset" horiz-adv-x="1617" unicode="" d="M681 179h936v-170l-936 -10q-131 1 -256 55t-225 154t-150 226t-50 256t50 256t150 226q78 78 172 124t194 64v150l393 -227l-393 -227v131q-68 -15 -130 -49t-116 -87q-74 -75 -112 -169t-38 -192t38 -192t112 -169t168 -113t193 -37zM1272 680h-250v250h250v250h250 v-250h-250v-250zM1272 1180h-250v250h250v-250zM1272 1430v250h250v-250h-250z"/>
<glyph glyph-name="hellipsis" d="M1500 750q0 -39 -15 -73.5t-40.5 -60t-59.5 -40t-73 -14.5t-73 14.5t-59.5 40t-40 60t-14.5 73.5t14.5 73t40 59.5t59.5 40t73 14.5t73 -14.5t59.5 -40t40.5 -59.5t15 -73zM937 750q0 -39 -14.5 -73.5t-40 -60t-59.5 -40t-73 -14.5t-73.5 14.5t-60 40t-40 60t-14.5 73.5 t14.5 73t40 59.5t60 40t73.5 14.5t73 -14.5t59.5 -40t40 -59.5t14.5 -73zM375 750q0 -39 -15 -73.5t-40.5 -60t-59.5 -40t-73 -14.5t-73 14.5t-59.5 40t-40 60t-14.5 73.5t14.5 73t40 59.5t59.5 40t73 14.5t73 -14.5t59.5 -40t40.5 -59.5t15 -73z" unicode=""/>
<glyph glyph-name="vellipsis" horiz-adv-x="375" unicode="" d="M187 1500q39 0 73 -15t59.5 -40.5t40.5 -59.5t15 -73t-15 -73t-40.5 -59.5t-59.5 -40t-73 -14.5t-73 14.5t-59.5 40t-40 59.5t-14.5 73t14.5 73t40 59.5t59.5 40.5t73 15zM187 937q39 0 73 -14.5t59.5 -40t40.5 -59.5t15 -73t-15 -73.5t-40.5 -60t-59.5 -40t-73 -14.5 t-73 14.5t-59.5 40t-40 60t-14.5 73.5t14.5 73t40 59.5t59.5 40t73 14.5zM187 375q39 0 73 -15t59.5 -40.5t40.5 -59.5t15 -73t-15 -73t-40.5 -59.5t-59.5 -40t-73 -14.5t-73 14.5t-59.5 40t-40 59.5t-14.5 73t14.5 73t40 59.5t59.5 40.5t73 15z"/>
<glyph glyph-name="cloud" horiz-adv-x="1552" unicode="" d="M1552 536q0 -59 -21 -111t-57.5 -92.5t-86 -67t-106.5 -32.5h-978q-63 3 -118.5 29.5t-96.5 70t-64.5 100t-23.5 121.5q0 48 13.5 92t38 81.5t58.5 67.5t75 49q0 88 33.5 165t91.5 134.5t135 90.5t165 33q63 0 121 -17.5t107.5 -49t88.5 -76t65 -97.5q45 21 97 21 q46 0 87 -17t72.5 -46t50.5 -69t22 -85q49 -12 91.5 -39.5t73.5 -66.5t48.5 -87t17.5 -102z"/>
<glyph glyph-name="new" d="M750 1500l149 -193l226 93l33 -242l242 -33l-93 -226l193 -149l-193 -149l93 -226l-242 -33l-33 -242l-226 93l-149 -193l-149 193l-226 -93l-33 242l-242 33l93 226l-193 149l193 149l-93 226l242 33l33 242l226 -93z" unicode=""/>
<glyph glyph-name="trash" horiz-adv-x="1042" unicode="" d="M1042 1439v-188h-1042v188h391v62h260v-62h391zM927 0h-823v1183h823v-1183z"/>
<glyph glyph-name="copy" horiz-adv-x="1125" unicode="" d="M1125 14h-750v1097h750v-1097zM187 389h-187v1097h750v-187h-563v-910z"/>
<glyph glyph-name="logout" horiz-adv-x="1625" unicode="" d="M969 644l-436 -437h-257l336 344h-612v187h612l-336 344h257zM1625 1500v-1500h-1063v59l583 585l-583 585v271h1063z"/>
<glyph glyph-name="loop" d="M750 1472q103 0 199 -27t179.5 -75.5t152 -117t117 -152t75.5 -179.5t27 -199q0 -104 -27 -199.5t-75.5 -179t-117 -152t-152 -117t-179.5 -75.5t-199 -27q-104 0 -199.5 27t-179 75.5t-152 117t-117 152t-75.5 179.5t-27 199q0 121 36 230t102 202l-117 117l483 129 l-129 -483l-102 102q-42 -66 -64 -140.5t-22 -156.5q0 -117 44 -219.5t120.5 -179t179 -120.5t219.5 -44t219 44t178.5 120.5t120.5 179t44 219.5t-44 219t-120.5 178.5t-178.5 120.5t-219 44v188z" unicode=""/>
<glyph glyph-name="refresh" d="M187 741q0 -117 44 -219.5t120.5 -179t179 -120.5t219.5 -44v-187q-104 0 -199.5 27t-179 75.5t-152 117t-117 152t-75.5 179t-27 199.5q0 121 36 229.5t102 202.5l-117 117l483 129l-129 -483l-102 102q-42 -66 -64 -140.5t-22 -156.5zM1500 741q0 -121 -36 -230 t-102 -203l117 -116l-483 -129l129 483l102 -102q85 133 85 297q0 116 -44 218.5t-120.5 179t-178.5 120.5t-219 44v188q103 0 199 -27t179.5 -75.5t152 -117t117 -152t75.5 -179.5t27 -199z" unicode=""/>
<glyph glyph-name="feed" horiz-adv-x="1375" unicode="" d="M0 1375q190 0 365.5 -49t328.5 -138.5t278.5 -215t215 -278.5t138.5 -328.5t49 -365.5h-250q0 155 -40 299t-113.5 269t-176 227.5t-227.5 176t-269 113.5t-299 40v250zM0 875q121 0 232.5 -31.5t209 -88t177.5 -136.5t136.5 -177.5t88 -209t31.5 -232.5h-250 q0 86 -22.5 166t-63 149.5t-97.5 126.5t-126.5 97.5t-149.5 63t-166 22.5v250zM0 375q78 0 146 -29.5t119 -80.5t80.5 -119t29.5 -146h-375v375z"/>
<glyph glyph-name="user" horiz-adv-x="1350" unicode="" d="M245 -57q-69 0 -130 -17t-115 -49v315q0 84 26 160t71 139q46 63 109 110t138 73q63 -66 147 -104t184 -38t184 38t147 104q75 -26 138 -73t109 -110q45 -63 71 -139t26 -160v-315q-54 32 -115 49t-130 17h-860zM1083 1093q0 -85 -32 -159q-31 -74 -87 -130t-130 -87 q-74 -32 -159 -32t-159 32q-74 31 -130 87t-87 130q-32 74 -32 159t32 159q31 74 87 129t130 87t159 32t159 -32t130 -87t87 -129q32 -74 32 -159z"/>
<glyph glyph-name="calendar" horiz-adv-x="1750" unicode="" d="M1625 868v313h-417v-313h417zM1625 431v312h-417v-312h417zM1625 -7v313h-417v-313h417zM667 -7h416v313h-416v-313zM125 -7h417v313h-417v-313zM125 743v-312h417v312h-417zM125 1181v-313h417v313h-417zM667 868h416v313h-416v-313zM667 743v-312h416v312h-416z M1396 1491h354v-1625h-1750v1625h354v-188h250v188h542v-188h250v188zM1333 1366h-125v250h125v-250zM542 1366h-125v250h125v-250z"/>
<glyph glyph-name="search" horiz-adv-x="1582" unicode="" d="M316 566q64 -65 144 -96.5t165 -31.5t164.5 31.5t144.5 96.5q64 64 96 144t32 165t-32 165.5t-96 144.5q-65 64 -144.5 96t-164.5 32t-165 -32t-144 -96t-96 -144.5t-32 -165.5t32 -165t96 -144zM1449 -81l-453 453q-83 -62 -178 -92t-194 -30q-120 0 -234.5 45.5 t-206.5 137.5t-137.5 206.5t-45.5 235.5t45.5 235.5t137.5 206.5t206.5 137.5t235.5 45.5t235.5 -45.5t206.5 -137.5t137.5 -207t45.5 -236q0 -98 -30 -192.5t-92 -176.5l454 -454z"/>
<glyph glyph-name="settings" horiz-adv-x="1750" unicode="" d="M1625 646v-655h-188v655h188zM1437 958v533h188v-533h-188zM969 167v-176h-188v176h188zM781 479v1012h188v-1012h-188zM312 885v-894h-187v894h187zM125 1198v293h187v-293h-187zM0 948v187h437v-187h-437zM1312 708v188h438v-188h-438zM656 229v188h438v-188h-438z"/>
<glyph glyph-name="castle" d="M1500 1322v-375h-188v-947h-386v433q-2 54 -16 101.5t-37.5 83t-55 55.5t-67.5 20q-35 0 -66.5 -20t-55.5 -55.5t-38.5 -83t-15.5 -101.5v-433h-387v947h-187v375h326v-187h188v187h205v337l273 -133l-211 -102v-102h204v-187h188v187h327z" unicode=""/>
<glyph glyph-name="triskelion-light" horiz-adv-x="1484" unicode="" d="M1419 737q-2 84 -24.5 163t-61.5 149t-94 129.5t-121.5 104.5t-143.5 74t-161 38q-12 1 -23.5 1.5t-22.5 0.5q-50 0 -99 -15t-88.5 -45t-64 -75.5t-24.5 -106.5q0 -38 13.5 -72.5t38 -61.5t58 -43t73.5 -16q21 0 43 8t40.5 23t30 37t11.5 50q0 11 -4 23.5t-11.5 23 t-18.5 17.5t-26 7q-12 0 -17.5 -5.5t-8.5 -12.5t-5 -12.5t-7 -5.5q-15 0 -21.5 6.5t-6.5 17.5q0 17 7 30t17.5 21.5t23 13t23.5 4.5q28 0 50 -12t37 -31t23 -42.5t8 -45.5q0 -37 -16 -69.5t-42.5 -56.5t-61.5 -38t-73 -14q-51 0 -95.5 21t-77 56.5t-51.5 82t-19 97.5 q0 72 28.5 129t76 97t108 61t124.5 21q100 0 192.5 -28t172.5 -78t145.5 -119.5t112.5 -152.5t72.5 -176t25.5 -191q0 -25 -2 -50t-5 -51q-20 68 -58 119zM391 1300q-75 -45 -135 -107t-102.5 -136.5t-65.5 -159.5t-23 -176q0 -42 6.5 -93t21.5 -102.5t39 -100t58.5 -86 t80.5 -60.5t106 -23q44 0 83 16t68.5 43t46.5 63.5t17 77.5q0 28 -10 55t-28 48t-43 34t-54 13q-15 0 -31.5 -5t-30 -15t-22 -23.5t-8.5 -31.5q0 -14 8 -28.5t24 -16.5q6 0 11 3.5t9 3.5q2 0 6 -5.5t4 -17.5q0 -14 -10.5 -19.5t-24.5 -5.5q-26 0 -42.5 9t-27 22.5 t-14.5 28.5t-4 28q0 28 13.5 52.5t35 43.5t49 30t55.5 11q42 0 78.5 -18t63 -48t42 -69t15.5 -81q0 -54 -23 -102t-61 -84t-89 -56.5t-106 -20.5q-72 0 -127.5 25t-97.5 67t-71 97t-47 115t-26 121.5t-8 116.5q2 110 35.5 213.5t94.5 192.5t145.5 159t188.5 112 q-44 -45 -73 -110zM417 128q75 -42 157 -62.5t167 -20.5q132 0 255 49.5t220 143.5q28 27 54 58t46.5 65.5t33 72t12.5 78.5q0 44 -16 86.5t-45 76t-70 54t-90 20.5q-30 0 -60.5 -10t-55 -29.5t-40.5 -48.5t-16 -66q0 -19 6.5 -39.5t19 -37t30 -27t40.5 -10.5q18 0 37.5 13 t19.5 34q0 8 -3.5 12.5t-7 7t-7 4.5t-3.5 5q0 6 11 13.5t17 7.5q9 0 17 -7t13 -18t8 -23.5t3 -22.5q0 -23 -10 -39t-25.5 -26t-33 -15t-32.5 -5q-36 0 -66.5 14t-52 37.5t-33.5 54t-12 64.5q0 49 20 90t53 70t76 45.5t89 16.5q61 0 113.5 -25.5t90 -67.5t59 -96.5 t21.5 -112.5q0 -62 -24 -121t-62 -111t-86 -96t-97 -77q-92 -63 -198 -95.5t-217 -32.5q-124 0 -242.5 40.5t-215.5 117.5q22 -6 44.5 -8.5t45.5 -2.5h21t21 2zM1101 554q-2 -11 -9 -15.5t-16 -4.5q-13 0 -22 5.5t-14 14.5t-7.5 20t-2.5 21q0 21 10 37.5t26 28.5t35.5 18.5 t37.5 6.5q36 0 65 -15t49.5 -39.5t32 -56.5t11.5 -65q-2 -46 -21.5 -85.5t-52 -68.5t-74.5 -45.5t-88 -16.5q-59 0 -112.5 24t-92.5 67q-23 25 -40 53.5t-34 56.5q-23 38 -44.5 74.5t-44.5 74.5q-11 18 -19.5 34.5t-30.5 21.5q-44 10 -91.5 22t-90.5 12q-39 0 -78 -13 t-69.5 -38.5t-50 -62t-19.5 -82.5q0 -27 8.5 -55t25 -50t41.5 -36t59 -14q16 0 32 5t29.5 14.5t22 24t8.5 34.5q0 15 -9 28t-23 15q-5 0 -12 -4.5t-9 -4.5q-8 5 -8 17q0 18 14 26.5t28 8.5q19 0 34 -8.5t24.5 -22t14.5 -30t5 -32.5q0 -33 -14 -58t-36.5 -42t-50 -25.5 t-54.5 -8.5q-46 0 -82.5 19.5t-61.5 50.5t-38 69.5t-13 77.5q0 48 17 90.5t46.5 75.5t68.5 55.5t83 32.5q44 9 88 9h9h35q45 2 86.5 2.5t86.5 1.5q9 0 17 -0.5t16 -0.5q16 0 33 12t34.5 30t34 38t30.5 36q29 33 45 73.5t16 83.5q0 38 -14 73t-38 61.5t-57 42.5t-72 16 q-21 0 -43.5 -7.5t-41.5 -22.5t-31 -36.5t-12 -49.5q0 -12 4 -24.5t11.5 -23t19 -17.5t25.5 -7q13 0 18.5 6t8.5 12.5t6 12.5t9 6q14 0 19.5 -6.5t5.5 -15.5q0 -19 -7.5 -32.5t-18.5 -22.5t-24 -13t-23 -4q-26 0 -47.5 12t-36.5 31t-23.5 42t-8.5 46q0 37 16 70t43 57t62 38 t74 14q50 0 93.5 -21t76 -56t51.5 -81.5t19 -98.5q0 -53 -19.5 -107.5t-48 -107t-60 -102t-54.5 -92.5q-2 -4 -2 -6q0 -7 3.5 -14t5.5 -12q11 -35 21.5 -71.5t26.5 -71.5q13 -29 33.5 -54t46.5 -43t56.5 -28t62.5 -10q31 0 62 11.5t55.5 32.5t40 49t15.5 61q0 19 -7 39.5 t-19.5 36.5t-30 26.5t-39.5 10.5q-20 0 -38.5 -12.5t-18.5 -33.5q0 -16 20 -25z"/>
<glyph glyph-name="triskelion-dark" d="M1330 735q35 -49 50 -102q6 43 6 87q0 85 -22.5 165.5t-63 151t-97.5 130t-126 102t-147.5 66t-162.5 23.5q-56 0 -107.5 -18.5t-91.5 -53t-64 -83t-24 -109.5q0 -44 16.5 -84t44.5 -70t65.5 -48t80.5 -18q33 0 63 12t53 33t36.5 48.5t13.5 59.5q0 19 -7 39t-20.5 36.5 t-32 26.5t-40.5 10q-9 0 -20 -4t-20.5 -11.5t-15.5 -18.5t-6 -26q0 -20 23 -20q5 0 6.5 5t4 10.5t7.5 10.5t16 5q24 0 37.5 -20.5t13.5 -41.5q0 -23 -10.5 -41.5t-26 -31.5t-35 -19.5t-37.5 -6.5q-33 0 -61.5 13.5t-49.5 36t-32.5 52.5t-11.5 62q0 51 20.5 89.5t53.5 65 t75 40t85 13.5q76 0 147 -21.5t133 -59.5t113 -91t88 -116t58 -133.5t22 -144.5zM1107 195q42 28 83 65.5t73.5 82t53 94.5t20.5 104q0 49 -17.5 95.5t-49.5 83t-77.5 59t-100.5 22.5q-39 0 -75 -14t-64.5 -39.5t-45.5 -60t-17 -76.5q0 -29 10 -55t28.5 -46.5t44 -32.5 t57.5 -12q12 0 27.5 4t28.5 13t22 22.5t9 32.5q0 9 -2.5 19.5t-7 20t-11 15.5t-14.5 6q-5 0 -14.5 -6t-9.5 -12q0 -2 2.5 -3.5t6 -3.5t6 -6t2.5 -11q0 -19 -16.5 -29.5t-32.5 -10.5q-18 0 -33.5 8.5t-26 22t-16.5 30.5t-6 34q0 32 13.5 57t35 42t48 26t52.5 9q43 0 78 -18 t59.5 -46.5t37.5 -65t13 -73.5q0 -35 -10.5 -67.5t-28 -62t-40 -56t-46.5 -49.5q-82 -79 -186 -122t-219 -43q-73 0 -143.5 18t-136.5 53q-9 -1 -18 -1.5t-18 -0.5q-43 0 -77 10q85 -66 185 -100.5t206 -34.5q97 0 187 27.5t171 81.5zM876 1127q31 -46 31 -100 q0 -38 -14 -72.5t-39 -63.5q-12 -14 -26 -31t-29 -32.5t-30 -26t-28 -10.5q-5 0 -10.5 0.5t-11.5 0.5q-38 0 -77 -1.5t-77 -1.5q-29 0 -57.5 -1t-55.5 -7q-37 -9 -70.5 -28.5t-59 -48t-40.5 -64t-15 -76.5q0 -33 11.5 -66t33 -60t53 -43.5t71.5 -16.5q22 0 45.5 7t42.5 21.5 t31 35.5t12 50q0 13 -4 27.5t-12.5 26t-21 19t-29.5 7.5q-13 0 -24.5 -8t-11.5 -22q0 -4 2 -9.5t6 -5.5q3 0 8 4t9 4q14 -2 20.5 -13.5t6.5 -23.5q0 -17 -7.5 -29.5t-18.5 -20.5t-25.5 -12t-27.5 -4q-29 0 -50 11.5t-35.5 30.5t-21.5 42.5t-7 47.5q0 39 16.5 70.5t43 53 t59.5 33t67 11.5q36 0 77 -10.5t79 -18.5q19 -4 26 -17.5t17 -30.5q19 -32 37.5 -63.5t38.5 -63.5q14 -24 29 -49t35 -46q35 -36 80 -57.5t94 -21.5q40 0 76.5 14.5t64 39.5t44.5 59t19 73q0 28 -10 55.5t-27.5 48.5t-42 34t-54.5 13q-16 0 -33 -5.5t-30.5 -15.5 t-22.5 -24.5t-9 -32.5q0 -17 8.5 -34.5t31.5 -17.5q17 0 21 17q-17 8 -17 22q0 17 16 28t33 11q18 0 33.5 -9t26 -22.5t16.5 -31t6 -33.5q0 -28 -13 -52.5t-34.5 -42.5t-48.5 -28.5t-54 -10.5t-52.5 9t-48 24.5t-40.5 37t-29 46.5q-13 29 -21.5 60.5t-18.5 61.5q-2 5 -5 12 t-3 12q0 6 8 18t12 20q21 37 45 75t45 78t34.5 80.5t13.5 82.5q0 44 -16 84t-44 70t-66 48t-81 18q-33 0 -63.5 -12t-53 -32.5t-36 -48.5t-13.5 -60q0 -20 7 -39.5t20 -36t31.5 -26.5t41.5 -10q9 0 20 4t20.5 11.5t15.5 19t6 26.5q0 19 -22 19q-6 0 -7.5 -5t-4 -10.5 t-7 -10.5t-16.5 -5q-24 0 -37.5 20.5t-13.5 41.5q0 24 10 42t26 31t35.5 19.5t37.5 6.5q35 0 69 -17.5t55 -46.5zM114 731q0 -47 7 -100t22.5 -104.5t40.5 -98.5t61 -83t83.5 -57t109.5 -21q47 0 90 17.5t76 48t52.5 71t19.5 87.5q0 36 -13 69.5t-35.5 59.5t-53 41.5 t-66.5 15.5q-24 0 -47.5 -9t-43 -25t-31.5 -37.5t-12 -45.5q0 -11 3.5 -24.5t12.5 -24.5t23.5 -18.5t36.5 -7.5q12 0 20.5 5t8.5 16q0 20 -7 20q-3 0 -7 -3t-9 -3q-16 0 -22.5 13.5t-6.5 25.5q0 15 7.5 27t19 20.5t25.5 12.5t28 4q26 0 47 -11.5t36 -30t23 -42t8 -46.5 q0 -35 -14.5 -66t-39.5 -54t-58.5 -36.5t-71.5 -13.5q-52 0 -92 20t-69.5 52.5t-50 74t-32.5 86t-17.5 87.5t-5.5 78q0 77 19.5 149.5t56 137t88 118t115.5 92.5q23 54 63 94q-90 -36 -163 -96.5t-125 -137t-80.5 -165.5t-29.5 -182zM750 1472q103 0 199 -27t179.5 -75.5 t152 -117t117 -152t75.5 -179.5t27 -199q0 -104 -27 -199.5t-75.5 -179t-117 -152t-152 -117t-179.5 -75.5t-199 -27q-104 0 -199.5 27t-179 75.5t-152 117t-117 152t-75.5 179.5t-27 199t27 199t75.5 179.5t117 152t152 117t179.5 75.5t199 27z" unicode=""/>
<glyph glyph-name="trophy" horiz-adv-x="1546" unicode="" d="M335 0h875v-125h-875v125zM1029 733q81 32 150 82.5t121.5 115.5t86 142t44.5 162h-233q-21 -161 -64.5 -287.5t-104.5 -214.5zM114 1235q11 -85 45 -162t86.5 -142t121.5 -115.5t150 -82.5q-61 88 -105 214.5t-64 287.5h-234zM1517 1310q29 -31 29 -75q0 -4 -0.5 -7.5 t-0.5 -7.5q-15 -123 -70 -230.5t-140 -191.5t-195 -140t-234 -77q10 -23 10 -52t-11 -46.5t-24.5 -36.5t-24.5 -45t-11 -71q0 -44 14 -77t44.5 -63t77.5 -60t113 -68h-643q34 19 71.5 42t70.5 47t58 48.5t36 45.5q7 14 10.5 36.5t3.5 48.5q0 45 -11 71t-24.5 45t-24.5 36.5 t-11 46.5t10 52q-125 21 -234.5 77t-194.5 140t-140 191.5t-70 230.5q-1 5 -1 15q0 23 9 44t25 36.5t36.5 24.5t43.5 9h222q-2 36 -3.5 73.5t-1.5 76.5l884 1v-1q0 -78 -6 -150h222q51 0 86 -39z"/>
<glyph glyph-name="arrow-left" horiz-adv-x="756" unicode="" d="M263 750l493 -500h-258l-498 500l498 500h258z"/>
<glyph glyph-name="arrow-right" horiz-adv-x="756" unicode="" d="M492 750l-492 500h258l498 -500l-498 -500h-258z"/>
<glyph glyph-name="arrow-up" horiz-adv-x="1000" unicode="" d="M500 864l-500 -492v258l500 498l500 -498v-258z"/>
<glyph glyph-name="arrow-down" horiz-adv-x="1000" unicode="" d="M0 1128l500 -492l500 492v-258l-500 -498l-500 498v258z"/>
<glyph glyph-name="arrow-double-right" horiz-adv-x="1265" unicode="" d="M500 1250h265l500 -500l-500 -500h-265l500 500zM0 1250h265l500 -500l-500 -500h-265l500 500z"/>
<glyph glyph-name="arrow-double-left" horiz-adv-x="1265" unicode="" d="M765 250h-265l-500 500l500 500h265l-500 -500zM1265 250h-265l-500 500l500 500h265l-500 -500z"/>
<glyph glyph-name="round-question" d="M637 423q0 86 89 86q43 0 65.5 -22t22.5 -64q0 -39 -23 -62.5t-65 -23.5t-65.5 23t-23.5 63zM653 596v38q0 24 4.5 44.5t16 39t30 37t46.5 39.5q27 20 44 35t26.5 27.5t13 25t3.5 27.5q0 34 -24.5 50.5t-67.5 16.5q-76 0 -173 -49l-55 111q112 63 239 63q52 0 94 -13 t71.5 -37t45.5 -58t16 -76q0 -29 -5.5 -52t-19.5 -44.5t-37 -43t-59 -47.5q-26 -18 -40.5 -31t-22.5 -24t-10 -22t-2 -26v-31h-134zM750 157q117 0 219 44t178.5 120.5t120.5 178.5t44 219t-44 219.5t-120.5 179t-178.5 120.5t-219 44t-219.5 -44t-179 -120.5t-120.5 -179 t-44 -219.5t44 -219t120.5 -178.5t179 -120.5t219.5 -44zM750 1469q103 0 199 -27t179.5 -75.5t152 -117t117 -152t75.5 -179.5t27 -199t-27 -199t-75.5 -179.5t-117 -152t-152 -117t-179.5 -75.5t-199 -27t-199 27t-179.5 75.5t-152 117t-117 152t-75.5 179t-27 199.5 q0 103 27 199t75.5 179.5t117 152t152 117t179 75.5t199.5 27z" unicode=""/>
<glyph glyph-name="round-question-fill" d="M958 821q25 40 25 96q0 42 -16 76t-45.5 58t-71.5 37t-94 13q-127 0 -239 -63l55 -111q97 49 173 49q43 0 67.5 -16.5t24.5 -50.5q0 -15 -3.5 -27.5t-13 -25t-26.5 -27.5t-44 -35q-28 -21 -46.5 -39.5t-30 -37t-16 -39t-4.5 -44.5v-38h134v31q0 28 13 49q7 10 29 28.5 t47.5 40t49 42t32.5 34.5zM791 360q23 25 23 63q0 42 -22.5 64t-65.5 22q-89 0 -89 -86q0 -40 23.5 -63t65.5 -23q40 0 65 23zM750 1469q103 0 199 -27t179.5 -75.5t152 -117t117 -152t75.5 -179.5t27 -199t-27 -199t-75.5 -179.5t-117 -152t-152 -117t-179.5 -75.5 t-199 -27t-199 27t-179.5 75.5t-152 117t-117 152t-75.5 179t-27 199.5q0 103 27 199t75.5 179.5t117 152t152 117t179 75.5t199.5 27z" unicode=""/>
<glyph glyph-name="round-warning" d="M813 602h-124l-25 493h175zM661 429q0 42 23 64t66 22q42 0 65.5 -22.5t23.5 -63.5t-23.5 -63.5t-65.5 -22.5q-43 0 -66 22t-23 64zM750 157q117 0 219 44t178.5 120.5t120.5 178.5t44 219t-44 219.5t-120.5 179t-178.5 120.5t-219 44t-219.5 -44t-179 -120.5 t-120.5 -179t-44 -219.5t44 -219t120.5 -178.5t179 -120.5t219.5 -44zM750 1469q103 0 199 -27t179.5 -75.5t152 -117t117 -152t75.5 -179.5t27 -199t-27 -199t-75.5 -179.5t-117 -152t-152 -117t-179.5 -75.5t-199 -27t-199 27t-179.5 75.5t-152 117t-117 152t-75.5 179 t-27 199.5q0 103 27 199t75.5 179.5t117 152t152 117t179 75.5t199.5 27z" unicode=""/>
<glyph glyph-name="round-warning-fill" d="M839 1095h-175l25 -493h124zM815 366q24 22 24 63q0 42 -24 63q-23 23 -65 23t-66 -22q-23 -23 -23 -64q0 -42 24 -64q22 -22 65 -22t65 23zM750 1469q103 0 199 -27t179.5 -75.5t152 -117t117 -152t75.5 -179.5t27 -199t-27 -199t-75.5 -179.5t-117 -152t-152 -117 t-179.5 -75.5t-199 -27t-199 27t-179.5 75.5t-152 117t-117 152t-75.5 179t-27 199.5q0 103 27 199t75.5 179.5t117 152t152 117t179 75.5t199.5 27z" unicode=""/>
<glyph glyph-name="warning" horiz-adv-x="1750" unicode="" d="M933 453h-114l-24 459h162zM793 293q0 40 22 60t60 20q39 0 60.5 -21t21.5 -59q0 -36 -20.5 -58t-61.5 -22q-39 0 -60.5 21t-21.5 59zM302 174h1146l-573 992zM1750 0h-1750l875 1515z"/>
<glyph glyph-name="warning-fill" horiz-adv-x="1750" unicode="" d="M938 236q22 24 22 59q0 38 -21.5 59t-60.5 21q-40 0 -61.5 -20t-21.5 -60q0 -38 21.5 -59t61.5 -21q39 0 60 21zM797 914l24 -459h115l24 459h-163zM1750 0h-1750l875 1516z"/>
<glyph glyph-name="round-info" d="M844 1003q0 -19 -7.5 -36t-20 -29.5t-30 -20t-36.5 -7.5q-20 0 -37 7.5t-29.5 20t-20 29.5t-7.5 36t7.5 36.5t20 30t29.5 20t37 7.5q19 0 36.5 -7.5t30 -20t20 -30t7.5 -36.5zM656 848h188v-494h-188v494zM750 163q117 0 219 44t178.5 120.5t120.5 179t44 218.5 q0 117 -44 219.5t-120.5 179t-178.5 120.5t-219 44t-219.5 -44t-179 -120.5t-120.5 -179t-44 -219.5q0 -116 44 -218.5t120.5 -179t179 -120.5t219.5 -44zM750 1475q103 0 199 -26.5t179.5 -75.5t152 -117.5t117 -151.5t75.5 -179t27 -200q0 -103 -27 -199t-75.5 -179.5 t-117 -152t-152 -117t-179.5 -75.5t-199 -27t-199 27t-179.5 75.5t-152 117t-117 152t-75.5 179t-27 199.5t27 200t75.5 179t117 151.5t152 117.5t179 75.5t199.5 26.5z" unicode=""/>
<glyph glyph-name="round-info-fill" d="M750 910q19 0 36.5 7.5t30 20t20 29.5t7.5 36t-7.5 36.5t-20 30t-30 20t-36.5 7.5q-20 0 -37 -7.5t-29.5 -20t-20 -30t-7.5 -36.5t7.5 -36t20 -29.5t29.5 -20t37 -7.5zM844 848h-188v-494h188v494zM750 1475q103 0 199 -26.5t179.5 -75.5t152 -117.5t117 -151.5 t75.5 -179t27 -200q0 -103 -27 -199t-75.5 -179.5t-117 -152t-152 -117t-179.5 -75.5t-199 -27t-199 27t-179.5 75.5t-152 117t-117 152t-75.5 179t-27 199.5t27 200t75.5 179t117 151.5t152 117.5t179 75.5t199.5 26.5z" unicode=""/>
<glyph glyph-name="round-notification" d="M854 682l226 -245l-167 -121l-163 290l-163 -290l-167 121l226 245l-327 65l64 196l303 -139l-39 331h206l-39 -331l303 139l64 -196zM750 163q117 0 219 44t178.5 120.5t120.5 179t44 218.5q0 117 -44 219.5t-120.5 179t-178.5 120.5t-219 44t-219.5 -44t-179 -120.5 t-120.5 -179t-44 -219.5q0 -116 44 -218.5t120.5 -179t179 -120.5t219.5 -44zM750 1475q103 0 199 -26.5t179.5 -75.5t152 -117.5t117 -151.5t75.5 -179t27 -200q0 -103 -27 -199t-75.5 -179.5t-117 -152t-152 -117t-179.5 -75.5t-199 -27t-199 27t-179.5 75.5t-152 117 t-117 152t-75.5 179t-27 199.5t27 200t75.5 179t117 151.5t152 117.5t179 75.5t199.5 26.5z" unicode=""/>
<glyph glyph-name="round-notification-fill" d="M854 682l327 65l-64 196l-303 -139l39 331h-206l39 -331l-303 139l-64 -196l327 -65l-226 -245l167 -121l163 290l163 -290l167 121zM750 1475q103 0 199 -26.5t179.5 -75.5t152 -117.5t117 -151.5t75.5 -179t27 -200q0 -103 -27 -199t-75.5 -179.5t-117 -152t-152 -117 t-179.5 -75.5t-199 -27t-199 27t-179.5 75.5t-152 117t-117 152t-75.5 179t-27 199.5t27 200t75.5 179t117 151.5t152 117.5t179 75.5t199.5 26.5z" unicode=""/>
<glyph glyph-name="round-plus" d="M750 162q117 0 219 44t178.5 120.5t120.5 179t44 219.5t-44 219t-120.5 178.5t-178.5 120.5t-219 44t-219.5 -44t-179 -120.5t-120.5 -178.5t-44 -219t44 -219.5t120.5 -179t179 -120.5t219.5 -44zM750 1475q103 0 199 -27t179.5 -75.5t152 -117t117 -152t75.5 -179.5 t27 -199t-27 -199t-75.5 -179.5t-117 -152t-152 -117t-179.5 -75.5t-199 -27t-199 27t-179.5 75.5t-152 117t-117 152t-75.5 179t-27 199.5q0 103 27 199t75.5 179.5t117 152t152 117t179 75.5t199.5 27zM1125 631h-281v-281h-188v281h-281v188h281v281h188v-281h281v-188z " unicode=""/>
<glyph glyph-name="round-plus-fill" d="M1125 819h-281v281h-188v-281h-281v-188h281v-281h188v281h281v188zM750 1475q103 0 199 -27t179.5 -75.5t152 -117t117 -152t75.5 -179.5t27 -199t-27 -199t-75.5 -179.5t-117 -152t-152 -117t-179.5 -75.5t-199 -27t-199 27t-179.5 75.5t-152 117t-117 152t-75.5 179 t-27 199.5q0 103 27 199t75.5 179.5t117 152t152 117t179 75.5t199.5 27z" unicode=""/>
<glyph glyph-name="round-minus" d="M750 162q117 0 219 44t178.5 120.5t120.5 179t44 219.5t-44 219t-120.5 178.5t-178.5 120.5t-219 44t-219.5 -44t-179 -120.5t-120.5 -178.5t-44 -219t44 -219.5t120.5 -179t179 -120.5t219.5 -44zM750 1475q103 0 199 -27t179.5 -75.5t152 -117t117 -152t75.5 -179.5 t27 -199t-27 -199t-75.5 -179.5t-117 -152t-152 -117t-179.5 -75.5t-199 -27t-199 27t-179.5 75.5t-152 117t-117 152t-75.5 179t-27 199.5q0 103 27 199t75.5 179.5t117 152t152 117t179 75.5t199.5 27zM375 631v188h750v-188h-750z" unicode=""/>
<glyph glyph-name="round-minus-fill" d="M1125 819h-750v-188h750v188zM750 1475q103 0 199 -27t179.5 -75.5t152 -117t117 -152t75.5 -179.5t27 -199t-27 -199t-75.5 -179.5t-117 -152t-152 -117t-179.5 -75.5t-199 -27t-199 27t-179.5 75.5t-152 117t-117 152t-75.5 179t-27 199.5q0 103 27 199t75.5 179.5 t117 152t152 117t179 75.5t199.5 27z" unicode=""/>
<glyph glyph-name="round-cross" d="M352 327q83 -83 186 -123.5t212 -40.5t212 40.5t186 123.5t123.5 186t40.5 212t-41 212t-123 186q-83 83 -186 123.5t-212 40.5t-212.5 -41t-185.5 -123q-83 -83 -123.5 -186t-40.5 -212t40.5 -212t123.5 -186zM1280 1255q110 -111 165 -248t55 -282t-55 -282.5 t-165 -247.5q-111 -111 -248 -165.5t-282 -54.5t-282.5 54.5t-247.5 164.5q-111 111 -165.5 248.5t-54.5 282.5t54.5 282t165.5 248q110 110 247.5 165t282.5 55t282 -55t248 -165zM949 394l-199 198l-199 -198l-132 132l198 199l-198 199l132 132l199 -198l199 198 l132 -132l-198 -199l198 -199z" unicode=""/>
<glyph glyph-name="round-cross-fill" d="M1081 526l-198 199l198 199l-132 132l-199 -198l-199 198l-132 -132l198 -199l-198 -199l132 -132l199 198l199 -198zM1280 1255q110 -111 165 -248t55 -282t-55 -282.5t-165 -247.5q-111 -111 -248 -165.5t-282 -54.5q-146 0 -282.5 54.5t-247.5 165.5t-165.5 247.5 t-54.5 282.5q0 145 54.5 282t165.5 248q110 110 247.5 165t282.5 55t282 -55t248 -165z" unicode=""/>
<glyph glyph-name="round-tick" d="M750 162q117 0 219 44t178.5 120.5t120.5 179t44 219.5t-44 219t-120.5 178.5t-178.5 120.5t-219 44t-219.5 -44t-179 -120.5t-120.5 -178.5t-44 -219t44 -219.5t120.5 -179t179 -120.5t219.5 -44zM750 1475q103 0 199 -27t179.5 -75.5t152 -117t117 -152t75.5 -179.5 t27 -199t-27 -199t-75.5 -179.5t-117 -152t-152 -117t-179.5 -75.5t-199 -27t-199 27t-179.5 75.5t-152 117t-117 152t-75.5 179t-27 199.5q0 103 27 199t75.5 179.5t117 152t152 117t179 75.5t199.5 27zM1172 880l-508 -506l-336 337l132 132l205 -205l375 375z" unicode=""/>
<glyph glyph-name="round-tick-fill" d="M1172 880l-132 133l-375 -375l-205 205l-132 -132l338 -337zM750 1475q103 0 199 -27t179.5 -75.5t152 -117t117 -152t75.5 -179.5t27 -199t-27 -199t-75.5 -179.5t-117 -152t-152 -117t-179.5 -75.5t-199 -27t-199 27t-179.5 75.5t-152 117t-117 152t-75.5 179 t-27 199.5q0 103 27 199t75.5 179.5t117 152t152 117t179 75.5t199.5 27z" unicode=""/>
<glyph glyph-name="new-object" horiz-adv-x="1782" unicode="" d="M907 944l-203 -117l-614 354l614 354l203 -120v-471zM1407 644v-327l-610 -352v699l391 226v-246h219zM610 -35l-610 352v700l610 -352v-700zM1782 1050h-281v-281h-188v281h-281v187h281v282h188v-282h281v-187z"/>
<glyph glyph-name="messages" horiz-adv-x="1750" unicode="" d="M562 376h-156l-219 -282v282h-187v1000h1500v-438h-938v-562zM750 751h1000v-750h-188v-219l-218 219h-594v750z"/>
<glyph glyph-name="message" d="M531 281l-344 -406v406h-187v1000h1500v-1000h-969z" unicode=""/>
<glyph glyph-name="bell" horiz-adv-x="1324" unicode="" d="M95 817q0 111 20.5 214.5t57 193t88.5 163.5t115 126.5t135.5 81.5t150.5 29t150.5 -29t135.5 -81.5t115 -126.5t88.5 -163.5t57 -193t20.5 -214.5q3 -136 14 -256q5 -51 12 -103.5t16.5 -99.5t22.5 -85t30 -61h-1324q15 26 27.5 66t22.5 87.5t17 99.5t12 102 q11 118 16 250zM662 -125q-42 0 -79 16t-64 43t-43 64t-16 79h404q0 -42 -16 -79t-43.5 -64t-64 -43t-78.5 -16z"/>
<glyph glyph-name="target" horiz-adv-x="1742" unicode="" d="M871 906q32 0 60.5 -12.5t49.5 -33.5t33.5 -49.5t12.5 -60.5t-12.5 -60.5t-33.5 -49.5t-49.5 -33.5t-60.5 -12.5t-60.5 12.5t-49.5 33.5t-33.5 49.5t-12.5 60.5t12.5 60.5t33.5 49.5t49.5 33.5t60.5 12.5zM965 196q88 15 165.5 55.5t138 101t101 138t55.5 165.5h-183v188 h183q-15 88 -55.5 165.5t-101 138t-138 101t-165.5 55.5v-183h-188v183q-88 -15 -165.5 -55.5t-138 -101t-101 -138t-55.5 -165.5h183v-188h-183q15 -88 55.5 -165.5t101 -138t138 -101t165.5 -55.5v183h188v-183zM1742 656h-127q-16 -127 -72 -238.5t-142 -197.5 t-197.5 -142t-238.5 -72v-127h-188v127q-127 16 -238.5 72t-197.5 142t-142 197.5t-72 238.5h-127v188h127q16 127 72 238.5t142 197.5t197.5 142t238.5 72v127h188v-127q127 -16 238.5 -72t197.5 -142t142 -197.5t72 -238.5h127v-188z"/>
<glyph glyph-name="checklist" horiz-adv-x="1187" unicode="" d="M875 1317h-563v188h194q-6 15 -6 31q0 19 7.5 36.5t20 30t29.5 20t37 7.5q39 0 66 -27.5t27 -66.5q0 -14 -5 -31h193v-188zM234 660l132 133l143 -143l312 312l133 -132l-444 -444zM1187 1370v-1500h-1187v1500h125v-1312h937v1312h125z"/>
<glyph glyph-name="hourglass" horiz-adv-x="1375" unicode="" d="M724 870q48 47 98 80t99 61q33 19 57 35t40 28q16 13 26 25t14 26h-741q3 -14 13 -26t26 -25q16 -12 41 -28q24 -16 57 -35q48 -28 98 -61t99 -80q22 -22 36 -56q16 35 37 56zM1187 1156q1 -52 -17 -90t-48 -66q-30 -30 -68 -54t-80 -48t-83 -52q-42 -28 -79 -65 q-13 -13 -19 -39t-6 -55t6 -55t19 -38q37 -36 79 -64q41 -28 83 -52t80 -49q38 -23 68 -53t48 -68t17 -89v-94h-1000v94q-1 51 17 89t48 68t68 53q38 24 80 48q42 23 84 51t78 65q14 13 20 39t6 56q0 29 -6 55t-19 38q-37 37 -79 65t-84 52t-80 48t-68 54t-48 66 q-18 38 -17 90v94h1000v-94zM1375 -125h-1375v125h1375v-125zM1375 1375h-1375v125h1375v-125z"/>
<glyph glyph-name="round-hourglass" d="M774 844q31 32 64.5 53.5t64.5 39.5q44 25 64.5 41t25.5 34h-486q5 -18 25.5 -34t64.5 -41q31 -18 64.5 -39.5t64.5 -53.5q15 -15 24 -36q9 21 24 36zM1078 1032q0 -51 -25 -82.5t-62 -55.5t-80 -48t-79 -60q-8 -8 -12.5 -25t-4.5 -36t4.5 -36t12.5 -25q36 -36 79 -60 t80 -48t62 -55.5t25 -82.5v-62h-656v62q0 51 25 82.5t62 55.5t80 48t79 60q8 8 12 25t4 36t-4 36t-12 25q-36 36 -79 60t-80 48t-62 55.5t-25 82.5v62h656v-62zM750 162q117 0 219 44t178.5 120.5t120.5 179t44 219.5t-44 219t-120.5 178.5t-178.5 120.5t-219 44t-219.5 -44 t-179 -120.5t-120.5 -178.5t-44 -219t44 -219.5t120.5 -179t179 -120.5t219.5 -44zM750 1475q103 0 199 -27t179.5 -75.5t152 -117t117 -152t75.5 -179.5t27 -199t-27 -199t-75.5 -179.5t-117 -152t-152 -117t-179.5 -75.5t-199 -27t-199 27t-179.5 75.5t-152 117t-117 152 t-75.5 179t-27 199.5q0 103 27 199t75.5 179.5t117 152t152 117t179 75.5t199.5 27z" unicode=""/>
<glyph glyph-name="power-off" d="M844 372h-188v706h188v-706zM750 163q117 0 219 44t178.5 120.5t120.5 179t44 218.5q0 117 -44 219.5t-120.5 179t-178.5 120.5t-219 44t-219.5 -44t-179 -120.5t-120.5 -179t-44 -219.5q0 -116 44 -218.5t120.5 -179t179 -120.5t219.5 -44zM750 1475q103 0 199 -26.5 t179.5 -75.5t152 -117.5t117 -151.5t75.5 -179t27 -200q0 -103 -27 -199t-75.5 -179.5t-117 -152t-152 -117t-179.5 -75.5t-199 -27t-199 27t-179.5 75.5t-152 117t-117 152t-75.5 179t-27 199.5t27 200t75.5 179t117 151.5t152 117.5t179 75.5t199.5 26.5z" unicode=""/>
<glyph glyph-name="world" d="M974 212q146 63 229.5 176t104.5 273q1 6 2.5 13.5t1.5 14t-3 12t-12 8.5q-16 5 -24 -7t-15 -24q-4 -7 -5.5 -15.5t-10.5 -6.5q-5 1 -10 8.5t-7 14.5q-11 50 -43.5 73t-77.5 32q-5 1 -10 4.5t-9.5 5t-9 0.5t-8.5 -9q-7 -13 0 -23.5t20 -14.5q16 -5 21 -10.5t3 -11.5 t-8.5 -12t-12.5 -12q-20 -19 -36.5 -22.5t-30.5 3t-26 21t-23 32.5l2 -34t5.5 -31.5t15 -26t31.5 -17.5q17 -5 23 -11t5 -13t-7.5 -14t-14.5 -13q-17 -12 -32.5 -26t-15.5 -34q1 -30 -9.5 -53t-26.5 -42t-35 -36.5t-34 -36.5q-21 -26 -49 -19.5t-45 38.5q-11 22 -13.5 44.5 t-2.5 46.5q-1 34 -7 57.5t-20.5 38t-37 21t-56.5 8.5q-39 1 -68 25q-48 37 -48 89q0 18 6 38q14 47 44 80t78 47q9 3 20 6.5t21.5 5t19.5 -1t15 -11.5q17 -27 38.5 -36.5t45 -10.5t47.5 1t46 -3q10 -2 21.5 0t14.5 16q2 11 -2.5 21t-16.5 15q-4 2 -10 3t-10.5 3.5t-7 6 t-0.5 11.5q2 7 6.5 10t10.5 3.5t13 0.5h13t13.5 -0.5t13.5 0.5t11 5.5t7 14.5q1 9 -2 15t-8.5 9.5t-12.5 5.5t-13 5q-23 12 -42.5 9t-33.5 -31q-3 -6 -7 -13.5t-9.5 -12t-11 -5.5t-11.5 7q-18 25 -37 32.5t-39 5.5t-40 -9.5t-39 -13.5q-20 -6 -23.5 1.5t-6.5 21.5 q-3 16 4.5 33t21 31t32 22t37.5 7q7 -1 13 -1q51 0 84 42q3 3 7 6t6.5 6t3 7t-4.5 9q-9 10 -19.5 19.5t-22.5 13.5q-8 3 -13 -7.5t-6 -19.5q-1 -15 -7 -23.5t-22 -3.5l-25.5 8.5t-17.5 12.5q-2 5 1 8.5t8 6.5t10.5 5.5t8.5 7.5q14 19 32.5 23t39.5 3q32 -1 64 -1l40 1h88 q10 0 22 0.5t15 13.5q4 14 -5.5 21.5t-20.5 14.5q-62 39 -136 56t-147 17q-8 0 -52.5 -1t-122 -23t-136.5 -63q-11 -8 -19 -14.5t-11.5 -14t-1 -17t12.5 -22.5q4 -5 -1.5 -22.5t-16 -36.5t-22 -34.5t-18.5 -16.5q-14 -3 -19 11q-8 25 -15 36t-12.5 11.5t-10.5 -6.5 t-9.5 -16.5t-8.5 -19t-8 -13.5q-10 -11 -12.5 -22.5t-0.5 -23.5t6.5 -24t8.5 -23q5 -15 5 -28q0 -29 -29 -45q-19 -10 -31 -23.5t-19 -30t-10 -34.5t-5 -37q-2 -15 -2 -29q0 -36 13 -71.5t39.5 -69.5t59.5 -64t65 -60q22 -21 30 -39t-8 -43q-19 -28 -12.5 -46.5t32.5 -35.5 q134 -93 220.5 -104t118.5 -11q112 0 229 51zM750 1475q103 0 199 -27t179.5 -75.5t152 -117t117 -152t75.5 -179.5t27 -199q0 -104 -27 -200t-75.5 -179t-117 -151.5t-152 -117.5t-179.5 -75.5t-199 -26.5t-199 26.5t-179.5 75.5t-152 117.5t-117 151.5t-75.5 179t-27 200 q0 103 27 199t75.5 179.5t117 152t152 117t179 75.5t199.5 27z" unicode=""/>
<glyph glyph-name="lock" horiz-adv-x="1250" unicode="" d="M903 1155q0 55 -22 104t-60 85.5t-88.5 58t-107.5 21.5t-107.5 -21.5t-88.5 -58t-60 -85.5t-22 -104v-201h556v201zM656 329q28 10 45.5 33.5t17.5 54.5q0 19 -7.5 36.5t-20 30t-30 20t-36.5 7.5q-20 0 -37 -7.5t-29.5 -20t-20 -30t-7.5 -36.5q0 -31 17.5 -54.5 t45.5 -33.5v-162h62v162zM1250 954v-954h-1250v954h139v201q0 96 38.5 181.5t105 149.5t155 101.5t187.5 37.5t187 -37.5t154.5 -101.5t105.5 -149.5t39 -181.5v-201h139z"/>
<glyph glyph-name="unlock" horiz-adv-x="1250" unicode="" d="M821 1345q-82 79 -196 79q-57 0 -107.5 -21.5t-88.5 -58t-60 -85.5t-22 -104v-201h903v-954h-1250v954h139v201q0 96 38.5 181.5t105 149.5t155 101.5t187.5 37.5q199 0 343 -138zM656 329q28 10 45.5 33.5t17.5 54.5q0 19 -7.5 36.5t-20 30t-30 20t-36.5 7.5 q-20 0 -37 -7.5t-29.5 -20t-20 -30t-7.5 -36.5q0 -31 17.5 -54.5t45.5 -33.5v-162h62v162z"/>
<glyph glyph-name="key" horiz-adv-x="1528" unicode="" d="M225 1047q20 -20 45 -30.5t52 -10.5t51.5 10.5t43 29t29.5 43t11 53.5q0 28 -10.5 53t-29 43.5t-43 29t-52.5 10.5t-53 -11.5t-43.5 -30.5t-29 -43.5t-10.5 -51.5q0 -26 9.5 -50t29.5 -44zM1488 12q-13 -13 -26 -24q-12 -9 -26.5 -16.5t-28.5 -7.5h-103l-9 3 q-65 0 -65 60q0 9 1.5 19.5t1.5 21.5q0 35 -14 54t-38 19q-14 0 -29 -3.5t-28 -3.5q-32 0 -50 16.5t-18 67.5q0 13 -5 26t-14 23t-20 16.5t-23 6.5l-19 -1q-20 0 -36.5 7.5t-29.5 20.5t-20 30t-7 37q0 17 5 34t5 34q0 12 -7 25.5t-17.5 24.5t-24.5 18t-27 7l-66 -13 q-48 0 -79 47q-16 23 -44.5 38.5t-57.5 15.5q-12 0 -24 -3q-29 -8 -57.5 -12t-57.5 -4q-83 0 -160.5 32.5t-137.5 90.5t-96 137.5t-36 173.5q0 79 31.5 157t88.5 139t136 99t174 38q93 0 172.5 -36t138.5 -96t92.5 -138t33.5 -162q0 -68 -21 -135q-1 -3 -1.5 -5.5t-0.5 -5.5 q0 -20 14 -41t27 -34q37 -38 83 -83.5t95.5 -94.5t100.5 -99.5t98 -97.5q111 -110 226 -224l40 -160l-677 678l-40 -39z"/>
<glyph glyph-name="object" horiz-adv-x="1407" unicode="" d="M1407 980v-700l-610 -352v700zM90 1145l614 354l613 -355l-613 -354zM610 -72l-610 352v700l610 -352v-700z"/>
<glyph glyph-name="mobile" horiz-adv-x="906" unicode="" d="M781 1441h-656v-1250h656v1250zM453 -28q19 0 36.5 7.5t30 20t20 29.5t7.5 36t-7.5 36.5t-20 30t-30 20t-36.5 7.5q-20 0 -37 -7.5t-29.5 -20t-20 -30t-7.5 -36.5t7.5 -36t20 -29.5t29.5 -20t37 -7.5zM843 1562q26 0 44.5 -18t18.5 -44v-1500q0 -26 -18.5 -44t-44.5 -18 h-780q-26 0 -44.5 18t-18.5 44v1500q0 26 18.5 44t44.5 18h780z"/>
<glyph glyph-name="tablet" d="M1378 1203h-1258v-838h1258v838zM750 203q26 0 44 18.5t18 44.5t-18 44t-44 18t-44.5 -18t-18.5 -44t18.5 -44.5t44.5 -18.5zM1437 1328q26 0 44.5 -18t18.5 -44v-1032q0 -26 -18.5 -44t-44.5 -18h-1375q-26 0 -44 18t-18 44v1032q0 26 18 44t44 18h1375z" unicode=""/>
<glyph glyph-name="laptop" horiz-adv-x="1750" unicode="" d="M1500 1172h-1250v-797h1250v797zM1750 375q-2 -26 -13 -59t-28 -61.5t-40 -48t-49 -19.5h-1490q-26 0 -49 19.5t-40 48t-28 61.5t-13 59h125v875q0 26 18 44t44 18h1375q26 0 44.5 -18t18.5 -44v-875h125z"/>
<glyph glyph-name="tv" horiz-adv-x="1750" unicode="" d="M1375 -41h-1000v187h1000v-187zM1625 1219h-1500v-844h1500v844zM1688 1360q26 0 44 -18.5t18 -44.5v-1000q0 -26 -18 -44t-44 -18h-1625q-26 0 -44.5 18t-18.5 44v1000q0 26 18.5 44.5t44.5 18.5h1625z"/>
<glyph glyph-name="play" horiz-adv-x="1191" unicode="" d="M0 1381l1191 -687l-1191 -688v1375z"/>
<glyph glyph-name="contract" horiz-adv-x="1337" unicode="" d="M794 750q0 -26 -10 -48.5t-27 -39.5t-39.5 -27t-48.5 -10t-48.5 10t-39.5 27t-27 39.5t-10 48.5t10 48.5t27 39.5t39.5 27t48.5 10t48.5 -10t39.5 -27t27 -39.5t10 -48.5zM269 483l-90 90h313v-312l-90 90l-269 -270l-133 133zM1068 1017l90 -90h-313v312l90 -90l270 270 l132 -133z"/>
<glyph glyph-name="expand" horiz-adv-x="1281" unicode="" d="M766 750q0 -26 -10 -48.5t-27 -39.5t-39.5 -27t-48.5 -10t-48.5 10t-39.5 27t-27 39.5t-10 48.5t10 48.5t27 39.5t39.5 27t48.5 10t48.5 -10t39.5 -27t27 -39.5t10 -48.5zM223 199l89 -90h-312v313l90 -90l275 275q21 -43 54.5 -77t77.5 -56zM1059 1301l-90 90h312v-313 l-90 90l-274 -275q-23 44 -56 77.5t-77 55.5z"/>
<glyph glyph-name="dice" horiz-adv-x="1375" unicode="" d="M1075 969q39 0 73 14.5t59.5 40t40.5 59.5t15 73t-15 73t-40.5 59.5t-59.5 40.5t-73 15t-73 -15t-59.5 -40.5t-40 -59.5t-14.5 -73t14.5 -73t40 -59.5t59.5 -40t73 -14.5zM1075 156q39 0 73 14.5t59.5 40t40.5 60t15 73.5t-15 73t-40.5 59.5t-59.5 40t-73 14.5t-73 -14.5 t-59.5 -40t-40 -59.5t-14.5 -73t14.5 -73.5t40 -60t59.5 -40t73 -14.5zM687 562q39 0 73 15t59.5 40.5t40.5 59.5t15 73t-15 73t-40.5 59.5t-59.5 40t-73 14.5t-73 -14.5t-59.5 -40t-40 -59.5t-14.5 -73t14.5 -73t40 -59.5t59.5 -40.5t73 -15zM299 969q39 0 73 14.5t59.5 40 t40.5 59.5t15 73t-15 73t-40.5 59.5t-59.5 40.5t-73 15t-73 -15t-59.5 -40.5t-40 -59.5t-14.5 -73t14.5 -73t40 -59.5t59.5 -40t73 -14.5zM299 156q39 0 73 14.5t59.5 40t40.5 60t15 73.5t-15 73t-40.5 59.5t-59.5 40t-73 14.5t-73 -14.5t-59.5 -40t-40 -59.5t-14.5 -73 t14.5 -73.5t40 -60t59.5 -40t73 -14.5zM1250 1437q26 0 48.5 -9.5t39.5 -26.5t27 -40t10 -49v-1125q0 -26 -10 -48.5t-27 -39.5t-39.5 -27t-48.5 -10h-1125q-26 0 -48.5 10t-39.5 27t-27 39.5t-10 48.5v1125q0 26 10 49t27 40t39.5 26.5t48.5 9.5h1125z"/>
<glyph glyph-name="point" d="M1149 1123h-93q-29 -26 -53 -46t-48 -35t-51.5 -26.5t-64.5 -20.5v-86h67q19 -2 32 -6.5t20.5 -13.5t10.5 -23.5t3 -36.5v-452h177v746zM745 750h-188v187h-125v-187h-187v-125h187v-188h125v188h188v125zM748 1500q103 0 199 -26.5t179.5 -75t152.5 -117t118 -151.5 t76 -178.5t27 -199.5q0 -103 -26.5 -199t-75 -179.5t-117 -152.5t-151.5 -118t-178.5 -76t-199.5 -27q-103 0 -199 26.5t-179.5 75t-152.5 117t-118 151.5t-76 178.5t-27 199.5q0 103 26.5 199t75 179.5t117 152.5t151.5 118t178.5 76t199.5 27z" unicode=""/>
<glyph glyph-name="set" d="M1162 557q0 -39 -14.5 -73t-40 -59.5t-59.5 -40t-73 -14.5t-73.5 14.5t-60 40t-40 59.5t-14.5 73t14.5 73t40 59.5t60 40.5t73.5 15t73 -15t59.5 -40.5t40 -59.5t14.5 -73zM713 565q0 -39 -15 -73t-40.5 -59.5t-59.5 -40t-73 -14.5t-73 14.5t-59.5 40t-40 59.5t-14.5 73 t14.5 73t40 59.5t59.5 40.5t73 15t73 -15t59.5 -40.5t40.5 -59.5t15 -73zM937 999q0 -39 -14.5 -73t-40 -59.5t-59.5 -40.5t-73 -15t-73.5 15t-60 40.5t-40 59.5t-14.5 73t14.5 73t40 59.5t60 40t73.5 14.5t73 -14.5t59.5 -40t40 -59.5t14.5 -73zM750 187q117 0 219 44 t178.5 120.5t120.5 179t44 219.5t-44 219t-120.5 178.5t-178.5 120.5t-219 44t-219.5 -44t-179 -120.5t-120.5 -178.5t-44 -219t44 -219.5t120.5 -179t179 -120.5t219.5 -44zM750 1500q103 0 199 -27t179.5 -75.5t152 -117t117 -152t75.5 -179.5t27 -199t-27 -199 t-75.5 -179.5t-117 -152t-152 -117t-179.5 -75.5t-199 -27t-199 27t-179.5 75.5t-152 117t-117 152t-75.5 179t-27 199.5q0 103 27 199t75.5 179.5t117 152t152 117t179 75.5t199.5 27z" unicode=""/>
<glyph glyph-name="state" horiz-adv-x="1375" unicode="" d="M1179 1250h-992v-992zM1375 1437v-1375h-1375v1375h1375z"/>
<glyph glyph-name="badge" horiz-adv-x="1352" unicode="" d="M1113 848l-291 58l-146 260l-146 -260l-292 -58l202 -218l-34 -296l270 124l270 -124l-35 296zM1312 1279q19 -78 29.5 -159t10.5 -167q0 -132 -23.5 -255t-66.5 -231t-103.5 -198t-134.5 -157.5t-160 -109.5t-179 -52h-18q-93 10 -179 52t-160 109.5t-134.5 157.5 t-103.5 198t-66.5 231t-23.5 255q0 86 10 167t30 159q40 -6 83 -6q83 0 160.5 19t147 53.5t129 84t107.5 109.5l9 11l9 -11q48 -60 107.5 -109.5t128.5 -84t146.5 -53.5t160.5 -19q43 0 84 6z"/>
<glyph glyph-name="star" horiz-adv-x="1545" unicode="" d="M773 1485l257 -459l515 -103l-356 -386l61 -522l-477 220l-478 -220l62 522l-357 386l516 103z"/>
<glyph glyph-name="star-hollow" horiz-adv-x="1546" unicode="" d="M1100 222l-42 358l245 264l-354 71l-176 314l-176 -314l-354 -71l245 -264l-42 -358l327 150zM1189 537l62 -522l-478 220l-478 -220l62 522l-357 386l516 103l257 459l257 -459l516 -103z"/>
<glyph glyph-name="circle-hollow" d="M750 187q117 0 219 44t178.5 120.5t120.5 179t44 219.5t-44 219t-120.5 178.5t-178.5 120.5t-219 44t-219.5 -44t-179 -120.5t-120.5 -178.5t-44 -219t44 -219.5t120.5 -179t179 -120.5t219.5 -44zM750 1500q103 0 199 -27t179.5 -75.5t152 -117t117 -152t75.5 -179.5 t27 -199t-27 -199t-75.5 -179.5t-117 -152t-152 -117t-179.5 -75.5t-199 -27t-199 27t-179.5 75.5t-152 117t-117 152t-75.5 179t-27 199.5q0 103 27 199t75.5 179.5t117 152t152 117t179 75.5t199.5 27z" unicode=""/>
<glyph glyph-name="circle-fill" d="M750 1500q103 0 199 -27t179.5 -75.5t152 -117t117 -152t75.5 -179.5t27 -199t-27 -199t-75.5 -179.5t-117 -152t-152 -117t-179.5 -75.5t-199 -27t-199 27t-179.5 75.5t-152 117t-117 152t-75.5 179t-27 199.5q0 103 27 199t75.5 179.5t117 152t152 117t179 75.5 t199.5 27z" unicode=""/>
<glyph glyph-name="circle-half-pre" d="M750 1312q-117 0 -219.5 -44t-179 -120.5t-120.5 -178.5t-44 -219t44 -219.5t120.5 -179t179 -120.5t219.5 -44v1125zM750 1500q103 0 199 -27t179.5 -75.5t152 -117t117 -152t75.5 -179.5t27 -199t-27 -199t-75.5 -179.5t-117 -152t-152 -117t-179.5 -75.5t-199 -27 t-199 27t-179.5 75.5t-152 117t-117 152t-75.5 179t-27 199.5q0 103 27 199t75.5 179.5t117 152t152 117t179 75.5t199.5 27z" unicode=""/>
<glyph glyph-name="circle-half-post" d="M750 187q117 0 219 44t178.5 120.5t120.5 179t44 219.5t-44 219t-120.5 178.5t-178.5 120.5t-219 44v-1125zM750 0q-103 0 -199 27t-179.5 75.5t-152 117t-117 152t-75.5 179t-27 199.5q0 103 27 199t75.5 179.5t117 152t152 117t179 75.5t199.5 27q103 0 199 -27 t179.5 -75.5t152 -117t117 -152t75.5 -179.5t27 -199t-27 -199t-75.5 -179.5t-117 -152t-152 -117t-179.5 -75.5t-199 -27z" unicode=""/>
<glyph glyph-name="token" d="M750 187q116 0 218.5 44.5t179 121t120.5 179t44 218.5t-44 218.5t-120.5 179t-179 120.5t-218.5 44t-218.5 -44t-179 -120.5t-121 -179t-44.5 -218.5t44.5 -218.5t121 -179t179 -121t218.5 -44.5zM750 1500q103 0 199 -27t179.5 -75.5t152 -117t117 -152t75.5 -179.5 t27 -199t-27 -199t-75.5 -179.5t-117 -152t-152 -117t-179.5 -75.5t-199 -27t-199 27t-179.5 75.5t-152 117t-117 152t-75.5 179t-27 199.5q0 103 27 199t75.5 179.5t117 152t152 117t179 75.5t199.5 27zM750 1125q78 0 146 -29.5t119 -80.5t80.5 -119t29.5 -146t-29.5 -146 t-80.5 -119t-119 -80.5t-146 -29.5t-146 29.5t-119 80.5t-80.5 119t-29.5 146t29.5 146t80.5 119t119 80.5t146 29.5z" unicode=""/>
<glyph glyph-name="code" d="M263 801l298 -305v-257l-561 560l561 564v-250zM1237 801l-298 305v258l561 -561l-561 -564v257z" unicode=""/>
<glyph glyph-name="user-plus" horiz-adv-x="1850" unicode="" d="M1256 118v-139q-35 12 -73 19t-78 7h-860q-67 1 -129 -17t-116 -50v316q0 84 26 160t71 139q46 63 109 109t138 73q63 -65 148 -103t183 -38t183 38t148 103q76 -26 140 -70t110 -109h-281v-438h281zM1850 431v-188h-281v-281h-188v281h-281v188h281v281h188v-281h281z M1083 1154q0 -84 -32 -158q-31 -74 -87 -130t-130 -88t-159 -32t-159 32t-130 88t-87 130q-32 74 -32 158t32 158q31 74 87 130t130 88t159 32t159 -32t130 -88t87 -130q32 -74 32 -158z"/>
<glyph glyph-name="user-minus" horiz-adv-x="1850" unicode="" d="M1256 118v-139q-35 12 -73 19t-78 7h-860q-67 1 -129 -17t-116 -50v316q0 84 26 160t71 139q46 63 109 109t138 73q63 -65 148 -103t183 -38t183 38t148 103q76 -26 140 -70t110 -109h-281v-438h281zM1850 243h-750v188h750v-188zM1083 1154q0 -84 -32 -158 q-31 -74 -87 -130t-130 -88t-159 -32t-159 32t-130 88t-87 130q-32 74 -32 158t32 158q31 74 87 130t130 88t159 32t159 -32t130 -88t87 -130q32 -74 32 -158z"/>
<glyph glyph-name="team" horiz-adv-x="1887" unicode="" d="M481 913q0 -69 20.5 -130.5t56.5 -115.5q-33 -16 -62.5 -36.5t-55.5 -43.5h-282q-44 0 -83.5 -11t-74.5 -31v197q0 52 16.5 99.5t46 86.5t70.5 68.5t89 45.5q41 -41 95.5 -65t118.5 -24q12 0 24 1.5t24 3.5q-3 -21 -3 -45zM1665 1042q48 -16 89 -45.5t70.5 -68.5 t46 -86.5t16.5 -99.5v-197q-35 20 -75 31t-83 11h-282q-26 23 -55.5 43.5t-62.5 36.5q36 54 56 115.5t20 130.5q0 12 -0.5 23t-1.5 22q12 -2 24 -3.5t24 -1.5q63 0 118 24t96 65zM698 1294q-67 -41 -116 -101t-75 -134q-17 -5 -35 -7.5t-36 -2.5q-55 0 -103 20t-84 54.5 t-56.5 80.5t-20.5 99q0 52 20.5 98.5t56.5 81t84 54.5t103 20q54 0 102 -20t84 -54.5t56.5 -81t20.5 -98.5zM1451 1557q54 0 102 -20t84 -54.5t56.5 -81t20.5 -98.5q0 -53 -20.5 -99t-56.5 -80.5t-84 -54.5t-102 -20q-19 0 -36.5 2.5t-34.5 7.5q-26 74 -75.5 134t-115.5 102 q0 2 -0.5 4t-0.5 4q0 52 20.5 98.5t56.5 81t84 54.5t102 20zM588 -4q-56 0 -106.5 -13.5t-95.5 -39.5v252q0 67 21 127.5t59 110.5t90 87.5t114 58.5q52 -52 122 -82.5t151 -30.5t151.5 30.5t122.5 82.5q62 -21 114 -58.5t90 -87.5t59 -110.5t21 -127.5v-252 q-45 26 -95.5 39.5t-106.5 13.5h-711zM1280 913q0 -67 -26.5 -126t-72.5 -103.5t-107 -70t-131 -25.5t-131.5 25.5t-107 70t-72 103.5t-26.5 126t26.5 126.5t72 104t107 70t131.5 25.5t131 -25.5t107 -70t72.5 -104t26.5 -126.5z"/>
<glyph glyph-name="process" horiz-adv-x="1423" unicode="" d="M928 1237q102 0 192.5 -39t157.5 -106t106 -157.5t39 -192.5t-39 -192.5t-106 -157.5t-157.5 -106t-192.5 -39q-83 0 -157 26t-136 71l-268 -268q8 -27 8 -53q0 -39 -15 -73t-40.5 -59.5t-59.5 -40t-73 -14.5t-73 14.5t-59.5 40t-40 59.5t-14.5 73t14.5 73t40 59.5 t59.5 40.5t73 15q23 0 44 -6l276 277q-35 57 -54.5 122.5t-19.5 137.5q0 81 24 153t67 133l-267 267q-21 -6 -43 -6q-39 0 -73.5 14.5t-60 40t-40 60t-14.5 73.5t14.5 73t40 59.5t60 40t73.5 14.5t73 -14.5t59.5 -40t40 -59.5t14.5 -73q0 -26 -8 -53l267 -266 q58 38 125.5 58.5t142.5 20.5z"/>
<glyph glyph-name="subprocess" horiz-adv-x="1750" unicode="" d="M984 976q46 0 86 -17.5t70 -47.5t47.5 -70t17.5 -86q0 -45 -17.5 -85t-47.5 -70t-70 -47.5t-86 -17.5q-37 0 -70 11.5t-60 31.5l-120 -119q4 -9 4 -23q0 -18 -6.5 -33t-18 -26.5t-26.5 -18t-32 -6.5t-32.5 6.5t-27 18t-18 26.5t-6.5 33q0 35 24.5 59t59.5 24 q5 0 9.5 -0.5t9.5 -1.5l123 123q-16 25 -24.5 54t-8.5 61q0 36 10.5 68.5t30.5 59.5l-119 118q-5 -1 -10 -1.5t-10 -0.5q-35 0 -59 24t-24 59q0 18 6.5 33t17.5 26.5t26.5 18t32.5 6.5t32.5 -6.5t27 -18t18 -26.5t6.5 -33q0 -6 -1 -11.5t-3 -11.5l119 -119q53 36 119 36z M1092 227q81 34 146 89t110 123.5t69 148t24 162.5q0 85 -22.5 160t-61.5 137.5t-93 112.5t-117 84.5t-132.5 53t-140.5 18.5q-84 0 -159 -22.5t-137.5 -61.5t-112.5 -93t-84.5 -117t-53 -132.5t-18.5 -140.5q0 -127 48.5 -231t128 -178.5t181.5 -115t209 -40.5 q54 0 108 10.5t108 32.5zM1497 1008q7 -16 12.5 -31.5t10.5 -31.5l222 -79q4 -29 6 -58.5t2 -58.5t-2 -57.5t-6 -57.5l-222 -79q-20 -65 -51 -123l101 -213q-69 -92 -164 -164l-213 101q-29 -15 -60.5 -27.5t-62.5 -23.5l-79 -222q-29 -5 -58.5 -6.5t-58.5 -1.5t-57.5 1.5 t-57.5 6.5l-79 222q-65 19 -123 51l-213 -101q-92 69 -164 164l101 213q-15 29 -27.5 60t-23.5 63l-222 79q-5 29 -6.5 58.5t-1.5 58.5t1.5 57.5t6.5 57.5l222 79q19 64 51 123l-101 213q69 92 164 164l213 -101q29 15 60 27.5t63 23.5l79 222q29 4 58.5 6t58.5 2t57.5 -2 t57.5 -6l79 -222q64 -20 123 -51l213 101q92 -69 164 -164l-101 -213q8 -14 15 -29t13 -31z"/>
<glyph glyph-name="node-plus" horiz-adv-x="1422" unicode="" d="M1209 844h-188v187h-187v-187h-188v-188h188v-187h187v187h188v188zM928 1245q102 0 192 -39t157 -106t106 -157.5t39 -192.5t-39 -192.5t-106 -157.5t-157 -106t-192 -39q-83 0 -157.5 26t-136.5 71l-268 -268q4 -13 6.5 -26t2.5 -27q0 -39 -15 -73t-40.5 -59.5 t-59.5 -40t-73 -14.5t-73 14.5t-59.5 40t-40 59.5t-14.5 73t14.5 73t40 59.5t59.5 40.5t73 15q22 0 43 -6l277 277q-35 57 -54.5 122.5t-19.5 137.5q0 80 24 152.5t67 133.5l-267 266q-23 -5 -44 -5q-39 0 -73 14.5t-59.5 40t-40 59.5t-14.5 73t14.5 73t40 59.5t59.5 40.5 t73 15t73 -15t59.5 -40.5t40.5 -59.5t15 -73q0 -14 -2.5 -26.5t-5.5 -25.5l266 -267q59 38 126.5 59t142.5 21z"/>
<glyph glyph-name="node-cross" horiz-adv-x="1422" unicode="" d="M1060 742l133 133l-133 132l-132 -132l-133 132l-133 -132l133 -133l-133 -132l133 -133l133 133l132 -133l133 133zM928 1237q102 0 192 -39t157 -106t106 -157.5t39 -192.5t-39 -192.5t-106 -157.5t-157 -106t-192 -39q-83 0 -157.5 26t-136.5 71l-268 -268 q4 -13 6.5 -26t2.5 -27q0 -39 -15 -73t-40.5 -59.5t-59.5 -40t-73 -14.5t-73 14.5t-59.5 40t-40 59.5t-14.5 73t14.5 73t40 59.5t59.5 40.5t73 15q22 0 43 -6l277 277q-35 57 -54.5 122.5t-19.5 137.5q0 81 24 153t67 133l-267 267q-21 -6 -44 -6q-39 0 -73 14.5t-59.5 40 t-40 60t-14.5 73.5t14.5 73t40 59.5t59.5 40t73 14.5t73 -14.5t59.5 -40t40.5 -59.5t15 -73q0 -14 -2.5 -27t-5.5 -26l266 -266q59 38 126.5 58.5t142.5 20.5z"/>
<glyph glyph-name="node-minus" horiz-adv-x="1422" unicode="" d="M1209 836h-563v-188h563v188zM928 1237q102 0 192 -39t157 -106t106 -157.5t39 -192.5t-39 -192.5t-106 -157.5t-157 -106t-192 -39q-83 0 -157.5 26t-136.5 71l-268 -268q4 -13 6.5 -26t2.5 -27q0 -39 -15 -73t-40.5 -59.5t-59.5 -40t-73 -14.5t-73 14.5t-59.5 40 t-40 59.5t-14.5 73t14.5 73t40 59.5t59.5 40.5t73 15q22 0 43 -6l277 277q-35 57 -54.5 122.5t-19.5 137.5q0 81 24 153t67 133l-267 267q-21 -6 -44 -6q-39 0 -73 14.5t-59.5 40t-40 60t-14.5 73.5t14.5 73t40 59.5t59.5 40t73 14.5t73 -14.5t59.5 -40t40.5 -59.5t15 -73 q0 -14 -2.5 -27t-5.5 -26l266 -266q59 38 126.5 58.5t142.5 20.5z"/>
<glyph glyph-name="task" horiz-adv-x="1782" unicode="" d="M388 301q13 -14 38.5 -27t55 -24.5t59 -22t51.5 -18.5q-26 -48 -64 -90t-76 -74t-69.5 -50.5t-44.5 -18.5q-20 0 -44.5 8.5t-52 23t-56 32.5t-55.5 37q-63 45 -130 102l50 107q52 -43 99 -76q20 -14 40.5 -28t40 -24.5t36 -17t27.5 -6.5q12 0 23.5 13t23 35.5t23.5 53 t25 65.5zM1782 1003q-60 -88 -110 -158q-21 -30 -42.5 -59t-39.5 -52t-31 -38t-18 -17q-9 -3 -21 -3q-25 0 -61.5 11.5t-76 29.5t-79.5 39t-73 39q6 14 14 34.5t16 43t15 45t12 39.5q28 -16 56.5 -37.5t54 -40.5t46.5 -32t35 -13q10 0 29 16t40.5 40.5t44 53t41 52.5 t30.5 40l11 16zM1212 989q-17 -72 -41.5 -121t-53 -82t-59.5 -54t-61 -36.5t-57 -29t-47.5 -32.5t-32.5 -46t-12 -69q0 -17 1.5 -35.5t6.5 -40.5q25 -12 55.5 -32.5t62 -43.5t61.5 -48t54.5 -47t40.5 -39t19 -25q1 -3 1 -10q0 -13 -6.5 -33.5t-17.5 -45.5t-25 -52.5 t-29 -54.5q-34 -63 -78 -135l-106 49q29 40 53 79q10 16 20 34t17.5 35t12 33t4.5 29q0 5 -2 15q-2 4 -21 14t-45 22t-54.5 24t-49.5 21q-53 18 -115.5 34t-119.5 36t-100 46.5t-57 64.5q-10 27 -10 65q0 61 25.5 135.5t66 151t90.5 148.5t100 128q-12 12 -28.5 27.5 t-33.5 29.5t-33 23.5t-27 9.5q-8 0 -33.5 -22.5t-59 -56t-70.5 -72.5t-68 -73t-51 -57.5t-20 -25.5l-106 49q89 113 162 203q31 38 61.5 75t56 66.5t43 48t22.5 20.5q8 2 15 2q16 0 38.5 -6t48.5 -16.5t54 -23.5t55 -26q63 -32 134 -71q17 -2 25.5 -14t19 -28t26.5 -35 t49.5 -35.5t88 -28.5t140.5 -15zM1313 1182q-25 -54 -73 -83.5t-104 -29.5q-44 0 -80 16.5t-62 44t-40.5 63t-14.5 72.5q0 44 17 80t44.5 62t62.5 40t72 14q44 0 80 -17t62 -44.5t40 -63t14 -72.5q0 -42 -18 -82z"/>
<glyph glyph-name="gateway-exclusive" horiz-adv-x="1054" unicode="" d="M1054 1187h-84v-579q0 -73 -26.5 -138t-72 -115t-107.5 -81.5t-133 -38.5v-235h-187v235q-71 7 -133 38.5t-108 81.5t-72 115t-26 138v152h187v-152q0 -39 15 -73.5t40.5 -60t59.5 -40t73 -14.5h115q39 0 73 14.5t59.5 40t40 60t14.5 73.5v579h-89l181 313zM199 1015 l-111 -111l-88 88l110 111l-110 110l88 89l111 -111l110 111l89 -89l-111 -110l111 -111l-89 -88z"/>
<glyph glyph-name="gateway-parallel" horiz-adv-x="1036" unicode="" d="M952 1187v-579q0 -73 -26.5 -138t-72 -115t-107.5 -81.5t-133 -38.5v-235h-187v235q-71 7 -133 38.5t-108 81.5t-72 115t-26 138v579h-87l180 313l181 -313h-86v-579q0 -39 14.5 -73.5t40 -60t59.5 -40t73 -14.5h115q39 0 73 14.5t59.5 40t40 60t14.5 73.5v579h-89 l181 313l180 -313h-84z"/>
<glyph glyph-name="link" horiz-adv-x="1652" unicode="" d="M0 324q0 111 78 189l263 263q78 78 189 78q114 0 192 -82l82 82q-82 78 -82 193q0 111 77 188l261 262q79 79 189 79q111 0 188 -77l136 -135q79 -78 79 -188q0 -111 -78 -189l-263 -263q-78 -78 -189 -78q-114 0 -192 82l-82 -82q82 -78 82 -193q0 -111 -77 -188 l-261 -262q-79 -79 -189 -79q-111 0 -188 77l-136 135q-79 78 -79 188zM899 1047q0 -39 31 -67l17 17q22 22 41 35.5t45 13.5q40 0 64.5 -28.5t24.5 -67.5q0 -17 -10 -34t-18 -25l-21 -21q-8 -8 -12.5 -11.5t-4.5 -4.5q14 -17 31.5 -23t38.5 -6q34 0 59 25l263 263 q26 26 26 63q0 17 -7 32.5t-19 29.5l-136 135q-25 25 -63 25q-37 0 -63 -26l-261 -262q-26 -26 -26 -63zM178 324q0 -37 26 -62l136 -135q24 -24 63 -24q38 0 63 25l261 262q26 26 26 63q0 39 -31 67q-2 -1 -5.5 -5.5t-10.5 -11.5l-26 -25q-17 -12 -30 -18t-31 -6 q-41 0 -65.5 28.5t-24.5 67.5q0 14 5 25.5t12.5 21t16.5 17.5t16 15l17 17q-27 30 -66 30q-37 0 -63 -26l-263 -263q-26 -26 -26 -63z"/>
<glyph glyph-name="unlink" horiz-adv-x="1714" unicode="" d="M1636 1395q78 -77 78 -188q0 -112 -77 -189l-264 -263q-77 -77 -189 -77q-105 0 -184 74l126 126q25 -22 58 -22q38 0 63 25l264 263q24 24 26 63q0 36 -26 62l-136 136q-28 25 -63 25q-37 0 -63 -26l-262 -263q-26 -26 -26 -63q0 -12 3.5 -22.5t8.5 -20.5l-127 -127 q-62 74 -62 170q0 111 77 188l262 263q78 78 189 78q109 0 187 -76zM855 607q74 -79 74 -185q0 -112 -76 -188l-262 -263q-78 -78 -189 -78q-112 0 -188 76l-136 136q-78 76 -78 184v4q0 111 77 188l264 264q77 77 188 77q97 0 170 -61l-133 -134q-10 2 -20 3t-21 1 q-20 0 -36.5 -3t-22.5 -9l-263 -263q-26 -26 -26 -63q0 -36 26 -62l136 -136q14 -11 29 -17.5t34 -6.5q38 0 63 25l262 263q26 26 26 63q0 32 -24 59zM1038 324h84v-282h-85zM1180 348l59 58l198 -199l-59 -59zM1263 464v84h281v-84h-281zM717 1160h-83v282h84zM576 1137 l-60 -59l-198 199l59 59zM492 1020v-83h-281v83h281z"/>
<glyph glyph-name="bow" horiz-adv-x="1750" unicode="" d="M875 1062q65 0 122 -24.5t99 -66.5t66.5 -99t24.5 -122t-24.5 -122t-66.5 -99.5t-99 -67t-122 -24.5t-122 24.5t-99.5 67t-67 99.5t-24.5 122t24.5 122t67 99t99.5 66.5t122 24.5zM1680 1279q32 -19 51 -51.5t19 -70.5v-814q0 -29 -11 -54.5t-30 -44.5t-44.5 -30.5 t-55.5 -11.5q-37 0 -70 19l-308 178q67 68 105.5 158t38.5 193t-38.5 193t-106.5 158l309 178q33 19 70 19q18 0 36 -4.5t35 -14.5zM375 750q0 -103 38.5 -193t105.5 -158l-308 -178q-15 -8 -32 -13.5t-34 -5.5h-4q-30 0 -55.5 11.5t-44.5 30.5t-30 44.5t-11 54.5v814 q0 28 11 53.5t30 45t44.5 31t55.5 11.5q35 0 70 -19l309 -178q-68 -68 -106.5 -158t-38.5 -193z"/>
<glyph glyph-name="lane" d="M656 375h188v375h-188v-375zM656 937h188v375h-188v-375zM656 0h-656l250 1500h1000l250 -1500h-656v187h-188v-187z" unicode=""/>
<glyph glyph-name="shuttle" horiz-adv-x="1610" unicode="" d="M1435 -140h-350l70 140h210zM525 -140h-350l70 140h210zM630 1326q8 49 27 104t43 101.5t51.5 77.5t53.5 31q25 0 52.5 -31t52 -77.5t43 -101.5t27.5 -104v-870h-350v870zM1120 318v979q23 -145 50 -246.5t56.5 -174.5t60.5 -124t63.5 -96t65.5 -90.5t66 -106.5t65 -145 t63 -206q-1 0 -33.5 0.5t-89 0.5h-132.5h-165h-228.5h-241t-234.5 -0.5t-208 -0.5h-162h-97h-19q31 122 63 206t65 145t66 106.5t65.5 90.5t63.5 96t60.5 124t56.5 174.5t50 246.5v-979h630z"/>
<glyph glyph-name="shuttle-loop" horiz-adv-x="1654" unicode="" d="M1654 952l-250 -433l-250 433h144q-23 99 -77.5 179t-128.5 137t-162.5 88t-179.5 31q-109 0 -211.5 -41t-185.5 -124t-124 -185.5t-41 -211.5q0 -71 18 -140h-193q-7 35 -10 69.5t-3 69.5q0 145 54.5 282.5t165.5 248.5q110 110 247.5 165t282.5 55t282.5 -55 t248.5 -165q86 -86 137.5 -189t70.5 -214h165zM1174 -75h-231l46 93h139zM573 -75h-230l46 93h138zM643 893q6 32 18 68.5t28 67.5t34 51.5t35 20.5t35 -20.5t34 -51.5t28.5 -67.5t18.5 -68.5v-574h-231v574zM966 228v646q16 -96 33.5 -163t37 -115t40 -82t42 -63.5 t43.5 -59.5t43.5 -70.5t43 -96t41.5 -135.5h-1063q20 80 41.5 135.5t43 96t43.5 70.5t43.5 59.5t42 63.5t39.5 82t37 115t33 163v-646h416z"/>
<glyph glyph-name="rank" horiz-adv-x="1247" unicode="" d="M0 327l624 624l623 -624v-265l-623 624l-624 -623v264zM0 939l624 623l623 -623v-265l-623 623l-624 -623v265z"/>
<glyph glyph-name="crown" horiz-adv-x="1884" unicode="" d="M1759 1090q26 0 48.5 -10t39.5 -27t27 -39.5t10 -48.5t-10 -48.5t-27 -39.5t-39.5 -27t-48.5 -10l-9 1q-66 -140 -118 -267q-22 -54 -43 -110.5t-37.5 -109.5t-26.5 -99t-10 -79q0 -25 8.5 -53t21 -55.5t27 -53t27 -45.5t21 -31.5t9.5 -11.5h-1375q31 43 57 87 q22 37 40 80t18 80q0 44 -17.5 110t-44 140.5t-57 149t-57 134t-44 97t-16.5 37.5q-2 0 -4 -0.5t-4 -0.5q-26 0 -48.5 10t-39.5 27t-27 39.5t-10 48.5t10 48.5t27 39.5t39.5 27t48.5 10t48.5 -10t39.5 -27t27 -39.5t10 -48.5q0 -35 -18 -64l487 -378l166 686q-28 9 -52 26 t-41.5 40.5t-27.5 51.5t-10 60q0 39 14.5 73t40 59.5t60 40t73.5 14.5t73 -14.5t59.5 -40t40 -59.5t14.5 -73q0 -32 -10 -60t-27 -51.5t-41 -40.5t-52 -26l166 -686l487 378q-18 29 -18 64q0 26 10 48.5t27 39.5t39.5 27t48.5 10z"/>
<glyph glyph-name="podium" d="M830 1597v-535h-127v325q0 33 -10 44t-37 13h-49v62q26 6 46 14t38 20t35 25q17 14 37 32h67zM1000 312h500v-375h-1500v625h500v375h500v-625z" unicode=""/>
<glyph glyph-name="cloud-down" horiz-adv-x="1552" unicode="" d="M1151 724l-133 133l-242 -242l-242 242l-133 -133l375 -373zM1321 831q50 -12 92.5 -39.5t73 -66.5t48 -87t17.5 -102q0 -59 -21 -111t-57.5 -92.5t-86 -67t-106.5 -32.5h-978q-63 3 -118.5 29.5t-96.5 70t-64.5 100t-23.5 121.5q0 48 13.5 92t38 81.5t58.5 67.5t75 49 q0 88 33.5 165t91.5 134.5t135 90.5t165 33q63 0 121 -17.5t107.5 -49t88.5 -76t65 -97.5q45 21 98 21q46 0 87 -17t72 -46t50 -69t22 -85z"/>
<glyph glyph-name="cloud-up" horiz-adv-x="1552" unicode="" d="M1151 557l-375 373l-375 -373l133 -133l242 243l242 -243zM1321 831q50 -12 92.5 -39.5t73 -66.5t48 -87t17.5 -102q0 -59 -21 -111t-57.5 -92.5t-86 -67t-106.5 -32.5h-978q-63 3 -118.5 29.5t-96.5 70t-64.5 100t-23.5 121.5q0 48 13.5 92t38 81.5t58.5 67.5t75 49 q0 88 33.5 165t91.5 134.5t135 90.5t165 33q63 0 121 -17.5t107.5 -49t88.5 -76t65 -97.5q45 21 98 21q46 0 87 -17t72 -46t50 -69t22 -85z"/>
<glyph glyph-name="document" horiz-adv-x="1250" unicode="" d="M1187 375v1000h-1125v-1313h813v313h312zM1250 1500v-1125l-375 -375h-875v1500h1250zM668 312h-481v125h481v-125zM1062 562h-875v125h875v-125zM1062 812h-875v125h875v-125zM1062 1062h-875v125h875v-125z"/>
<glyph glyph-name="pie" horiz-adv-x="1625" unicode="" d="M875 1562q104 0 200 -26.5t179 -75.5t151.5 -117.5t117.5 -151.5t75.5 -179t26.5 -200h-750v750zM750 687h750q0 -103 -26.5 -199t-75.5 -179.5t-117.5 -152t-151.5 -117t-179 -75.5t-200 -27q-103 0 -199 27t-179.5 75.5t-152 117t-117 152t-75.5 179t-27 199.5t27 200 t75.5 179t117 151.5t152 117.5t179 75.5t199.5 26.5v-750z"/>
<glyph glyph-name="bars" horiz-adv-x="1562" unicode="" d="M1562 0h-250v1500h250v-1500zM1125 0h-250v1000h250v-1000zM687 0h-250v625h250v-625zM250 0h-250v375h250v-375z"/>
<glyph glyph-name="mail" d="M1500 1031v-872h-1500v872l750 -391zM0 1243v98h1500v-98l-750 -391z" unicode=""/>
<glyph glyph-name="wand" horiz-adv-x="1792" unicode="" d="M869 1264l-120 -67l-26 -135l-101 94l-137 -16l58 124l-58 125l137 -16l101 93l27 -134zM1407 727l67 -120l135 -27l-94 -101l16 -136l-124 57l-125 -57l16 136l-93 101l134 27zM1484 1643l103 -184l205 -41l-142 -154l25 -208l-191 87l-191 -87l25 208l-143 154l206 41z M1141 822l-965 -965l-176 177l1187 1187z"/>
<glyph glyph-name="tag" horiz-adv-x="1796" unicode="" d="M354 559l517 517l354 -353l-518 -518zM1452 1083q-23 -23 -52 -34.5t-59 -11.5q-32 0 -60 12.5t-49.5 34t-34 49.5t-12.5 60t12.5 60.5t34 50t49.5 34t60 12.5t60.5 -12.5t50 -34t34 -50t12.5 -60.5q0 -30 -11.5 -58.5t-34.5 -51.5zM1554 875l109 396l-245 245l-393 -109 l-848 -848l530 -531zM707 -148l-707 707l967 966l495 123l334 -333l-124 -495z"/>
<glyph glyph-name="braces" horiz-adv-x="1386" unicode="" d="M1386 657q-69 0 -109.5 -27t-40.5 -77v-152q0 -64 -17.5 -105t-55 -64t-97.5 -32t-145 -9v170q67 1 92 18t25 47v169q0 67 33.5 103t113.5 48v7q-80 12 -113.5 48.5t-33.5 106.5v166q0 19 -6 30.5t-20 18.5t-36 10.5t-55 5.5v170q92 0 152.5 -10.5t96.5 -34.5t51 -64 t15 -99v-155q0 -50 39 -77t111 -27v-185zM0 842q69 0 110 26.5t41 77.5v155q0 62 16.5 102t53.5 63.5t97 33t147 9.5v-170q-43 -3 -66.5 -9t-34.5 -14.5t-13 -18.5t-2 -21v-168q0 -69 -33.5 -106t-113.5 -49v-7q79 -12 113 -48t34 -103v-169q0 -37 28 -50t88 -15v-170 q-92 0 -152.5 10t-96.5 34.5t-50.5 65t-14.5 100.5v152q0 50 -41.5 77t-109.5 27v185z"/>
<glyph glyph-name="prompt" horiz-adv-x="1248" unicode="" d="M297 750l-297 305l125 132l436 -435l-436 -439l-125 132zM1248 0h-625v188h625v-188z"/>
<glyph glyph-name="sigma" horiz-adv-x="922" unicode="" d="M922 1125h-735l373 -373l-379 -382h741v-182h-922v257l297 305l-297 305v257h922v-187z"/>
<glyph glyph-name="expand-double" horiz-adv-x="1282" unicode="" d="M1192 332l90 90v-313h-313l90 90l-275 275q89 44 133 133zM90 1168l-90 -90v313h313l-90 -90l275 -275q-89 -44 -133 -133zM729 662q-18 -19 -41 -28t-47 -9q-25 0 -47.5 10t-40 27.5t-27.5 40t-10 47.5t10 47.5t27.5 40t40 27.5t47.5 10t47.5 -10t40 -27.5t27.5 -40 t10 -47.5q0 -24 -9.5 -47t-27.5 -41zM223 199l90 -90h-313v313l90 -90l275 275q44 -89 133 -133zM1059 1301l-90 90h313v-313l-90 90l-275 -275q-44 89 -133 133z"/>
<glyph glyph-name="contract-double" horiz-adv-x="1338" unicode="" d="M936 351l-90 -90v312h312l-90 -90l270 -269l-133 -133zM402 1149l90 90v-312h-312l90 90l-270 269l133 133zM270 483l-90 90h312v-312l-90 90l-269 -270l-133 133zM1068 1017l90 -90h-312v312l90 -90l269 270l133 -133zM757 662q-18 -19 -41 -28t-47 -9q-25 0 -47.5 10 t-40 27.5t-27.5 40t-10 47.5t10 47.5t27.5 40t40 27.5t47.5 10t47.5 -10t40 -27.5t27.5 -40t10 -47.5q0 -24 -9.5 -47t-27.5 -41z"/>
<glyph glyph-name="compass" horiz-adv-x="1875" unicode="" d="M940 1276q-87 0 -164.5 -26.5t-143.5 -74.5l296 512l280 -485q-59 35 -126.5 54.5t-141.5 19.5zM1391 481q36 59 55.5 126.5t19.5 142.5q0 85 -25 161t-70 141l504 -292zM940 224q85 0 160.5 24.5t139.5 69.5l-292 -506l-283 491q60 -38 129.5 -58.5t145.5 -20.5z M940 516q-48 0 -90.5 18.5t-74 50t-50 74.5t-18.5 91t18.5 91t50 74.5t74 50t90.5 18.5t91 -18.5t74.5 -50t50 -74.5t18.5 -91t-18.5 -91t-50 -74.5t-74.5 -50t-91 -18.5zM414 750q0 -86 26 -163.5t74 -142.5l-514 296l492 284q-37 -60 -57.5 -129.5t-20.5 -144.5z"/>
<glyph glyph-name="tracker" horiz-adv-x="1440" unicode="" d="M375 750q0 -39 -15 -73.5t-40.5 -60t-59.5 -40t-73 -14.5t-73 14.5t-59.5 40t-40 60t-14.5 73.5t14.5 73t40 59.5t59.5 40t73 14.5t73 -14.5t59.5 -40t40.5 -59.5t15 -73zM1440 750l-1190 -688v319q66 11 123 44t99 82t66 111.5t24 131.5t-24 131.5t-66 111.5t-99 82 t-123 44v318z"/>
<glyph glyph-name="set-square" horiz-adv-x="1562" unicode="" d="M411 130h-411v1063h411v-125h-286v-813h286v-125zM1005 1193h495v-752l-125 190v437h-288zM786 193h428l-428 651v-651zM1562 5h-964v1465z"/>
<glyph glyph-name="sandbox" d="M668 1212h196v195h-196v-195zM668 1118q-26 0 -48.5 10t-39.5 27t-27 39.5t-10 48.5v133q0 26 10 48.5t27 39.5t39.5 27t48.5 10h196q26 0 48.5 -10t39.5 -27t27 -39.5t10 -48.5v-133q0 -26 -10 -48.5t-27 -39.5t-39.5 -27t-48.5 -10h-5v-549h63q26 0 48.5 -10t39.5 -27 t27 -39.5t10 -48.5l-2 -7h-558l-3 7q0 26 10 48.5t27 39.5t39.5 27t48.5 10h63v549h-4zM984 875h203l313 -438h-245l-164 250h-107v188zM236 437h-236l312 438h235v-188h-138zM0 312h1500v-437h-1500v437z" unicode=""/>
<glyph glyph-name="clock" d="M1475 943q12 -48 18.5 -96t6.5 -98q0 -112 -29.5 -211.5t-81.5 -182.5t-123.5 -149t-154.5 -112t-175 -70t-186 -24q-112 0 -211.5 29.5t-183 81.5t-149.5 123.5t-111.5 154.5t-70 175t-24.5 186q0 112 29.5 211.5t81.5 183t123.5 149.5t154.5 111.5t175 70t186 24.5 q74 0 148.5 -15.5t144 -45.5t133 -73t115.5 -97l-170 -96q-77 67 -174.5 103.5t-196.5 36.5q-105 0 -206.5 -40.5t-180.5 -114.5t-127.5 -177.5t-48.5 -230.5q0 -105 40.5 -206.5t114 -180.5t177.5 -127.5t230 -48.5q70 0 139.5 18t132 52.5t116 84t92.5 112t61 137 t22 158.5q0 25 -1.5 49t-6.5 48zM699 636q-35 15 -54 46.5t-19 67.5v9t1 9l-242 190l77 98l242 -190q21 9 46 9q16 0 34 -4.5t32 -15.5l469 267l62 -108l-472 -269q-2 -28 -13 -50t-28 -37.5t-39 -24t-45 -8.5q-26 0 -51 11z" unicode=""/>
<glyph glyph-name="wrench" d="M214 111q11 11 16.5 25.5t5.5 29.5q0 19 -8 36.5t-21 31t-30.5 21.5t-36.5 8q-33 0 -56 -22.5t-23 -55.5q0 -19 8 -36.5t21.5 -30.5t30.5 -21t36 -8q34 0 57 22zM1401 952q-35 -35 -75.5 -47.5t-85 -16.5t-90 -5t-90.5 -12q-46 -11 -100 -45t-112 -83t-117.5 -109 t-117 -124t-110.5 -127.5t-97 -119t-77 -99.5l-51 -68q-17 -35 -51 -52t-69 -17q-32 0 -60.5 13t-50 35t-34.5 50.5t-13 59.5q0 28 10 53.5t30 45.5l3 3q5 4 12 9t13 9l68 51t99.5 77t119 97t127.5 110.5t124.5 117.5t109.5 118t83 112t45 100q9 36 11 71t4 68.5t6 66 t16 63.5t35 60t63 56v-224l184 -133l184 133v224q77 -53 115 -127.5t38 -155.5q0 -65 -24.5 -126.5t-74.5 -111.5z" unicode=""/>
<glyph glyph-name="hammer" d="M1272 1056q32 -32 76 -32q22 0 46 11l106 -106l-233 -233l-106 106q10 20 10 46q0 17 -6.5 34.5t-17.5 31.5t-25.5 23t-31.5 9q-25 0 -57 -16l-150 150q16 18 30.5 33t14.5 36q0 23 -18 52.5t-48 60t-69.5 59.5t-83.5 52.5t-89 38.5t-86 17q30 14 64.5 19.5t72.5 5.5 q55 0 112.5 -10.5t111.5 -26t101.5 -33.5t81.5 -33l188 -188q-8 -16 -12.5 -29.5t-4.5 -27.5q0 -27 23 -50zM308 102l-5 -5q-51 -51 -119 -51q-37 0 -70 15t-58.5 40.5t-40.5 59t-15 70.5q0 32 11.5 62t35.5 54l3 3q1 2 36 28.5t93.5 71t134 104.5t156.5 129t162 144 t151 150l148 -148q-64 -59 -128.5 -126.5t-125 -137t-116 -137t-101.5 -126t-81 -104.5t-54 -72l-8 -12t-9 -12z" unicode=""/>
<glyph glyph-name="wrench-hammer" horiz-adv-x="1469" unicode="" d="M1176 281q-19 19 -48 19q-34 0 -59 -25t-25 -57q0 -29 20 -49t48 -20q15 0 30.5 6.5t27.5 18.5q25 25 25 59q0 29 -19 48zM449 1307q30 -30 41.5 -65.5t15 -73.5t4.5 -77.5t10 -78.5q13 -53 59.5 -117.5t111.5 -133t140.5 -135.5t145.5 -124.5t127 -101t85 -64.5 q5 -2 9 -5.5t9 -6.5q1 -1 3.5 -3t2.5 -3q18 -17 26.5 -39t8.5 -46q0 -26 -10 -51t-30 -45t-45 -30.5t-51 -10.5q-49 0 -86 35q0 2 -2 2q-1 0 -1 1l-2 4q-4 4 -7 8t-6 9q-15 21 -43.5 59t-66.5 86t-84 103t-95.5 110t-101 107t-102 94.5t-97 71.5t-86.5 39q-38 9 -77.5 10 t-77.5 4.5t-73.5 14.5t-65.5 41q-11 11 -20.5 23t-17.5 24h193l115 159l-115 159h-193q8 12 17.5 24t20.5 23q43 42 96.5 63.5t109.5 21.5t109 -21.5t96 -63.5zM916 713l-125 129l140 145q14 16 26.5 28.5t12.5 31.5q0 31 -33.5 71.5t-84.5 78t-111 64.5t-114 30 q26 11 56.5 16.5t62.5 5.5q48 0 98.5 -9.5t97.5 -23t88 -29t71 -28.5l164 -164q-6 -14 -10 -26t-4 -24q0 -24 19 -43q14 -14 31 -20.5t35 -6.5q21 0 41 9l92 -92l-203 -204l-93 93q9 19 9 41q0 38 -27 65q-19 19 -43 19q-12 0 -24 -4t-26 -10zM479 581q71 -67 154 -160 q-69 -85 -121 -153t-77 -102q-10 -16 -21 -28q-21 -21 -47.5 -31.5t-54.5 -10.5q-30 0 -59.5 12t-53.5 36q-23 23 -35 52t-12 59q0 29 10.5 56t32.5 50q9 8 15 12t11 7q34 25 103 77.5t155 123.5z"/>
<glyph glyph-name="face-happy" d="M1062 812q26 0 49 10t40 27t26.5 39.5t9.5 48.5t-9.5 49t-26.5 40t-40 26.5t-49 9.5t-48.5 -9.5t-39.5 -26.5t-27 -40t-10 -49t10 -48.5t27 -39.5t39.5 -27t48.5 -10zM750 226q65 0 126 17.5t116 50t103.5 79t88.5 103.5h-868q40 -57 88.5 -103.5t103.5 -79t116 -50 t126 -17.5zM437 1062q-26 0 -48.5 -9.5t-39.5 -26.5t-27 -40t-10 -49t10 -48.5t27 -39.5t39.5 -27t48.5 -10t49 10t40 27t26.5 39.5t9.5 48.5t-9.5 49t-26.5 40t-40 26.5t-49 9.5zM750 1500q103 0 199 -27t179.5 -75.5t152 -117t117 -152t75.5 -179.5t27 -199t-27 -199 t-75.5 -179.5t-117 -152t-152 -117t-179.5 -75.5t-199 -27t-199 27t-179.5 75.5t-152 117t-117 152t-75.5 179t-27 199.5q0 103 27 199t75.5 179.5t117 152t152 117t179 75.5t199.5 27z" unicode=""/>
<glyph glyph-name="face-dead" d="M1287 801l-136 136l136 137l-88 88l-137 -136l-136 136l-88 -88l136 -137l-136 -136l88 -88l136 136l137 -136zM1122 439h-750v-125h750v125zM301 713l136 136l137 -136l88 88l-136 136l136 137l-88 88l-137 -136l-136 136l-88 -88l136 -137l-136 -136zM750 1500 q103 0 199 -27t179.5 -75.5t152 -117t117 -152t75.5 -179.5t27 -199t-27 -199t-75.5 -179.5t-117 -152t-152 -117t-179.5 -75.5t-199 -27t-199 27t-179.5 75.5t-152 117t-117 152t-75.5 179t-27 199.5q0 103 27 199t75.5 179.5t117 152t152 117t179 75.5t199.5 27z" unicode=""/>
<glyph glyph-name="face-sad" d="M1287 801l-136 136l136 137l-88 88l-137 -136l-136 136l-88 -88l136 -137l-136 -136l88 -88l136 136l137 -136zM1184 351q-40 57 -88.5 103.5t-103.5 79t-116 50t-126 17.5t-126 -17.5t-116 -50t-103.5 -79t-88.5 -103.5h868zM437 1062q-26 0 -48.5 -9.5t-39.5 -26.5 t-27 -40t-10 -49t10 -48.5t27 -39.5t39.5 -27t48.5 -10t49 10t40 27t26.5 39.5t9.5 48.5t-9.5 49t-26.5 40t-40 26.5t-49 9.5zM750 1500q103 0 199 -27t179.5 -75.5t152 -117t117 -152t75.5 -179.5t27 -199t-27 -199t-75.5 -179.5t-117 -152t-152 -117t-179.5 -75.5 t-199 -27t-199 27t-179.5 75.5t-152 117t-117 152t-75.5 179t-27 199.5q0 103 27 199t75.5 179.5t117 152t152 117t179 75.5t199.5 27z" unicode=""/>
<glyph glyph-name="user-cross" horiz-adv-x="1790" unicode="" d="M1790 71l-133 -133l-199 199l-199 -199l-132 133l199 199l-199 199l132 132l199 -199l199 199l133 -132l-199 -199zM950 71l66 -66h-771q-67 1 -129 -17t-116 -50v316q0 84 26 160t71 139q46 63 109 109t138 73q63 -65 148 -103t183 -38q99 0 183 38t148 103 q38 -13 72 -31t66 -41l-194 -194l199 -199zM1083 1154q0 -84 -32 -158q-31 -74 -87 -130t-130 -88t-159 -32t-159 32t-129 88t-87 130t-32 158t32 158t87 130t129 88t159 32t159 -32t130 -88t87 -130q32 -74 32 -158z"/>
<glyph glyph-name="user-disable" horiz-adv-x="1530" unicode="" d="M1272 610h258l-664 -672h-289zM1107 4l243 245v-311q-54 32 -115 49t-128 17zM1145 661l-679 -656h-221q-67 1 -129 -17t-116 -50v316q0 84 26 160t71 139q46 63 109 109t138 73q63 -65 148 -103t183 -38t183 38t148 103q77 -26 139 -74zM1083 1154q0 -84 -32 -158 q-31 -74 -87 -130t-130 -88t-159 -32t-159 32t-130 88t-87 130q-32 74 -32 158t32 158q31 74 87 130t130 88t159 32t159 -32t130 -88t87 -130q32 -74 32 -158z"/>
<glyph glyph-name="user-key" horiz-adv-x="1538" unicode="" d="M1416 619q-22 20 -51 20q-27 0 -49 -21t-22 -52q0 -30 22 -51t50 -21q29 0 51 22t22 50q0 14 -6 28t-17 25zM1105 325l-21 21l-361 -361l21 85l322 319q6 7 14 19t8 22q0 4 -1 6q-12 36 -12 72q1 46 19 88t50 72q32 32 74 51t91 19q51 0 93 -20t72 -54q30 -32 48 -74 q16 -42 16 -83q0 -51 -19 -93t-51 -73t-74 -49t-86 -17q-20 -1 -38 5t-36 6t-30 -8t-22 -20q-10 -10 -20 -18t-24 -9q-8 -1 -18 3t-17 4q-13 0 -27 -12t-14 -27l5 -37q-1 -22 -15 -36t-36 -14h-9q-13 0 -23 -10t-10 -22l1 -13q1 -18 -9 -28t-27 -10l-32 4q-11 -1 -19 -11 t-8 -29l2 -20q0 -34 -40 -34h-54q-8 -1 -16 3t-14 9q-7 5 -14 13zM632 134l-33 -129h-354q-67 1 -129 -17t-116 -50v316q0 84 26 160t71 139q46 63 109 109t138 73q63 -65 148 -103t183 -38t183 38t148 103q6 -3 11 -5l10 -4q-37 -48 -57 -104t-20 -116q0 -28 4 -51z M1308 151q11 1 21 1t21 1v-215q-54 32 -116 50t-128 17h-13q33 15 57 44t35 64q40 12 72 41q25 -3 51 -3zM1083 1154q0 -84 -32 -158q-31 -74 -87 -130t-130 -88t-159 -32t-159 32t-129 88t-87 130t-32 158t32 158t87 130t129 88t159 32t159 -32t130 -88t87 -130 q32 -74 32 -158z"/>
<glyph glyph-name="rules" horiz-adv-x="1530" unicode="" d="M413 841l-248 -247l-165 164l64 65l101 -100l183 183zM413 1466l-248 -247l-165 164l64 65l101 -100l183 183zM281 -31l-93 93l-94 -93l-63 62l94 94l-94 94l63 62l94 -94l93 94l63 -62l-94 -94l94 -94zM530 0v250h750v-250h-750zM530 625v250h500v-250h-500zM530 1250 v250h1000v-250h-1000z"/>
<glyph glyph-name="grid" d="M1500 0h-375v375h375v-375zM937 0h-375v375h375v-375zM375 0h-375v375h375v-375zM1500 562h-375v375h375v-375zM937 562h-375v375h375v-375zM375 562h-375v375h375v-375zM1500 1125h-375v375h375v-375zM937 1125h-375v375h375v-375zM375 1125h-375v375h375v-375z" unicode=""/>
<glyph glyph-name="list" d="M437 0v250h1063v-250h-1063zM250 0h-250v250h250v-250zM437 625v250h1063v-250h-1063zM250 625h-250v250h250v-250zM437 1250v250h1063v-250h-1063zM250 1250h-250v250h250v-250z" unicode=""/>
<glyph glyph-name="round-disable-hollow" d="M750 187q116 0 218.5 44t179 120t120.5 178.5t44 218.5q0 117 -44 219.5t-120 179t-178.5 121t-219.5 44.5t-219.5 -44t-179 -120.5t-120.5 -178.5t-44 -219t44 -219.5t120.5 -179t179 -120.5t219.5 -44zM750 1500q103 0 199 -27t179.5 -75.5t152 -117t117 -152 t75.5 -179.5t27 -199t-27 -199t-75.5 -179.5t-117 -152t-152 -117t-179.5 -75.5t-199 -27t-199 27t-179.5 75.5t-152 117t-117 152t-75.5 179t-27 199.5q0 103 27 199t75.5 179.5t117 152t152 117t179 75.5t199.5 27zM551 419l-132 132l530 530l132 -132z" unicode=""/>
<glyph glyph-name="round-disable-fill" d="M1081 949l-132 132l-530 -530l132 -132zM750 1500q103 0 199 -27t179.5 -75.5t152 -117t117 -152t75.5 -179.5t27 -199t-27 -199t-75.5 -179.5t-117 -152t-152 -117t-179.5 -75.5t-199 -27t-199 27t-179.5 75.5t-152 117t-117 152t-75.5 179t-27 199.5q0 103 27 199 t75.5 179.5t117 152t152 117t179 75.5t199.5 27z" unicode=""/>
<glyph glyph-name="paper-plane" horiz-adv-x="1625" unicode="" d="M530 393l166 -75l-166 -342v417zM1625 1524l-631 -1221l-464 208l618 583l-812 -494l-336 154z"/>
<glyph glyph-name="flag-fill" horiz-adv-x="1742" unicode="" d="M655 815q-39 0 -84 -13t-90.5 -36.5t-90.5 -56.5t-85 -73v813q150 162 365 162q53 0 97.5 -4.5t90 -15.5t97 -30t119.5 -48q50 -21 92 -36.5t80 -25.5t73 -14.5t70 -4.5q40 0 85 12t91.5 35t92 56.5t84.5 75.5v-812q-152 -163 -364 -163q-55 0 -105 6t-98.5 18t-98 30 t-103.5 41q-58 25 -100.5 41t-78.5 25.5t-68.5 13.5t-70.5 4zM187 0h-187v1500h187v-1500z"/>
<glyph glyph-name="flag-hollow" horiz-adv-x="1742" unicode="" d="M1611 1361q-116 -54 -222 -54q-44 0 -85 5t-85 16t-92.5 28.5t-106.5 42.5q-61 25 -106 42t-84 27t-76.5 14t-83.5 4q-69 0 -126 -21t-108 -66v-514q113 55 219 55q45 0 84 -4.5t81 -15t91.5 -29.5t116.5 -47q47 -20 89.5 -35.5t84 -26t84.5 -16t91 -5.5q131 0 234 89 v511zM1566 1479q97 48 176 132v-812q-152 -163 -365 -163q-54 0 -103 6t-98 18t-99 30t-105 42q-57 24 -99 40t-78 25.5t-69 13.5t-71 4q-39 0 -84 -13t-90.5 -36.5t-90.5 -56.5t-85 -73v813q148 162 365 162q53 0 97 -4.5t89.5 -15.5t97 -30t120.5 -48q49 -21 91 -36.5 t79.5 -25t73 -14.5t71.5 -5q83 0 177 47zM187 0h-187v1500h187v-1500z"/>
<glyph glyph-name="camera" horiz-adv-x="1750" unicode="" d="M875 901q53 0 100 -20t82 -55t55 -82t20 -100t-20 -100t-55 -82t-82 -55t-100 -20t-100 20t-82 55t-55 82t-20 100t20 100t55 82t82 55t100 20zM875 265q78 0 147 30t120.5 81.5t81.5 120.5t30 147q0 79 -30 148t-81.5 120.5t-120.5 81t-147 29.5t-147 -29.5t-120.5 -81 t-81.5 -120.5t-30 -148q0 -78 30 -147t81.5 -120.5t120.5 -81.5t147 -30zM1625 1209q26 0 48.5 -10t39.5 -27t27 -39.5t10 -48.5v-875q0 -26 -10 -48.5t-27 -39.5t-39.5 -27t-48.5 -10h-1500q-26 0 -48.5 10t-39.5 27t-27 39.5t-10 48.5v875q0 26 10 48.5t27 39.5t39.5 27 t48.5 10h312v82q0 26 10 48.5t27 39.5t39.5 27t48.5 10h625q26 0 49 -10t40 -27t26.5 -39.5t9.5 -48.5v-82h313z"/>
<glyph glyph-name="bookmark" horiz-adv-x="625" unicode="" d="M0 0v1500h625v-1500l-312 476z"/>
<glyph glyph-name="heart-fill" horiz-adv-x="1750" unicode="" d="M1750 1099q0 -61 -11.5 -118.5t-43.5 -104.5q-44 -65 -116 -141.5t-155.5 -159.5t-171 -169.5t-164 -170.5t-134 -162.5t-79.5 -146.5q-23 67 -80.5 145.5t-134 162.5t-164 170.5t-171 170t-155 160t-115.5 141.5q-32 47 -43.5 104.5t-11.5 118.5q0 98 37.5 184.5 t102 151t151 102t185.5 37.5q63 0 121 -15.5t109 -44t94 -68.5t75 -89q32 49 75 89t94 68.5t109 44t121 15.5q99 0 185.5 -37.5t151 -102t102 -151t37.5 -184.5z"/>
<glyph glyph-name="heart-hollow" horiz-adv-x="1750" unicode="" d="M1591 946q34 49 34 153q0 72 -27.5 136t-75 111.5t-111.5 75t-137 27.5q-90 0 -167.5 -42.5t-126.5 -117.5l-105 -163l-105 163q-49 75 -126.5 117.5t-167.5 42.5q-73 0 -137 -27.5t-111.5 -75t-75 -111.5t-27.5 -136q0 -104 34 -153q24 -35 58 -74.5t75 -83t88 -90.5 l96 -96l13 -13q52 -52 105 -104.5t102.5 -105t94.5 -104t83 -101.5q77 102 179.5 207t209.5 210q51 50 99 98.5t91 94t78.5 86.5t59.5 76zM1274 1574q99 0 185.5 -37.5t151 -102t102 -151t37.5 -184.5q0 -61 -11.5 -118.5t-43.5 -104.5q-44 -65 -116 -141.5t-155.5 -159.5 t-171 -169.5t-164 -170.5t-134 -162.5t-79.5 -146.5q-23 67 -80.5 145.5t-134 162.5t-164 170.5t-171 170t-155 160t-115.5 141.5q-32 47 -43.5 104.5t-11.5 118.5q0 98 37.5 184.5t102 151t151 102t185.5 37.5q63 0 121 -15.5t109 -44t94 -68.5t75 -89q32 49 75 89t94 68.5 t109 44t121 15.5z"/>
<glyph glyph-name="back" horiz-adv-x="1768" unicode="" d="M851 996q50 -13 129 -38.5t171.5 -67t189.5 -100.5t182.5 -139.5t150.5 -183.5t94 -232q-47 69 -110 119t-135 85t-149 57t-151.5 34t-144 16.5t-126.5 4.5q-30 0 -55.5 -1t-45.5 -2v-266l-851 491l851 492v-269z"/>
<glyph glyph-name="forward" horiz-adv-x="1768" unicode="" d="M917 1265l851 -492l-851 -491v266q-20 1 -46 2t-56 1q-57 0 -126 -4.5t-144 -16.5t-151.5 -34t-148.5 -57t-135 -85t-110 -119q29 129 94 232t150.5 183.5t182.5 139.5t189.5 100.5t171.5 67t129 38.5v269z"/>
<glyph glyph-name="bag" horiz-adv-x="1160" unicode="" d="M799 997q29 0 49 19.5t20 48.5t-20 48.5t-49 19.5q-28 0 -48 -19.5t-20 -48.5t20 -48.5t48 -19.5zM361 997q28 0 48 19.5t20 48.5t-20 48.5t-48 19.5q-29 0 -49 -19.5t-20 -48.5t20 -48.5t49 -19.5zM580 1483q-36 0 -68.5 -18t-57.5 -49.5t-40 -73t-16 -88.5h364 q-2 47 -16.5 88.5t-39.5 73t-57.5 49.5t-68.5 18zM1160 0h-1160l63 1254h210q1 73 26 137.5t66.5 112.5t96.5 76t118 28t118 -28t96.5 -76t66 -112.5t26.5 -137.5h210z"/>
<glyph glyph-name="marker" horiz-adv-x="920" unicode="" d="M460 826q48 0 91 18.5t74.5 50.5t50 74.5t18.5 91.5q0 48 -18.5 91t-50 74.5t-74.5 50t-91 18.5t-91 -18.5t-74.5 -50t-50 -74.5t-18.5 -91q0 -49 18.5 -91.5t50 -74.5t74.5 -50.5t91 -18.5zM460 1562q90 0 159.5 -22t120.5 -59.5t85.5 -89t55.5 -110t30 -122t9 -125.5 q0 -109 -27.5 -210.5t-70.5 -196.5t-96 -185t-104 -175.5t-94.5 -167.5t-67.5 -162q-25 79 -68.5 161t-94.5 168t-104 176t-95.5 186t-70 197t-27.5 209q0 64 9 128t30 122.5t55.5 109t85.5 88t120 59t160 21.5z"/>
<glyph glyph-name="pin-small" horiz-adv-x="1376" unicode="" d="M1343 210q-33 -33 -94 -33q-48 0 -109.5 20t-131 57.5t-145.5 91.5t-152 122l-711 -531l531 711q-68 77 -121.5 152.5t-91.5 145.5t-58 131t-20 109q0 61 33 93.5t94 32.5q55 0 128 -26t155.5 -75t171.5 -119t176 -157t157 -176t119 -171.5t75.5 -155.5t26.5 -128 q0 -61 -33 -94z"/>
<glyph glyph-name="pin-big" d="M918 410q41 -65 62.5 -122t21.5 -101q0 -45 -24 -68.5t-69 -23.5q-35 0 -79.5 14.5t-95 42t-105.5 66.5t-111 89l-518 -387l387 518q-50 56 -89 111t-66.5 105.5t-42 95t-14.5 79.5q0 45 23.5 69t68.5 24q42 0 98.5 -21t120.5 -61l272 264q-42 66 -63.5 123t-21.5 101 q0 45 24 68.5t69 23.5q40 0 92.5 -19t113 -55t125 -87t128.5 -114q63 -63 114 -128t87 -125.5t55 -113.5t19 -93q0 -45 -24 -68.5t-69 -23.5q-42 0 -98 21t-120 60z" unicode=""/>
<glyph glyph-name="pin-disable" horiz-adv-x="1617" unicode="" d="M1617 100l-88 -88l-1458 1458l88 89zM487 861l431 -430q30 -49 50 -93t28 -83q6 -25 6 -46q0 -11 -2 -21q-4 -30 -22 -48q-24 -24 -67 -24h-7q-48 2 -108 28q-62 26 -134 72q-72 47 -144 112l-518 -387l387 518q-65 73 -112 145t-73 132q-26 62 -27 110v6q0 43 24 67 q18 19 47 23q10 2 22 1q20 0 44 -5q38 -8 82 -28t93 -49zM1211 683l-468 469q-27 46 -43 86t-22 74q-4 20 -4 38q0 12 2 24q4 26 21 43q24 24 68 24q8 -1 17 -1q56 -6 128 -39q72 -34 152 -94q82 -60 163 -141q81 -80 141 -162t94 -154t40 -127q1 -9 0 -17q0 -43 -24 -68 q-18 -18 -44 -22q-11 -2 -24 -1q-16 0 -36 3q-34 6 -76 22q-40 16 -85 43z"/>
<glyph glyph-name="shine" horiz-adv-x="1632" unicode="" d="M636 1018l-88 -88l-354 353l89 89zM500 812v-125h-500v125h500zM548 570l88 -88l-353 -354l-89 89zM753 434h125v-500h-125v500zM996 482l88 88l354 -353l-89 -89zM1132 687v125h500v-125h-500zM1084 930l-88 88l353 353l89 -88zM878 1066h-125v500h125v-500z"/>
<glyph glyph-name="gamepad" horiz-adv-x="1729" unicode="" d="M461 1029q38 0 72 -14.5t59.5 -40t40 -59.5t14.5 -72q0 -39 -15 -73.5t-40.5 -60t-59.5 -40.5t-73 -15t-73 15t-59.5 41t-40 60.5t-14.5 72.5q0 39 15 73t41 59t60.5 39.5t72.5 14.5zM1415 765q32 0 54.5 22.5t22.5 54.5t-22.5 54.5t-54.5 22.5t-54.5 -22.5t-22.5 -54.5 t22.5 -54.5t54.5 -22.5zM1274 623q32 0 54.5 22.5t22.5 54.5t-22.5 54.5t-54.5 22.5t-54.5 -22.5t-22.5 -54.5t22.5 -54.5t54.5 -22.5zM1132 765q32 0 54.5 22.5t22.5 54.5t-22.5 54.5t-54.5 22.5t-54.5 -22.5t-22.5 -54.5t22.5 -54.5t54.5 -22.5zM1274 1061 q-32 0 -54.5 -22.5t-22.5 -54.5t22.5 -54.5t54.5 -22.5t54.5 22.5t22.5 54.5t-22.5 54.5t-54.5 22.5zM460 592q52 0 97.5 19.5t79.5 53.5t53.5 79.5t19.5 97.5t-19.5 97.5t-53.5 79.5t-79.5 53.5t-97.5 19.5t-97.5 -19.5t-79.5 -53.5t-53.5 -79.5t-19.5 -97.5t19.5 -97.5 t53.5 -79.5t79.5 -53.5t97.5 -19.5zM1659 911q35 -103 52.5 -200t17.5 -183q0 -66 -11 -126t-33 -105t-54.5 -72t-74.5 -27q-38 0 -72.5 29t-76 74t-93.5 98t-124 101q-18 12 -50 21t-73.5 14.5t-90 8.5t-98.5 3q-53 0 -105 -3t-97 -9t-80.5 -14.5t-55.5 -19.5 q-51 -29 -91.5 -62.5t-73.5 -67t-59.5 -64.5t-50 -55t-46.5 -38.5t-48 -14.5q-42 0 -73.5 27t-53.5 72.5t-33 105t-11 124.5q0 86 17.5 183t53.5 200q36 102 79 176t90.5 122t97 70.5t99.5 22.5q47 0 73.5 -12.5t45.5 -30.5t37 -38.5t47 -36.5q11 -6 34 -11t53.5 -8t66 -4.5 t71.5 -1.5t71.5 1.5t66 4.5t53.5 8t34 11q29 16 46.5 36.5t37 38.5t46 30.5t73.5 12.5q49 0 99 -22.5t97 -70.5t90.5 -122t79.5 -176z"/>
<glyph glyph-name="blackboard" horiz-adv-x="1446" unicode="" d="M676 170h125v-339h-125v339zM514 170l-197 -262h-144l197 262h144zM1109 170l197 -262h-144l-197 262h144zM848 1545h-250v125h250v-125zM1321 420v875h-1196v-875h1196zM0 1419h1446v-1124h-1446v1124z"/>
<glyph glyph-name="book" horiz-adv-x="1794" unicode="" d="M1401 155q33 7 73 11t83 8q42 4 82 5q40 2 73 3v-149l-18 4q-18 4 -48 11t-68 15t-80 16q-40 8 -80 14t-73 9q-39 4 -73 5t-67 3q43 10 91 22t105 23zM959 104v1201l4 2q9 5 41 19t85 34q53 18 128 38t170 38q37 6 81 11t89 8t88 5t76 4q33 1 53 2l20 1v-1200 q-75 -2 -149 -6q-32 -3 -66 -5q-33 -2 -67 -5t-66 -7t-59 -9q-105 -19 -185 -41t-134 -43q-63 -24 -109 -47zM393 155q57 -11 105 -23t91 -22q-33 -2 -67 -3t-73 -5q-33 -3 -73 -9t-80 -14l-80 -16q-38 -8 -68 -15t-48 -11l-18 -4v149q33 -1 73 -3q40 -1 82 -5q43 -4 83 -8 t73 -11zM834 104q-45 23 -108 47q-54 21 -134 43t-185 41q-27 5 -59 9t-66 7t-68 5t-65 5q-74 4 -149 6v1200l20 -1q20 -1 53 -2q33 -2 76 -4t88 -6t89 -8q44 -5 81 -11q92 -16 165 -36q74 -20 126 -38q52 -19 84 -33t45 -20l7 -3v-1201z"/>
</font>
</defs>
</svg>
