<?xml version="1.0" standalone="no"?>
<!DOCTYPE svg PUBLIC "-//W3C//DTD SVG 1.1//EN" "http://www.w3.org/Graphics/SVG/1.1/DTD/svg11.dtd" >
<svg xmlns="http://www.w3.org/2000/svg">
<metadata>Generated by IcoMoon</metadata>
<defs>
<font id="icomoon" horiz-adv-x="512">
<font-face units-per-em="512" ascent="480" descent="-32" />
<missing-glyph horiz-adv-x="512" />
<glyph unicode="&#x20;" d="" horiz-adv-x="256" />
<glyph unicode="&#xe600;" d="M213.333 42.667v128h85.333v-128h106.666v170.667h64l-213.333 192-213.333-192h64v-170.667z" />
<glyph unicode="&#xe601;" d="M234.667 106.667h42.667v128h-42.666v-128zM256 426.667c-117.867 0-213.333-95.466-213.333-213.334s95.466-213.333 213.333-213.333 213.333 95.466 213.333 213.334-95.466 213.333-213.333 213.333zM256 42.667c-94.080 0-170.667 76.587-170.667 170.667s76.587 170.667 170.667 170.667 170.667-76.587 170.667-170.667-76.587-170.667-170.667-170.667zM234.667 277.333h42.667v42.666h-42.666v-42.666z" />
<glyph unicode="&#xe602;" d="M405.334 192h-128v-128h-42.666v128h-128v42.667h128v128h42.666v-128h128v-42.667z" />
<glyph unicode="&#xe603;" d="M64 101.333v-80h80l236.053 236.054-80 80-236.054-236.054zM441.707 319.040c8.32 8.32 8.32 21.866 0 30.186l-49.813 49.814c-8.32 8.32-21.866 8.32-30.187 0l-39.040-39.040 80-80 39.040 39.040z" />
<glyph unicode="&#xe604;" d="M426.666 234.667h-259.627l119.147 119.147-30.186 30.186-170.667-170.666 170.667-170.667 30.186 30.187-119.147 119.147h259.627v42.667z" />
<glyph unicode="&#xe605;" d="M192 124.373l-88.96 88.96-30.186-30.187 119.146-119.147 256 256-30.187 30.187z" />
<glyph unicode="&#xe606;" d="M414.507 192.533c0.853 6.827 1.493 13.76 1.493 20.8s-0.64 13.974-1.493 20.8l45.12 35.306c4.053 3.2 5.226 8.96 2.56 13.654l-42.666 73.92c-2.666 4.587-8.214 6.507-13.014 4.587l-53.12-21.44c-10.986 8.426-23.040 15.573-36.053 21.013l-8 56.534c-0.96 5.013-5.334 8.96-10.666 8.96h-85.334c-5.333 0-9.707-3.947-10.56-8.96l-8-56.534c-13.013-5.44-25.066-12.48-36.053-21.013l-53.12 21.44c-4.8 1.814-10.347 0-13.013-4.587l-42.666-73.92c-2.666-4.587-1.493-10.346 2.56-13.654l45.014-35.307c-0.853-6.827-1.493-13.76-1.493-20.8s0.64-13.974 1.493-20.8l-45.014-35.306c-4.053-3.2-5.227-8.96-2.56-13.654l42.666-73.92c2.666-4.587 8.213-6.507 13.013-4.587l53.12 21.44c10.987-8.426 23.040-15.574 36.053-21.014l8-56.534c0.853-5.014 5.226-8.96 10.56-8.96h85.334c5.334 0 9.707 3.947 10.56 8.96l8 56.534c13.014 5.44 25.067 12.48 36.053 21.014l53.12-21.44c4.8-1.813 10.346 0 13.014 4.587l42.666 73.92c2.666 4.587 1.493 10.346-2.56 13.654l-45.014 35.307zM256 138.667c-41.28 0-74.666 33.387-74.666 74.666s33.387 74.666 74.666 74.666 74.666-33.386 74.666-74.666-33.387-74.666-74.666-74.666z" />
<glyph unicode="&#xe607;" d="M64 213.333c0-47.147 19.413-89.6 50.24-120.427l-50.24-50.24h128v128l-47.68-47.68c-23.254 23.147-37.654 55.040-37.654 90.346 0 55.68 35.626 102.933 85.334 120.534v44.587c-73.6-18.986-128-85.654-128-165.12zM234.667 106.667h42.667v42.666h-42.666v-42.666zM448 384h-128v-128l47.68 47.68c23.253-23.147 37.654-55.040 37.654-90.347 0-55.68-35.627-102.933-85.334-120.534v-44.48c73.6 18.88 128 85.546 128 165.014 0 47.147-19.413 89.6-50.24 120.427l50.24 50.24zM234.667 192h42.667v128h-42.666v-128z" />
<glyph unicode="&#xe608;" d="M405.334 332.48l-30.187 30.187-119.147-119.147-119.147 119.147-30.186-30.187 119.147-119.147-119.147-119.147 30.186-30.187 119.147 119.147 119.147-119.147 30.187 30.187-119.147 119.147z" />
<glyph unicode="&#xe609;" d="M328.853 311.147l-30.187 30.187-128-128 128-128 30.187 30.187-97.814 97.814z" />
<glyph unicode="&#xe60a;" d="M256 384l-30.186-30.186 119.147-119.146h-259.627v-42.667h259.627l-119.147-119.147 30.187-30.187 170.666 170.667z" />
<glyph unicode="&#xe60b;" d="M64 85.333h384v42.666h-384v-42.666zM64 192h384v42.667h-384v-42.667zM64 341.333v-42.667h384v42.667h-384z" />
<glyph unicode="&#xe60c;" d="M128 256c-23.573 0-42.666-19.094-42.666-42.667s19.093-42.666 42.666-42.666 42.666 19.094 42.666 42.666-19.094 42.667-42.666 42.667zM384 256c-23.574 0-42.666-19.094-42.666-42.667s19.094-42.666 42.666-42.666 42.666 19.094 42.666 42.666-19.094 42.667-42.666 42.667zM256 256c-23.573 0-42.666-19.094-42.666-42.667s19.094-42.666 42.666-42.666 42.666 19.094 42.666 42.666-19.094 42.667-42.666 42.667z" />
<glyph unicode="&#xe60d;" d="M256 298.667c23.574 0 42.666 19.094 42.666 42.667s-19.094 42.666-42.666 42.666-42.666-19.093-42.666-42.666 19.094-42.667 42.666-42.667zM256 256c-23.573 0-42.666-19.094-42.666-42.667s19.094-42.666 42.666-42.666 42.666 19.094 42.666 42.666-19.094 42.667-42.666 42.667zM256 128c-23.573 0-42.666-19.094-42.666-42.666s19.094-42.666 42.666-42.666 42.666 19.094 42.666 42.666-19.094 42.666-42.666 42.666z" />
<glyph unicode="&#xe60e;" d="M256 384v64l-85.334-85.334 85.334-85.333v64c70.72 0 128-57.28 128-128 0-21.654-5.44-41.92-14.827-59.84l31.147-31.147c16.534 26.454 26.346 57.493 26.346 90.987 0 94.294-76.373 170.667-170.667 170.667zM256 85.333c-70.72 0-128 57.28-128 128 0 21.654 5.44 41.92 14.827 59.84l-31.147 31.147c-16.534-26.453-26.346-57.494-26.346-90.987 0-94.293 76.374-170.667 170.666-170.667v-64l85.334 85.334-85.334 85.334v-64z" />
<glyph unicode="&#xe60f;" d="M213.333 341.333l-30.186-30.187 97.814-97.814-97.814-97.813 30.186-30.187 128 128z" />
<glyph unicode="&#xe610;" d="M256 298.667l-128-128 30.186-30.187 97.814 97.814 97.813-97.814 30.187 30.187z" />
<glyph unicode="&#xe611;" d="M353.813 286.187l-97.814-97.814-97.814 97.814-30.186-30.187 128-128 128 128z" />
<glyph unicode="&#xe612;" d="M256 100.907l131.84-79.574-34.986 149.974 116.48 100.907-153.387 13.013-59.947 141.44-59.947-141.44-153.387-13.013 116.48-100.907-34.987-149.974z" />
<glyph unicode="&#xe613;" d="M469.334 272.213l-153.387 13.226-59.947 141.226-59.947-141.44-153.387-13.013 116.48-100.907-34.987-149.974 131.84 79.574 131.84-79.573-34.774 149.974 116.267 100.907zM256 140.8l-80.214-48.426 21.334 91.306-70.826 61.44 93.44 8.107 36.267 85.974 36.48-86.186 93.44-8.107-70.827-61.44 21.334-91.307-80.427 48.64z" />
</font>
</defs>
</svg>
